  0
SECTION
  2
HEADER
  9
$ACADVER
  1
AC1015
  9
$ACADMAINTVER
 70
    20
  9
$DWGCODEPAGE
  3
ANSI_1252
  9
$INSBASE
 10
0.0
 20
0.0
 30
0.0
  9
$EXTMIN
 10
-0.1977419517950523
 20
-0.6673535674000349
 30
-0.0000000000022888
  9
$EXTMAX
 10
16.80421373809815
 20
10.33423949486102
 30
0.0000000000022888
  9
$LIMMIN
 10
0.0
 20
0.0
  9
$LIMMAX
 10
12.0
 20
9.0
  9
$ORTHOMODE
 70
     0
  9
$REGENMODE
 70
     1
  9
$FILLMODE
 70
     1
  9
$QTEXTMODE
 70
     0
  9
$MIRRTEXT
 70
     1
  9
$LTSCALE
 40
1.0
  9
$ATTMODE
 70
     1
  9
$TEXTSIZE
 40
0.125
  9
$TRACEWID
 40
0.05
  9
$TEXTSTYLE
  7
Standard
  9
$CLAYER
  8
0
  9
$CELTYPE
  6
ByLayer
  9
$CECOLOR
 62
     1
  9
$CELTSCALE
 40
1.0
  9
$DISPSILH
 70
     0
  9
$DIMSCALE
 40
1.0
  9
$DIMASZ
 40
0.125
  9
$DIMEXO
 40
0.0625
  9
$DIMDLI
 40
0.38
  9
$DIMRND
 40
0.0
  9
$DIMDLE
 40
0.0
  9
$DIMEXE
 40
0.0625
  9
$DIMTP
 40
0.0
  9
$DIMTM
 40
0.0
  9
$DIMTXT
 40
0.125
  9
$DIMCEN
 40
0.09
  9
$DIMTSZ
 40
0.0
  9
$DIMTOL
 70
     0
  9
$DIMLIM
 70
     0
  9
$DIMTIH
 70
     1
  9
$DIMTOH
 70
     1
  9
$DIMSE1
 70
     0
  9
$DIMSE2
 70
     0
  9
$DIMTAD
 70
     0
  9
$DIMZIN
 70
     0
  9
$DIMBLK
  1

  9
$DIMASO
 70
     1
  9
$DIMSHO
 70
     1
  9
$DIMPOST
  1

  9
$DIMAPOST
  1

  9
$DIMALT
 70
     0
  9
$DIMALTD
 70
     2
  9
$DIMALTF
 40
25.4
  9
$DIMLFAC
 40
1.0
  9
$DIMTOFL
 70
     0
  9
$DIMTVP
 40
0.0
  9
$DIMTIX
 70
     0
  9
$DIMSOXD
 70
     0
  9
$DIMSAH
 70
     0
  9
$DIMBLK1
  1

  9
$DIMBLK2
  1

  9
$DIMSTYLE
  2
Standard
  9
$DIMCLRD
 70
     0
  9
$DIMCLRE
 70
     0
  9
$DIMCLRT
 70
     0
  9
$DIMTFAC
 40
1.0
  9
$DIMGAP
 40
0.09
  9
$DIMJUST
 70
     0
  9
$DIMSD1
 70
     0
  9
$DIMSD2
 70
     0
  9
$DIMTOLJ
 70
     1
  9
$DIMTZIN
 70
     0
  9
$DIMALTZ
 70
     0
  9
$DIMALTTZ
 70
     0
  9
$DIMUPT
 70
     1
  9
$DIMDEC
 70
     4
  9
$DIMTDEC
 70
     4
  9
$DIMALTU
 70
     2
  9
$DIMALTTD
 70
     2
  9
$DIMTXSTY
  7
Standard
  9
$DIMAUNIT
 70
     0
  9
$DIMADEC
 70
     0
  9
$DIMALTRND
 40
0.0
  9
$DIMAZIN
 70
     0
  9
$DIMDSEP
 70
    46
  9
$DIMATFIT
 70
     3
  9
$DIMFRAC
 70
     0
  9
$DIMLDRBLK
  1

  9
$DIMLUNIT
 70
     5
  9
$DIMLWD
 70
    -2
  9
$DIMLWE
 70
    -2
  9
$DIMTMOVE
 70
     0
  9
$LUNITS
 70
     2
  9
$LUPREC
 70
     4
  9
$SKETCHINC
 40
0.1
  9
$FILLETRAD
 40
0.0
  9
$AUNITS
 70
     0
  9
$AUPREC
 70
     0
  9
$MENU
  1
.
  9
$ELEVATION
 40
0.0
  9
$PELEVATION
 40
0.0
  9
$THICKNESS
 40
0.0
  9
$LIMCHECK
 70
     0
  9
$CHAMFERA
 40
0.5
  9
$CHAMFERB
 40
0.5
  9
$CHAMFERC
 40
1.0
  9
$CHAMFERD
 40
0.0
  9
$SKPOLY
 70
     0
  9
$TDCREATE
 40
2451767.623554144
  9
$TDUCREATE
 40
2451767.790220810
  9
$TDUPDATE
 40
2454293.729804884
  9
$TDUUPDATE
 40
2454293.896471551
  9
$TDINDWG
 40
0.9226187500
  9
$TDUSRTIMER
 40
0.9226181944
  9
$USRTIMER
 70
     1
  9
$ANGBASE
 50
0.0
  9
$ANGDIR
 70
     0
  9
$PDMODE
 70
     0
  9
$PDSIZE
 40
0.0
  9
$PLINEWID
 40
0.0
  9
$SPLFRAME
 70
     0
  9
$SPLINETYPE
 70
     6
  9
$SPLINESEGS
 70
     8
  9
$HANDSEED
  5
853
  9
$SURFTAB1
 70
     6
  9
$SURFTAB2
 70
     6
  9
$SURFTYPE
 70
     6
  9
$SURFU
 70
     6
  9
$SURFV
 70
     6
  9
$UCSBASE
  2

  9
$UCSNAME
  2

  9
$UCSORG
 10
0.0
 20
0.0
 30
0.0
  9
$UCSXDIR
 10
1.0
 20
0.0
 30
0.0
  9
$UCSYDIR
 10
0.0
 20
1.0
 30
0.0
  9
$UCSORTHOREF
  2

  9
$UCSORTHOVIEW
 70
     0
  9
$UCSORGTOP
 10
0.0
 20
0.0
 30
0.0
  9
$UCSORGBOTTOM
 10
0.0
 20
0.0
 30
0.0
  9
$UCSORGLEFT
 10
0.0
 20
0.0
 30
0.0
  9
$UCSORGRIGHT
 10
0.0
 20
0.0
 30
0.0
  9
$UCSORGFRONT
 10
0.0
 20
0.0
 30
0.0
  9
$UCSORGBACK
 10
0.0
 20
0.0
 30
0.0
  9
$PUCSBASE
  2

  9
$PUCSNAME
  2

  9
$PUCSORG
 10
0.0
 20
0.0
 30
0.0
  9
$PUCSXDIR
 10
1.0
 20
0.0
 30
0.0
  9
$PUCSYDIR
 10
0.0
 20
1.0
 30
0.0
  9
$PUCSORTHOREF
  2

  9
$PUCSORTHOVIEW
 70
     0
  9
$PUCSORGTOP
 10
0.0
 20
0.0
 30
0.0
  9
$PUCSORGBOTTOM
 10
0.0
 20
0.0
 30
0.0
  9
$PUCSORGLEFT
 10
0.0
 20
0.0
 30
0.0
  9
$PUCSORGRIGHT
 10
0.0
 20
0.0
 30
0.0
  9
$PUCSORGFRONT
 10
0.0
 20
0.0
 30
0.0
  9
$PUCSORGBACK
 10
0.0
 20
0.0
 30
0.0
  9
$USERI1
 70
     0
  9
$USERI2
 70
     0
  9
$USERI3
 70
     0
  9
$USERI4
 70
     0
  9
$USERI5
 70
     0
  9
$USERR1
 40
0.0
  9
$USERR2
 40
0.0
  9
$USERR3
 40
0.0
  9
$USERR4
 40
0.0
  9
$USERR5
 40
0.0
  9
$WORLDVIEW
 70
     1
  9
$SHADEDGE
 70
     3
  9
$SHADEDIF
 70
    70
  9
$TILEMODE
 70
     1
  9
$MAXACTVP
 70
    64
  9
$PINSBASE
 10
0.0
 20
0.0
 30
0.0
  9
$PLIMCHECK
 70
     0
  9
$PEXTMIN
 10
-0.1972183653293129
 20
-0.667137473205937
 30
-0.0000000000000152
  9
$PEXTMAX
 10
16.80381923232815
 20
10.33353391351359
 30
0.0000000000000001
  9
$PLIMMIN
 10
-0.1966666612099475
 20
-0.6666661810687208
  9
$PLIMMAX
 10
16.7999999541936
 20
10.32666656914658
  9
$UNITMODE
 70
     0
  9
$VISRETAIN
 70
     1
  9
$PLINEGEN
 70
     0
  9
$PSLTSCALE
 70
     1
  9
$TREEDEPTH
 70
  3020
  9
$CMLSTYLE
  2
Standard
  9
$CMLJUST
 70
     0
  9
$CMLSCALE
 40
1.0
  9
$PROXYGRAPHICS
 70
     1
  9
$MEASUREMENT
 70
     0
  9
$CELWEIGHT
370
    -1
  9
$ENDCAPS
280
     0
  9
$JOINSTYLE
280
     0
  9
$LWDISPLAY
290
     0
  9
$INSUNITS
 70
     1
  9
$HYPERLINKBASE
  1

  9
$STYLESHEET
  1

  9
$XEDIT
290
     1
  9
$CEPSNTYPE
380
     0
  9
$PSTYLEMODE
290
     1
  9
$FINGERPRINTGUID
  2
{9A52C1FB-9547-410E-B7FA-8B4968B50376}
  9
$VERSIONGUID
  2
{116B3402-EDFF-47CD-9240-5E8ADC9A42B4}
  9
$EXTNAMES
290
     1
  9
$PSVPSCALE
 40
0.0
  9
$OLESTARTUP
290
     0
  0
ENDSEC
  0
SECTION
  2
CLASSES
  0
CLASS
  1
ACDBDICTIONARYWDFLT
  2
AcDbDictionaryWithDefault
  3
ObjectDBX Classes
 90
        0
280
     0
281
     0
  0
CLASS
  1
ACDBPLACEHOLDER
  2
AcDbPlaceHolder
  3
ObjectDBX Classes
 90
        0
280
     0
281
     0
  0
CLASS
  1
LAYOUT
  2
AcDbLayout
  3
ObjectDBX Classes
 90
        0
280
     0
281
     0
  0
CLASS
  1
ACME_DOCUMENT
  2
AcMeDbDoc
  3
AcMeServices
 90
        0
280
     0
281
     0
  0
CLASS
  1
ACMESCOPE
  2
AcMeScope
  3
AcMeServices
 90
        0
280
     0
281
     0
  0
CLASS
  1
ACMECOMMANDHISTORY
  2
AcMeCommandHistory
  3
AcMeServices
 90
        0
280
     0
281
     0
  0
CLASS
  1
DICTIONARYVAR
  2
AcDbDictionaryVar
  3
ObjectDBX Classes
 90
        0
280
     0
281
     0
  0
CLASS
  1
ACIMSYSVARMAN
  2
AcImSysVarManager
  3
AcMeServices
 90
        0
280
     0
281
     0
  0
CLASS
  1
ACIMREALSYSVAR
  2
AcImRealSysVar
  3
AcMeServices
 90
        0
280
     0
281
     0
  0
CLASS
  1
ACIMINTSYSVAR
  2
AcImIntSysVar
  3
AcMeServices
 90
        0
280
     0
281
     0
  0
CLASS
  1
ACMEDRAWINGMAN
  2
AcMeDrawingMan
  3
AcMeServices
 90
        0
280
     0
281
     0
  0
CLASS
  1
ACMEVIEW
  2
AcMeView
  3
AcMeServices
 90
        0
280
     0
281
     0
  0
CLASS
  1
ACDBENTITYCACHE
  2
AcMeEntityCache
  3
AcMeServices
 90
        0
280
     0
281
     0
  0
CLASS
  1
GSMANAGER
  2
AcMeGSManager
  3
AcMeServices
 90
        0
280
     0
281
     0
  0
CLASS
  1
AMDTINTERNALREACTOR
  2
AmdtInternalReactor
  3
AcMeServices
 90
        0
280
     0
281
     0
  0
CLASS
  1
ACMESTATEMGR
  2
AcMeStateMgr
  3
AcMeServices
 90
        0
280
     0
281
     0
  0
CLASS
  1
ACGREFMASTER
  2
AcGrefMaster
  3
AcAttribServices
 90
        0
280
     0
281
     0
  0
CLASS
  1
AM_DRAWING_MGR
  2
AcDmDwgMgr
  3
AcMechDwgViewMgmt
 90
        0
280
     0
281
     0
  0
CLASS
  1
AM_DWG_DOCUMENT
  2
AcDmDwgDocument
  3
AcMechDwgViewMgmt
 90
        0
280
     0
281
     0
  0
CLASS
  1
AM_DWG_SHEET
  2
AcDmSheet
  3
AcMechDwgViewMgmt
 90
        0
280
     0
281
     0
  0
CLASS
  1
AM_VIEWDIMPARMAP
  2
AcDmViewDimParMap
  3
AcMechDwgViewMgmt
 90
        0
280
     0
281
     0
  0
CLASS
  1
AM_DWGMGR_NAME
  2
AcDmDwgMgrName
  3
AcMechDwgViewMgmt
 90
        0
280
     0
281
     0
  0
CLASS
  1
ACME_DATABASE
  2
AcMeDbDatabase
  3
AcMeServices
 90
        0
280
     0
281
     0
  0
CLASS
  1
ACRFINSADJUSTERMGR
  2
AcRfInsAdjusterMgr
  3
AcMeServices
 90
        0
280
     0
281
     0
  0
CLASS
  1
ACGREFACADMASTER
  2
AcGrefacadMaster
  3
AcGrefServices
 90
        0
280
     0
281
     0
  0
CLASS
  1
AMDTMENUSTATEMGR
  2
AmdtMenuStateMgr
  3
McadcomServices
 90
        0
280
     0
281
     0
  0
CLASS
  1
AMDTMCOMMENUSTATE
  2
AmdtMcomMenuState
  3
McadcomServices
 90
        0
280
     0
281
     0
  0
CLASS
  1
ASAPP
  2
AcAsAppObject
  3
AutoSurfServices
 90
        0
280
     0
281
     0
  0
CLASS
  1
IM_STATIC_MAN
  2
AcImStaticVarManager
  3
AcMeServices
 90
        0
280
     0
281
     0
  0
CLASS
  1
ACIMSTRSYSVAR
  2
AcImStrSysVar
  3
AcMeServices
 90
        0
280
     0
281
     0
  0
CLASS
  1
ACIMDBLSTATICVAR
  2
AcImDblStaticVar
  3
AcMeServices
 90
        0
280
     0
281
     0
  0
CLASS
  1
ACIMSTRSTATICVAR
  2
AcImStrStaticVar
  3
AcMeServices
 90
        0
280
     0
281
     0
  0
CLASS
  1
ACIMINTSTATICVAR
  2
AcImIntStaticVar
  3
AcMeServices
 90
        0
280
     0
281
     0
  0
CLASS
  1
ACADGREFMODULE
  2
AcAdGrefModule
  3
AdGrefServices
 90
        0
280
     0
281
     0
  0
CLASS
  1
AMIMASTER
  2
AmiMaster
  3
AmiServices
 90
        0
280
     0
281
     0
  0
CLASS
  1
ACASGREFMASTER
  2
AcAsGrefMaster
  3
AutoSurfResolverServices
 90
        0
280
     0
281
     0
  0
CLASS
  1
MAPIAMMOUDLE
  2
MApiAmModule
  3
MApiAmServices
 90
        0
280
     0
281
     0
  0
CLASS
  1
AMDTDMMENUSTATE
  2
AmdtDmMenuState
  3
AcMechDwgViewMgmt
 90
        0
280
     0
281
     0
  0
CLASS
  1
AMDTADMENUSTATE
  2
AmdtAdMenuState
  3
DesignerServices
 90
        0
280
     0
281
     0
  0
CLASS
  1
ADAPPL
  2
AcAdAppl
  3
DesignerServices
 90
        0
280
     0
281
     0
  0
CLASS
  1
DEPMGR
  2
AcAdDepMgr
  3
DesignerServices
 90
        0
280
     0
281
     0
  0
CLASS
  1
PARAMMGR
  2
AcAdParamMgr
  3
DesignerServices
 90
        0
280
     0
281
     0
  0
CLASS
  1
PARAMSCOPE
  2
AcAdParamScope
  3
DesignerServices
 90
        0
280
     0
281
     0
  0
CLASS
  1
NAMEDAPPL
  2
AcAdNamedAppl
  3
DesignerServices
 90
        0
280
     0
281
     0
  0
CLASS
  1
ADHNTMPLT
  2
AdHoleNoteTemplateMgr
  3
DesignerServices
 90
    32768
280
     0
281
     0
  0
CLASS
  1
AM_HNTEMPLATE_MGR_NAME
  2
AdHoleNoteTemplateMgrName
  3
DesignerServices
 90
    32768
280
     0
281
     0
  0
CLASS
  1
AMDTAMMENUSTATE
  2
AmdtAmMenuState
  3
DesignerAssemblies
 90
        0
280
     0
281
     0
  0
CLASS
  1
ACAMPROJECT
  2
AcAmProject
  3
DesignerAssemblies
 90
        0
280
     0
281
     0
  0
CLASS
  1
ACAMGRCOMPDEF
  2
AcAmGrCompDef
  3
DesignerAssemblies
 90
        0
280
     0
281
     0
  0
CLASS
  1
ACCMCONTEXT
  2
AcCmContext
  3
DesignerAssemblies
 90
        0
280
     0
281
     0
  0
CLASS
  1
ACAMCOMPDEF
  2
AcAmCompDef
  3
DesignerAssemblies
 90
        0
280
     0
281
     0
  0
CLASS
  1
ACAMCOMPDEFMGR
  2
AcAmCompDefMgr
  3
DesignerAssemblies
 90
        0
280
     0
281
     0
  0
CLASS
  1
AMCONTEXTMGR
  2
AcAmContextMgr
  3
DesignerAssemblies
 90
        0
280
     0
281
     0
  0
CLASS
  1
ACAMCONTEXTMODELER
  2
AcAmContextModeler
  3
DesignerAssemblies
 90
        0
280
     0
281
     0
  0
CLASS
  1
MAPIADMODULE
  2
MApiAdModule
  3
MApiAdServices
 90
        0
280
     0
281
     0
  0
CLASS
  1
ACMDATADICTIONARY
  2
AcmDataDictionary
  3
"AcmSymBB|Product Description: AutoCAD Mechanical 2004 DX|Company: Autodesk"
 90
        0
280
     0
281
     0
  0
CLASS
  1
ACMDATAENTRYBLOCK
  2
AcmDataEntryBlock
  3
"AcmSymBB|Product Description: AutoCAD Mechanical 2004 DX|Company: Autodesk"
 90
        0
280
     0
281
     0
  0
CLASS
  1
AMDTBROWSERDBTAB
  2
AmdtBrowserDbTab
  3
McadcomServices
 90
        0
280
     0
281
     0
  0
CLASS
  1
CBROWSERAPPOBJECT
  2
CBrowserAppObject
  3
McadcomServices
 90
        0
280
     0
281
     0
  0
CLASS
  1
DM_PLACEHOLDER
  2
AcDmSelsetPlaceholder
  3
AcMechDwgViewMgmt
 90
        0
280
     0
281
     0
  0
CLASS
  1
CATALOGSTATE
  2
AcAmCatalogState
  3
DesignerAssemblies
 90
        0
280
     0
281
     0
  0
CLASS
  1
ACAMGRCOMPDEFSET
  2
AcAmGrCompDefSet
  3
DesignerAssemblies
 90
        0
280
     0
281
     0
  0
CLASS
  1
AMGOBJPROPCFG
  2
AmgObjPropCfg
  3
"AmgLay|Product Description: AutoCAD Mechanical 2000|Company: Autodesk"
 90
        1
280
     0
281
     0
  0
CLASS
  1
LAYER_INDEX
  2
AcDbLayerIndex
  3
ObjectDBX Classes
 90
        0
280
     0
281
     0
  0
CLASS
  1
IDBUFFER
  2
AcDbIdBuffer
  3
ObjectDBX Classes
 90
        0
280
     0
281
     0
  0
CLASS
  1
ACRFATTGENMGR
  2
AcRfAttGeneralMgr
  3
AcAttribServices
 90
    32768
280
     0
281
     0
  0
CLASS
  1
ACAMCOMPENT
  2
AcAmCompEnt
  3
DesignerAssemblies
 90
    32768
280
     0
281
     1
  0
CLASS
  1
ADPART
  2
AcAdPart
  3
DesignerServices
 90
    32768
280
     0
281
     1
  0
CLASS
  1
ACAMCOMPENTCLONE
  2
AcAmCompEntClone
  3
DesignerAssemblies
 90
    32768
280
     0
281
     1
  0
CLASS
  1
WORKPLANEDISPLAYMGR
  2
AcAdDisplayMgr
  3
DesignerServices
 90
    32768
280
     0
281
     0
  0
CLASS
  1
ADBASE
  2
AcAdBase
  3
DesignerServices
 90
    32768
280
     0
281
     0
  0
CLASS
  1
ADDATUMPLANEABS
  2
AcAdDatumPlaneAbs
  3
DesignerServices
 90
    32768
280
     0
281
     0
  0
CLASS
  1
ADDATUMAXISABS
  2
AcAdDatumAxisAbs
  3
DesignerServices
 90
    32768
280
     0
281
     0
  0
CLASS
  1
PARAM
  2
AcAdParam
  3
DesignerServices
 90
    32768
280
     0
281
     0
  0
CLASS
  1
BODYID
  2
AcAdBodyId
  3
DesignerServices
 90
    32768
280
     0
281
     0
  0
CLASS
  1
ADDATUMORIENTEDPLANE
  2
AcAdDatumOrientedPlane
  3
DesignerServices
 90
    32768
280
     0
281
     0
  0
CLASS
  1
ACADCONSGROUP
  2
AcAdConstraintGroup
  3
DesignerServices
 90
    32768
280
     0
281
     0
  0
CLASS
  1
ACADREFLINEACAD
  2
AcAdVirtualReferenceLine
  3
DesignerServices
 90
    32768
280
     0
281
     0
  0
CLASS
  1
ACADCONSLINE
  2
AcAdConstrainedLine
  3
DesignerServices
 90
    32768
280
     0
281
     0
  0
CLASS
  1
ACADLINEACAD
  2
AcAdVirtualBoundedLineAcad
  3
DesignerServices
 90
    32768
280
     0
281
     0
  0
CLASS
  1
ACADCONSPOINT
  2
AcAdConstrainedPoint
  3
DesignerServices
 90
    32768
280
     0
281
     0
  0
CLASS
  1
ADPCURCNS
  2
AcAdPointCurveConstr
  3
DesignerServices
 90
    32768
280
     0
281
     0
  0
CLASS
  1
ADHORCNS
  2
AcAdHorizontalConstr
  3
DesignerServices
 90
    32768
280
     0
281
     0
  0
CLASS
  1
ADVERCNS
  2
AcAdVerticalConstr
  3
DesignerServices
 90
    32768
280
     0
281
     0
  0
CLASS
  1
ADCOLNCNS
  2
AcAdColinearConstr
  3
DesignerServices
 90
    32768
280
     0
281
     0
  0
CLASS
  1
ACAD_FIXCONSTRAINT
  2
AcAdFixedConstraint
  3
DesignerServices
 90
    32768
280
     0
281
     0
  0
CLASS
  1
ACADIMPPTACAD
  2
AcAdVirtualImplicitPoint
  3
DesignerServices
 90
    32768
280
     0
281
     0
  0
CLASS
  1
ADCLPROF2D
  2
AcAdClosedProfile2d
  3
DesignerServices
 90
    32768
280
     0
281
     0
  0
CLASS
  1
DEPEDGEFEATUREORDERING
  2
AcAdDepEdgeFeatureOrdering
  3
DesignerServices
 90
    32768
280
     0
281
     0
  0
CLASS
  1
ACADVOLFEATWITHTRIM
  2
AcAdVolFeatWithTrim
  3
DesignerServices
 90
    32768
280
     0
281
     0
  0
CLASS
  1
ADPLANEID
  2
AcAdPlaneId
  3
DesignerServices
 90
    32768
280
     0
281
     0
  0
CLASS
  1
ADDATUMPLANEFACE
  2
AcAdDatumPlaneFace
  3
DesignerServices
 90
    32768
280
     0
281
     0
  0
CLASS
  1
ADPARCNS
  2
AcAdParallelConstr
  3
DesignerServices
 90
    32768
280
     0
281
     0
  0
CLASS
  1
ACADCIRCLEACAD
  2
AcAdVirtualCircleAcad
  3
DesignerServices
 90
    32768
280
     0
281
     0
  0
CLASS
  1
ACADCONSCIRCLE
  2
AcAdConstrainedCircle
  3
DesignerServices
 90
    32768
280
     0
281
     0
  0
CLASS
  1
ADCTRPTCNS
  2
AcAdCenterPointConstr
  3
DesignerServices
 90
    32768
280
     0
281
     0
  0
CLASS
  1
ACADARCACAD
  2
AcAdVirtualArcAcad
  3
DesignerServices
 90
    32768
280
     0
281
     0
  0
CLASS
  1
ADCONCCNS
  2
AcAdConcentricConstr
  3
DesignerServices
 90
    32768
280
     0
281
     0
  0
CLASS
  1
ADEQRADCNS
  2
AcAdEqualRadiusConstr
  3
DesignerServices
 90
    32768
280
     0
281
     0
  0
CLASS
  1
EDGEID
  2
AcAdEdgeId
  3
DesignerServices
 90
    32768
280
     0
281
     0
  0
CLASS
  1
DEPEDGESECONDARYDEPID
  2
AcAdDepEdgeSecondaryDepId
  3
DesignerServices
 90
    32768
280
     0
281
     0
  0
CLASS
  1
ADFILLET
  2
AcAdFillet
  3
DesignerServices
 90
    32768
280
     0
281
     0
  0
CLASS
  1
ADTANCNS
  2
AcAdTangentConstr
  3
DesignerServices
 90
    32768
280
     0
281
     0
  0
CLASS
  1
ACAMCOMP
  2
AcAmComp
  3
DesignerAssemblies
 90
    32768
280
     0
281
     0
  0
CLASS
  1
ACAMCOMPFEEDBACK
  2
AcAmCompFeedback
  3
DesignerAssemblies
 90
    32768
280
     0
281
     0
  0
CLASS
  1
ACCMBODY
  2
AcCmBody
  3
DesignerAssemblies
 90
    32768
280
     0
281
     0
  0
CLASS
  1
ACAMCLONEREACTOR
  2
AcAmGrCompCloneReactor
  3
DesignerAssemblies
 90
    32768
280
     0
281
     0
  0
CLASS
  1
ACAMCLONECHILDREACTOR
  2
AcAmGrCloneChildReactor
  3
DesignerAssemblies
 90
    32768
280
     0
281
     0
  0
CLASS
  1
AM_VIEW_SELECT_FILTER
  2
AcDmSelectViewEntFilter
  3
AcMechDwgViewMgmt
 90
    32768
280
     0
281
     0
  0
CLASS
  1
ACDBSOLPLANERES
  2
AcDbSolPlaneRes
  3
AcGrefServices
 90
    32768
280
     0
281
     0
  0
CLASS
  1
AM_GREF_PLANE
  2
AcDmGrefPlnDef
  3
AcMechDwgViewMgmt
 90
    32768
280
     0
281
     0
  0
CLASS
  1
AM_ABS_AXIS
  2
AcDmAbsAxisDef
  3
AcMechDwgViewMgmt
 90
    32768
280
     0
281
     0
  0
CLASS
  1
AM_BASE_VIEW_ORIENT
  2
AcDmBaseViewOr
  3
AcMechDwgViewMgmt
 90
    32768
280
     0
281
     0
  0
CLASS
  1
ACMELINEARARROW
  2
AcImLinearArrowDisplay
  3
AcMeServices
 90
    32768
280
     0
281
     1
  0
CLASS
  1
AM_DWG_VIEWPORT
  2
AcDmViewport
  3
AcMechDwgViewMgmt
 90
    32768
280
     0
281
     0
  0
CLASS
  1
AM_VIEW_DISPLAY
  2
AcDmDwgViewDisplay
  3
AcMechDwgViewMgmt
 90
    32768
280
     0
281
     0
  0
CLASS
  1
AM_CLDFLTS
  2
AcDmClDflts
  3
AcMechDwgViewMgmt
 90
    32768
280
     0
281
     0
  0
CLASS
  1
AM_BASE_VIEW
  2
AcDmBaseView
  3
AcMechDwgViewMgmt
 90
    32768
280
     0
281
     0
  0
CLASS
  1
ACDMVWEDLINE
  2
AcDmViewEdgeLine
  3
AcMechDwgViewMgmt
 90
    32768
280
     0
281
     1
  0
CLASS
  1
ACDMVWEDARC
  2
AcDmViewEdgeArc
  3
AcMechDwgViewMgmt
 90
    32768
280
     0
281
     1
  0
CLASS
  1
ACDMVWEDSPLINE
  2
AcDmViewEdgeSpline
  3
AcMechDwgViewMgmt
 90
    32768
280
     0
281
     1
  0
CLASS
  1
ACDMVWEDELLIPSE
  2
AcDmViewEdgeEllipse
  3
AcMechDwgViewMgmt
 90
    32768
280
     0
281
     1
  0
CLASS
  1
AM_ORTHO_VIEW_ORIENT
  2
AcDmOrthoViewOr
  3
AcMechDwgViewMgmt
 90
    32768
280
     0
281
     0
  0
CLASS
  1
AM_ORTHO_VIEW
  2
AcDmOrthoView
  3
AcMechDwgViewMgmt
 90
    32768
280
     0
281
     0
  0
CLASS
  1
ACDMVWEDCIRC
  2
AcDmViewEdgeCircle
  3
AcMechDwgViewMgmt
 90
    32768
280
     0
281
     1
  0
CLASS
  1
AM_ISO_VIEW_ORIENT
  2
AcDmIsoViewOr
  3
AcMechDwgViewMgmt
 90
    32768
280
     0
281
     0
  0
CLASS
  1
AM_ISO_VIEW
  2
AcDmIsoView
  3
AcMechDwgViewMgmt
 90
    32768
280
     0
281
     0
  0
CLASS
  1
ACDMVIEWGEOM
  2
AcDmViewGeometry
  3
AcMechDwgViewMgmt
 90
    32768
280
     0
281
     1
  0
CLASS
  1
ACMBOM
  2
AcmBom
  3
"AcmSymBB|Product Description: AutoCAD Mechanical 2004 DX|Company: Autodesk"
 90
    32768
280
     0
281
     0
  0
CLASS
  1
ACMBOMROW
  2
AcmBomRow
  3
"AcmSymBB|Product Description: AutoCAD Mechanical 2004 DX|Company: Autodesk"
 90
    32768
280
     0
281
     0
  0
CLASS
  1
ACMSTANDARDANSI
  2
AcmStandardANSI
  3
"Amdt_StdImp|Product Description: AutoCAD Mechanical 2004 DX|Company: Autodesk"
 90
        0
280
     0
281
     0
  0
CLASS
  1
ACMSURFSTANDARDANSI
  2
AcmSurfTextStdANSI
  3
"Amdt_StdImp|Product Description: AutoCAD Mechanical 2004 DX|Company: Autodesk"
 90
        0
280
     0
281
     0
  0
CLASS
  1
ACMFCFSTANDARDANSI
  2
AcmFCFStdANSI
  3
"Amdt_StdImp|Product Description: AutoCAD Mechanical 2004 DX|Company: Autodesk"
 90
        0
280
     0
281
     0
  0
CLASS
  1
ACMWELDSTANDARDANSI
  2
AcmWeldingStdANSI
  3
"Amdt_StdImp|Product Description: AutoCAD Mechanical 2004 DX|Company: Autodesk"
 90
        0
280
     0
281
     0
  0
CLASS
  1
ACMIDSTANDARDANSI
  2
AcmIdStdANSI
  3
"Amdt_StdImp|Product Description: AutoCAD Mechanical 2004 DX|Company: Autodesk"
 90
        0
280
     0
281
     0
  0
CLASS
  1
ACMDATUMSTANDARDANSI
  2
AcmDatumStdANSI
  3
"Amdt_StdImp|Product Description: AutoCAD Mechanical 2004 DX|Company: Autodesk"
 90
        0
280
     0
281
     0
  0
CLASS
  1
ACMBOMSTANDARDANSI
  2
AcmBOMStdANSI
  3
"Amdt_StdImp|Product Description: AutoCAD Mechanical 2004 DX|Company: Autodesk"
 90
        0
280
     0
281
     0
  0
CLASS
  1
ACMDATAENTRYPART
  2
AcmDataEntryPart
  3
"AcmSymBB|Product Description: AutoCAD Mechanical 2004 DX|Company: Autodesk"
 90
    32768
280
     0
281
     0
  0
CLASS
  1
ACMPARTREF
  2
AcmPartRef
  3
"AcmSymBB|Product Description: AutoCAD Mechanical 2004 DX|Company: Autodesk"
 90
    33791
280
     0
281
     1
  0
CLASS
  1
ACMBALLOON
  2
AcmBalloon
  3
"AcmSymBB|Product Description: AutoCAD Mechanical 2004 DX|Company: Autodesk"
 90
    33791
280
     0
281
     1
  0
CLASS
  1
AMGSETTINGSOBJ
  2
AmgSettingsObj
  3
"AcadM|Product Description: AutoCAD Mechanical 2000|Company: Autodesk"
 90
        0
280
     0
281
     0
  0
CLASS
  1
AMDTMAPISURFMOUDULE
  2
AmdtMApiSurfModule
  3
MApiSurfServices
 90
        0
280
     0
281
     0
  0
CLASS
  1
ACDMPARTVIEWDATA
  2
AcDmPartViewData
  3
AcMechDwgViewMgmt
 90
    32768
280
     0
281
     0
  0
CLASS
  1
ACDMDISPLAYATTRIBS
  2
AcDmDisplayAttribs
  3
AcMechDwgViewMgmt
 90
    32768
280
     0
281
     0
  0
CLASS
  1
ACDMBODYINSTANCEDATA
  2
AcDmBodyInstanceData
  3
AcMechDwgViewMgmt
 90
    32768
280
     0
281
     0
  0
CLASS
  1
ACRFINSADJ
  2
AcRfInsAdjuster
  3
AcMeServices
 90
    32768
280
     0
281
     0
  0
CLASS
  1
AMDTFORMULAUPDATEDISPATCHER
  2
AmdtFormulaUpdateDispatcher
  3
AcMeServices
 90
    32768
280
     0
281
     0
  0
CLASS
  1
ACAMGTITLESTD
  2
AcAmgTitleStd
  3
"TITLEAPP"
 90
        0
280
     0
281
     0
  0
CLASS
  1
ACMDETAILSTANDARDANSI
  2
AmdtDetailSymStdANSI
  3
"Amdt_StdImp|Product Description: AutoCAD Mechanical 2004 DX|Company: Autodesk"
 90
        0
280
     0
281
     0
  0
CLASS
  1
ACMSECTIONSTANDARDANSI
  2
AmdtSectionSymStdANSI
  3
"Amdt_StdImp|Product Description: AutoCAD Mechanical 2004 DX|Company: Autodesk"
 90
        0
280
     0
281
     0
  0
CLASS
  1
ACMCENTERLINESTANDARDANSI
  2
AmdtCenterLineStdANSI
  3
"Amdt_StdImp|Product Description: AutoCAD Mechanical 2004 DX|Company: Autodesk"
 90
        0
280
     0
281
     0
  0
CLASS
  1
ACMTHREADLINESTANDARDANSI
  2
AmdtThreadLineStdANSI
  3
"Amdt_StdImp|Product Description: AutoCAD Mechanical 2004 DX|Company: Autodesk"
 90
        0
280
     0
281
     0
  0
CLASS
  1
ACMNOTESTANDARDANSI
  2
AmdtNoteStdANSI
  3
"Amdt_StdImp|Product Description: AutoCAD Mechanical 2004 DX|Company: Autodesk"
 90
        0
280
     0
281
     0
  0
CLASS
  1
ACAMGLAYSTD
  2
AcAmgLayStd
  3
"AcAmgLayStd|Product Description: AutoCAD Mechanical 2000|Company: Autodesk"
 90
        0
280
     0
281
     0
  0
CLASS
  1
ACAMGDIMSTD
  2
AcAmgDimStd
  3
"AcAmgDimStd|Product Description: AutoCAD Mechanical 2000|Company: Autodesk"
 90
        0
280
     0
281
     0
  0
CLASS
  1
ACAMGHOLECHARTSTDANSI
  2
AcAmgHoleChartStdANSI
  3
ACMSYMBB_MODULE_NAME
 90
        0
280
     0
281
     0
  0
CLASS
  1
ACAMGFILTERDAT
  2
AcAmgFilterDat
  3
"AcadM|Product Description: AutoCAD Mechanical 2000|Company: Autodesk"
 90
        0
280
     0
281
     0
  0
CLASS
  1
ACMEPLINE
  2
AcImPlineDisplay
  3
AcMeServices
 90
    32768
280
     0
281
     1
  0
CLASS
  1
ACDBSOLLINEDGRES
  2
AcDbSolLinEdgRes
  3
AcGrefServices
 90
    32768
280
     0
281
     0
  0
CLASS
  1
AM_GREF_AXIS
  2
AcDmGrefAxisDef
  3
AcMechDwgViewMgmt
 90
    32768
280
     0
281
     0
  0
CLASS
  1
AM_ADCIRCTRLINE
  2
AcAdBullsEyeCl
  3
DesignerServices
 90
    32768
280
     0
281
     0
  0
CLASS
  1
AM_ADLINCTRLINE
  2
AcAdLineCl
  3
DesignerServices
 90
    32768
280
     0
281
     0
  0
CLASS
  1
TABLESTYLE
  2
AcDbTableStyle
  3
ObjectDBX Classes
 90
     2047
280
     0
281
     0
  0
CLASS
  1
VAACXREFPANELOBJECT
  2
VaAcXREFPanelObject
  3
VAAC_ADDIN
 90
        0
280
     0
281
     0
  0
CLASS
  1
VAACIMAGEINVENTORY
  2
VaAcImageInventory
  3
VAAC_ADDIN
 90
        0
280
     0
281
     0
  0
CLASS
  1
IMAGE
  2
AcDbRasterImage
  3
ISM
 90
      127
280
     0
281
     1
  0
CLASS
  1
IMAGEDEF_REACTOR
  2
AcDbRasterImageDefReactor
  3
ISM
 90
        1
280
     0
281
     0
  0
CLASS
  1
SORTENTSTABLE
  2
AcDbSortentsTable
  3
ObjectDBX Classes
 90
        0
280
     0
281
     0
  0
CLASS
  1
IMAGEDEF
  2
AcDbRasterImageDef
  3
ISM
 90
        0
280
     0
281
     0
  0
CLASS
  1
RASTERVARIABLES
  2
AcDbRasterVariables
  3
ISM
 90
        0
280
     0
281
     0
  0
CLASS
  1
AMDTNOTETEMPLATEDB
  2
AmdtNoteTemplateDB
  3
AMDT_STDIMP_MODULE_NAME
 90
        0
280
     0
281
     0
  0
ENDSEC
  0
SECTION
  2
TABLES
  0
TABLE
  2
VPORT
  5
20
330
0
100
AcDbSymbolTable
 70
     9
  0
VPORT
  5
84B
330
20
100
AcDbSymbolTableRecord
100
AcDbViewportTableRecord
  2
*Active
 70
     0
 10
0.0
 20
0.0
 11
1.0
 21
1.0
 12
-8.579159678598639
 22
-6.811372920353417
 13
0.0
 23
0.0
 14
0.5
 24
0.5
 15
0.5
 25
0.5
 16
0.0
 26
0.0
 36
1.0
 17
16.88239557175019
 27
11.64481588408391
 37
0.0
 40
12.30108679201033
 41
1.387234042553191
 42
50.0
 43
0.0
 44
0.0
 50
0.0
 51
0.0
 71
     0
 72
   100
 73
     1
 74
     3
 75
     0
 76
     0
 77
     0
 78
     0
281
     0
 65
     0
110
0.0
120
0.0
130
0.0
111
1.0
121
0.0
131
0.0
112
0.0
122
1.0
132
0.0
 79
     0
146
0.0
  0
ENDTAB
  0
TABLE
  2
LTYPE
  5
1B
330
0
100
AcDbSymbolTable
 70
    19
  0
LTYPE
  5
1C
330
1B
100
AcDbSymbolTableRecord
100
AcDbLinetypeTableRecord
  2
ByBlock
 70
     0
  3

 72
    65
 73
     0
 40
0.0
  0
LTYPE
  5
1D
330
1B
100
AcDbSymbolTableRecord
100
AcDbLinetypeTableRecord
  2
ByLayer
 70
     0
  3

 72
    65
 73
     0
 40
0.0
  0
LTYPE
  5
9
330
1B
100
AcDbSymbolTableRecord
100
AcDbLinetypeTableRecord
  2
Continuous
 70
     0
  3
Solid line
 72
    65
 73
     0
 40
0.0
  0
LTYPE
  5
59
330
1B
100
AcDbSymbolTableRecord
100
AcDbLinetypeTableRecord
  2
PHANTOM
 70
     0
  3
Phantom ______  __  __  ______  __  __  ______
 72
    65
 73
     6
 40
2.5
 49
1.25
 74
     0
 49
-0.25
 74
     0
 49
0.25
 74
     0
 49
-0.25
 74
     0
 49
0.25
 74
     0
 49
-0.25
 74
     0
  0
LTYPE
  5
762
330
1B
100
AcDbSymbolTableRecord
100
AcDbLinetypeTableRecord
  2
HIDDEN
 70
     0
  3
Hidden __ __ __ __ __ __ __ __ __ __ __ __ __ _
 72
    65
 73
     2
 40
0.375
 49
0.25
 74
     0
 49
-0.125
 74
     0
  0
LTYPE
  5
763
330
1B
100
AcDbSymbolTableRecord
100
AcDbLinetypeTableRecord
  2
PHANTOM2
 70
     0
  3
Phantom (.5x) ___ _ _ ___ _ _ ___ _ _ ___ _ _
 72
    65
 73
     6
 40
1.25
 49
0.625
 74
     0
 49
-0.125
 74
     0
 49
0.125
 74
     0
 49
-0.125
 74
     0
 49
0.125
 74
     0
 49
-0.125
 74
     0
  0
LTYPE
  5
764
330
1B
100
AcDbSymbolTableRecord
100
AcDbLinetypeTableRecord
  2
CENTER
 70
     0
  3
Center ____ _ ____ _ ____ _ ____ _ ____ _ ____
 72
    65
 73
     4
 40
2.0
 49
1.25
 74
     0
 49
-0.25
 74
     0
 49
0.25
 74
     0
 49
-0.25
 74
     0
  0
LTYPE
  5
7B3
330
1B
100
AcDbSymbolTableRecord
100
AcDbLinetypeTableRecord
  2
ASULTYPE
 70
     0
  3
Solid line
 72
    65
 73
     2
 40
3.0
 49
2.5
 74
     0
 49
0.5
 74
     0
  0
LTYPE
  5
7B4
330
1B
100
AcDbSymbolTableRecord
100
AcDbLinetypeTableRecord
  2
ASVLTYPE
 70
     0
  3
__ __ __ __ __ __ __ __ __ __ __ __ __ __ __ __ __ __ __ __ __
 72
    65
 73
     2
 40
0.75
 49
0.5
 74
     0
 49
-0.25
 74
     0
  0
LTYPE
  5
7FD
330
1B
100
AcDbSymbolTableRecord
100
AcDbLinetypeTableRecord
  2
AM_ISO02W050
 70
     0
  3
__ __ __ __ __ __ __ __ __ __ __ __ __ __ __
 72
    65
 73
     2
 40
7.5
 49
6.0
 74
     0
 49
-1.5
 74
     0
  0
LTYPE
  5
7FE
330
1B
100
AcDbSymbolTableRecord
100
AcDbLinetypeTableRecord
  2
AM_ISO08W050
 70
     0
  3
____ . ____ . ____ . ____ . ____ . ____ . ____
 72
    65
 73
     4
 40
18.0
 49
12.0
 74
     0
 49
-1.5
 74
     0
 49
3.0
 74
     0
 49
-1.5
 74
     0
  0
LTYPE
  5
7FF
330
1B
100
AcDbSymbolTableRecord
100
AcDbLinetypeTableRecord
  2
AM_ISO09W050
 70
     0
  3
_____ . . _____ . . _____ . . ____ .. ____
 72
    65
 73
     6
 40
22.5
 49
12.0
 74
     0
 49
-1.5
 74
     0
 49
3.0
 74
     0
 49
-1.5
 74
     0
 49
3.0
 74
     0
 49
-1.5
 74
     0
  0
LTYPE
  5
800
330
1B
100
AcDbSymbolTableRecord
100
AcDbLinetypeTableRecord
  2
Amconstr
 70
     0
  3
_______________________
 72
    65
 73
     2
 40
9999.0
 49
9999.0
 74
     0
 49
0.0
 74
     0
  0
LTYPE
  5
801
330
1B
100
AcDbSymbolTableRecord
100
AcDbLinetypeTableRecord
  2
AM_ISO08W050x2
 70
     0
  3
__ . __ . __ . __ . __ . __
 72
    65
 73
     4
 40
9.0
 49
6.0
 74
     0
 49
-0.75
 74
     0
 49
1.5
 74
     0
 49
-0.75
 74
     0
  0
LTYPE
  5
802
330
1B
100
AcDbSymbolTableRecord
100
AcDbLinetypeTableRecord
  2
AM_ISO02W050x2
 70
     0
  3
 _ _ _ _ _ _ _ _ _ _ _ _
 72
    65
 73
     2
 40
3.75
 49
3.0
 74
     0
 49
-0.75
 74
     0
  0
LTYPE
  5
805
330
1B
100
AcDbSymbolTableRecord
100
AcDbLinetypeTableRecord
  2
Amzigzag
 70
     0
  3
/\/-/\/-/\/-/\/-/\/-/\/
 72
    65
 73
     2
 40
11.0001
 49
0.0001
 74
     4
 75
   135
340
804
 46
0.04
 50
0.0
 44
0.0
 45
0.0
 49
-11.0
 74
     0
  0
LTYPE
  5
806
330
1B
100
AcDbSymbolTableRecord
100
AcDbLinetypeTableRecord
  2
CENTER2
 70
     0
  3
Center (.5x) ___ _ ___ _ ___ _ ___ _ ___ _ ___
 72
    65
 73
     4
 40
1.125
 49
0.75
 74
     0
 49
-0.125
 74
     0
 49
0.125
 74
     0
 49
-0.125
 74
     0
  0
LTYPE
  5
807
330
1B
100
AcDbSymbolTableRecord
100
AcDbLinetypeTableRecord
  2
HIDDEN2
 70
     0
  3
Hidden (.5x) _ _ _ _ _ _ _ _ _ _ _ _ _ _ _ _ _
 72
    65
 73
     2
 40
0.1875
 49
0.125
 74
     0
 49
-0.0625
 74
     0
  0
LTYPE
  5
808
330
1B
100
AcDbSymbolTableRecord
100
AcDbLinetypeTableRecord
  2
Amzigzag2
 70
     0
  3
/\/-/\/-/\/-/\/-/\/-/\/
 72
    65
 73
     2
 40
0.4401
 49
0.0001
 74
     4
 75
   135
340
804
 46
0.0016
 50
0.0
 44
0.0
 45
0.0
 49
-0.4400000000000001
 74
     0
  0
LTYPE
  5
816
330
1B
100
AcDbSymbolTableRecord
100
AcDbLinetypeTableRecord
  2
ACANSTGB
 70
     0
  3
__ . . __ . .
 72
    65
 73
     6
 40
0.35433070866
 49
0.15748031496
 74
     0
 49
-0.03937007874
 74
     0
 49
0.03937007874
 74
     0
 49
-0.03937007874
 74
     0
 49
0.03937007874
 74
     0
 49
-0.03937007874
 74
     0
  0
LTYPE
  5
817
330
1B
100
AcDbSymbolTableRecord
100
AcDbLinetypeTableRecord
  2
ACANSTGL
 70
     0
  3
_ _ _ _ _
 72
    65
 73
     2
 40
0.11811023622
 49
0.07874015748
 74
     0
 49
-0.03937007874
 74
     0
  0
ENDTAB
  0
TABLE
  2
LAYER
  5
15
102
{ACAD_XDICTIONARY
360
16
102
}
330
0
100
AcDbSymbolTable
 70
     7
  0
LAYER
  5
5
330
15
100
AcDbSymbolTableRecord
100
AcDbLayerTableRecord
  2
0
 70
     0
 62
     7
  6
Continuous
370
    -3
390
6
  0
LAYER
  5
147
330
15
100
AcDbSymbolTableRecord
100
AcDbLayerTableRecord
  2
AM_VIS
 70
     0
 62
     7
  6
Continuous
370
    30
390
6
  0
LAYER
  5
5B
330
15
100
AcDbSymbolTableRecord
100
AcDbLayerTableRecord
  2
CENTER
 70
     0
 62
     5
  6
Continuous
370
    -3
390
6
  0
LAYER
  5
58
330
15
100
AcDbSymbolTableRecord
100
AcDbLayerTableRecord
  2
PHANTOM
 70
     0
 62
     2
  6
PHANTOM
370
    -3
390
6
  0
LAYER
  5
60
330
15
100
AcDbSymbolTableRecord
100
AcDbLayerTableRecord
  2
10
 70
     0
 62
     7
  6
Continuous
370
    -3
390
6
  0
LAYER
  5
113
330
15
100
AcDbSymbolTableRecord
100
AcDbLayerTableRecord
  2
DIMENSION
 70
     0
 62
     1
  6
Continuous
370
    -3
390
6
  0
LAYER
  5
C1
330
15
100
AcDbSymbolTableRecord
100
AcDbLayerTableRecord
  2
Defpoints
 70
     0
 62
     7
  6
Continuous
290
     0
370
    -3
390
6
  0
ENDTAB
  0
TABLE
  2
STYLE
  5
18
330
0
100
AcDbSymbolTable
 70
     5
  0
STYLE
  5
19
330
18
100
AcDbSymbolTableRecord
100
AcDbTextStyleTableRecord
  2
Standard
 70
     0
 40
0.125
 41
1.0
 50
0.0
 71
     0
 42
0.125
  3
simplex.shx
  4

  0
STYLE
  5
122
330
18
100
AcDbSymbolTableRecord
100
AcDbTextStyleTableRecord
  2
ADESK1
 70
     0
 40
0.0
 41
1.0
 50
0.0
 71
     0
 42
0.12
  3
romans.shx
  4

  0
STYLE
  5
804
330
18
100
AcDbSymbolTableRecord
100
AcDbTextStyleTableRecord
  2

 70
     1
 40
0.0
 41
1.0
 50
0.0
 71
     0
 42
0.125
  3
ltypeshp.shx
  4

  0
STYLE
  5
809
330
18
100
AcDbSymbolTableRecord
100
AcDbTextStyleTableRecord
  2
ACANSTS
 70
     0
 40
1.0
 41
1.0
 50
0.0
 71
     0
 42
0.125
  3
romans.shx
  4

  0
STYLE
  5
815
330
18
100
AcDbSymbolTableRecord
100
AcDbTextStyleTableRecord
  2
ACANSGDT
 70
     0
 40
0.0
 41
1.0
 50
0.0
 71
     0
 42
0.125
  3
amgdtans.shx
  4

  0
ENDTAB
  0
TABLE
  2
VIEW
  5
1E
330
0
100
AcDbSymbolTable
 70
     0
  0
ENDTAB
  0
TABLE
  2
UCS
  5
1F
330
0
100
AcDbSymbolTable
 70
     0
  0
ENDTAB
  0
TABLE
  2
APPID
  5
22
330
0
100
AcDbSymbolTable
 70
    13
  0
APPID
  5
23
330
22
100
AcDbSymbolTableRecord
100
AcDbRegAppTableRecord
  2
ACAD
 70
     0
  0
APPID
  5
70A
330
22
100
AcDbSymbolTableRecord
100
AcDbRegAppTableRecord
  2
GENIUS_GENDIM_13
 70
     0
  0
APPID
  5
70B
330
22
100
AcDbSymbolTableRecord
100
AcDbRegAppTableRecord
  2
GENIUS_GENDTOL_13
 70
     0
  0
APPID
  5
70C
330
22
100
AcDbSymbolTableRecord
100
AcDbRegAppTableRecord
  2
GENIUS_GE3DTOL_13
 70
     0
  0
APPID
  5
733
330
22
100
AcDbSymbolTableRecord
100
AcDbRegAppTableRecord
  2
MCAD_NO_VIS
 70
     0
  0
APPID
  5
734
330
22
100
AcDbSymbolTableRecord
100
AcDbRegAppTableRecord
  2
ACAD_TEMP_GRAPHIC
 70
     0
  0
APPID
  5
766
330
22
100
AcDbSymbolTableRecord
100
AcDbRegAppTableRecord
  2
AD_DRAW
 70
     0
  0
APPID
  5
769
330
22
100
AcDbSymbolTableRecord
100
AcDbRegAppTableRecord
  2
ACATTRIBSERVICES
 70
     0
  0
APPID
  5
7B5
330
22
100
AcDbSymbolTableRecord
100
AcDbRegAppTableRecord
  2
ASURF_PCURVE_APPNAME
 70
     0
  0
APPID
  5
7BA
330
22
100
AcDbSymbolTableRecord
100
AcDbRegAppTableRecord
  2
AMG_3D2D_5.0
 70
     0
  0
APPID
  5
7E9
330
22
100
AcDbSymbolTableRecord
100
AcDbRegAppTableRecord
  2
DESIGNERASSEMBLIES
 70
     0
  0
APPID
  5
7F0
330
22
100
AcDbSymbolTableRecord
100
AcDbRegAppTableRecord
  2
ACADM_DIM_EDIT
 70
     0
  0
APPID
  5
7F1
330
22
100
AcDbSymbolTableRecord
100
AcDbRegAppTableRecord
  2
AMDT_DM_ADJ
 70
     0
  0
ENDTAB
  0
TABLE
  2
DIMSTYLE
  5
24
330
0
100
AcDbSymbolTable
 70
     7
100
AcDbDimStyleTable
 71
     1
340
25
  0
DIMSTYLE
105
25
102
{ACAD_REACTORS
330
FD
330
B6
330
C5
330
D3
330
E1
330
EF
102
}
330
24
100
AcDbSymbolTableRecord
100
AcDbDimStyleTableRecord
  2
Standard
 70
     0
 41
0.125
 44
0.0625
140
0.125
277
     5
288
     1
340
19
  0
DIMSTYLE
105
820
330
24
100
AcDbSymbolTableRecord
100
AcDbDimStyleTableRecord
  2
AM_ANSI
 70
     0
  4
mm
 41
0.1
 42
0.05
 43
0.5
 44
0.1
 47
0.1
 48
0.1
 78
     7
 79
     2
140
0.12
141
0.0
146
0.71
147
0.06
176
   256
177
   256
178
     2
274
     4
284
     7
340
19
371
    -1
372
    -1
  0
DIMSTYLE
105
821
330
24
100
AcDbSymbolTableRecord
100
AcDbDimStyleTableRecord
  2
AM_ANSI$3
 70
     0
  4
mm
 41
0.1
 42
0.05
 43
0.5
 44
0.1
 47
0.1
 48
0.1
 78
     7
 79
     2
140
0.12
141
0.0
146
0.71
147
0.06
176
   256
177
   256
178
     2
274
     4
284
     7
288
     1
289
     0
340
19
371
    -1
372
    -1
  0
DIMSTYLE
105
822
330
24
100
AcDbSymbolTableRecord
100
AcDbDimStyleTableRecord
  2
AM_ANSI$4
 70
     0
  4
mm
 41
0.1
 42
0.05
 43
0.5
 44
0.1
 47
0.1
 48
0.1
 78
     7
 79
     2
140
0.12
141
0.0
146
0.71
147
0.06
176
   256
177
   256
178
     2
274
     4
284
     7
288
     1
289
     0
340
19
371
    -1
372
    -1
  0
DIMSTYLE
105
823
330
24
100
AcDbSymbolTableRecord
100
AcDbDimStyleTableRecord
  2
AM_ANSI$7
 70
     0
  4
mm
 41
0.1
 42
0.05
 43
0.5
 44
0.1
 47
0.1
 48
0.1
 78
     7
 79
     2
140
0.24
141
0.0
146
0.71
147
0.06
176
   256
177
   256
178
     2
274
     4
284
     7
340
19
371
    -1
372
    -1
  0
DIMSTYLE
105
824
330
24
100
AcDbSymbolTableRecord
100
AcDbDimStyleTableRecord
  2
AM_ANSI$SF
 70
     0
  4
mm
 41
0.1
 42
0.05
 43
0.5
 44
0.1
 47
0.1
 48
0.1
 75
     1
 76
     1
 78
     7
 79
     2
140
0.12
141
0.0
146
0.71
147
0.06
176
   256
177
   256
178
     2
274
     4
284
     7
340
19
371
    -1
372
    -1
  0
DIMSTYLE
105
829
330
24
100
AcDbSymbolTableRecord
100
AcDbDimStyleTableRecord
  2
AM_ANSI$SH
 70
     0
  4
mm
 41
0.1
 42
0.05
 43
0.5
 44
0.1
 47
0.1
 48
0.1
 75
     1
 76
     1
 78
     7
 79
     2
140
0.12
141
0.0
146
0.71
147
0.06
173
     1
176
   256
177
   256
178
     2
274
     4
284
     7
340
19
343
825
371
    -1
372
    -1
  0
ENDTAB
  0
TABLE
  2
BLOCK_RECORD
  5
1
330
0
100
AcDbSymbolTable
 70
    16
  0
BLOCK_RECORD
  5
2
102
{ACAD_XDICTIONARY
360
3
102
}
330
1
100
AcDbSymbolTableRecord
100
AcDbBlockTableRecord
  2
*Model_Space
340
B
  0
BLOCK_RECORD
  5
D
102
{ACAD_XDICTIONARY
360
E
102
}
330
1
100
AcDbSymbolTableRecord
100
AcDbBlockTableRecord
  2
*Paper_Space
340
12
  0
BLOCK_RECORD
  5
30
330
1
100
AcDbSymbolTableRecord
100
AcDbBlockTableRecord
  2
*U0
340
0
102
{BLKREFS
331
2F
102
}
  0
BLOCK_RECORD
  5
35
330
1
100
AcDbSymbolTableRecord
100
AcDbBlockTableRecord
  2
*U1
340
0
102
{BLKREFS
331
34
102
}
  0
BLOCK_RECORD
  5
3A
330
1
100
AcDbSymbolTableRecord
100
AcDbBlockTableRecord
  2
*U2
340
0
102
{BLKREFS
331
39
102
}
  0
BLOCK_RECORD
  5
3F
330
1
100
AcDbSymbolTableRecord
100
AcDbBlockTableRecord
  2
*U3
340
0
102
{BLKREFS
331
3E
102
}
  0
BLOCK_RECORD
  5
44
330
1
100
AcDbSymbolTableRecord
100
AcDbBlockTableRecord
  2
*U4
340
0
102
{BLKREFS
331
43
102
}
  0
BLOCK_RECORD
  5
49
330
1
100
AcDbSymbolTableRecord
100
AcDbBlockTableRecord
  2
*U5
340
0
102
{BLKREFS
331
48
102
}
  0
BLOCK_RECORD
  5
4E
330
1
100
AcDbSymbolTableRecord
100
AcDbBlockTableRecord
  2
*U6
340
0
102
{BLKREFS
331
4D
102
}
  0
BLOCK_RECORD
  5
53
330
1
100
AcDbSymbolTableRecord
100
AcDbBlockTableRecord
  2
*U7
340
0
102
{BLKREFS
331
52
102
}
  0
BLOCK_RECORD
  5
FE
330
1
100
AcDbSymbolTableRecord
100
AcDbBlockTableRecord
  2
*D8
340
0
  0
BLOCK_RECORD
  5
B7
330
1
100
AcDbSymbolTableRecord
100
AcDbBlockTableRecord
  2
*D9
340
0
  0
BLOCK_RECORD
  5
C6
330
1
100
AcDbSymbolTableRecord
100
AcDbBlockTableRecord
  2
*D10
340
0
  0
BLOCK_RECORD
  5
D4
330
1
100
AcDbSymbolTableRecord
100
AcDbBlockTableRecord
  2
*D11
340
0
  0
BLOCK_RECORD
  5
E2
330
1
100
AcDbSymbolTableRecord
100
AcDbBlockTableRecord
  2
*D12
340
0
  0
BLOCK_RECORD
  5
F0
330
1
100
AcDbSymbolTableRecord
100
AcDbBlockTableRecord
  2
*D13
340
0
  0
BLOCK_RECORD
  5
825
330
1
100
AcDbSymbolTableRecord
100
AcDbBlockTableRecord
  2
GENAXEH
340
0
  0
ENDTAB
  0
ENDSEC
  0
SECTION
  2
BLOCKS
  0
BLOCK
  5
4
330
2
100
AcDbEntity
  8
0
100
AcDbBlockBegin
  2
*Model_Space
 70
     0
 10
0.0
 20
0.0
 30
0.0
  3
*Model_Space
  1

  0
ENDBLK
  5
A
330
2
100
AcDbEntity
  8
0
100
AcDbBlockEnd
  0
BLOCK
  5
10
330
D
100
AcDbEntity
 67
     1
  8
0
100
AcDbBlockBegin
  2
*Paper_Space
 70
     0
 10
0.0
 20
0.0
 30
0.0
  3
*Paper_Space
  1

  0
ENDBLK
  5
11
330
D
100
AcDbEntity
 67
     1
  8
0
100
AcDbBlockEnd
  0
BLOCK
  5
31
330
30
100
AcDbEntity
  8
0
  6
ByBlock
 62
     2
100
AcDbBlockBegin
  2
*U0
 70
     1
 10
0.0
 20
0.0
 30
0.0
  3
*U0
  1

  0
TEXT
  5
32
330
30
100
AcDbEntity
  8
0
  6
ByBlock
 62
     2
100
AcDbText
 10
15.253
 20
1.7495
 30
0.0
 40
0.094
  1
 
 41
0.8842105263157966
 72
     5
 11
15.3282
 21
1.7495
 31
0.0
100
AcDbText
  0
ENDBLK
  5
33
330
30
100
AcDbEntity
  8
0
100
AcDbBlockEnd
  0
BLOCK
  5
36
330
35
100
AcDbEntity
  8
0
  6
ByBlock
 62
     2
100
AcDbBlockBegin
  2
*U1
 70
     1
 10
0.0
 20
0.0
 30
0.0
  3
*U1
  1

  0
TEXT
  5
37
330
35
100
AcDbEntity
  8
0
  6
ByBlock
 62
     2
100
AcDbText
 10
15.253
 20
1.436999999999999
 30
0.0
 40
0.094
  1
 
 41
0.8842105263157966
 72
     5
 11
15.3282
 21
1.436999999999999
 31
0.0
100
AcDbText
  0
ENDBLK
  5
38
330
35
100
AcDbEntity
  8
0
100
AcDbBlockEnd
  0
BLOCK
  5
3B
330
3A
100
AcDbEntity
  8
0
  6
ByBlock
 62
     2
100
AcDbBlockBegin
  2
*U2
 70
     1
 10
0.0
 20
0.0
 30
0.0
  3
*U2
  1

  0
TEXT
  5
3C
330
3A
100
AcDbEntity
  8
0
  6
ByBlock
 62
     2
100
AcDbText
 10
15.253
 20
1.1245
 30
0.0
 40
0.094
  1
 
 41
0.8842105263157966
 72
     5
 11
15.3282
 21
1.1245
 31
0.0
100
AcDbText
  0
ENDBLK
  5
3D
330
3A
100
AcDbEntity
  8
0
100
AcDbBlockEnd
  0
BLOCK
  5
40
330
3F
100
AcDbEntity
  8
0
  6
ByBlock
 62
     2
100
AcDbBlockBegin
  2
*U3
 70
     1
 10
0.0
 20
0.0
 30
0.0
  3
*U3
  1

  0
TEXT
  5
41
330
3F
100
AcDbEntity
  8
0
  6
ByBlock
 62
     2
100
AcDbText
 10
15.253
 20
0.812
 30
0.0
 40
0.094
  1
 
 41
0.8842105263157966
 72
     5
 11
15.3282
 21
0.812
 31
0.0
100
AcDbText
  0
ENDBLK
  5
42
330
3F
100
AcDbEntity
  8
0
100
AcDbBlockEnd
  0
BLOCK
  5
45
330
44
100
AcDbEntity
  8
0
  6
ByBlock
 62
     2
100
AcDbBlockBegin
  2
*U4
 70
     1
 10
0.0
 20
0.0
 30
0.0
  3
*U4
  1

  0
TEXT
  5
46
330
44
100
AcDbEntity
  8
0
  6
ByBlock
 62
     2
100
AcDbText
 10
15.253
 20
1.7495
 30
0.0
 40
0.094
  1
 
 41
0.8842105263157966
 72
     5
 11
15.3282
 21
1.7495
 31
0.0
100
AcDbText
  0
ENDBLK
  5
47
330
44
100
AcDbEntity
  8
0
100
AcDbBlockEnd
  0
BLOCK
  5
4A
330
49
100
AcDbEntity
  8
0
  6
ByBlock
 62
     2
100
AcDbBlockBegin
  2
*U5
 70
     1
 10
0.0
 20
0.0
 30
0.0
  3
*U5
  1

  0
TEXT
  5
4B
330
49
100
AcDbEntity
  8
0
  6
ByBlock
 62
     2
100
AcDbText
 10
15.253
 20
1.436999999999999
 30
0.0
 40
0.094
  1
 
 41
0.8842105263157966
 72
     5
 11
15.3282
 21
1.436999999999999
 31
0.0
100
AcDbText
  0
ENDBLK
  5
4C
330
49
100
AcDbEntity
  8
0
100
AcDbBlockEnd
  0
BLOCK
  5
4F
330
4E
100
AcDbEntity
  8
0
  6
ByBlock
 62
     2
100
AcDbBlockBegin
  2
*U6
 70
     1
 10
0.0
 20
0.0
 30
0.0
  3
*U6
  1

  0
TEXT
  5
50
330
4E
100
AcDbEntity
  8
0
  6
ByBlock
 62
     2
100
AcDbText
 10
15.253
 20
1.1245
 30
0.0
 40
0.094
  1
 
 41
0.8842105263157966
 72
     5
 11
15.3282
 21
1.1245
 31
0.0
100
AcDbText
  0
ENDBLK
  5
51
330
4E
100
AcDbEntity
  8
0
100
AcDbBlockEnd
  0
BLOCK
  5
54
330
53
100
AcDbEntity
  8
0
  6
ByBlock
 62
     2
100
AcDbBlockBegin
  2
*U7
 70
     1
 10
0.0
 20
0.0
 30
0.0
  3
*U7
  1

  0
TEXT
  5
55
330
53
100
AcDbEntity
  8
0
  6
ByBlock
 62
     2
100
AcDbText
 10
15.253
 20
0.812
 30
0.0
 40
0.094
  1
 
 41
0.8842105263157966
 72
     5
 11
15.3282
 21
0.812
 31
0.0
100
AcDbText
  0
ENDBLK
  5
56
330
53
100
AcDbEntity
  8
0
100
AcDbBlockEnd
  0
BLOCK
  5
FF
330
FE
100
AcDbEntity
  8
0
 62
     1
100
AcDbBlockBegin
  2
*D8
 70
     1
 10
0.0
 20
0.0
 30
0.0
  3
*D8
  1

  0
LINE
  5
100
330
FE
100
AcDbEntity
  8
0
 62
     0
370
    -2
100
AcDbLine
 10
4.128108752429228
 20
5.968219301542013
 30
0.0
 11
4.00310875242923
 21
5.968219301542013
 31
0.0
  0
LINE
  5
101
330
FE
100
AcDbEntity
  8
0
 62
     0
370
    -2
100
AcDbLine
 10
4.00310875242923
 20
5.968219301542013
 30
0.0
 11
3.632091636319986
 21
6.296350985707664
 31
0.0
  0
MTEXT
  5
102
330
FE
100
AcDbEntity
  8
0
 62
     0
100
AcDbMText
 10
4.408584942905418
 20
5.968219301542013
 30
0.0
 40
0.125
 41
0.0
 71
     5
 72
     1
  1
\A1;\U+22051{\H1.000000x;\S3/16;}
 73
     1
 44
1.0
1001
ACAD
1000
MTEXTBEGIN
1070
    73
1070
     1
1070
    44
1040
1.0
1070
    74
1070
     0
1000
MTEXTEND
  0
SOLID
  5
103
330
FE
100
AcDbEntity
  8
0
 62
     0
100
AcDbTrace
 10
3.645893470990604
 20
6.311956662158964
 30
0.0
 11
3.618289801649368
 21
6.280745309256363
 31
0.0
 12
3.538457577612183
 22
6.379161993731377
 32
0.0
 13
3.538457577612183
 23
6.379161993731377
 33
0.0
  0
LINE
  5
104
330
FE
100
AcDbEntity
  8
0
 62
     0
370
    -2
100
AcDbLine
 10
3.003695798750113
 20
6.772514281844014
 30
0.0
 11
3.183695798750113
 21
6.772514281844014
 31
0.0
  0
LINE
  5
105
330
FE
100
AcDbEntity
  8
0
 62
     0
370
    -2
100
AcDbLine
 10
3.093695798750113
 20
6.682514281844014
 30
0.0
 11
3.093695798750112
 21
6.862514281844013
 31
0.0
  0
POINT
  5
106
330
FE
100
AcDbEntity
  8
Defpoints
 62
     0
100
AcDbPoint
 10
3.538457577612183
 20
6.379161993731377
 30
0.0
  0
POINT
  5
107
330
FE
100
AcDbEntity
  8
Defpoints
 62
     0
100
AcDbPoint
 10
2.64893401988804
 20
7.165866569956651
 30
0.0
  0
ENDBLK
  5
108
330
FE
100
AcDbEntity
  8
0
 62
     1
100
AcDbBlockEnd
  0
BLOCK
  5
B8
330
B7
100
AcDbEntity
  8
0
 62
     1
100
AcDbBlockBegin
  2
*D9
 70
     1
 10
0.0
 20
0.0
 30
0.0
  3
*D9
  1

  0
LINE
  5
B9
330
B7
100
AcDbEntity
  8
0
 62
     0
370
    -2
100
AcDbLine
 10
9.914135017867256
 20
7.479014281844031
 30
0.0
 11
9.914135017867256
 21
8.702561960244487
 31
0.0
  0
LINE
  5
BA
330
B7
100
AcDbEntity
  8
0
 62
     0
370
    -2
100
AcDbLine
 10
7.692135017867256
 20
8.247850199209619
 30
0.0
 11
7.692135017867256
 21
8.702561960244487
 31
0.0
  0
LINE
  5
BB
330
B7
100
AcDbEntity
  8
0
 62
     0
370
    -2
100
AcDbLine
 10
9.789135017867256
 20
8.640061960244487
 30
0.0
 11
9.026647986338563
 21
8.640061960244487
 31
0.0
  0
LINE
  5
BC
330
B7
100
AcDbEntity
  8
0
 62
     0
370
    -2
100
AcDbLine
 10
7.817135017867256
 20
8.640061960244487
 30
0.0
 11
8.638314653005233
 21
8.640061960244487
 31
0.0
  0
SOLID
  5
BD
330
B7
100
AcDbEntity
  8
0
 62
     0
100
AcDbTrace
 10
9.789135017867256
 20
8.660895293577821
 30
0.0
 11
9.789135017867256
 21
8.619228626911151
 31
0.0
 12
9.914135017867256
 22
8.640061960244487
 32
0.0
 13
9.914135017867256
 23
8.640061960244487
 33
0.0
  0
SOLID
  5
BE
330
B7
100
AcDbEntity
  8
0
 62
     0
100
AcDbTrace
 10
7.817135017867256
 20
8.660895293577821
 30
0.0
 11
7.817135017867256
 21
8.619228626911151
 31
0.0
 12
7.692135017867256
 22
8.640061960244487
 32
0.0
 13
7.692135017867256
 23
8.640061960244487
 33
0.0
  0
MTEXT
  5
BF
330
B7
100
AcDbEntity
  8
0
 62
     0
100
AcDbMText
 10
8.832481319671897
 20
8.640061960244487
 30
0.0
 40
0.125
 41
0.0
 71
     5
 72
     1
  1
\A1;2{\H1.000000x;\S1/4;}
 73
     1
 44
1.0
1001
ACAD
1000
MTEXTBEGIN
1070
    73
1070
     1
1070
    44
1040
1.0
1070
    74
1070
     0
1000
MTEXTEND
  0
POINT
  5
C0
330
B7
100
AcDbEntity
  8
Defpoints
 62
     0
100
AcDbPoint
 10
9.914135017867256
 20
7.416514281844031
 30
0.0
  0
POINT
  5
C2
330
B7
100
AcDbEntity
  8
Defpoints
 62
     0
100
AcDbPoint
 10
7.692135017867256
 20
8.185350199209619
 30
0.0
  0
POINT
  5
C3
330
B7
100
AcDbEntity
  8
Defpoints
 62
     0
100
AcDbPoint
 10
7.692135017867256
 20
8.640061960244487
 30
0.0
  0
ENDBLK
  5
C4
330
B7
100
AcDbEntity
  8
0
 62
     1
100
AcDbBlockEnd
  0
BLOCK
  5
C7
330
C6
100
AcDbEntity
  8
0
 62
     1
100
AcDbBlockBegin
  2
*D10
 70
     1
 10
0.0
 20
0.0
 30
0.0
  3
*D10
  1

  0
LINE
  5
C8
330
C6
100
AcDbEntity
  8
0
 62
     0
370
    -2
100
AcDbLine
 10
7.504635017867255
 20
8.271275847145991
 30
0.0
 11
7.504635017867255
 21
8.702815365766653
 31
0.0
  0
LINE
  5
C9
330
C6
100
AcDbEntity
  8
0
 62
     0
370
    -2
100
AcDbLine
 10
6.607135017867254
 20
7.335014281844023
 30
0.0
 11
6.607135017867254
 21
8.702815365766653
 31
0.0
  0
LINE
  5
CA
330
C6
100
AcDbEntity
  8
0
 62
     0
370
    -2
100
AcDbLine
 10
7.379635017867255
 20
8.640315365766653
 30
0.0
 11
7.153930856147105
 21
8.640315365766653
 31
0.0
  0
LINE
  5
CB
330
C6
100
AcDbEntity
  8
0
 62
     0
370
    -2
100
AcDbLine
 10
6.732135017867254
 20
8.640315365766653
 30
0.0
 11
6.890597522813772
 21
8.640315365766653
 31
0.0
  0
SOLID
  5
CC
330
C6
100
AcDbEntity
  8
0
 62
     0
100
AcDbTrace
 10
7.379635017867255
 20
8.661148699099987
 30
0.0
 11
7.379635017867255
 21
8.619482032433317
 31
0.0
 12
7.504635017867255
 22
8.640315365766653
 32
0.0
 13
7.504635017867255
 23
8.640315365766653
 33
0.0
  0
SOLID
  5
CD
330
C6
100
AcDbEntity
  8
0
 62
     0
100
AcDbTrace
 10
6.732135017867254
 20
8.661148699099987
 30
0.0
 11
6.732135017867254
 21
8.619482032433317
 31
0.0
 12
6.607135017867254
 22
8.640315365766653
 32
0.0
 13
6.607135017867254
 23
8.640315365766653
 33
0.0
  0
MTEXT
  5
CE
330
C6
100
AcDbEntity
  8
0
 62
     0
100
AcDbMText
 10
7.022264189480437
 20
8.640315365766653
 30
0.0
 40
0.125
 41
0.0
 71
     5
 72
     1
  1
\A1;{\H1.000000x;\S7/8;}
 73
     1
 44
1.0
1001
ACAD
1000
MTEXTBEGIN
1070
    73
1070
     1
1070
    44
1040
1.0
1070
    74
1070
     0
1000
MTEXTEND
  0
POINT
  5
CF
330
C6
100
AcDbEntity
  8
Defpoints
 62
     0
100
AcDbPoint
 10
7.504635017867255
 20
8.208775847145991
 30
0.0
  0
POINT
  5
D0
330
C6
100
AcDbEntity
  8
Defpoints
 62
     0
100
AcDbPoint
 10
6.607135017867254
 20
7.272514281844023
 30
0.0
  0
POINT
  5
D1
330
C6
100
AcDbEntity
  8
Defpoints
 62
     0
100
AcDbPoint
 10
6.607135017867254
 20
8.640315365766653
 30
0.0
  0
ENDBLK
  5
D2
330
C6
100
AcDbEntity
  8
0
 62
     1
100
AcDbBlockEnd
  0
BLOCK
  5
D5
330
D4
100
AcDbEntity
  8
0
 62
     1
100
AcDbBlockBegin
  2
*D11
 70
     1
 10
0.0
 20
0.0
 30
0.0
  3
*D11
  1

  0
LINE
  5
D6
330
D4
100
AcDbEntity
  8
0
 62
     0
370
    -2
100
AcDbLine
 10
7.504635017867255
 20
5.207353161482222
 30
0.0
 11
7.504635017867255
 21
5.129309020538455
 31
0.0
  0
LINE
  5
D7
330
D4
100
AcDbEntity
  8
0
 62
     0
370
    -2
100
AcDbLine
 10
7.692135017867256
 20
5.219676565273841
 30
0.0
 11
7.692135017867256
 21
5.129309020538455
 31
0.0
  0
LINE
  5
D8
330
D4
100
AcDbEntity
  8
0
 62
     0
370
    -2
100
AcDbLine
 10
7.379635017867255
 20
5.191809020538455
 30
0.0
 11
7.254635017867255
 21
5.191809020538455
 31
0.0
  0
LINE
  5
D9
330
D4
100
AcDbEntity
  8
0
 62
     0
370
    -2
100
AcDbLine
 10
7.817135017867256
 20
5.191809020538455
 30
0.0
 11
7.942135017867257
 21
5.191809020538455
 31
0.0
  0
SOLID
  5
DA
330
D4
100
AcDbEntity
  8
0
 62
     0
100
AcDbTrace
 10
7.379635017867255
 20
5.212642353871788
 30
0.0
 11
7.379635017867255
 21
5.170975687205123
 31
0.0
 12
7.504635017867255
 22
5.191809020538455
 32
0.0
 13
7.504635017867255
 23
5.191809020538455
 33
0.0
  0
SOLID
  5
DB
330
D4
100
AcDbEntity
  8
0
 62
     0
100
AcDbTrace
 10
7.817135017867256
 20
5.212642353871788
 30
0.0
 11
7.817135017867256
 21
5.170975687205123
 31
0.0
 12
7.692135017867256
 22
5.191809020538455
 32
0.0
 13
7.692135017867256
 23
5.191809020538455
 33
0.0
  0
MTEXT
  5
DC
330
D4
100
AcDbEntity
  8
0
 62
     0
100
AcDbMText
 10
8.582730255962495
 20
5.191809020538455
 30
0.0
 40
0.125
 41
0.0
 71
     5
 72
     1
  1
\A1;PANEL THK\P({\H1.000000x;\S3/16;} SHOWN)
 73
     1
 44
1.0
1001
ACAD
1000
MTEXTBEGIN
1070
    73
1070
     1
1070
    44
1040
1.0
1070
    74
1070
     0
1000
MTEXTEND
  0
POINT
  5
DD
330
D4
100
AcDbEntity
  8
Defpoints
 62
     0
100
AcDbPoint
 10
7.504635017867255
 20
5.269853161482222
 30
0.0
  0
POINT
  5
DE
330
D4
100
AcDbEntity
  8
Defpoints
 62
     0
100
AcDbPoint
 10
7.692135017867256
 20
5.282176565273841
 30
0.0
  0
POINT
  5
DF
330
D4
100
AcDbEntity
  8
Defpoints
 62
     0
100
AcDbPoint
 10
7.692135017867256
 20
5.191809020538455
 30
0.0
  0
ENDBLK
  5
E0
330
D4
100
AcDbEntity
  8
0
 62
     1
100
AcDbBlockEnd
  0
BLOCK
  5
E3
330
E2
100
AcDbEntity
  8
0
 62
     1
100
AcDbBlockBegin
  2
*D12
 70
     1
 10
0.0
 20
0.0
 30
0.0
  3
*D12
  1

  0
LINE
  5
E4
330
E2
100
AcDbEntity
  8
0
 62
     0
370
    -2
100
AcDbLine
 10
2.284851878750104
 20
7.41671428184402
 30
0.0
 11
1.606419782594586
 21
7.416714281844022
 31
0.0
  0
LINE
  5
E5
330
E2
100
AcDbEntity
  8
0
 62
     0
370
    -2
100
AcDbLine
 10
2.284851878750104
 20
6.128314281844022
 30
0.0
 11
1.606419782594586
 21
6.128314281844023
 31
0.0
  0
LINE
  5
E6
330
E2
100
AcDbEntity
  8
0
 62
     0
370
    -2
100
AcDbLine
 10
1.668919782594586
 20
7.291714281844022
 30
0.0
 11
1.668919782594586
 21
7.174179409602944
 31
0.0
  0
LINE
  5
E7
330
E2
100
AcDbEntity
  8
0
 62
     0
370
    -2
100
AcDbLine
 10
1.668919782594586
 20
6.253314281844023
 30
0.0
 11
1.668919782594586
 21
6.702512742936276
 31
0.0
  0
SOLID
  5
E8
330
E2
100
AcDbEntity
  8
0
 62
     0
100
AcDbTrace
 10
1.648086449261253
 20
7.291714281844022
 30
0.0
 11
1.689753115927918
 21
7.291714281844022
 31
0.0
 12
1.668919782594586
 22
7.416714281844022
 32
0.0
 13
1.668919782594586
 23
7.416714281844022
 33
0.0
  0
SOLID
  5
E9
330
E2
100
AcDbEntity
  8
0
 62
     0
100
AcDbTrace
 10
1.648086449261253
 20
6.253314281844023
 30
0.0
 11
1.689753115927918
 21
6.253314281844023
 31
0.0
 12
1.668919782594586
 22
6.128314281844023
 32
0.0
 13
1.668919782594586
 23
6.128314281844023
 33
0.0
  0
MTEXT
  5
EA
330
E2
100
AcDbEntity
  8
0
 62
     0
100
AcDbMText
 10
1.668919782594584
 20
6.93834607626961
 30
0.0
 40
0.125
 41
0.0
 71
     5
 72
     1
  1
\A1;1{\H1.000000x;\S5/16;}
 73
     1
 44
1.0
1001
ACAD
1000
MTEXTBEGIN
1070
    73
1070
     1
1070
    44
1040
1.0
1070
    74
1070
     0
1000
MTEXTEND
  0
POINT
  5
EB
330
E2
100
AcDbEntity
  8
Defpoints
 62
     0
100
AcDbPoint
 10
2.347351878750104
 20
7.41671428184402
 30
0.0
  0
POINT
  5
EC
330
E2
100
AcDbEntity
  8
Defpoints
 62
     0
100
AcDbPoint
 10
2.347351878750104
 20
6.128314281844022
 30
0.0
  0
POINT
  5
ED
330
E2
100
AcDbEntity
  8
Defpoints
 62
     0
100
AcDbPoint
 10
1.668919782594586
 20
6.128314281844023
 30
0.0
  0
ENDBLK
  5
EE
330
E2
100
AcDbEntity
  8
0
 62
     1
100
AcDbBlockEnd
  0
BLOCK
  5
F1
330
F0
100
AcDbEntity
  8
0
 62
     1
100
AcDbBlockBegin
  2
*D13
 70
     1
 10
0.0
 20
0.0
 30
0.0
  3
*D13
  1

  0
LINE
  5
F2
330
F0
100
AcDbEntity
  8
0
 62
     0
370
    -2
100
AcDbLine
 10
2.307351878750099
 20
7.43921428184402
 30
0.0
 11
2.307351878750099
 21
8.398530712700477
 31
0.0
  0
LINE
  5
F3
330
F0
100
AcDbEntity
  8
0
 62
     0
370
    -2
100
AcDbLine
 10
3.880039718750106
 20
7.439214281844022
 30
0.0
 11
3.880039718750106
 21
8.398530712700477
 31
0.0
  0
LINE
  5
F4
330
F0
100
AcDbEntity
  8
0
 62
     0
370
    -2
100
AcDbLine
 10
2.432351878750099
 20
8.336030712700477
 30
0.0
 11
2.855626562944707
 21
8.336030712700477
 31
0.0
  0
LINE
  5
F5
330
F0
100
AcDbEntity
  8
0
 62
     0
370
    -2
100
AcDbLine
 10
3.755039718750106
 20
8.336030712700477
 30
0.0
 11
3.303483705801851
 21
8.336030712700477
 31
0.0
  0
SOLID
  5
F6
330
F0
100
AcDbEntity
  8
0
 62
     0
100
AcDbTrace
 10
2.432351878750099
 20
8.356864046033811
 30
0.0
 11
2.432351878750099
 21
8.315197379367143
 31
0.0
 12
2.307351878750099
 22
8.336030712700477
 32
0.0
 13
2.307351878750099
 23
8.336030712700477
 33
0.0
  0
SOLID
  5
F7
330
F0
100
AcDbEntity
  8
0
 62
     0
100
AcDbTrace
 10
3.755039718750106
 20
8.356864046033811
 30
0.0
 11
3.755039718750106
 21
8.315197379367143
 31
0.0
 12
3.880039718750106
 22
8.336030712700477
 32
0.0
 13
3.880039718750106
 23
8.336030712700477
 33
0.0
  0
MTEXT
  5
F8
330
F0
100
AcDbEntity
  8
0
 62
     0
100
AcDbMText
 10
3.079555134373278
 20
8.336030712700477
 30
0.0
 40
0.125
 41
0.0
 71
     5
 72
     1
  1
\A1;1{\H1.000000x;\S9/16;}
 73
     1
 44
1.0
1001
ACAD
1000
MTEXTBEGIN
1070
    73
1070
     1
1070
    44
1040
1.0
1070
    74
1070
     0
1000
MTEXTEND
  0
POINT
  5
F9
330
F0
100
AcDbEntity
  8
Defpoints
 62
     0
100
AcDbPoint
 10
2.307351878750099
 20
7.37671428184402
 30
0.0
  0
POINT
  5
FA
330
F0
100
AcDbEntity
  8
Defpoints
 62
     0
100
AcDbPoint
 10
3.880039718750106
 20
7.376714281844022
 30
0.0
  0
POINT
  5
FB
330
F0
100
AcDbEntity
  8
Defpoints
 62
     0
100
AcDbPoint
 10
3.880039718750106
 20
8.336030712700477
 30
0.0
  0
ENDBLK
  5
FC
330
F0
100
AcDbEntity
  8
0
 62
     1
100
AcDbBlockEnd
  0
BLOCK
  5
827
330
825
100
AcDbEntity
  8
0
 62
     1
100
AcDbBlockBegin
  2
GENAXEH
 70
     0
 10
0.0
 20
0.0
 30
0.0
  3
GENAXEH
  1

  0
LINE
  5
826
330
825
100
AcDbEntity
  8
0
100
AcDbLine
 10
-1.0
 20
0.0
 30
0.0
 11
1.0
 21
0.0
 31
0.0
  0
ENDBLK
  5
828
330
825
100
AcDbEntity
  8
0
 62
     1
100
AcDbBlockEnd
  0
ENDSEC
  0
SECTION
  2
ENTITIES
  0
INSERT
  5
2F
330
2
100
AcDbEntity
  8
0
 62
     2
100
AcDbBlockReference
  2
*U0
 10
-0.1576893569536608
 20
-0.5127720402207139
 30
0.0
  0
INSERT
  5
34
330
2
100
AcDbEntity
  8
0
 62
     2
100
AcDbBlockReference
  2
*U1
 10
-0.1576893569536608
 20
-0.5127720402207139
 30
0.0
  0
INSERT
  5
39
330
2
100
AcDbEntity
  8
0
 62
     2
100
AcDbBlockReference
  2
*U2
 10
-0.1576893569536608
 20
-0.5127720402207139
 30
0.0
  0
INSERT
  5
3E
330
2
100
AcDbEntity
  8
0
 62
     2
100
AcDbBlockReference
  2
*U3
 10
-0.1576893569536608
 20
-0.5127720402207139
 30
0.0
  0
INSERT
  5
43
330
2
100
AcDbEntity
  8
0
 62
     2
100
AcDbBlockReference
  2
*U4
 10
-0.5381518469037446
 20
13.60219041107164
 30
0.0
  0
INSERT
  5
48
330
2
100
AcDbEntity
  8
0
 62
     2
100
AcDbBlockReference
  2
*U5
 10
-0.5381518469037446
 20
13.60219041107164
 30
0.0
  0
INSERT
  5
4D
330
2
100
AcDbEntity
  8
0
 62
     2
100
AcDbBlockReference
  2
*U6
 10
-0.5381518469037446
 20
13.60219041107164
 30
0.0
  0
INSERT
  5
52
330
2
100
AcDbEntity
  8
0
 62
     2
100
AcDbBlockReference
  2
*U7
 10
-0.5381518469037446
 20
13.60219041107164
 30
0.0
  0
MTEXT
  5
57
330
2
100
AcDbEntity
  8
PHANTOM
 62
     7
100
AcDbMText
 10
23.16599445338432
 20
15.39032229254688
 30
0.0
 40
0.18
 41
0.0
 71
     4
 72
     5
  1

 73
     1
 44
1.0
1001
ACAD
1000
MTEXTBEGIN
1070
    73
1070
     1
1070
    44
1040
1.0
1070
    74
1070
     0
1000
MTEXTEND
  0
MTEXT
  5
5A
330
2
100
AcDbEntity
  8
CENTER
 62
     7
100
AcDbMText
 10
14.50289205973629
 20
4.707569031786912
 30
0.0
 40
0.18
 41
0.0
 71
     4
 72
     5
  1

 73
     1
 44
1.0
1001
ACAD
1000
MTEXTBEGIN
1070
    73
1070
     1
1070
    44
1040
1.0
1070
    74
1070
     0
1000
MTEXTEND
  0
MTEXT
  5
5C
330
2
100
AcDbEntity
  8
PHANTOM
 62
     7
100
AcDbMText
 10
31.32694300153645
 20
12.01700874910375
 30
0.0
 40
0.18
 41
0.0
 71
     6
 72
     5
  1

 73
     1
 44
1.0
1001
ACAD
1000
MTEXTBEGIN
1070
    73
1070
     1
1070
    44
1040
1.0
1070
    74
1070
     0
1000
MTEXTEND
  0
MTEXT
  5
5D
330
2
100
AcDbEntity
  8
PHANTOM
 62
     7
100
AcDbMText
 10
33.54578470832823
 20
17.32471301506899
 30
0.0
 40
0.18
 41
0.0
 71
     4
 72
     5
  1

 73
     1
 44
1.0
1001
ACAD
1000
MTEXTBEGIN
1070
    73
1070
     1
1070
    44
1040
1.0
1070
    74
1070
     0
1000
MTEXTEND
  0
MTEXT
  5
5E
330
2
100
AcDbEntity
  8
PHANTOM
 62
     7
100
AcDbMText
 10
33.96149074958217
 20
16.9345384940226
 30
0.0
 40
0.18
 41
0.0
 71
     4
 72
     5
  1

 73
     1
 44
1.0
1001
ACAD
1000
MTEXTBEGIN
1070
    73
1070
     1
1070
    44
1040
1.0
1070
    74
1070
     0
1000
MTEXTEND
  0
LINE
  5
5F
330
2
100
AcDbEntity
  8
10
100
AcDbLine
 10
16.80330039391821
 20
10.33319819454246
 30
0.0
 11
16.8033003939182
 21
10.08319819454246
 31
0.0
  0
LINE
  5
61
330
2
100
AcDbEntity
  8
10
100
AcDbLine
 10
-0.1966996060817934
 20
-0.666801805457542
 30
0.0
 11
0.0533003939182066
 21
-0.6668018054575425
 31
0.0
  0
LINE
  5
62
330
2
100
AcDbEntity
  8
10
100
AcDbLine
 10
-0.1966996060817934
 20
10.33319819454246
 30
0.0
 11
0.0533003939182066
 21
10.33319819454246
 31
0.0
  0
LINE
  5
63
330
2
100
AcDbEntity
  8
10
100
AcDbLine
 10
-0.1966996060817934
 20
10.33319819454246
 30
0.0
 11
-0.1966996060817898
 21
10.08319819454245
 31
0.0
  0
LINE
  5
64
330
2
100
AcDbEntity
  8
10
100
AcDbLine
 10
16.8033003939182
 20
-0.4168018054575402
 30
0.0
 11
16.80330039391821
 21
-0.6668018054575398
 31
0.0
  0
LINE
  5
65
330
2
100
AcDbEntity
  8
10
100
AcDbLine
 10
16.5533003939182
 20
-0.6668018054575398
 30
0.0
 11
16.80330039391821
 21
-0.6668018054575398
 31
0.0
  0
LINE
  5
66
330
2
100
AcDbEntity
  8
10
100
AcDbLine
 10
16.5533003939182
 20
10.33319819454246
 30
0.0
 11
16.80330039391821
 21
10.33319819454246
 31
0.0
  0
LINE
  5
67
330
2
100
AcDbEntity
  8
10
100
AcDbLine
 10
-0.1966996060817898
 20
-0.4168018054575421
 30
0.0
 11
-0.1966996060817934
 21
-0.666801805457542
 31
0.0
  0
LINE
  5
68
330
2
100
AcDbEntity
  8
10
100
AcDbLine
 10
7.607206667940406
 20
0.0397415982170881
 30
0.0
 11
12.35330041794039
 21
0.0397415982170881
 31
0.0
  0
TEXT
  5
69
330
2
100
AcDbEntity
  8
10
 62
     7
100
AcDbText
 10
7.730144001122062
 20
-0.3492021956993478
 30
0.0
 40
0.094921875
  1
REV
100
AcDbText
  0
TEXT
  5
6A
330
2
100
AcDbEntity
  8
10
 62
     7
100
AcDbText
 10
9.218633309176775
 20
-0.3443647924056079
 30
0.0
 40
0.094921875
  1
DESCRIPTION
100
AcDbText
  0
TEXT
  5
6B
330
2
100
AcDbEntity
  8
10
 62
     7
100
AcDbText
 10
11.3411680437491
 20
-0.3472913362232091
 30
0.0
 40
0.094921875
  1
DATE
100
AcDbText
  0
TEXT
  5
6C
330
2
100
AcDbEntity
  8
10
 62
     7
100
AcDbText
 10
12.05523424149104
 20
-0.3424537940444945
 30
0.0
 40
0.094921875
  1
BY
100
AcDbText
  0
LINE
  5
6D
330
2
100
AcDbEntity
  8
10
100
AcDbLine
 10
7.607206667940406
 20
-0.1580123080329119
 30
0.0
 11
12.35330041794039
 21
-0.1580123080329119
 31
0.0
  0
LINE
  5
6E
330
2
100
AcDbEntity
  8
10
100
AcDbLine
 10
8.081816042940401
 20
0.0397415982170881
 30
0.0
 11
8.081816042940371
 21
-0.4168018054575616
 31
0.0
  0
LINE
  5
6F
330
2
100
AcDbEntity
  8
10
100
AcDbLine
 10
11.8786910429404
 20
0.0397415982170881
 30
0.0
 11
11.8786910429404
 21
-0.4168018054575612
 31
0.0
  0
LINE
  5
70
330
2
100
AcDbEntity
  8
10
100
AcDbLine
 10
11.16677698044041
 20
0.0397415982170881
 30
0.0
 11
11.16677698044044
 21
-0.4168018054575612
 31
0.0
  0
TEXT
  5
71
330
2
100
AcDbEntity
  8
10
 62
     7
100
AcDbText
 10
7.723691192201881
 20
-0.1191930964803265
 30
0.0
 40
0.094921875
  1
XXX
100
AcDbText
  0
TEXT
  5
72
330
2
100
AcDbEntity
  8
10
 62
     7
100
AcDbText
 10
9.212180500256595
 20
-0.1143556931865848
 30
0.0
 40
0.094921875
  1
XXXXXXXXXXX
100
AcDbText
  0
TEXT
  5
73
330
2
100
AcDbEntity
  8
10
 62
     7
100
AcDbText
 10
11.33471523482892
 20
-0.1172822370041859
 30
0.0
 40
0.094921875
  1
XXXX
100
AcDbText
  0
TEXT
  5
74
330
2
100
AcDbEntity
  8
10
 62
     7
100
AcDbText
 10
11.99870135161346
 20
-0.1124446948254731
 30
0.0
 40
0.094921875
  1
XXX
100
AcDbText
  0
LINE
  5
75
330
2
100
AcDbEntity
  8
10
100
AcDbLine
 10
0.0533003939182066
 20
-0.4168018054575417
 30
0.0
 11
16.5533003939182
 21
-0.4168018054575519
 31
0.0
  0
LINE
  5
76
330
2
100
AcDbEntity
  8
10
100
AcDbLine
 10
7.607206667940392
 20
0.0397415982170881
 30
0.0
 11
7.607206667940374
 21
-0.4168018054575616
 31
0.0
  0
LINE
  5
77
330
2
100
AcDbEntity
  8
10
100
AcDbLine
 10
12.35330042998
 20
1.059760694542438
 30
0.0
 11
12.3533003939182
 21
-0.4168018054575519
 31
0.0
  0
CIRCLE
  5
78
330
2
100
AcDbEntity
  8
10
 62
     1
100
AcDbCircle
 10
0.0533003939182031
 20
-0.4168018054575421
 30
0.0
 40
0.1415883773737505
  0
LINE
  5
79
330
2
100
AcDbEntity
  8
10
100
AcDbLine
 10
0.0533003939182137
 20
10.08319819454246
 30
0.0
 11
16.5533003939182
 21
10.08319819454245
 31
0.0
  0
LINE
  5
7A
330
2
100
AcDbEntity
  8
10
100
AcDbLine
 10
0.0533003939182137
 20
10.08319819454246
 30
0.0
 11
0.0533003939182066
 21
-0.4168018054575411
 31
0.0
  0
LINE
  5
7B
330
2
100
AcDbEntity
  8
10
100
AcDbLine
 10
7.607206654908456
 20
0.8307569567352768
 30
0.0
 11
12.35330040490844
 21
0.8307569567352768
 31
0.0
  0
TEXT
  5
7C
330
2
100
AcDbEntity
  8
10
 62
     7
100
AcDbText
 10
7.723691179169933
 20
0.8695761682878631
 30
0.0
 40
0.094921875
  1
XXX
100
AcDbText
  0
LINE
  5
7D
330
2
100
AcDbEntity
  8
10
100
AcDbLine
 10
7.607206654908447
 20
1.059760694542438
 30
0.0
 11
7.607206654908433
 21
0.8307569567352768
 31
0.0
  0
LINE
  5
7E
330
2
100
AcDbEntity
  8
10
100
AcDbLine
 10
8.081816029908456
 20
1.059760694542438
 30
0.0
 11
8.081816029908441
 21
0.8307569567352768
 31
0.0
  0
TEXT
  5
7F
330
2
100
AcDbEntity
  8
10
 62
     7
100
AcDbText
 10
9.212180487224648
 20
0.8744135715816053
 30
0.0
 40
0.094921875
  1
XXXXXXXXXXX
100
AcDbText
  0
LINE
  5
80
330
2
100
AcDbEntity
  8
10
100
AcDbLine
 10
11.16677696740847
 20
1.059760694542438
 30
0.0
 11
11.16677696740848
 21
0.8307569567352768
 31
0.0
  0
LINE
  5
81
330
2
100
AcDbEntity
  8
10
100
AcDbLine
 10
11.87869102990845
 20
1.059760694542438
 30
0.0
 11
11.87869102990845
 21
0.8307569567352768
 31
0.0
  0
TEXT
  5
82
330
2
100
AcDbEntity
  8
10
 62
     7
100
AcDbText
 10
11.33471522179697
 20
0.8714870277640031
 30
0.0
 40
0.094921875
  1
XXXX
100
AcDbText
  0
TEXT
  5
83
330
2
100
AcDbEntity
  8
10
 62
     7
100
AcDbText
 10
11.99870133858151
 20
0.8763245699427159
 30
0.0
 40
0.094921875
  1
XXX
100
AcDbText
  0
LINE
  5
84
330
2
100
AcDbEntity
  8
10
100
AcDbLine
 10
7.607206654908456
 20
0.633003103781638
 30
0.0
 11
12.35330040490844
 21
0.633003103781638
 31
0.0
  0
LINE
  5
85
330
2
100
AcDbEntity
  8
10
100
AcDbLine
 10
7.607206654908456
 20
0.8307570100316379
 30
0.0
 11
12.35330040490844
 21
0.8307570100316379
 31
0.0
  0
TEXT
  5
86
330
2
100
AcDbEntity
  8
10
 62
     7
100
AcDbText
 10
7.723691179169933
 20
0.6718223153342242
 30
0.0
 40
0.094921875
  1
XXX
100
AcDbText
  0
LINE
  5
87
330
2
100
AcDbEntity
  8
10
100
AcDbLine
 10
7.607206654908447
 20
0.8307570100316375
 30
0.0
 11
7.607206654908433
 21
0.633003103781638
 31
0.0
  0
LINE
  5
88
330
2
100
AcDbEntity
  8
10
100
AcDbLine
 10
8.081816029908454
 20
0.8307570100316375
 30
0.0
 11
8.081816029908441
 21
0.633003103781638
 31
0.0
  0
TEXT
  5
89
330
2
100
AcDbEntity
  8
10
 62
     7
100
AcDbText
 10
9.212180487224648
 20
0.6766597186279664
 30
0.0
 40
0.094921875
  1
XXXXXXXXXXX
100
AcDbText
  0
LINE
  5
8A
330
2
100
AcDbEntity
  8
10
100
AcDbLine
 10
11.16677696740847
 20
0.8307570100316379
 30
0.0
 11
11.16677696740848
 21
0.633003103781638
 31
0.0
  0
LINE
  5
8B
330
2
100
AcDbEntity
  8
10
100
AcDbLine
 10
11.87869102990845
 20
0.8307570100316379
 30
0.0
 11
11.87869102990845
 21
0.633003103781638
 31
0.0
  0
TEXT
  5
8C
330
2
100
AcDbEntity
  8
10
 62
     7
100
AcDbText
 10
11.33471522179697
 20
0.6737331748103644
 30
0.0
 40
0.094921875
  1
XXXX
100
AcDbText
  0
TEXT
  5
8D
330
2
100
AcDbEntity
  8
10
 62
     7
100
AcDbText
 10
11.99870133858151
 20
0.6785707169890776
 30
0.0
 40
0.094921875
  1
XXX
100
AcDbText
  0
LINE
  5
8E
330
2
100
AcDbEntity
  8
10
100
AcDbLine
 10
7.607206661424427
 20
0.2374953978743655
 30
0.0
 11
12.35330041142442
 21
0.2374953978743655
 31
0.0
  0
LINE
  5
8F
330
2
100
AcDbEntity
  8
10
100
AcDbLine
 10
7.607206661424427
 20
0.4352493041243656
 30
0.0
 11
12.35330041142442
 21
0.4352493041243656
 31
0.0
  0
TEXT
  5
90
330
2
100
AcDbEntity
  8
10
 62
     7
100
AcDbText
 10
7.723691185685906
 20
0.2763146094269517
 30
0.0
 40
0.094921875
  1
XXX
100
AcDbText
  0
LINE
  5
91
330
2
100
AcDbEntity
  8
10
100
AcDbLine
 10
7.607206661424417
 20
0.4352493041243651
 30
0.0
 11
7.607206661424406
 21
0.2374953978743655
 31
0.0
  0
LINE
  5
92
330
2
100
AcDbEntity
  8
10
100
AcDbLine
 10
8.081816036424426
 20
0.4352493041243651
 30
0.0
 11
8.081816036424411
 21
0.2374953978743655
 31
0.0
  0
TEXT
  5
93
330
2
100
AcDbEntity
  8
10
 62
     7
100
AcDbText
 10
9.212180493740619
 20
0.2811520127206939
 30
0.0
 40
0.094921875
  1
XXXXXXXXXXX
100
AcDbText
  0
LINE
  5
94
330
2
100
AcDbEntity
  8
10
100
AcDbLine
 10
11.16677697392444
 20
0.4352493041243656
 30
0.0
 11
11.16677697392445
 21
0.2374953978743655
 31
0.0
  0
LINE
  5
95
330
2
100
AcDbEntity
  8
10
100
AcDbLine
 10
11.87869103642442
 20
0.4352493041243656
 30
0.0
 11
11.87869103642442
 21
0.2374953978743655
 31
0.0
  0
TEXT
  5
96
330
2
100
AcDbEntity
  8
10
 62
     7
100
AcDbText
 10
11.33471522831294
 20
0.2782254689030918
 30
0.0
 40
0.094921875
  1
XXXX
100
AcDbText
  0
TEXT
  5
97
330
2
100
AcDbEntity
  8
10
 62
     7
100
AcDbText
 10
11.99870134509748
 20
0.2830630110818051
 30
0.0
 40
0.094921875
  1
XXX
100
AcDbText
  0
LINE
  5
98
330
2
100
AcDbEntity
  8
10
100
AcDbLine
 10
7.607206661424427
 20
0.4352492508280026
 30
0.0
 11
12.35330041142442
 21
0.4352492508280026
 31
0.0
  0
LINE
  5
99
330
2
100
AcDbEntity
  8
10
100
AcDbLine
 10
7.607206661424427
 20
0.6330031570780026
 30
0.0
 11
12.35330041142442
 21
0.6330031570780026
 31
0.0
  0
TEXT
  5
9A
330
2
100
AcDbEntity
  8
10
 62
     7
100
AcDbText
 10
7.723691185685906
 20
0.474068462380589
 30
0.0
 40
0.094921875
  1
XXX
100
AcDbText
  0
LINE
  5
9B
330
2
100
AcDbEntity
  8
10
100
AcDbLine
 10
7.607206661424417
 20
0.6330031570780023
 30
0.0
 11
7.607206661424406
 21
0.4352492508280026
 31
0.0
  0
LINE
  5
9C
330
2
100
AcDbEntity
  8
10
100
AcDbLine
 10
8.081816036424426
 20
0.6330031570780023
 30
0.0
 11
8.081816036424411
 21
0.4352492508280026
 31
0.0
  0
TEXT
  5
9D
330
2
100
AcDbEntity
  8
10
 62
     7
100
AcDbText
 10
9.212180493740619
 20
0.4789058656743311
 30
0.0
 40
0.094921875
  1
XXXXXXXXXXX
100
AcDbText
  0
LINE
  5
9E
330
2
100
AcDbEntity
  8
10
100
AcDbLine
 10
11.16677697392444
 20
0.6330031570780026
 30
0.0
 11
11.16677697392445
 21
0.4352492508280026
 31
0.0
  0
LINE
  5
9F
330
2
100
AcDbEntity
  8
10
100
AcDbLine
 10
11.87869103642442
 20
0.6330031570780026
 30
0.0
 11
11.87869103642442
 21
0.4352492508280026
 31
0.0
  0
TEXT
  5
A0
330
2
100
AcDbEntity
  8
10
 62
     7
100
AcDbText
 10
11.33471522831294
 20
0.4759793218567291
 30
0.0
 40
0.094921875
  1
XXXX
100
AcDbText
  0
TEXT
  5
A1
330
2
100
AcDbEntity
  8
10
 62
     7
100
AcDbText
 10
11.99870134509748
 20
0.4808168640354423
 30
0.0
 40
0.094921875
  1
XXX
100
AcDbText
  0
LINE
  5
A2
330
2
100
AcDbEntity
  8
10
100
AcDbLine
 10
7.607206661424427
 20
0.0397415449207266
 30
0.0
 11
12.35330041142442
 21
0.0397415449207266
 31
0.0
  0
LINE
  5
A3
330
2
100
AcDbEntity
  8
10
100
AcDbLine
 10
7.607206661424427
 20
0.2374954511707266
 30
0.0
 11
12.35330041142442
 21
0.2374954511707266
 31
0.0
  0
TEXT
  5
A4
330
2
100
AcDbEntity
  8
10
 62
     7
100
AcDbText
 10
7.723691185685906
 20
0.0785607564733129
 30
0.0
 40
0.094921875
  1
XXX
100
AcDbText
  0
LINE
  5
A5
330
2
100
AcDbEntity
  8
10
100
AcDbLine
 10
7.607206661424417
 20
0.2374954511707261
 30
0.0
 11
7.607206661424406
 21
0.0397415449207266
 31
0.0
  0
LINE
  5
A6
330
2
100
AcDbEntity
  8
10
100
AcDbLine
 10
8.081816036424426
 20
0.2374954511707261
 30
0.0
 11
8.081816036424411
 21
0.0397415449207266
 31
0.0
  0
TEXT
  5
A7
330
2
100
AcDbEntity
  8
10
 62
     7
100
AcDbText
 10
9.212180493740619
 20
0.0833981597670546
 30
0.0
 40
0.094921875
  1
XXXXXXXXXXX
100
AcDbText
  0
LINE
  5
A8
330
2
100
AcDbEntity
  8
10
100
AcDbLine
 10
11.16677697392444
 20
0.2374954511707266
 30
0.0
 11
11.16677697392445
 21
0.0397415449207266
 31
0.0
  0
LINE
  5
A9
330
2
100
AcDbEntity
  8
10
100
AcDbLine
 10
11.87869103642442
 20
0.2374954511707266
 30
0.0
 11
11.87869103642442
 21
0.0397415449207266
 31
0.0
  0
TEXT
  5
AA
330
2
100
AcDbEntity
  8
10
 62
     7
100
AcDbText
 10
11.33471522831294
 20
0.080471615949453
 30
0.0
 40
0.094921875
  1
XXXX
100
AcDbText
  0
TEXT
  5
AB
330
2
100
AcDbEntity
  8
10
 62
     7
100
AcDbText
 10
11.99870134509748
 20
0.0853091581281662
 30
0.0
 40
0.094921875
  1
XXX
100
AcDbText
  0
LINE
  5
AC
330
2
100
AcDbEntity
  8
10
100
AcDbLine
 10
7.607206654908447
 20
1.059760694542438
 30
0.0
 11
12.35330042998
 21
1.059760694542438
 31
0.0
  0
LINE
  5
AD
330
2
100
AcDbEntity
  8
10
100
AcDbLine
 10
16.5533003939182
 20
10.08319819454245
 30
0.0
 11
16.5533003939182
 21
-0.4168018054575519
 31
0.0
  0
LINE
  5
AE
102
{ACAD_REACTORS
330
111
102
}
330
2
100
AcDbEntity
  8
0
 62
   254
100
AcDbLine
 10
7.504635017867256
 20
7.213138902745192
 30
0.0
 11
7.504635017867255
 21
8.208775847145991
 31
0.0
  0
LINE
  5
AF
102
{ACAD_REACTORS
330
111
102
}
330
2
100
AcDbEntity
  8
0
 62
   254
100
AcDbLine
 10
7.692135017867255
 20
7.213138902745192
 30
0.0
 11
7.692135017867255
 21
8.185350199209622
 31
0.0
  0
LINE
  5
B0
102
{ACAD_REACTORS
330
111
102
}
330
2
100
AcDbEntity
  8
0
 62
   254
100
AcDbLine
 10
7.504635017867255
 20
6.338138902745192
 30
0.0
 11
7.504635017867255
 21
5.269853161482222
 31
0.0
  0
LINE
  5
B1
102
{ACAD_REACTORS
330
111
102
}
330
2
100
AcDbEntity
  8
0
 62
   254
100
AcDbLine
 10
7.692135017867256
 20
6.338138902745192
 30
0.0
 11
7.692135017867255
 21
5.282176565273841
 31
0.0
  0
SPLINE
  5
B2
102
{ACAD_REACTORS
330
111
102
}
330
2
100
AcDbEntity
  8
0
 62
   254
100
AcDbSpline
210
0.0
220
0.0
230
1.0
 70
     8
 71
     3
 72
    10
 73
     6
 74
     4
 42
0.0000000001
 43
0.0000000001
 44
0.0000000001
 40
0.0
 40
0.0
 40
0.0
 40
0.0
 40
0.1357895590679723
 40
0.193923083002408
 40
0.2613264037073109
 40
0.2613264037073109
 40
0.2613264037073109
 40
0.2613264037073109
 10
7.504635017867255
 20
8.208775847145991
 30
0.0
 10
7.540207327529941
 20
8.148600100016951
 30
0.0
 10
7.591008670480405
 20
8.062662223162989
 30
0.0
 10
7.624909386049528
 20
8.174066661873112
 30
0.0
 10
7.668649856999296
 20
8.18140831450966
 30
0.0
 10
7.692135017867255
 20
8.185350199209622
 30
0.0
 11
7.504635017867255
 21
8.208775847145991
 31
0.0
 11
7.598778075401347
 21
8.110919375362021
 31
0.0
 11
7.629594404008976
 21
8.160212990528513
 31
0.0
 11
7.692135017867255
 21
8.185350199209622
 31
0.0
  0
SPLINE
  5
B3
102
{ACAD_REACTORS
330
111
102
}
330
2
100
AcDbEntity
  8
0
 62
   254
100
AcDbSpline
210
0.0
220
0.0
230
1.0
 70
     8
 71
     3
 72
    10
 73
     6
 74
     4
 42
0.0000000001
 43
0.0000000001
 44
0.0000000001
 40
0.0
 40
0.0
 40
0.0
 40
0.0
 40
0.0986813728233523
 40
0.1422567023078899
 40
0.2180802327531816
 40
0.2180802327531816
 40
0.2180802327531816
 40
0.2180802327531816
 10
7.504635017867255
 20
5.269853161482222
 30
0.0
 10
7.533940036378938
 20
5.304275804111142
 30
0.0
 10
7.576185448813626
 20
5.353898660836891
 30
0.0
 10
7.621534153499538
 20
5.27672792543215
 30
0.0
 10
7.664713948088512
 20
5.280060337170456
 30
0.0
 10
7.692135017867255
 20
5.282176565273841
 30
0.0
 11
7.504635017867255
 21
5.269853161482222
 31
0.0
 11
7.586456245964653
 21
5.325019274041792
 31
0.0
 11
7.617272574572275
 21
5.294210781205675
 31
0.0
 11
7.692135017867255
 21
5.282176565273841
 31
0.0
  0
LINE
  5
B4
102
{ACAD_REACTORS
330
111
102
}
330
2
100
AcDbEntity
  8
0
 62
   254
100
AcDbLine
 10
7.692135017867255
 20
7.213138902745192
 30
0.0
 11
7.504635017867256
 21
7.213138902745192
 31
0.0
  0
LINE
  5
B5
102
{ACAD_REACTORS
330
111
102
}
330
2
100
AcDbEntity
  8
0
 62
   254
100
AcDbLine
 10
7.692135017867256
 20
6.338138902745192
 30
0.0
 11
7.504635017867255
 21
6.338138902745192
 31
0.0
  0
DIMENSION
  5
B6
330
2
100
AcDbEntity
  8
0
 62
     7
100
AcDbDimension
  2
*D9
 10
7.692135017867256
 20
8.640061960244487
 30
0.0
 11
8.832481319671897
 21
8.640061960244487
 31
0.0
 70
   128
 71
     5
 42
2.221999999999999
  3
Standard
100
AcDbAlignedDimension
 13
9.914135017867256
 23
7.416514281844031
 33
0.0
 14
7.692135017867256
 24
8.185350199209619
 34
0.0
100
AcDbRotatedDimension
  0
DIMENSION
  5
C5
330
2
100
AcDbEntity
  8
0
 62
     7
100
AcDbDimension
  2
*D10
 10
6.607135017867254
 20
8.640315365766653
 30
0.0
 11
7.022264189480437
 21
8.640315365766653
 31
0.0
 70
   128
 71
     5
 42
0.8974999999999997
  3
Standard
100
AcDbAlignedDimension
 13
7.504635017867255
 23
8.208775847145991
 33
0.0
 14
6.607135017867254
 24
7.272514281844023
 34
0.0
100
AcDbRotatedDimension
  0
DIMENSION
  5
D3
330
2
100
AcDbEntity
  8
0
 62
     7
100
AcDbDimension
  2
*D11
 10
7.692135017867256
 20
5.191809020538455
 30
0.0
 11
8.582730255962495
 21
5.191809020538455
 31
0.0
 70
   128
  1
PANEL THK\P(<> SHOWN)
 71
     5
 42
0.1875000000000009
  3
Standard
100
AcDbAlignedDimension
 13
7.504635017867255
 23
5.269853161482222
 33
0.0
 14
7.692135017867256
 24
5.282176565273841
 34
0.0
100
AcDbRotatedDimension
  0
DIMENSION
  5
E1
330
2
100
AcDbEntity
  8
0
 62
     7
100
AcDbDimension
  2
*D12
 10
1.668919782594586
 20
6.128314281844023
 30
0.0
 11
1.668919782594584
 21
6.93834607626961
 31
0.0
 70
   128
 71
     5
 42
1.288399999999997
  3
Standard
100
AcDbAlignedDimension
 13
2.347351878750104
 23
7.41671428184402
 33
0.0
 14
2.347351878750104
 24
6.128314281844022
 34
0.0
 50
90.0
100
AcDbRotatedDimension
  0
DIMENSION
  5
EF
330
2
100
AcDbEntity
  8
0
 62
     7
100
AcDbDimension
  2
*D13
 10
3.880039718750106
 20
8.336030712700477
 30
0.0
 11
3.079555134373278
 21
8.336030712700477
 31
0.0
 70
   128
 71
     5
 42
1.572687840000005
  3
Standard
100
AcDbAlignedDimension
 13
2.307351878750099
 23
7.37671428184402
 33
0.0
 14
3.880039718750106
 24
7.376714281844022
 34
0.0
100
AcDbRotatedDimension
  0
DIMENSION
  5
FD
330
2
100
AcDbEntity
  8
0
 62
     7
100
AcDbDimension
  2
*D8
 10
2.64893401988804
 20
7.165866569956651
 30
0.0
 11
4.408584942905418
 21
5.968219301542013
 31
0.0
 70
   131
 71
     5
 42
1.187500000000001
  3
Standard
100
AcDbDiametricDimension
 15
3.538457577612183
 25
6.379161993731377
 35
0.0
 40
0.0
  0
LEADER
  5
109
330
2
100
AcDbEntity
  8
0
 62
     7
100
AcDbLeader
  3
Standard
 73
     0
 40
0.125
 41
0.7797619047619046
 76
     3
 10
3.337345877153971
 20
2.818217221203481
 30
0.0
 10
3.035993225485051
 20
3.638357420010761
 30
0.0
 10
2.51699694276796
 20
3.638357420010761
 30
0.0
340
10A
  0
MTEXT
  5
10A
102
{ACAD_REACTORS
330
109
102
}
330
2
100
AcDbEntity
  8
0
 62
     7
100
AcDbMText
 10
2.42699694276796
 20
3.638357420010761
 30
0.0
 40
0.125
 41
0.0
 71
     6
 72
     1
  1
HOUSING
 73
     1
 44
1.0
1001
ACAD
1000
MTEXTBEGIN
1070
    73
1070
     1
1070
    44
1040
1.0
1070
    74
1070
     0
1000
MTEXTEND
  0
LEADER
  5
10B
330
2
100
AcDbEntity
  8
0
 62
     7
100
AcDbLeader
  3
Standard
 73
     0
 40
0.125
 41
1.452380952380951
 76
     3
 10
3.959513451273321
 20
1.815661618792185
 30
0.0
 10
4.559498332312358
 20
0.6255975977308799
 30
0.0
 10
4.71017465814682
 20
0.6255975977308799
 30
0.0
340
10C
  0
MTEXT
  5
10C
102
{ACAD_REACTORS
330
10B
102
}
330
2
100
AcDbEntity
  8
0
 62
     7
100
AcDbMText
 10
4.800174658146818
 20
0.6255975977308799
 30
0.0
 40
0.125
 41
0.0
 71
     4
 72
     1
  1
POTENTIOMETER
 73
     1
 44
1.0
1001
ACAD
1000
MTEXTBEGIN
1070
    73
1070
     1
1070
    44
1040
1.0
1070
    74
1070
     0
1000
MTEXTEND
  0
LEADER
  5
10D
330
2
100
AcDbEntity
  8
0
 62
     7
100
AcDbLeader
  3
Standard
 73
     0
 74
     0
 75
     1
 40
0.125
 41
1.577380952380951
 76
     4
 10
4.676344888143052
 20
2.45780968439552
 30
0.0
 10
4.296372317408653
 20
3.445860126310698
 30
0.0
 10
4.73748432374575
 20
3.753592750607039
 30
0.0
 10
4.86248432374575
 20
3.753592750607039
 30
0.0
340
10E
  0
MTEXT
  5
10E
102
{ACAD_REACTORS
330
10D
102
}
330
2
100
AcDbEntity
  8
0
 62
     7
100
AcDbMText
 10
4.95248432374575
 20
3.753592750607039
 30
0.0
 40
0.125
 41
0.0
 71
     4
 72
     1
  1
TERMINAL BLOCK
 73
     1
 44
1.0
1001
ACAD
1000
MTEXTBEGIN
1070
    73
1070
     1
1070
    44
1040
1.0
1070
    74
1070
     0
1000
MTEXTEND
  0
LEADER
  5
10F
330
2
100
AcDbEntity
  8
0
 62
     7
100
AcDbLeader
  3
Standard
 73
     0
 40
0.125
 41
0.4702380952380953
 76
     2
 10
1.797098921843961
 20
1.378787544979372
 30
0.0
 10
0.9934918359406534
 20
1.378787544979372
 30
0.0
340
110
  0
MTEXT
  5
110
102
{ACAD_REACTORS
330
10F
102
}
330
2
100
AcDbEntity
  8
0
 62
     7
100
AcDbMText
 10
0.9034918359406534
 20
1.378787544979372
 30
0.0
 40
0.125
 41
0.0
 71
     6
 72
     1
  1
KNOB
 73
     1
 44
1.0
1001
ACAD
1000
MTEXTBEGIN
1070
    73
1070
     1
1070
    44
1040
1.0
1070
    74
1070
     0
1000
MTEXTEND
  0
HATCH
  5
111
330
2
100
AcDbEntity
  8
0
 62
   254
100
AcDbHatch
 10
0.0
 20
0.0
 30
0.0
210
0.0
220
0.0
230
1.0
  2
ANSI31
 70
     0
 71
     1
 91
        2
 92
        5
 93
        4
 72
     1
 10
7.504635017867255
 20
7.213138902745192
 11
7.692135017867255
 21
7.21313890274519
 72
     1
 10
7.692135017867255
 20
7.21313890274519
 11
7.692135017867256
 21
8.185350199209619
 72
     4
 94
        3
 73
     0
 74
     0
 95
       10
 96
        6
 40
0.0
 40
0.0
 40
0.0
 40
0.0
 40
0.0674033207049029
 40
0.1255368446393366
 40
0.2613264037073095
 40
0.2613264037073095
 40
0.2613264037073095
 40
0.2613264037073095
 10
7.692135017867255
 20
8.185350199209622
 10
7.668649856999298
 20
8.18140831450966
 10
7.624909386049531
 20
8.174066661873112
 10
7.591008670480402
 20
8.062662223162991
 10
7.540207327529941
 20
8.148600100016951
 10
7.504635017867255
 20
8.208775847145991
 72
     1
 10
7.504635017867255
 20
8.208775847145995
 11
7.504635017867255
 21
7.213138902745192
 97
        4
330
B2
330
AE
330
B4
330
AF
 92
        5
 93
        4
 72
     1
 10
7.692135017867256
 20
6.338138902745192
 11
7.504635017867255
 21
6.338138902745192
 72
     1
 10
7.504635017867255
 20
6.338138902745192
 11
7.504635017867253
 21
5.269853161482221
 72
     4
 94
        3
 73
     0
 74
     0
 95
       10
 96
        6
 40
0.0
 40
0.0
 40
0.0
 40
0.0
 40
0.0986813728233533
 40
0.1422567023078889
 40
0.2180802327531807
 40
0.2180802327531807
 40
0.2180802327531807
 40
0.2180802327531807
 10
7.504635017867255
 20
5.269853161482222
 10
7.533940036378938
 20
5.304275804111143
 10
7.576185448813625
 20
5.353898660836891
 10
7.621534153499542
 20
5.276727925432152
 10
7.664713948088511
 20
5.280060337170455
 10
7.692135017867255
 20
5.282176565273841
 72
     1
 10
7.692135017867255
 20
5.28217656527384
 11
7.692135017867256
 21
6.338138902745192
 97
        4
330
B5
330
B0
330
B3
330
B1
 75
     0
 76
     1
 52
0.0
 41
0.5
 77
     0
 78
     1
 53
45.0
 43
-0.00281877495717
 44
-0.121432363576397
 45
-0.0441941738241592
 46
0.0441941738241592
 79
     0
 47
0.0083687772289736
 98
        2
 10
7.566674506017192
 20
7.614737183171492
 10
7.600158158624048
 20
5.723393491998036
  0
TEXT
  5
112
330
2
100
AcDbEntity
  8
DIMENSION
 62
     7
100
AcDbText
 10
6.962096379222358
 20
2.575230315895885
 30
0.0
 40
0.125
  1
1/16"                      4
100
AcDbText
  0
TEXT
  5
114
330
2
100
AcDbEntity
  8
DIMENSION
 62
     7
100
AcDbText
 10
6.962096379222358
 20
2.341003532479713
 30
0.0
 40
0.125
  1
1/8"                       3
100
AcDbText
  0
TEXT
  5
115
330
2
100
AcDbEntity
  8
DIMENSION
 62
     7
100
AcDbText
 10
6.962096379222358
 20
2.145382515823988
 30
0.0
 40
0.125
  1
3/16"                      2
100
AcDbText
  0
TEXT
  5
116
330
2
100
AcDbEntity
  8
DIMENSION
 62
     7
100
AcDbText
 10
6.962096379222358
 20
1.911155732407816
 30
0.0
 40
0.125
  1
1/4"                       1
100
AcDbText
  0
TEXT
  5
117
330
2
100
AcDbEntity
  8
DIMENSION
 62
     7
100
AcDbText
 10
6.962096379222358
 20
1.645382515823988
 30
0.0
 40
0.125
  1
REMOVE ONE ADDITIONAL GASKET
100
AcDbText
  0
TEXT
  5
118
330
2
100
AcDbEntity
  8
DIMENSION
 62
     7
100
AcDbText
 10
6.962096379222358
 20
1.478715849157321
 30
0.0
 40
0.125
  1
WHEN USING A LEGEND PLATE
100
AcDbText
  0
TEXT
  5
119
330
2
100
AcDbEntity
  8
DIMENSION
 62
     7
100
AcDbText
 10
6.962096379222358
 20
3.197265334883097
 30
0.0
 40
0.125
  1
TABLE 1- MOUNTING GASKETS
100
AcDbText
  0
TEXT
  5
11A
330
2
100
AcDbEntity
  8
DIMENSION
 62
     7
100
AcDbText
 10
6.962096379222358
 20
2.863932001549766
 30
0.0
 40
0.125
  1
PANEL THICKNESS           GASKETS*
100
AcDbText
  0
LINE
  5
11B
330
2
100
AcDbEntity
  8
DIMENSION
 62
     7
100
AcDbLine
 10
6.865265712466622
 20
2.808405935869216
 30
0.0
 11
10.37510977164306
 21
2.808405935869216
 31
0.0
  0
TEXT
  5
11C
330
2
100
AcDbEntity
  8
DIMENSION
 62
     7
100
AcDbText
 10
6.789767526194879
 20
1.637883628929265
 30
0.0
 40
0.125
  1
*
100
AcDbText
  0
MTEXT
  5
11D
330
2
100
AcDbEntity
  8
DIMENSION
 62
     7
100
AcDbMText
 10
0.2013755672392037
 20
9.895286955617381
 30
0.0
 40
0.1
 41
6.075135165558954
 71
     1
 72
     5
  1
\A1;{\LNOTES:\P\P}1) MOUNTING HOLE IN PANEL - %%C{\H0.7x;\S7#8;} (22MM)\P\P2) MOUNTING HOLE SPACING (FOR STANDARD LEGEND PLATES) - HORIZONTIAL & VERTICAL DISTANCE - 1.750 CENTER TO CENTER
 73
     1
 44
1.0
1001
ACAD
1000
MTEXTBEGIN
1070
    73
1070
     1
1070
    44
1040
1.0
1070
    74
1070
     1
1000
MTEXTEND
  0
MTEXT
  5
11E
330
2
100
AcDbEntity
  8
10
 62
     7
100
AcDbMText
 10
12.98233165769574
 20
1.13968550406836
 30
0.0
 40
0.055
 41
0.0
 71
     2
 72
     5
  1
{\fArial|b0|i0|c0|p34;\LTOLERANCE:\P\P\l  .XX +/- 0.02\P .XXX +/- 0.005\P.XXXX +/- 0.001\PANGLES +/- 0.5 DEG\P\PUNLESS OTHERWISE \PSPECIFIED}
 73
     1
 44
1.0
1001
ACAD
1000
MTEXTBEGIN
1070
    73
1070
     1
1070
    44
1040
1.0
1070
    74
1070
     0
1000
MTEXTEND
  0
MTEXT
  5
11F
102
{ACAD_XDICTIONARY
360
851
102
}
330
2
100
AcDbEntity
  8
10
 62
     7
100
AcDbMText
 10
13.82963400444049
 20
0.5760348636645773
 30
0.0
 40
0.06
 41
2.47377405023723
 71
     1
 72
     5
  1
{\fArial|b0|i0|c0|p34;P.O. BOX 496        BEAVER, PA 15009         \C256;www.c3controls.com}
 73
     1
 44
1.0
1001
ACAD
1000
MTEXTBEGIN
1070
    73
1070
     1
1070
    44
1040
1.0
1070
    74
1070
     0
1000
MTEXTEND
  0
LINE
  5
120
330
2
100
AcDbEntity
  8
0
100
AcDbLine
 10
13.5533003939182
 20
0.4831981945424487
 30
0.0
 11
16.5533003939182
 21
0.4831981945424487
 31
0.0
  0
MTEXT
  5
121
330
2
100
AcDbEntity
  8
0
100
AcDbMText
 10
12.96120986865332
 20
-0.0579974885678683
 30
0.0
 40
0.06
 41
1.192090525264875
 71
     5
 72
     5
  1
{\fArial|b0|i0|c0|p34;\C7;This drawing is the property of \C5;c3\C7;controls.  The drawing may not be copied, used or disclosed, for any purpose except as authorized in writing by \C5;c3\C7;controls.}
  7
ADESK1
 73
     1
 44
1.0
1001
ACAD
1000
MTEXTBEGIN
1070
    73
1070
     1
1070
    44
1040
1.0
1070
    74
1070
     0
1000
MTEXTEND
  0
LINE
  5
123
330
2
100
AcDbEntity
  8
0
100
AcDbLine
 10
16.5533003939182
 20
-0.116801805457551
 30
0.0
 11
13.5533003939182
 21
-0.116801805457551
 31
0.0
  0
LINE
  5
124
330
2
100
AcDbEntity
  8
0
100
AcDbLine
 10
12.3533003939182
 20
-0.4168018054575519
 30
0.0
 11
16.5533003939182
 21
-0.4168018054575519
 31
0.0
  0
MTEXT
  5
125
330
2
100
AcDbEntity
  8
0
100
AcDbMText
 10
13.58311209249912
 20
0.4561062276861554
 30
0.0
 40
0.054
 41
0.5195326864819805
 71
     1
 72
     5
  1
{\fArial|b0|i0|c0|p34;\LDescription\l:}
  7
ADESK1
 73
     1
 44
1.0
1001
ACAD
1000
MTEXTBEGIN
1070
    73
1070
     1
1070
    44
1040
1.0
1070
    74
1070
     0
1000
MTEXTEND
  0
LINE
  5
126
330
2
100
AcDbEntity
  8
0
100
AcDbLine
 10
15.0533003939182
 20
-0.4168018054575519
 30
0.0
 11
13.5533003939182
 21
-0.4168018054575519
 31
0.0
  0
MTEXT
  5
127
330
2
100
AcDbEntity
  8
0
100
AcDbMText
 10
13.58233697963568
 20
-0.3079645777602691
 30
0.0
 40
0.055
 41
0.2305161642942522
 71
     1
 72
     5
  1
{\fArial|b0|i0|c0|p34;\LDate\l:}
  7
ADESK1
 73
     1
 44
1.0
1001
ACAD
1000
MTEXTBEGIN
1070
    73
1070
     1
1070
    44
1040
1.0
1070
    74
1070
     0
1000
MTEXTEND
  0
LINE
  5
128
330
2
100
AcDbEntity
  8
0
100
AcDbLine
 10
13.5533003939182
 20
-0.116801805457551
 30
0.0
 11
13.5533003939182
 21
0.0331981945424493
 31
0.0
  0
MTEXT
  5
129
330
2
100
AcDbEntity
  8
0
100
AcDbMText
 10
13.57791398701537
 20
-0.158004236455727
 30
0.0
 40
0.054
 41
0.4498542249200398
 71
     1
 72
     5
  1
{\fArial|b0|i0|c0|p34;\LDrawn By\l:}
  7
ADESK1
 73
     1
 44
1.0
1001
ACAD
1000
MTEXTBEGIN
1070
    73
1070
     1
1070
    44
1040
1.0
1070
    74
1070
     0
1000
MTEXTEND
  0
LINE
  5
12A
330
2
100
AcDbEntity
  8
0
100
AcDbLine
 10
12.3533003939182
 20
0.3331981945424483
 30
0.0
 11
13.5533003939182
 21
0.3331981945424483
 31
0.0
  0
MTEXT
  5
12B
330
2
100
AcDbEntity
  8
0
100
AcDbMText
 10
14.47148096044936
 20
-0.3076600196896626
 30
0.0
 40
0.055
 41
0.1982186059385043
 71
     1
 72
     5
  1
{\fArial|b0|i0|c0|p34;\LScale\l:}
  7
ADESK1
 73
     1
 44
1.0
1001
ACAD
1000
MTEXTBEGIN
1070
    73
1070
     1
1070
    44
1040
1.0
1070
    74
1070
     0
1000
MTEXTEND
  0
MTEXT
  5
12C
330
2
100
AcDbEntity
  8
0
100
AcDbMText
 10
15.08044508853328
 20
-0.1471409034551465
 30
0.0
 40
0.055
 41
0.7823141308883294
 71
     1
 72
     5
  1
{\fArial|b0|i0|c0|p34;\LDrawing Number\l:}
  7
ADESK1
 73
     1
 44
1.0
1001
ACAD
1000
MTEXTBEGIN
1070
    73
1070
     1
1070
    44
1040
1.0
1070
    74
1070
     0
1000
MTEXTEND
  0
LINE
  5
12D
330
2
100
AcDbEntity
  8
0
100
AcDbLine
 10
12.3533003939182
 20
1.158198194542447
 30
0.0
 11
12.3533003939182
 21
-0.4168018054575519
 31
0.0
  0
LINE
  5
12E
330
2
100
AcDbEntity
  8
0
100
AcDbLine
 10
12.3533003939182
 20
1.158198194542447
 30
0.0
 11
16.5533003939182
 21
1.158198194542451
 31
0.0
  0
LINE
  5
12F
330
2
100
AcDbEntity
  8
0
100
AcDbLine
 10
16.5533003939182
 20
1.158198194542451
 30
0.0
 11
16.5533003939182
 21
-0.4168018054575519
 31
0.0
  0
LINE
  5
130
330
2
100
AcDbEntity
  8
0
100
AcDbLine
 10
13.5533003939182
 20
1.158198194542447
 30
0.0
 11
13.5533003939182
 21
-0.4168018054575519
 31
0.0
  0
LINE
  5
131
330
2
100
AcDbEntity
  8
0
100
AcDbLine
 10
15.0533003939182
 20
-0.116801805457551
 30
0.0
 11
15.0533003939182
 21
-0.4168018054575519
 31
0.0
  0
LINE
  5
132
330
2
100
AcDbEntity
  8
0
100
AcDbLine
 10
13.5533003939182
 20
-0.2668018054575514
 30
0.0
 11
15.0533003939182
 21
-0.2668018054575514
 31
0.0
  0
MTEXT
  5
133
330
2
100
AcDbEntity
  8
0
100
AcDbMText
 10
13.95764238234924
 20
-0.1587135248285074
 30
0.0
 40
0.07
 41
1.095658011568954
 71
     1
 72
     5
  1
{\fArial|b0|i0|c0|p34;RCG}
  7
ADESK1
 73
     1
 44
1.0
1001
ACAD
1000
MTEXTBEGIN
1070
    73
1070
     1
1070
    44
1040
1.0
1070
    74
1070
     0
1000
MTEXTEND
  0
MTEXT
  5
134
330
2
100
AcDbEntity
  8
0
100
AcDbMText
 10
13.79189885669123
 20
-0.3089803536090505
 30
0.0
 40
0.07
 41
0.446961885484393
 71
     1
 72
     5
  1
{\fArial|b0|i0|c0|p34;05-21-2003}
  7
ADESK1
 73
     1
 44
1.0
1001
ACAD
1000
MTEXTBEGIN
1070
    73
1070
     1
1070
    44
1040
1.0
1070
    74
1070
     0
1000
MTEXTEND
  0
MTEXT
  5
135
330
2
100
AcDbEntity
  8
0
100
AcDbMText
 10
13.59943148525039
 20
0.3240720221779201
 30
0.0
 40
0.075
 41
2.953868908667801
 71
     1
 72
     5
  1
{\fArial|b0|i0|c0|p34;22MM PRODUCT LINE POTENTIOMETER w/ TERMINAL BLOCK DATA SHEET}
  7
ADESK1
 73
     1
 44
1.0
1001
ACAD
1000
MTEXTBEGIN
1070
    73
1070
     1
1070
    44
1040
1.0
1070
    74
1070
     0
1000
MTEXTEND
  0
MTEXT
  5
136
330
2
100
AcDbEntity
  8
0
100
AcDbMText
 10
15.80077173803681
 20
-0.3196013291586253
 30
0.0
 40
0.15
 41
0.8962278364401129
 71
     5
 72
     5
  1
{\fArial|b0|i0|c0|p34;WC100196}
  7
ADESK1
 73
     1
 44
1.0
1001
ACAD
1000
MTEXTBEGIN
1070
    73
1070
     1
1070
    44
1040
1.0
1070
    74
1070
     0
1000
MTEXTEND
  0
MTEXT
  5
137
330
2
100
AcDbEntity
  8
0
100
AcDbMText
 10
14.87380745471915
 20
-0.3434918891624514
 30
0.0
 40
0.07
 41
0.2236162507127097
 71
     5
 72
     5
  1
{\fArial|b0|i0|c0|p34;1:1}
  7
ADESK1
 73
     1
 44
1.0
1001
ACAD
1000
MTEXTBEGIN
1070
    73
1070
     1
1070
    44
1040
1.0
1070
    74
1070
     0
1000
MTEXTEND
  0
LINE
  5
138
330
2
100
AcDbEntity
  8
0
100
AcDbLine
 10
14.4533003939182
 20
-0.2668018054575514
 30
0.0
 11
14.4533003939182
 21
-0.4168018054575519
 31
0.0
  0
LINE
  5
139
330
2
100
AcDbEntity
  8
0
100
AcDbLine
 10
13.5533003939182
 20
1.158198194542447
 30
0.0
 11
16.5533003939182
 21
1.158198194542451
 31
0.0
  0
IMAGE
  5
13A
330
2
100
AcDbEntity
  8
0
 92
      140
310
8C00000001000000840000000600000005000000DDFEE38BB2C82B4098E7B293B90FE43F0000000000000000DDFEE38BB2C82B4083F1B65D9F87F13F0000000000000000C57C7FEAF036304083F1B65D9F87F13F0000000000000000C57C7FEAF036304098E7B293B90FE43F0000000000000000DDFEE38BB2C82B4098E7B2
310
93B90FE43F0000000000000000
100
AcDbRasterImage
 90
        0
 10
13.89198720129155
 20
0.6269195446723073
 30
0.0
 11
0.0104153649562928
 21
0.0
 31
0.0
 12
0.0
 22
0.0104153649562928
 32
0.0
 13
223.0
 23
45.0
340
13B
 70
     7
280
     0
281
    50
282
    50
283
     0
360
13D
 71
     1
 91
        2
 14
-0.5
 24
-0.5
 14
222.5
 24
44.5
  0
MTEXT
  5
13E
330
2
100
AcDbEntity
  8
0
100
AcDbMText
 10
13.42621223376721
 20
6.907578120513718
 30
0.0
 40
0.1875
 41
0.3163549234205476
 71
     5
 72
     5
  1
{\fArial|b0|i0|c0|p34;\C256;1}
 73
     1
 44
1.0
1001
ACAD
1000
MTEXTBEGIN
1070
    73
1070
     1
1070
    44
1040
1.0
1070
    74
1070
     0
1000
MTEXTEND
  0
MTEXT
  5
13F
330
2
100
AcDbEntity
  8
0
100
AcDbMText
 10
15.47886525360043
 20
5.745539874949668
 30
0.0
 40
0.1875
 41
0.3163549234205476
 71
     5
 72
     5
  1
{\fArial|b0|i0|c0|p34;2}
 73
     1
 44
1.0
1001
ACAD
1000
MTEXTBEGIN
1070
    73
1070
     1
1070
    44
1040
1.0
1070
    74
1070
     0
1000
MTEXTEND
  0
MTEXT
  5
140
330
2
100
AcDbEntity
  8
0
100
AcDbMText
 10
14.19621223376721
 20
6.912578120513718
 30
0.0
 40
0.1875
 41
0.3163549234205476
 71
     5
 72
     5
  1
{\fArial|b0|i0|c0|p34;3}
 73
     1
 44
1.0
1001
ACAD
1000
MTEXTBEGIN
1070
    73
1070
     1
1070
    44
1040
1.0
1070
    74
1070
     0
1000
MTEXTEND
  0
LINE
  5
141
330
2
100
AcDbEntity
  8
0
100
AcDbLine
 10
12.12378900610123
 20
4.836590004653148
 30
0.0
 11
12.37378900610123
 21
4.836590004653148
 31
0.0
  0
LINE
  5
142
330
2
100
AcDbEntity
  8
0
100
AcDbLine
 10
12.37378900610123
 20
4.836590004653148
 30
0.0
 11
12.49878900610123
 21
5.086590004653148
 31
0.0
  0
LINE
  5
143
330
2
100
AcDbEntity
  8
0
100
AcDbLine
 10
12.49878900610123
 20
5.086590004653148
 30
0.0
 11
12.62378900610123
 21
4.586590004653148
 31
0.0
  0
LINE
  5
144
330
2
100
AcDbEntity
  8
0
100
AcDbLine
 10
12.62378900610123
 20
4.586590004653148
 30
0.0
 11
12.74878900610123
 21
5.086590004653148
 31
0.0
  0
LINE
  5
145
330
2
100
AcDbEntity
  8
0
100
AcDbLine
 10
12.74878900610123
 20
5.086590004653148
 30
0.0
 11
12.87378900610123
 21
4.586590004653148
 31
0.0
  0
ELLIPSE
  5
146
330
2
100
AcDbEntity
  8
AM_VIS
100
AcDbEllipse
 10
2.337505967738276
 20
1.27160700716339
 30
0.0
 11
-0.2500000000000035
 21
0.4330127018922174
 31
-0.0000000000000001
210
-0.0000000000000001
220
0.0000000000000002
230
0.9999999999999998
 40
0.5773502691896244
 41
4.236343397425955
 42
4.392521436415971
  0
ELLIPSE
  5
148
330
2
100
AcDbEntity
  8
AM_VIS
100
AcDbEllipse
 10
2.67484985313699
 20
1.670842686743887
 30
0.0
 11
-0.0500000000000059
 21
0.0866025403784405
 31
0.0
210
0.0
220
0.0
230
0.9999999999999998
 40
0.5773502691896243
 41
4.712388980384512
 42
5.497787143781961
  0
ELLIPSE
  5
149
330
2
100
AcDbEntity
  8
AM_VIS
100
AcDbEllipse
 10
2.462717818781027
 20
1.548368199604726
 30
0.0
 11
-0.0500000000000007
 21
0.0866025403784435
 31
0.0
210
0.0
220
0.0
230
1.0
 40
0.5773502691896243
 41
4.712388980384687
 42
5.497787143782132
  0
LINE
  5
14A
330
2
100
AcDbEntity
  8
AM_VIS
100
AcDbLine
 10
1.796553374769032
 20
0.625653854238237
 30
0.0
 11
1.743408251382766
 21
0.6787156433755685
 31
0.0
  0
LINE
  5
14B
330
2
100
AcDbEntity
  8
AM_VIS
100
AcDbLine
 10
1.849162137750681
 20
0.656027537707424
 30
0.0
 11
1.796553374769033
 21
0.625653854238236
 31
0.0
  0
LINE
  5
14C
330
2
100
AcDbEntity
  8
AM_VIS
100
AcDbLine
 10
1.82084360781001
 20
0.6885436466524251
 30
0.0
 11
1.796553374769032
 21
0.6256538542382363
 31
0.0
  0
LINE
  5
14D
330
2
100
AcDbEntity
  8
AM_VIS
100
AcDbLine
 10
1.743408251382766
 20
0.6787156433755685
 30
0.0
 11
1.767698484423744
 21
0.7416054357897579
 31
0.0
  0
LINE
  5
14E
330
2
100
AcDbEntity
  8
AM_VIS
100
AcDbLine
 10
1.839193384900474
 20
0.6649269956535138
 30
0.0
 11
1.841468869023394
 21
0.6708184469166955
 31
0.0
  0
LINE
  5
14F
330
2
100
AcDbEntity
  8
AM_VIS
100
AcDbLine
 10
1.582329670053636
 20
1.450313000071695
 30
0.0
 11
1.605641899146049
 21
1.427037325736872
 31
0.0
  0
LINE
  5
150
330
2
100
AcDbEntity
  8
AM_VIS
100
AcDbLine
 10
1.562949374383588
 20
1.400135516407417
 30
0.0
 11
1.604071697495057
 21
1.423877500725527
 31
0.0
  0
LINE
  5
151
330
2
100
AcDbEntity
  8
AM_VIS
100
AcDbLine
 10
1.586261603475997
 20
1.376859842072595
 30
0.0
 11
1.562949374383586
 21
1.40013551640742
 31
0.0
  0
LINE
  5
152
330
2
100
AcDbEntity
  8
AM_VIS
100
AcDbLine
 10
1.573935240345863
 20
1.099087360711815
 30
0.0
 11
1.577977261293554
 21
1.098926611235377
 31
0.0
  0
LINE
  5
153
330
2
100
AcDbEntity
  8
AM_VIS
100
AcDbLine
 10
1.599356931865291
 20
1.026024673024249
 30
0.0
 11
1.597810578989596
 21
1.026086170829027
 31
0.0
  0
LINE
  5
154
330
2
100
AcDbEntity
  8
AM_VIS
100
AcDbLine
 10
2.094415802514184
 20
0.5302596494822112
 30
0.0
 11
2.083942830985333
 21
0.5622817872463317
 31
0.0
  0
LINE
  5
155
330
2
100
AcDbEntity
  8
AM_VIS
100
AcDbLine
 10
2.135226046608452
 20
0.5602422752873184
 30
0.0
 11
2.145699018137301
 21
0.5282201375232003
 31
0.0
  0
LINE
  5
156
330
2
100
AcDbEntity
  8
AM_VIS
100
AcDbLine
 10
2.671953730616916
 20
0.8499932814290811
 30
0.0
 11
2.31840034002364
 21
0.6458691361971485
 31
0.0
  0
LINE
  5
157
330
2
100
AcDbEntity
  8
AM_VIS
100
AcDbLine
 10
2.318400340023646
 20
0.6458691361971463
 30
0.0
 11
2.295088110931232
 21
0.6691448105319707
 31
0.0
  0
LINE
  5
158
330
2
100
AcDbEntity
  8
AM_VIS
100
AcDbLine
 10
2.33778063569369
 20
0.6960466198614226
 30
0.0
 11
2.691334026286966
 21
0.9001707650933552
 31
0.0
  0
LINE
  5
159
330
2
100
AcDbEntity
  8
AM_VIS
100
AcDbLine
 10
2.314468406601283
 20
0.7193222941962443
 30
0.0
 11
2.337780635693694
 21
0.6960466198614196
 31
0.0
  0
LINE
  5
15A
330
2
100
AcDbEntity
  8
AM_VIS
100
AcDbLine
 10
2.648641501524509
 20
0.8732689557639011
 30
0.0
 11
2.295088110931235
 21
0.6691448105319699
 31
0.0
  0
LINE
  5
15B
330
2
100
AcDbEntity
  8
AM_VIS
100
AcDbLine
 10
2.680348160324691
 20
1.201218920788958
 30
0.0
 11
2.326794769731417
 21
0.9970947755570275
 31
0.0
  0
LINE
  5
15C
330
2
100
AcDbEntity
  8
AM_VIS
100
AcDbLine
 10
2.32679476973142
 20
0.9970947755570271
 30
0.0
 11
2.304299270708635
 21
0.9979894121105946
 31
0.0
  0
LINE
  5
15D
330
2
100
AcDbEntity
  8
AM_VIS
100
AcDbLine
 10
2.302919431087683
 20
1.070095965439811
 30
0.0
 11
2.656472821680957
 21
1.274220110671744
 31
0.0
  0
LINE
  5
15E
330
2
100
AcDbEntity
  8
AM_VIS
100
AcDbLine
 10
2.280423932064901
 20
1.070990601993381
 30
0.0
 11
2.302919431087689
 21
1.070095965439813
 31
0.0
  0
LINE
  5
15F
330
2
100
AcDbEntity
  8
AM_VIS
100
AcDbLine
 10
2.657852661301908
 20
1.202113557342525
 30
0.0
 11
2.304299270708635
 21
0.9979894121105948
 31
0.0
  0
LINE
  5
160
330
2
100
AcDbEntity
  8
AM_VIS
100
AcDbLine
 10
2.468235139156346
 20
1.582317496709926
 30
0.0
 11
2.114681748563073
 21
1.378193351477995
 31
0.0
  0
LINE
  5
161
330
2
100
AcDbEntity
  8
AM_VIS
100
AcDbLine
 10
2.114681748563076
 20
1.378193351478002
 30
0.0
 11
2.106180537845113
 21
1.356182884290626
 31
0.0
  0
LINE
  5
162
330
2
100
AcDbEntity
  8
AM_VIS
100
AcDbLine
 10
2.061536625176804
 20
1.431255140615329
 30
0.0
 11
2.415090015770079
 21
1.63537928584726
 31
0.0
  0
LINE
  5
163
330
2
100
AcDbEntity
  8
AM_VIS
100
AcDbLine
 10
2.053035414458845
 20
1.409244673427957
 30
0.0
 11
2.061536625176811
 21
1.431255140615333
 31
0.0
  0
LINE
  5
164
330
2
100
AcDbEntity
  8
AM_VIS
100
AcDbLine
 10
2.406588805052115
 20
1.613368818659889
 30
0.0
 11
2.05303541445884
 21
1.409244673427957
 31
0.0
  0
LINE
  5
165
330
2
100
AcDbEntity
  8
AM_VIS
100
AcDbLine
 10
2.159867598156374
 20
1.770046632018558
 30
0.0
 11
1.8063142075631
 21
1.565922486786625
 31
0.0
  0
LINE
  5
166
330
2
100
AcDbEntity
  8
AM_VIS
100
AcDbLine
 10
1.806314207563099
 20
1.565922486786631
 30
0.0
 11
1.816787179091948
 21
1.533900349022514
 31
0.0
  0
LINE
  5
167
330
2
100
AcDbEntity
  8
AM_VIS
100
AcDbLine
 10
1.755030991939981
 20
1.567961998745639
 30
0.0
 11
2.108584382533255
 21
1.772086143977571
 31
0.0
  0
LINE
  5
168
330
2
100
AcDbEntity
  8
AM_VIS
100
AcDbLine
 10
1.765503963468832
 20
1.535939860981524
 30
0.0
 11
1.755030991939981
 21
1.567961998745647
 31
0.0
  0
LINE
  5
169
330
2
100
AcDbEntity
  8
AM_VIS
100
AcDbLine
 10
1.808080620659954
 20
1.560521505472013
 30
0.0
 11
1.765503963468831
 21
1.535939860981524
 31
0.0
  0
LINE
  5
16A
330
2
100
AcDbEntity
  8
AM_VIS
100
AcDbLine
 10
2.136992459705306
 20
0.5548412939727081
 30
0.0
 11
2.094415802514181
 21
0.5302596494822179
 31
0.0
  0
LINE
  5
16B
330
2
100
AcDbEntity
  8
AM_VIS
100
AcDbLine
 10
1.597810578989599
 20
1.02608617082903
 30
0.0
 11
1.599080190505736
 21
1.026819181379639
 31
0.0
  0
LINE
  5
16C
330
2
100
AcDbEntity
  8
AM_VIS
100
AcDbLine
 10
2.648641501524508
 20
0.8732689557639009
 30
0.0
 11
2.67195373061692
 21
0.8499932814290762
 31
0.0
  0
LINE
  5
16D
330
2
100
AcDbEntity
  8
AM_VIS
100
AcDbLine
 10
2.657852661301908
 20
1.202113557342525
 30
0.0
 11
2.680348160324695
 21
1.201218920788958
 31
0.0
  0
LINE
  5
16E
330
2
100
AcDbEntity
  8
AM_VIS
100
AcDbLine
 10
2.415090015770083
 20
1.635379285847266
 30
0.0
 11
2.406588805052116
 21
1.61336881865989
 31
0.0
  0
LINE
  5
16F
330
2
100
AcDbEntity
  8
AM_VIS
100
AcDbLine
 10
2.108584382533253
 20
1.772086143977575
 30
0.0
 11
2.117290940965248
 21
1.745464987528071
 31
0.0
  0
LINE
  5
170
330
2
100
AcDbEntity
  8
AM_VIS
100
AcDbLine
 10
1.700365005038643
 20
1.48110377002664
 30
0.0
 11
1.665009665979314
 21
1.460691355503446
 31
0.0
  0
LINE
  5
171
330
2
100
AcDbEntity
  8
AM_VIS
100
AcDbLine
 10
2.200365005038642
 20
0.6150783662422006
 30
0.0
 11
2.165009665979315
 21
0.5946659517190073
 31
0.0
  0
LINE
  5
172
330
2
100
AcDbEntity
  8
AM_VIS
100
AcDbLine
 10
2.018918395631919
 20
1.745849693523475
 30
0.0
 11
1.665365005038647
 21
1.541725548291544
 31
0.0
  0
LINE
  5
173
330
2
100
AcDbEntity
  8
AM_VIS
100
AcDbLine
 10
2.588918395631913
 20
0.7585807332092283
 30
0.0
 11
2.235365005038639
 21
0.5544565879772967
 31
0.0
  0
ELLIPSE
  5
174
330
2
100
AcDbEntity
  8
AM_VIS
100
AcDbEllipse
 10
1.915009665979315
 20
1.027678653611228
 30
0.0
 11
-0.2500000000000004
 21
0.4330127018922198
 31
-0.0000000000000001
210
-0.0000000000000001
220
0.0000000000000002
230
1.0
 40
0.5773502691896259
 41
2.086598716707783
 42
8.209612863820051
  0
ELLIPSE
  5
175
330
2
100
AcDbEntity
  8
AM_VIS
100
AcDbEllipse
 10
1.950365005038642
 20
1.04809106813442
 30
0.0
 11
-0.2500000000000262
 21
0.4330127018922049
 31
0.0
210
0.0
220
0.0
230
0.9999999999999998
 40
0.5773502691896259
 41
3.141592653589619
 42
6.283185307179413
  0
ELLIPSE
  5
176
330
2
100
AcDbEntity
  8
AM_VIS
100
AcDbEllipse
 10
1.950365005038642
 20
1.04809106813442
 30
0.0
 11
-0.2849999999999967
 21
0.4936344801571241
 31
-0.0000000000000001
210
-0.0000000000000001
220
0.0000000000000001
230
1.0
 40
0.5773502691896259
 41
0.5059499740605547
 42
1.15088180909535
  0
ELLIPSE
  5
177
330
2
100
AcDbEntity
  8
AM_VIS
100
AcDbEllipse
 10
1.950365005038642
 20
1.04809106813442
 30
0.0
 11
-0.2849999999999967
 21
0.4936344801571241
 31
-0.0000000000000001
210
-0.0000000000000001
220
0.0000000000000001
230
1.0
 40
0.5773502691896259
 41
6.003737117842695
 42
6.648668952877486
  0
ELLIPSE
  5
178
330
2
100
AcDbEntity
  8
AM_VIS
100
AcDbEllipse
 10
1.950365005038642
 20
1.04809106813442
 30
0.0
 11
-0.2849999999999967
 21
0.4936344801571241
 31
-0.0000000000000001
210
-0.0000000000000001
220
0.0000000000000001
230
1.0
 40
0.5773502691896259
 41
5.218338954445242
 42
5.86327078948004
  0
ELLIPSE
  5
179
330
2
100
AcDbEntity
  8
AM_VIS
100
AcDbEllipse
 10
1.950365005038642
 20
1.04809106813442
 30
0.0
 11
-0.2849999999999967
 21
0.4936344801571241
 31
-0.0000000000000001
210
-0.0000000000000001
220
0.0000000000000001
230
1.0
 40
0.5773502691896259
 41
4.432940791047803
 42
5.077872626082593
  0
ELLIPSE
  5
17A
330
2
100
AcDbEntity
  8
AM_VIS
100
AcDbEllipse
 10
1.950365005038642
 20
1.04809106813442
 30
0.0
 11
-0.2849999999999967
 21
0.4936344801571241
 31
-0.0000000000000001
210
-0.0000000000000001
220
0.0000000000000001
230
1.0
 40
0.5773502691896259
 41
3.647542627650347
 42
4.292474462685142
  0
ELLIPSE
  5
17B
330
2
100
AcDbEntity
  8
AM_VIS
100
AcDbEllipse
 10
1.950365005038642
 20
1.04809106813442
 30
0.0
 11
-0.2849999999999967
 21
0.4936344801571241
 31
-0.0000000000000001
210
-0.0000000000000001
220
0.0000000000000001
230
1.0
 40
0.5773502691896259
 41
2.862144464252903
 42
3.507076299287694
  0
ELLIPSE
  5
17C
330
2
100
AcDbEntity
  8
AM_VIS
100
AcDbEllipse
 10
1.950365005038655
 20
1.048091068134419
 30
0.0
 11
-0.2675000000000339
 21
0.4633235910246694
 31
0.0
210
0.0
220
0.0
230
1.0
 40
0.5773502691896259
 41
0.3608806215113183
 42
0.5105529982468418
  0
ELLIPSE
  5
17D
330
2
100
AcDbEntity
  8
AM_VIS
100
AcDbEllipse
 10
1.950365005038631
 20
1.048091068134429
 30
0.0
 11
-0.2675000000000311
 21
0.4633235910246645
 31
0.0
210
0.0
220
0.0
230
0.9999999999999998
 40
0.577350269189626
 41
2.71707511170366
 42
2.866747488439189
  0
ELLIPSE
  5
17E
330
2
100
AcDbEntity
  8
AM_VIS
100
AcDbEllipse
 10
1.95036500503864
 20
1.048091068134416
 30
0.0
 11
-0.267500000000028
 21
0.4633235910246592
 31
-0.0000000000000001
210
-0.0000000000000001
220
0.0000000000000001
230
0.9999999999999998
 40
0.5773502691896259
 41
3.5024732751011
 42
3.652145651836622
  0
ELLIPSE
  5
17F
330
2
100
AcDbEntity
  8
AM_VIS
100
AcDbEllipse
 10
1.95036500503864
 20
1.048091068134409
 30
0.0
 11
-0.2675000000000311
 21
0.4633235910246645
 31
0.0
210
0.0
220
0.0
230
0.9999999999999998
 40
0.577350269189626
 41
4.287871438498563
 42
4.437543815234084
  0
ELLIPSE
  5
180
330
2
100
AcDbEntity
  8
AM_VIS
100
AcDbEllipse
 10
1.950365005038644
 20
1.048091068134407
 30
0.0
 11
-0.2675000000000339
 21
0.4633235910246694
 31
0.0
210
0.0
220
0.0
230
1.0
 40
0.5773502691896259
 41
5.073269601896001
 42
5.222941978631518
  0
ELLIPSE
  5
181
330
2
100
AcDbEntity
  8
AM_VIS
100
AcDbEllipse
 10
1.950365005038651
 20
1.04809106813442
 30
0.0
 11
-0.2675000000000289
 21
0.4633235910246607
 31
-0.0000000000000001
210
-0.0000000000000001
220
0.0000000000000001
230
0.9999999999999998
 40
0.577350269189626
 41
5.858667765293463
 42
6.008340142028986
  0
ELLIPSE
  5
182
330
2
100
AcDbEntity
  8
AM_VIS
100
AcDbEllipse
 10
1.950365005038642
 20
1.04809106813442
 30
0.0
 11
-0.2849999999999967
 21
0.4936344801571241
 31
-0.0000000000000001
210
-0.0000000000000001
220
0.0000000000000001
230
1.0
 40
0.5773502691896259
 41
2.076746300855449
 42
2.721678135890247
  0
ELLIPSE
  5
183
330
2
100
AcDbEntity
  8
AM_VIS
100
AcDbEllipse
 10
1.950365005038642
 20
1.04809106813442
 30
0.0
 11
-0.2849999999999967
 21
0.4936344801571241
 31
-0.0000000000000001
210
-0.0000000000000001
220
0.0000000000000001
230
1.0
 40
0.5773502691896259
 41
1.703634081416168
 42
1.88367077877903
  0
ELLIPSE
  5
184
330
2
100
AcDbEntity
  8
AM_VIS
100
AcDbEllipse
 10
1.950365005038642
 20
1.04809106813442
 30
0.0
 11
-0.2849999999999967
 21
0.4936344801571241
 31
-0.0000000000000001
210
-0.0000000000000001
220
0.0000000000000001
230
1.0
 40
0.5773502691896259
 41
1.29134813745801
 42
1.437958572173631
  0
ELLIPSE
  5
185
330
2
100
AcDbEntity
  8
AM_VIS
100
AcDbEllipse
 10
2.303918395631916
 20
1.252215213366351
 30
0.0
 11
-0.2849999999999967
 21
0.4936344801571241
 31
-0.0000000000000001
210
-0.0000000000000001
220
0.0000000000000001
230
1.0
 40
0.5773502691896259
 41
3.141592653589792
 42
3.507076299287694
  0
ELLIPSE
  5
186
330
2
100
AcDbEntity
  8
AM_VIS
100
AcDbEllipse
 10
2.303918395631916
 20
1.252215213366347
 30
0.0
 11
-0.2675000000000004
 21
0.4633235910246751
 31
-0.0000000000000001
210
-0.0000000000000001
220
0.0000000000000002
230
0.9999999999999998
 40
0.5773502691896259
 41
3.502473275101274
 42
3.512665678643643
  0
ELLIPSE
  5
187
330
2
100
AcDbEntity
  8
AM_VIS
100
AcDbEllipse
 10
2.303918395631916
 20
1.252215213366351
 30
0.0
 11
-0.2849999999999967
 21
0.4936344801571241
 31
-0.0000000000000001
210
-0.0000000000000001
220
0.0000000000000001
230
1.0
 40
0.5773502691896259
 41
3.647542627650347
 42
4.292474462685142
  0
ELLIPSE
  5
188
330
2
100
AcDbEntity
  8
AM_VIS
100
AcDbEllipse
 10
2.303918395631916
 20
1.25221521336634
 30
0.0
 11
-0.2675000000000034
 21
0.4633235910246805
 31
-0.0000000000000001
210
-0.0000000000000001
220
0.0000000000000001
230
1.0
 40
0.5773502691896259
 41
4.287871438498733
 42
4.414115948912765
  0
ELLIPSE
  5
189
330
2
100
AcDbEntity
  8
AM_VIS
100
AcDbEllipse
 10
2.303918395631916
 20
1.252215213366351
 30
0.0
 11
-0.2849999999999967
 21
0.4936344801571241
 31
-0.0000000000000001
210
-0.0000000000000001
220
0.0000000000000001
230
1.0
 40
0.5773502691896259
 41
4.432940791047803
 42
5.077872626082593
  0
ELLIPSE
  5
18A
330
2
100
AcDbEntity
  8
AM_VIS
100
AcDbEllipse
 10
2.303918395631917
 20
1.252215213366339
 30
0.0
 11
-0.2675000000000062
 21
0.4633235910246853
 31
0.0
210
0.0
220
0.0
230
0.9999999999999996
 40
0.5773502691896259
 41
5.103031289249278
 42
5.222941978631698
  0
ELLIPSE
  5
18B
330
2
100
AcDbEntity
  8
AM_VIS
100
AcDbEllipse
 10
2.303918395631916
 20
1.252215213366351
 30
0.0
 11
-0.2849999999999967
 21
0.4936344801571241
 31
-0.0000000000000001
210
-0.0000000000000001
220
0.0000000000000001
230
1.0
 40
0.5773502691896259
 41
5.21833895444525
 42
5.863270789480041
  0
ELLIPSE
  5
18C
330
2
100
AcDbEntity
  8
AM_VIS
100
AcDbEllipse
 10
2.303918395631916
 20
1.252215213366351
 30
0.0
 11
-0.2849999999999967
 21
0.4936344801571241
 31
-0.0000000000000001
210
-0.0000000000000001
220
0.0000000000000001
230
1.0
 40
0.5773502691896259
 41
6.003737117842695
 42
6.283185307179585
  0
ARC
  5
18D
330
2
100
AcDbEntity
  8
AM_VIS
100
AcDbCircle
 10
4.447211116563816
 20
2.422837750041056
 30
0.0
 40
0.1242016782473215
100
AcDbArc
 50
31.55533160464207
 51
90.23800794476306
  0
ELLIPSE
  5
18E
330
2
100
AcDbEntity
  8
AM_VIS
100
AcDbEllipse
 10
4.503396715718335
 20
2.427243571371055
 30
0.0
 11
-0.0649631408450713
 21
0.1125194605629143
 31
0.0
210
0.0
220
0.0
230
1.0
 40
0.5773502691896251
 41
4.889538491051915
 42
4.926829125022136
  0
ELLIPSE
  5
18F
330
2
100
AcDbEntity
  8
AM_VIS
100
AcDbEllipse
 10
4.495044715114358
 20
2.422421541574076
 30
0.0
 11
-0.067979250000001
 21
0.1177435148604261
 31
0.0
210
0.0
220
0.0
230
1.0
 40
0.5773502691896251
 41
4.984459595602048
 42
6.011114691962204
  0
ARC
  5
190
330
2
100
AcDbEntity
  8
AM_VIS
100
AcDbCircle
 10
4.376446306537872
 20
2.35394871845698
 30
0.0
 40
0.2216159999999996
100
AcDbArc
 50
35.92933841909758
 51
37.16678070440547
  0
ARC
  5
191
330
2
100
AcDbEntity
  8
AM_VIS
100
AcDbCircle
 10
4.175140921246907
 20
2.580494111987821
 30
0.0
 40
0.1237217154334971
100
AcDbArc
 50
31.81310557437621
 51
90.31576795756237
  0
ELLIPSE
  5
192
330
2
100
AcDbEntity
  8
AM_VIS
100
AcDbEllipse
 10
4.222808604357537
 20
2.579597133402661
 30
0.0
 11
-0.067979250000001
 21
0.1177435148604261
 31
0.0
210
0.0
220
0.0
230
1.0
 40
0.5773502691896251
 41
4.984459595602063
 42
6.011114691962193
  0
ARC
  5
193
330
2
100
AcDbEntity
  8
AM_VIS
100
AcDbCircle
 10
3.902904810490091
 20
2.73766970381641
 30
0.0
 40
0.1237217154334949
100
AcDbArc
 50
31.81310557437673
 51
90.3157679575646
  0
ELLIPSE
  5
194
330
2
100
AcDbEntity
  8
AM_VIS
100
AcDbEllipse
 10
3.950572493600716
 20
2.736772725231249
 30
0.0
 11
-0.067979250000001
 21
0.1177435148604261
 31
0.0
210
0.0
220
0.0
230
1.0
 40
0.5773502691896251
 41
4.984459595602037
 42
6.011114691962219
  0
LINE
  5
195
330
2
100
AcDbEntity
  8
AM_VIS
100
AcDbLine
 10
4.250340176074287
 20
2.677143328868679
 30
0.0
 11
4.250340176074284
 21
2.880041552197848
 31
0.0
  0
LINE
  5
196
330
2
100
AcDbEntity
  8
AM_VIS
100
AcDbLine
 10
4.014873617939163
 20
2.796350652652756
 30
0.0
 11
4.227005652295126
 21
2.918825139791917
 31
0.0
  0
LINE
  5
197
330
2
100
AcDbEntity
  8
AM_VIS
100
AcDbLine
 10
4.2284198658575
 20
2.918008643210988
 30
0.0
 11
4.227005652295126
 21
2.918825139791918
 31
0.0
  0
LINE
  5
198
330
2
100
AcDbEntity
  8
AM_VIS
100
AcDbLine
 10
4.060128451935103
 20
2.770222762063068
 30
0.0
 11
4.250340176074283
 21
2.88004155219785
 31
0.0
  0
LINE
  5
199
330
2
100
AcDbEntity
  8
AM_VIS
100
AcDbLine
 10
4.016287831501538
 20
2.795534156071827
 30
0.0
 11
4.2284198658575
 21
2.918008643210987
 31
0.0
  0
LINE
  5
19A
330
2
100
AcDbEntity
  8
AM_VIS
100
AcDbLine
 10
4.500655976614324
 20
2.760833051382404
 30
0.0
 11
4.49924176305195
 21
2.761649547963333
 31
0.0
  0
LINE
  5
19B
330
2
100
AcDbEntity
  8
AM_VIS
100
AcDbLine
 10
4.288523942258361
 20
2.638358564243244
 30
0.0
 11
4.500655976614324
 21
2.760833051382404
 31
0.0
  0
LINE
  5
19C
330
2
100
AcDbEntity
  8
AM_VIS
100
AcDbLine
 10
4.332364562691926
 20
2.613047170234483
 30
0.0
 11
4.522576286831108
 21
2.722865960369265
 31
0.0
  0
LINE
  5
19D
330
2
100
AcDbEntity
  8
AM_VIS
100
AcDbLine
 10
4.522576286831108
 20
2.519967737040091
 30
0.0
 11
4.522576286831108
 21
2.722865960369265
 31
0.0
  0
LINE
  5
19E
330
2
100
AcDbEntity
  8
AM_VIS
100
AcDbLine
 10
4.287109728695986
 20
2.639175060824173
 30
0.0
 11
4.499241763051949
 21
2.761649547963333
 31
0.0
  0
LINE
  5
19F
330
2
100
AcDbEntity
  8
AM_VIS
100
AcDbLine
 10
4.591165644606205
 20
2.438316901915951
 30
0.0
 11
4.803297678962167
 21
2.560791389055111
 31
0.0
  0
LINE
  5
1A0
330
2
100
AcDbEntity
  8
AM_VIS
100
AcDbLine
 10
4.803297678962167
 20
2.265219626759274
 30
0.0
 11
4.803297678962167
 21
2.560791389055111
 31
0.0
  0
LINE
  5
1A1
330
2
100
AcDbEntity
  8
AM_VIS
100
AcDbLine
 10
4.591165644606205
 20
2.142745139620113
 30
0.0
 11
4.803297678962167
 21
2.265219626759274
 31
0.0
  0
LINE
  5
1A2
330
2
100
AcDbEntity
  8
AM_VIS
100
AcDbLine
 10
4.56924533438942
 20
2.47628399292909
 30
0.0
 11
4.781377368745383
 21
2.598758480068251
 31
0.0
  0
LINE
  5
1A3
330
2
100
AcDbEntity
  8
AM_VIS
100
AcDbLine
 10
4.567831120827046
 20
2.47710048951002
 30
0.0
 11
4.779963155183009
 21
2.59957497664918
 31
0.0
  0
LINE
  5
1A4
330
2
100
AcDbEntity
  8
AM_VIS
100
AcDbLine
 10
4.781377368745384
 20
2.598758480068251
 30
0.0
 11
4.779963155183009
 21
2.599574976649181
 31
0.0
  0
LINE
  5
1A5
330
2
100
AcDbEntity
  8
AM_VIS
100
AcDbLine
 10
4.567831120827046
 20
2.47710048951002
 30
0.0
 11
4.569245334389419
 21
2.47628399292909
 31
0.0
  0
LINE
  5
1A6
330
2
100
AcDbEntity
  8
AM_VIS
100
AcDbLine
 10
4.591165644606205
 20
2.438316901915951
 30
0.0
 11
4.591165644606205
 21
2.433417922430384
 31
0.0
  0
LINE
  5
1A7
330
2
100
AcDbEntity
  8
AM_VIS
100
AcDbLine
 10
4.5650026937023
 20
2.47873348267187
 30
0.0
 11
4.340991265422404
 21
2.349400424252916
 31
0.0
  0
LINE
  5
1A8
330
2
100
AcDbEntity
  8
AM_VIS
100
AcDbLine
 10
4.591165644606203
 20
2.433417922430384
 30
0.0
 11
4.372226065081666
 21
2.307013097255628
 31
0.0
  0
LINE
  5
1A9
330
2
100
AcDbEntity
  8
AM_VIS
100
AcDbLine
 10
3.511413589734341
 20
3.087023435463026
 30
0.0
 11
3.287327436851751
 21
2.957647234774593
 31
0.0
  0
LINE
  5
1AA
330
2
100
AcDbEntity
  8
AM_VIS
100
AcDbLine
 10
4.591165644606208
 20
1.442191073184126
 30
0.0
 11
4.373156025547936
 21
1.316323160934904
 31
0.0
  0
LINE
  5
1AB
330
2
100
AcDbEntity
  8
AM_VIS
100
AcDbLine
 10
3.558082637292656
 20
2.801249632138322
 30
0.0
 11
4.090171891717075
 21
2.494047757863476
 31
0.0
  0
LINE
  5
1AC
330
2
100
AcDbEntity
  8
AM_VIS
100
AcDbLine
 10
4.288523942258361
 20
2.63835856424324
 30
0.0
 11
4.565002693702301
 21
2.47873348267187
 31
0.0
  0
LINE
  5
1AD
330
2
100
AcDbEntity
  8
AM_VIS
100
AcDbLine
 10
3.511413589734341
 20
3.087023435463026
 30
0.0
 11
4.014873617939165
 21
2.796350652652756
 31
0.0
  0
LINE
  5
1AE
330
2
100
AcDbEntity
  8
AM_VIS
100
AcDbLine
 10
4.591165644606205
 20
2.142745139620113
 30
0.0
 11
4.591165644606208
 21
1.442191073184126
 31
0.0
  0
LINE
  5
1AF
330
2
100
AcDbEntity
  8
AM_VIS
100
AcDbLine
 10
4.016287831501538
 20
2.795534156071829
 30
0.0
 11
4.287109728695986
 21
2.639175060824169
 31
0.0
  0
LINE
  5
1B0
330
2
100
AcDbEntity
  8
AM_VIS
100
AcDbLine
 10
4.005793928155944
 20
2.801592813993256
 30
0.0
 11
4.211505652295127
 21
2.920360533300478
 31
0.0
  0
LINE
  5
1B1
330
2
100
AcDbEntity
  8
AM_VIS
100
AcDbLine
 10
4.278030038912768
 20
2.644417222164672
 30
0.0
 11
4.483741763051948
 21
2.763184941471891
 31
0.0
  0
LINE
  5
1B2
330
2
100
AcDbEntity
  8
AM_VIS
100
AcDbLine
 10
4.558751431043825
 20
2.482342650850517
 30
0.0
 11
4.764463155183008
 21
2.601110370157739
 31
0.0
  0
LINE
  5
1B3
330
2
100
AcDbEntity
  8
AM_VIS
100
AcDbLine
 10
3.492913589734341
 20
3.088856001908725
 30
0.0
 11
3.268760740098207
 21
2.959441293831678
 31
0.0
  0
LINE
  5
1B4
330
2
100
AcDbEntity
  8
AM_VIS
100
AcDbLine
 10
4.583502693702304
 20
1.425253319991265
 30
0.0
 11
4.372071075604919
 21
1.30318321836754
 31
0.0
  0
ELLIPSE
  5
1B5
330
2
100
AcDbEntity
  8
AM_VIS
100
AcDbEllipse
 10
4.227005652295128
 20
2.893513745783161
 30
0.0
 11
-0.0155000000000021
 21
0.026846787517317
 31
0.0
210
0.0
220
0.0
230
0.9999999999999998
 40
0.5773502691896244
 41
5.497787143781906
 42
6.283185307179418
  0
ELLIPSE
  5
1B6
330
2
100
AcDbEntity
  8
AM_VIS
100
AcDbEllipse
 10
4.228419865857501
 20
2.89269724920223
 30
0.0
 11
-0.0155000000000021
 21
0.0268467875173169
 31
0.0
210
0.0
220
0.0
230
1.0
 40
0.5773502691896244
 41
3.926990816987038
 42
5.497787143781933
  0
ELLIPSE
  5
1B7
330
2
100
AcDbEntity
  8
AM_VIS
100
AcDbEllipse
 10
4.500655976614322
 20
2.735521657373642
 30
0.0
 11
-0.0155000000000023
 21
0.0268467875173173
 31
0.0
210
0.0
220
0.0
230
1.0
 40
0.5773502691896245
 41
3.926990816987117
 42
5.497787143781898
  0
ELLIPSE
  5
1B8
330
2
100
AcDbEntity
  8
AM_VIS
100
AcDbEllipse
 10
4.49924176305195
 20
2.736338153954573
 30
0.0
 11
-0.0155000000000021
 21
0.0268467875173171
 31
0.0
210
0.0
220
0.0
230
0.9999999999999998
 40
0.5773502691896244
 41
5.497787143781962
 42
6.283185307179417
  0
ELLIPSE
  5
1B9
330
2
100
AcDbEntity
  8
AM_VIS
100
AcDbEllipse
 10
4.781377368745382
 20
2.57344708605949
 30
0.0
 11
-0.0155000000000023
 21
0.0268467875173173
 31
0.0
210
0.0
220
0.0
230
1.0
 40
0.5773502691896245
 41
3.926990816987121
 42
5.497787143781902
  0
ELLIPSE
  5
1BA
330
2
100
AcDbEntity
  8
AM_VIS
100
AcDbEllipse
 10
4.779963155183009
 20
2.57426358264042
 30
0.0
 11
-0.0155000000000021
 21
0.0268467875173171
 31
0.0
210
0.0
220
0.0
230
0.9999999999999998
 40
0.5773502691896244
 41
5.497787143781965
 42
6.283185307179421
  0
ELLIPSE
  5
1BB
330
2
100
AcDbEntity
  8
AM_VIS
100
AcDbEllipse
 10
4.567831120827046
 20
2.45178909550126
 30
0.0
 11
-0.0155000000000005
 21
0.026846787517318
 31
0.0
210
0.0
220
0.0
230
1.0
 40
0.5773502691896245
 41
5.497787143782131
 42
5.559488067377021
  0
ELLIPSE
  5
1BC
330
2
100
AcDbEntity
  8
AM_VIS
100
AcDbEllipse
 10
4.569245334389418
 20
2.450972598920329
 30
0.0
 11
-0.0155000000000007
 21
0.0268467875173182
 31
0.0
210
0.0
220
0.0
230
1.0
 40
0.5773502691896244
 41
3.926990816987292
 42
5.497787143782074
  0
ELLIPSE
  5
1BD
330
2
100
AcDbEntity
  8
AM_VIS
100
AcDbEllipse
 10
4.565002693702301
 20
2.448523109177545
 30
0.0
 11
-0.0184999999999991
 21
0.032042939940022
 31
0.0
210
0.0
220
0.0
230
0.9999999999999998
 40
0.5773502691896244
 41
3.926990816987284
 42
5.441311593029321
  0
ELLIPSE
  5
1BE
330
2
100
AcDbEntity
  8
AM_VIS
100
AcDbEllipse
 10
3.287260740098207
 20
2.927398353891653
 30
0.0
 11
-0.0185000000000004
 21
0.0320429399400244
 31
0.0
210
0.0
220
0.0
230
1.0
 40
0.5773502691896244
 41
5.529616616593176
 42
6.527772730926022
  0
ELLIPSE
  5
1BF
330
2
100
AcDbEntity
  8
AM_VIS
100
AcDbEllipse
 10
4.565002693702301
 20
2.448523109177545
 30
0.0
 11
-0.0184999999999991
 21
0.032042939940022
 31
0.0
210
0.0
220
0.0
230
0.9999999999999998
 40
0.5773502691896244
 41
5.441311593029321
 42
5.497787143782181
  0
ELLIPSE
  5
1C0
330
2
100
AcDbEntity
  8
AM_VIS
100
AcDbEllipse
 10
3.511413589734341
 20
3.0568130619687
 30
0.0
 11
-0.0185000000000004
 21
0.0320429399400244
 31
0.0
210
0.0
220
0.0
230
1.0
 40
0.5773502691896244
 41
5.497787143782136
 42
6.283185307179584
  0
ELLIPSE
  5
1C1
330
2
100
AcDbEntity
  8
AM_VIS
100
AcDbEllipse
 10
4.565002693702306
 20
1.45729625993129
 30
0.0
 11
-0.0185000000000004
 21
0.0320429399400244
 31
0.0
210
0.0
220
0.0
230
1.0
 40
0.5773502691896244
 41
3.14159265358979
 42
3.926990816987233
  0
ELLIPSE
  5
1C2
330
2
100
AcDbEntity
  8
AM_VIS
100
AcDbEllipse
 10
3.402236302719142
 20
2.518986764111608
 30
0.0
 11
-0.0272500000000004
 21
0.0471983845062517
 31
0.0
210
0.0
220
0.0
230
0.9999999999999996
 40
0.5773502691896245
 41
4.566970766595705
 42
5.575959949307222
  0
LINE
  5
1C3
330
2
100
AcDbEntity
  8
AM_VIS
100
AcDbLine
 10
3.511413589734341
 20
3.087023435463023
 30
0.0
 11
3.723545624090303
 21
3.209497922602183
 31
0.0
  0
LINE
  5
1C4
330
2
100
AcDbEntity
  8
AM_VIS
100
AcDbLine
 10
3.911636027885928
 20
3.1009038773388
 30
0.0
 11
3.723545624090303
 21
3.209497922602185
 31
0.0
  0
LINE
  5
1C5
330
2
100
AcDbEntity
  8
AM_VIS
100
AcDbLine
 10
3.699503993529964
 20
2.978429390199638
 30
0.0
 11
3.911636027885927
 21
3.1009038773388
 31
0.0
  0
LINE
  5
1C6
330
2
100
AcDbEntity
  8
AM_VIS
100
AcDbLine
 10
3.727788264777423
 20
2.962099458581088
 30
0.0
 11
3.925778163509656
 21
3.07640897991097
 31
0.0
  0
LINE
  5
1C7
330
2
100
AcDbEntity
  8
AM_VIS
100
AcDbLine
 10
3.925778163509656
 20
2.860856839777031
 30
0.0
 11
3.925778163509656
 21
3.07640897991097
 31
0.0
  0
LINE
  5
1C8
330
2
100
AcDbEntity
  8
AM_VIS
100
AcDbLine
 10
4.803297678962165
 20
2.257054660949997
 30
0.0
 11
4.7962266111503
 21
2.261137143854634
 31
0.0
  0
LINE
  5
1C9
330
2
100
AcDbEntity
  8
AM_VIS
100
AcDbLine
 10
4.591165644606201
 20
2.134580173810836
 30
0.0
 11
4.803297678962163
 21
2.257054660949997
 31
0.0
  0
LINE
  5
1CA
330
2
100
AcDbEntity
  8
AM_VIS
100
AcDbLine
 10
4.803297678962167
 20
1.564665560323289
 30
0.0
 11
4.803297678962165
 21
2.257054660949997
 31
0.0
  0
LINE
  5
1CB
330
2
100
AcDbEntity
  8
AM_VIS
100
AcDbLine
 10
4.591165644606205
 20
1.442191073184128
 30
0.0
 11
4.803297678962168
 21
1.564665560323289
 31
0.0
  0
LINE
  5
1CC
330
2
100
AcDbEntity
  8
AM_VIS
100
AcDbLine
 10
3.699503993529964
 20
2.978429390199638
 30
0.0
 11
3.511413589734341
 21
3.087023435463023
 31
0.0
  0
LINE
  5
1CD
330
2
100
AcDbEntity
  8
AM_VIS
100
AcDbLine
 10
4.591165644606205
 20
1.442191073184128
 30
0.0
 11
4.591165644606203
 21
2.134580173810836
 31
0.0
  0
LINE
  5
1CE
330
2
100
AcDbEntity
  8
AM_VIS
100
AcDbLine
 10
3.492913589734341
 20
3.088856001908721
 30
0.0
 11
3.705045624090303
 21
3.211330489047881
 31
0.0
  0
LINE
  5
1CF
330
2
100
AcDbEntity
  8
AM_VIS
100
AcDbLine
 10
4.583502693702302
 20
1.425253319991267
 30
0.0
 11
4.795634728058266
 21
1.547727807130428
 31
0.0
  0
ELLIPSE
  5
1D0
330
2
100
AcDbEntity
  8
AM_VIS
100
AcDbEllipse
 10
3.723545624090303
 20
3.179287549107859
 30
0.0
 11
-0.0185000000000015
 21
0.0320429399400218
 31
0.0
210
0.0
220
0.0
230
0.9999999999999998
 40
0.5773502691896244
 41
5.497787143781974
 42
6.283185307179428
  0
ELLIPSE
  5
1D1
330
2
100
AcDbEntity
  8
AM_VIS
100
AcDbEllipse
 10
3.911636027885924
 20
3.084573945720248
 30
0.0
 11
-0.0100000000000003
 21
0.0173205080756865
 31
0.0
210
0.0
220
0.0
230
1.0
 40
0.5773502691896245
 41
3.926990816986976
 42
5.497787143781784
  0
ELLIPSE
  5
1D2
330
2
100
AcDbEntity
  8
AM_VIS
100
AcDbEllipse
 10
4.777134728058268
 20
1.579770747070452
 30
0.0
 11
-0.0185000000000017
 21
0.0320429399400221
 31
0.0
210
0.0
220
0.0
230
1.0
 40
0.5773502691896245
 41
3.141592653589607
 42
3.926990816987051
  0
ELLIPSE
  5
1D3
330
2
100
AcDbEntity
  8
AM_VIS
100
AcDbEllipse
 10
3.511413589734341
 20
3.056813061968698
 30
0.0
 11
-0.0185000000000015
 21
0.0320429399400218
 31
0.0
210
0.0
220
0.0
230
0.9999999999999998
 40
0.5773502691896244
 41
5.497787143781951
 42
6.28318530717932
  0
ELLIPSE
  5
1D4
330
2
100
AcDbEntity
  8
AM_VIS
100
AcDbEllipse
 10
4.565002693702303
 20
1.457296259931291
 30
0.0
 11
-0.0185000000000017
 21
0.0320429399400221
 31
0.0
210
0.0
220
0.0
230
1.0
 40
0.5773502691896245
 41
3.14159265358964
 42
3.926990816987049
  0
LINE
  5
1D5
330
2
100
AcDbEntity
  8
AM_VIS
100
AcDbLine
 10
14.35511879321867
 20
6.128314281844032
 30
0.0
 11
14.35511879321867
 21
6.128514281844037
 31
0.0
  0
LINE
  5
1D6
330
2
100
AcDbEntity
  8
AM_VIS
100
AcDbLine
 10
14.33511879321867
 20
7.416514281844036
 30
0.0
 11
14.33511879321867
 21
7.416714281844034
 31
0.0
  0
LINE
  5
1D7
330
2
100
AcDbEntity
  8
AM_VIS
100
AcDbLine
 10
14.71511879321867
 20
6.128314281844032
 30
0.0
 11
14.35511879321867
 21
6.128314281844032
 31
0.0
  0
LINE
  5
1D8
330
2
100
AcDbEntity
  8
AM_VIS
100
AcDbLine
 10
14.33511879321867
 20
7.416714281844031
 30
0.0
 11
14.71511879321867
 21
7.416714281844031
 31
0.0
  0
LINE
  5
1D9
330
2
100
AcDbEntity
  8
AM_VIS
100
AcDbLine
 10
13.22243095321867
 20
7.416714281844031
 30
0.0
 11
13.58243095321867
 21
7.416714281844031
 31
0.0
  0
LINE
  5
1DA
330
2
100
AcDbEntity
  8
AM_VIS
100
AcDbLine
 10
13.58243095321867
 20
7.416714281844031
 30
0.0
 11
13.58243095321867
 21
7.416514281844036
 31
0.0
  0
LINE
  5
1DB
330
2
100
AcDbEntity
  8
AM_VIS
100
AcDbLine
 10
13.60243095321867
 20
6.128514281844037
 30
0.0
 11
13.60243095321867
 21
6.128314281844032
 31
0.0
  0
LINE
  5
1DC
330
2
100
AcDbEntity
  8
AM_VIS
100
AcDbLine
 10
13.60243095321867
 20
6.128314281844032
 30
0.0
 11
13.22243095321867
 21
6.128314281844032
 31
0.0
  0
LINE
  5
1DD
330
2
100
AcDbEntity
  8
AM_VIS
100
AcDbLine
 10
13.18243095321867
 20
6.168314281844032
 30
0.0
 11
13.18243095321867
 21
7.376714281844034
 31
0.0
  0
LINE
  5
1DE
330
2
100
AcDbEntity
  8
AM_VIS
100
AcDbLine
 10
13.58243095321866
 20
7.416714281844027
 30
0.0
 11
13.75877487321867
 21
7.416714281844027
 31
0.0
  0
LINE
  5
1DF
330
2
100
AcDbEntity
  8
AM_VIS
100
AcDbLine
 10
13.82877487321866
 20
7.416714281844027
 30
0.0
 11
13.93377487321866
 21
7.416714281844027
 31
0.0
  0
LINE
  5
1E0
330
2
100
AcDbEntity
  8
AM_VIS
100
AcDbLine
 10
14.00377487321867
 20
7.416714281844027
 30
0.0
 11
14.10877487321867
 21
7.416714281844027
 31
0.0
  0
LINE
  5
1E1
330
2
100
AcDbEntity
  8
AM_VIS
100
AcDbLine
 10
14.17877487321867
 20
7.416714281844027
 30
0.0
 11
14.33511879321866
 21
7.416714281844027
 31
0.0
  0
LINE
  5
1E2
330
2
100
AcDbEntity
  8
AM_VIS
100
AcDbLine
 10
14.35511879321866
 20
6.128314281844025
 30
0.0
 11
13.60243095321866
 21
6.128314281844025
 31
0.0
  0
ARC
  5
1E3
330
2
100
AcDbEntity
  8
AM_VIS
100
AcDbCircle
 10
14.71511879321867
 20
7.376714281844034
 30
0.0
 40
0.04
100
AcDbArc
 50
84.00525252336668
 51
90.0
  0
ARC
  5
1E4
330
2
100
AcDbEntity
  8
AM_VIS
100
AcDbCircle
 10
14.71511879321867
 20
6.168314281844032
 30
0.0
 40
0.04
100
AcDbArc
 50
270.0
 51
275.9947474766857
  0
ARC
  5
1E5
330
2
100
AcDbEntity
  8
AM_VIS
100
AcDbCircle
 10
13.22243095321867
 20
6.168314281844032
 30
0.0
 40
0.04
100
AcDbArc
 50
180.0
 51
270.0
  0
ARC
  5
1E6
330
2
100
AcDbEntity
  8
AM_VIS
100
AcDbCircle
 10
13.22243095321867
 20
7.376714281844034
 30
0.0
 40
0.04
100
AcDbArc
 50
90.0
 51
180.0
  0
LINE
  5
1E7
330
2
100
AcDbEntity
  8
AM_VIS
100
AcDbLine
 10
13.82877487321867
 20
7.483700515849127
 30
0.0
 11
13.82877487321867
 21
7.416514281844036
 31
0.0
  0
LINE
  5
1E8
330
2
100
AcDbEntity
  8
AM_VIS
100
AcDbLine
 10
13.75877487321867
 20
7.416514281844036
 30
0.0
 11
13.75877487321867
 21
7.483700515849127
 31
0.0
  0
LINE
  5
1E9
330
2
100
AcDbEntity
  8
AM_VIS
100
AcDbLine
 10
13.72877487321867
 20
7.538472771599644
 30
0.0
 11
13.72877487321867
 21
7.603472771599642
 31
0.0
  0
LINE
  5
1EA
330
2
100
AcDbEntity
  8
AM_VIS
100
AcDbLine
 10
13.85877487321867
 20
7.603472771599642
 30
0.0
 11
13.85877487321867
 21
7.538472771599644
 31
0.0
  0
LINE
  5
1EB
330
2
100
AcDbEntity
  8
AM_VIS
100
AcDbLine
 10
14.17877487321867
 20
7.483700515849127
 30
0.0
 11
14.17877487321867
 21
7.416514281844036
 31
0.0
  0
LINE
  5
1EC
330
2
100
AcDbEntity
  8
AM_VIS
100
AcDbLine
 10
14.10877487321867
 20
7.416514281844036
 30
0.0
 11
14.10877487321867
 21
7.483700515849127
 31
0.0
  0
LINE
  5
1ED
330
2
100
AcDbEntity
  8
AM_VIS
100
AcDbLine
 10
14.07877487321867
 20
7.538472771599644
 30
0.0
 11
14.07877487321867
 21
7.603472771599642
 31
0.0
  0
LINE
  5
1EE
330
2
100
AcDbEntity
  8
AM_VIS
100
AcDbLine
 10
14.20877487321867
 20
7.603472771599642
 30
0.0
 11
14.20877487321867
 21
7.538472771599644
 31
0.0
  0
LINE
  5
1EF
330
2
100
AcDbEntity
  8
AM_VIS
100
AcDbLine
 10
14.00377487321867
 20
7.483700515849127
 30
0.0
 11
14.00377487321867
 21
7.416514281844034
 31
0.0
  0
LINE
  5
1F0
330
2
100
AcDbEntity
  8
AM_VIS
100
AcDbLine
 10
13.93377487321867
 20
7.416514281844034
 30
0.0
 11
13.93377487321867
 21
7.483700515849124
 31
0.0
  0
LINE
  5
1F1
330
2
100
AcDbEntity
  8
AM_VIS
100
AcDbLine
 10
13.90377487321867
 20
7.538472771599644
 30
0.0
 11
13.90377487321867
 21
7.603472771599642
 31
0.0
  0
LINE
  5
1F2
330
2
100
AcDbEntity
  8
AM_VIS
100
AcDbLine
 10
14.03377487321867
 20
7.603472771599642
 30
0.0
 11
14.03377487321867
 21
7.538472771599644
 31
0.0
  0
ARC
  5
1F3
330
2
100
AcDbEntity
  8
AM_VIS
100
AcDbCircle
 10
13.79377487321867
 20
7.538472771599644
 30
0.0
 40
0.0650000000000004
100
AcDbArc
 50
302.5789703928041
 51
0.0
  0
ARC
  5
1F4
330
2
100
AcDbEntity
  8
AM_VIS
100
AcDbCircle
 10
13.79377487321867
 20
7.538472771599644
 30
0.0
 40
0.0650000000000003
100
AcDbArc
 50
180.0
 51
237.4210296071959
  0
ARC
  5
1F5
330
2
100
AcDbEntity
  8
AM_VIS
100
AcDbCircle
 10
13.79377487321867
 20
7.603472771599642
 30
0.0
 40
0.0650000000000004
100
AcDbArc
 50
0.0
 51
180.0
  0
ARC
  5
1F6
330
2
100
AcDbEntity
  8
AM_VIS
100
AcDbCircle
 10
14.14377487321867
 20
7.538472771599644
 30
0.0
 40
0.0650000000000004
100
AcDbArc
 50
302.5789703928041
 51
0.0
  0
ARC
  5
1F7
330
2
100
AcDbEntity
  8
AM_VIS
100
AcDbCircle
 10
14.14377487321867
 20
7.538472771599644
 30
0.0
 40
0.0650000000000003
100
AcDbArc
 50
180.0
 51
237.4210296071959
  0
ARC
  5
1F8
330
2
100
AcDbEntity
  8
AM_VIS
100
AcDbCircle
 10
14.14377487321867
 20
7.603472771599642
 30
0.0
 40
0.0650000000000004
100
AcDbArc
 50
0.0
 51
180.0
  0
ARC
  5
1F9
330
2
100
AcDbEntity
  8
AM_VIS
100
AcDbCircle
 10
13.96877487321867
 20
7.538472771599644
 30
0.0
 40
0.0650000000000004
100
AcDbArc
 50
302.5789703928023
 51
0.0
  0
ARC
  5
1FA
330
2
100
AcDbEntity
  8
AM_VIS
100
AcDbCircle
 10
13.96877487321867
 20
7.538472771599644
 30
0.0
 40
0.0650000000000003
100
AcDbArc
 50
180.0
 51
237.4210296071959
  0
ARC
  5
1FB
330
2
100
AcDbEntity
  8
AM_VIS
100
AcDbCircle
 10
13.96877487321867
 20
7.603472771599642
 30
0.0
 40
0.0650000000000004
100
AcDbArc
 50
0.0
 51
180.0
  0
LINE
  5
1FC
330
2
100
AcDbEntity
  8
AM_VIS
100
AcDbLine
 10
13.38309396893189
 20
7.335834296019177
 30
0.0
 11
13.36261879321867
 21
7.35951428184404
 31
0.0
  0
LINE
  5
1FD
330
2
100
AcDbEntity
  8
AM_VIS
100
AcDbLine
 10
13.36261879321867
 20
7.35951428184404
 30
0.0
 11
13.35548457595234
 21
7.34391428184404
 31
0.0
  0
LINE
  5
1FE
330
2
100
AcDbEntity
  8
AM_VIS
100
AcDbLine
 10
13.28121879321867
 20
7.34391428184404
 30
0.0
 11
13.26561879321866
 21
7.35951428184404
 31
0.0
  0
LINE
  5
1FF
330
2
100
AcDbEntity
  8
AM_VIS
100
AcDbLine
 10
13.36261879321867
 20
7.05051428184404
 30
0.0
 11
13.38309396893189
 21
7.074194267668901
 31
0.0
  0
LINE
  5
200
330
2
100
AcDbEntity
  8
AM_VIS
100
AcDbLine
 10
13.35548457595234
 20
7.06611428184404
 30
0.0
 11
13.36261879321867
 21
7.05051428184404
 31
0.0
  0
LINE
  5
201
330
2
100
AcDbEntity
  8
AM_VIS
100
AcDbLine
 10
13.26561879321867
 20
7.05051428184404
 30
0.0
 11
13.28121879321867
 21
7.06611428184404
 31
0.0
  0
LINE
  5
202
330
2
100
AcDbEntity
  8
AM_VIS
100
AcDbLine
 10
13.48475301048499
 20
7.06611428184404
 30
0.0
 11
13.47761879321867
 21
7.05051428184404
 31
0.0
  0
LINE
  5
203
330
2
100
AcDbEntity
  8
AM_VIS
100
AcDbLine
 10
13.45714361750544
 20
7.0741942676689
 30
0.0
 11
13.47761879321867
 21
7.05051428184404
 31
0.0
  0
LINE
  5
204
330
2
100
AcDbEntity
  8
AM_VIS
100
AcDbLine
 10
13.57461879321867
 20
7.05051428184404
 30
0.0
 11
13.55901879321867
 21
7.06611428184404
 31
0.0
  0
LINE
  5
205
330
2
100
AcDbEntity
  8
AM_VIS
100
AcDbLine
 10
13.55093880739381
 20
7.242039106130815
 30
0.0
 11
13.57461879321867
 21
7.26251428184404
 31
0.0
  0
LINE
  5
206
330
2
100
AcDbEntity
  8
AM_VIS
100
AcDbLine
 10
13.57461879321867
 20
7.26251428184404
 30
0.0
 11
13.55901879321867
 21
7.269648499110367
 31
0.0
  0
LINE
  5
207
330
2
100
AcDbEntity
  8
AM_VIS
100
AcDbLine
 10
13.57461879321867
 20
7.35951428184404
 30
0.0
 11
13.55901879321867
 21
7.34391428184404
 31
0.0
  0
LINE
  5
208
330
2
100
AcDbEntity
  8
AM_VIS
100
AcDbLine
 10
13.26561879321867
 20
7.147514281844039
 30
0.0
 11
13.28121879321867
 21
7.140380064577713
 31
0.0
  0
LINE
  5
209
330
2
100
AcDbEntity
  8
AM_VIS
100
AcDbLine
 10
13.28929877904353
 20
7.167989457557263
 30
0.0
 11
13.26561879321867
 21
7.147514281844036
 31
0.0
  0
LINE
  5
20A
330
2
100
AcDbEntity
  8
AM_VIS
100
AcDbLine
 10
13.57461879321866
 20
7.147514281844038
 30
0.0
 11
13.55901879321867
 21
7.140380064577713
 31
0.0
  0
LINE
  5
20B
330
2
100
AcDbEntity
  8
AM_VIS
100
AcDbLine
 10
13.57461879321867
 20
7.147514281844036
 30
0.0
 11
13.55093880739381
 21
7.167989457557261
 31
0.0
  0
LINE
  5
20C
330
2
100
AcDbEntity
  8
AM_VIS
100
AcDbLine
 10
13.47761879321867
 20
7.35951428184404
 30
0.0
 11
13.48475301048499
 21
7.34391428184404
 31
0.0
  0
LINE
  5
20D
330
2
100
AcDbEntity
  8
AM_VIS
100
AcDbLine
 10
13.47761879321867
 20
7.35951428184404
 30
0.0
 11
13.45714361750544
 21
7.335834296019178
 31
0.0
  0
LINE
  5
20E
330
2
100
AcDbEntity
  8
AM_VIS
100
AcDbLine
 10
13.26561879321867
 20
7.26251428184404
 30
0.0
 11
13.28121879321867
 21
7.269648499110367
 31
0.0
  0
LINE
  5
20F
330
2
100
AcDbEntity
  8
AM_VIS
100
AcDbLine
 10
13.26561879321867
 20
7.26251428184404
 30
0.0
 11
13.28929877904353
 21
7.242039106130811
 31
0.0
  0
LINE
  5
210
330
2
100
AcDbEntity
  8
AM_VIS
100
AcDbLine
 10
13.36261879321867
 20
7.35951428184404
 30
0.0
 11
13.26561879321867
 21
7.35951428184404
 31
0.0
  0
LINE
  5
211
330
2
100
AcDbEntity
  8
AM_VIS
100
AcDbLine
 10
13.57461879321867
 20
7.35951428184404
 30
0.0
 11
13.47761879321867
 21
7.35951428184404
 31
0.0
  0
LINE
  5
212
330
2
100
AcDbEntity
  8
AM_VIS
100
AcDbLine
 10
13.57461879321867
 20
7.26251428184404
 30
0.0
 11
13.57461879321867
 21
7.35951428184404
 31
0.0
  0
LINE
  5
213
330
2
100
AcDbEntity
  8
AM_VIS
100
AcDbLine
 10
13.57461879321867
 20
7.05051428184404
 30
0.0
 11
13.57461879321867
 21
7.147514281844039
 31
0.0
  0
LINE
  5
214
330
2
100
AcDbEntity
  8
AM_VIS
100
AcDbLine
 10
13.26561879321867
 20
7.147514281844039
 30
0.0
 11
13.26561879321867
 21
7.05051428184404
 31
0.0
  0
LINE
  5
215
330
2
100
AcDbEntity
  8
AM_VIS
100
AcDbLine
 10
13.26561879321867
 20
7.35951428184404
 30
0.0
 11
13.26561879321867
 21
7.26251428184404
 31
0.0
  0
LINE
  5
216
330
2
100
AcDbEntity
  8
AM_VIS
100
AcDbLine
 10
13.26561879321867
 20
7.26251428184404
 30
0.0
 11
13.26561879321867
 21
7.147514281844036
 31
0.0
  0
LINE
  5
217
330
2
100
AcDbEntity
  8
AM_VIS
100
AcDbLine
 10
13.47761879321867
 20
7.05051428184404
 30
0.0
 11
13.57461879321867
 21
7.05051428184404
 31
0.0
  0
LINE
  5
218
330
2
100
AcDbEntity
  8
AM_VIS
100
AcDbLine
 10
13.26561879321867
 20
7.05051428184404
 30
0.0
 11
13.36261879321867
 21
7.05051428184404
 31
0.0
  0
LINE
  5
219
330
2
100
AcDbEntity
  8
AM_VIS
100
AcDbLine
 10
13.36261879321867
 20
7.05051428184404
 30
0.0
 11
13.47761879321867
 21
7.05051428184404
 31
0.0
  0
LINE
  5
21A
330
2
100
AcDbEntity
  8
AM_VIS
100
AcDbLine
 10
13.57461879321867
 20
7.147514281844036
 30
0.0
 11
13.57461879321867
 21
7.26251428184404
 31
0.0
  0
LINE
  5
21B
330
2
100
AcDbEntity
  8
AM_VIS
100
AcDbLine
 10
13.47761879321867
 20
7.35951428184404
 30
0.0
 11
13.36261879321867
 21
7.35951428184404
 31
0.0
  0
CIRCLE
  5
21C
330
2
100
AcDbEntity
  8
AM_VIS
100
AcDbCircle
 10
13.42011879321867
 20
7.205014281844039
 30
0.0
 40
0.1359585000000001
  0
LINE
  5
21D
330
2
100
AcDbEntity
  8
AM_VIS
100
AcDbLine
 10
13.40335179321867
 20
7.18824728184404
 30
0.0
 11
13.40335179321867
 21
7.119156154034262
 31
0.0
  0
LINE
  5
21E
330
2
100
AcDbEntity
  8
AM_VIS
100
AcDbLine
 10
13.40335179321867
 20
7.290872409653817
 30
0.0
 11
13.40335179321867
 21
7.221781281844038
 31
0.0
  0
ARC
  5
21F
330
2
100
AcDbEntity
  8
AM_VIS
100
AcDbCircle
 10
13.42011879321867
 20
7.205014281844039
 30
0.0
 40
0.087480000000001
100
AcDbArc
 50
168.9499350406696
 51
191.0500649593304
  0
ARC
  5
220
330
2
100
AcDbEntity
  8
AM_VIS
100
AcDbCircle
 10
13.42011879321867
 20
7.205014281844039
 30
0.0
 40
0.087480000000001
100
AcDbArc
 50
78.94993504066866
 51
101.0500649593301
  0
ARC
  5
221
330
2
100
AcDbEntity
  8
AM_VIS
100
AcDbCircle
 10
13.42011879321867
 20
7.205014281844039
 30
0.0
 40
0.087480000000001
100
AcDbArc
 50
348.9499350406696
 51
11.05006495933045
  0
ARC
  5
222
330
2
100
AcDbEntity
  8
AM_VIS
100
AcDbCircle
 10
13.42011879321867
 20
7.205014281844039
 30
0.0
 40
0.087480000000001
100
AcDbArc
 50
258.9499350406699
 51
281.0500649593304
  0
LINE
  5
223
330
2
100
AcDbEntity
  8
AM_VIS
100
AcDbLine
 10
13.43688579321867
 20
7.119156154034262
 30
0.0
 11
13.43688579321867
 21
7.188247281844039
 31
0.0
  0
LINE
  5
224
330
2
100
AcDbEntity
  8
AM_VIS
100
AcDbLine
 10
13.43688579321867
 20
7.221781281844038
 30
0.0
 11
13.43688579321867
 21
7.290872409653817
 31
0.0
  0
LINE
  5
225
330
2
100
AcDbEntity
  8
AM_VIS
100
AcDbLine
 10
13.50597692102845
 20
7.221781281844038
 30
0.0
 11
13.43688579321867
 21
7.221781281844038
 31
0.0
  0
LINE
  5
226
330
2
100
AcDbEntity
  8
AM_VIS
100
AcDbLine
 10
13.40335179321867
 20
7.221781281844038
 30
0.0
 11
13.33426066540889
 21
7.221781281844038
 31
0.0
  0
LINE
  5
227
330
2
100
AcDbEntity
  8
AM_VIS
100
AcDbLine
 10
13.43688579321867
 20
7.18824728184404
 30
0.0
 11
13.50597692102845
 21
7.18824728184404
 31
0.0
  0
LINE
  5
228
330
2
100
AcDbEntity
  8
AM_VIS
100
AcDbLine
 10
13.33426066540889
 20
7.18824728184404
 30
0.0
 11
13.40335179321867
 21
7.18824728184404
 31
0.0
  0
LINE
  5
229
330
2
100
AcDbEntity
  8
AM_VIS
100
AcDbLine
 10
13.76809396893189
 20
7.335834296019177
 30
0.0
 11
13.74761879321866
 21
7.35951428184404
 31
0.0
  0
LINE
  5
22A
330
2
100
AcDbEntity
  8
AM_VIS
100
AcDbLine
 10
13.74761879321866
 20
7.35951428184404
 30
0.0
 11
13.74048457595234
 21
7.34391428184404
 31
0.0
  0
LINE
  5
22B
330
2
100
AcDbEntity
  8
AM_VIS
100
AcDbLine
 10
13.66621879321867
 20
7.34391428184404
 30
0.0
 11
13.65211879321867
 21
7.358014281844035
 31
0.0
  0
LINE
  5
22C
330
2
100
AcDbEntity
  8
AM_VIS
100
AcDbLine
 10
13.74761879321866
 20
7.05051428184404
 30
0.0
 11
13.76809396893189
 21
7.074194267668901
 31
0.0
  0
LINE
  5
22D
330
2
100
AcDbEntity
  8
AM_VIS
100
AcDbLine
 10
13.74048457595234
 20
7.06611428184404
 30
0.0
 11
13.74761879321866
 21
7.05051428184404
 31
0.0
  0
LINE
  5
22E
330
2
100
AcDbEntity
  8
AM_VIS
100
AcDbLine
 10
13.65211879321867
 20
7.052014281844041
 30
0.0
 11
13.66621879321867
 21
7.06611428184404
 31
0.0
  0
LINE
  5
22F
330
2
100
AcDbEntity
  8
AM_VIS
100
AcDbLine
 10
13.86975301048499
 20
7.06611428184404
 30
0.0
 11
13.86261879321867
 21
7.05051428184404
 31
0.0
  0
LINE
  5
230
330
2
100
AcDbEntity
  8
AM_VIS
100
AcDbLine
 10
13.84214361750544
 20
7.0741942676689
 30
0.0
 11
13.86261879321867
 21
7.05051428184404
 31
0.0
  0
LINE
  5
231
330
2
100
AcDbEntity
  8
AM_VIS
100
AcDbLine
 10
13.95961879321866
 20
7.05051428184404
 30
0.0
 11
13.94401879321867
 21
7.06611428184404
 31
0.0
  0
LINE
  5
232
330
2
100
AcDbEntity
  8
AM_VIS
100
AcDbLine
 10
13.93593880739381
 20
7.242039106130815
 30
0.0
 11
13.95961879321866
 21
7.26251428184404
 31
0.0
  0
LINE
  5
233
330
2
100
AcDbEntity
  8
AM_VIS
100
AcDbLine
 10
13.95961879321866
 20
7.26251428184404
 30
0.0
 11
13.94401879321867
 21
7.269648499110367
 31
0.0
  0
LINE
  5
234
330
2
100
AcDbEntity
  8
AM_VIS
100
AcDbLine
 10
13.95961879321866
 20
7.35951428184404
 30
0.0
 11
13.94401879321867
 21
7.34391428184404
 31
0.0
  0
LINE
  5
235
330
2
100
AcDbEntity
  8
AM_VIS
100
AcDbLine
 10
13.65211879321867
 20
7.146828299414583
 30
0.0
 11
13.66621879321867
 21
7.140380064577713
 31
0.0
  0
LINE
  5
236
330
2
100
AcDbEntity
  8
AM_VIS
100
AcDbLine
 10
13.67429877904353
 20
7.167989457557264
 30
0.0
 11
13.65211879321867
 21
7.148811274325241
 31
0.0
  0
LINE
  5
237
330
2
100
AcDbEntity
  8
AM_VIS
100
AcDbLine
 10
13.95961879321866
 20
7.147514281844038
 30
0.0
 11
13.94401879321866
 21
7.140380064577713
 31
0.0
  0
LINE
  5
238
330
2
100
AcDbEntity
  8
AM_VIS
100
AcDbLine
 10
13.95961879321866
 20
7.147514281844036
 30
0.0
 11
13.93593880739381
 21
7.167989457557261
 31
0.0
  0
LINE
  5
239
330
2
100
AcDbEntity
  8
AM_VIS
100
AcDbLine
 10
13.86261879321867
 20
7.35951428184404
 30
0.0
 11
13.86975301048499
 21
7.34391428184404
 31
0.0
  0
LINE
  5
23A
330
2
100
AcDbEntity
  8
AM_VIS
100
AcDbLine
 10
13.86261879321867
 20
7.35951428184404
 30
0.0
 11
13.84214361750544
 21
7.335834296019178
 31
0.0
  0
LINE
  5
23B
330
2
100
AcDbEntity
  8
AM_VIS
100
AcDbLine
 10
13.65211879321867
 20
7.263200264273496
 30
0.0
 11
13.66621879321867
 21
7.269648499110367
 31
0.0
  0
LINE
  5
23C
330
2
100
AcDbEntity
  8
AM_VIS
100
AcDbLine
 10
13.65211879321867
 20
7.261217289362836
 30
0.0
 11
13.67429877904353
 21
7.242039106130811
 31
0.0
  0
LINE
  5
23D
330
2
100
AcDbEntity
  8
AM_VIS
100
AcDbLine
 10
13.74761879321866
 20
7.35951428184404
 30
0.0
 11
13.65211879321867
 21
7.35951428184404
 31
0.0
  0
LINE
  5
23E
330
2
100
AcDbEntity
  8
AM_VIS
100
AcDbLine
 10
13.95961879321866
 20
7.35951428184404
 30
0.0
 11
13.86261879321867
 21
7.35951428184404
 31
0.0
  0
LINE
  5
23F
330
2
100
AcDbEntity
  8
AM_VIS
100
AcDbLine
 10
13.95961879321866
 20
7.26251428184404
 30
0.0
 11
13.95961879321866
 21
7.35951428184404
 31
0.0
  0
LINE
  5
240
330
2
100
AcDbEntity
  8
AM_VIS
100
AcDbLine
 10
13.95961879321866
 20
7.05051428184404
 30
0.0
 11
13.95961879321866
 21
7.147514281844039
 31
0.0
  0
LINE
  5
241
330
2
100
AcDbEntity
  8
AM_VIS
100
AcDbLine
 10
13.86261879321867
 20
7.05051428184404
 30
0.0
 11
13.95961879321866
 21
7.05051428184404
 31
0.0
  0
LINE
  5
242
330
2
100
AcDbEntity
  8
AM_VIS
100
AcDbLine
 10
13.65211879321867
 20
7.05051428184404
 30
0.0
 11
13.74761879321866
 21
7.05051428184404
 31
0.0
  0
LINE
  5
243
330
2
100
AcDbEntity
  8
AM_VIS
100
AcDbLine
 10
13.74761879321866
 20
7.05051428184404
 30
0.0
 11
13.86261879321867
 21
7.05051428184404
 31
0.0
  0
LINE
  5
244
330
2
100
AcDbEntity
  8
AM_VIS
100
AcDbLine
 10
13.95961879321866
 20
7.147514281844036
 30
0.0
 11
13.95961879321866
 21
7.26251428184404
 31
0.0
  0
LINE
  5
245
330
2
100
AcDbEntity
  8
AM_VIS
100
AcDbLine
 10
13.86261879321867
 20
7.35951428184404
 30
0.0
 11
13.74761879321866
 21
7.35951428184404
 31
0.0
  0
CIRCLE
  5
246
330
2
100
AcDbEntity
  8
AM_VIS
100
AcDbCircle
 10
13.80511879321867
 20
7.205014281844039
 30
0.0
 40
0.1359585000000001
  0
LINE
  5
247
330
2
100
AcDbEntity
  8
AM_VIS
100
AcDbLine
 10
13.78835179321867
 20
7.18824728184404
 30
0.0
 11
13.78835179321867
 21
7.119156154034262
 31
0.0
  0
LINE
  5
248
330
2
100
AcDbEntity
  8
AM_VIS
100
AcDbLine
 10
13.78835179321867
 20
7.290872409653817
 30
0.0
 11
13.78835179321867
 21
7.221781281844038
 31
0.0
  0
ARC
  5
249
330
2
100
AcDbEntity
  8
AM_VIS
100
AcDbCircle
 10
13.80511879321867
 20
7.205014281844039
 30
0.0
 40
0.087480000000001
100
AcDbArc
 50
168.9499350406695
 51
191.0500649593304
  0
ARC
  5
24A
330
2
100
AcDbEntity
  8
AM_VIS
100
AcDbCircle
 10
13.80511879321867
 20
7.205014281844039
 30
0.0
 40
0.087480000000001
100
AcDbArc
 50
78.94993504066866
 51
101.0500649593301
  0
ARC
  5
24B
330
2
100
AcDbEntity
  8
AM_VIS
100
AcDbCircle
 10
13.80511879321867
 20
7.205014281844039
 30
0.0
 40
0.087480000000001
100
AcDbArc
 50
348.9499350406696
 51
11.05006495933045
  0
ARC
  5
24C
330
2
100
AcDbEntity
  8
AM_VIS
100
AcDbCircle
 10
13.80511879321867
 20
7.205014281844039
 30
0.0
 40
0.087480000000001
100
AcDbArc
 50
258.9499350406699
 51
281.0500649593304
  0
LINE
  5
24D
330
2
100
AcDbEntity
  8
AM_VIS
100
AcDbLine
 10
13.82188579321867
 20
7.119156154034262
 30
0.0
 11
13.82188579321867
 21
7.188247281844039
 31
0.0
  0
LINE
  5
24E
330
2
100
AcDbEntity
  8
AM_VIS
100
AcDbLine
 10
13.82188579321867
 20
7.221781281844038
 30
0.0
 11
13.82188579321867
 21
7.290872409653817
 31
0.0
  0
LINE
  5
24F
330
2
100
AcDbEntity
  8
AM_VIS
100
AcDbLine
 10
13.89097692102845
 20
7.221781281844038
 30
0.0
 11
13.82188579321867
 21
7.221781281844038
 31
0.0
  0
LINE
  5
250
330
2
100
AcDbEntity
  8
AM_VIS
100
AcDbLine
 10
13.78835179321867
 20
7.221781281844038
 30
0.0
 11
13.71926066540889
 21
7.221781281844038
 31
0.0
  0
LINE
  5
251
330
2
100
AcDbEntity
  8
AM_VIS
100
AcDbLine
 10
13.82188579321867
 20
7.18824728184404
 30
0.0
 11
13.89097692102845
 21
7.18824728184404
 31
0.0
  0
LINE
  5
252
330
2
100
AcDbEntity
  8
AM_VIS
100
AcDbLine
 10
13.71926066540889
 20
7.18824728184404
 30
0.0
 11
13.78835179321867
 21
7.18824728184404
 31
0.0
  0
LINE
  5
253
330
2
100
AcDbEntity
  8
AM_VIS
100
AcDbLine
 10
14.15309396893189
 20
7.335834296019177
 30
0.0
 11
14.13261879321867
 21
7.35951428184404
 31
0.0
  0
LINE
  5
254
330
2
100
AcDbEntity
  8
AM_VIS
100
AcDbLine
 10
14.13261879321867
 20
7.35951428184404
 30
0.0
 11
14.12548457595234
 21
7.34391428184404
 31
0.0
  0
LINE
  5
255
330
2
100
AcDbEntity
  8
AM_VIS
100
AcDbLine
 10
14.05121879321867
 20
7.34391428184404
 30
0.0
 11
14.03711879321867
 21
7.358014281844036
 31
0.0
  0
LINE
  5
256
330
2
100
AcDbEntity
  8
AM_VIS
100
AcDbLine
 10
14.13261879321866
 20
7.05051428184404
 30
0.0
 11
14.15309396893189
 21
7.074194267668901
 31
0.0
  0
LINE
  5
257
330
2
100
AcDbEntity
  8
AM_VIS
100
AcDbLine
 10
14.12548457595234
 20
7.06611428184404
 30
0.0
 11
14.13261879321866
 21
7.05051428184404
 31
0.0
  0
LINE
  5
258
330
2
100
AcDbEntity
  8
AM_VIS
100
AcDbLine
 10
14.03711879321867
 20
7.052014281844041
 30
0.0
 11
14.05121879321867
 21
7.06611428184404
 31
0.0
  0
LINE
  5
259
330
2
100
AcDbEntity
  8
AM_VIS
100
AcDbLine
 10
14.25475301048499
 20
7.06611428184404
 30
0.0
 11
14.24761879321867
 21
7.05051428184404
 31
0.0
  0
LINE
  5
25A
330
2
100
AcDbEntity
  8
AM_VIS
100
AcDbLine
 10
14.22714361750544
 20
7.0741942676689
 30
0.0
 11
14.24761879321867
 21
7.05051428184404
 31
0.0
  0
LINE
  5
25B
330
2
100
AcDbEntity
  8
AM_VIS
100
AcDbLine
 10
14.34461879321867
 20
7.05051428184404
 30
0.0
 11
14.32901879321867
 21
7.06611428184404
 31
0.0
  0
LINE
  5
25C
330
2
100
AcDbEntity
  8
AM_VIS
100
AcDbLine
 10
14.32093880739381
 20
7.242039106130815
 30
0.0
 11
14.34461879321867
 21
7.26251428184404
 31
0.0
  0
LINE
  5
25D
330
2
100
AcDbEntity
  8
AM_VIS
100
AcDbLine
 10
14.34461879321867
 20
7.26251428184404
 30
0.0
 11
14.32901879321867
 21
7.269648499110367
 31
0.0
  0
LINE
  5
25E
330
2
100
AcDbEntity
  8
AM_VIS
100
AcDbLine
 10
14.34461879321867
 20
7.35951428184404
 30
0.0
 11
14.32901879321867
 21
7.34391428184404
 31
0.0
  0
LINE
  5
25F
330
2
100
AcDbEntity
  8
AM_VIS
100
AcDbLine
 10
14.03711879321867
 20
7.146828299414584
 30
0.0
 11
14.05121879321867
 21
7.140380064577713
 31
0.0
  0
LINE
  5
260
330
2
100
AcDbEntity
  8
AM_VIS
100
AcDbLine
 10
14.05929877904353
 20
7.167989457557264
 30
0.0
 11
14.03711879321867
 21
7.148811274325239
 31
0.0
  0
LINE
  5
261
330
2
100
AcDbEntity
  8
AM_VIS
100
AcDbLine
 10
14.34461879321866
 20
7.147514281844038
 30
0.0
 11
14.32901879321867
 21
7.140380064577713
 31
0.0
  0
LINE
  5
262
330
2
100
AcDbEntity
  8
AM_VIS
100
AcDbLine
 10
14.34461879321866
 20
7.147514281844036
 30
0.0
 11
14.32093880739381
 21
7.167989457557261
 31
0.0
  0
LINE
  5
263
330
2
100
AcDbEntity
  8
AM_VIS
100
AcDbLine
 10
14.24761879321867
 20
7.35951428184404
 30
0.0
 11
14.25475301048499
 21
7.34391428184404
 31
0.0
  0
LINE
  5
264
330
2
100
AcDbEntity
  8
AM_VIS
100
AcDbLine
 10
14.24761879321867
 20
7.35951428184404
 30
0.0
 11
14.22714361750544
 21
7.335834296019178
 31
0.0
  0
LINE
  5
265
330
2
100
AcDbEntity
  8
AM_VIS
100
AcDbLine
 10
14.03711879321867
 20
7.263200264273496
 30
0.0
 11
14.05121879321867
 21
7.269648499110367
 31
0.0
  0
LINE
  5
266
330
2
100
AcDbEntity
  8
AM_VIS
100
AcDbLine
 10
14.03711879321867
 20
7.261217289362837
 30
0.0
 11
14.05929877904353
 21
7.242039106130813
 31
0.0
  0
LINE
  5
267
330
2
100
AcDbEntity
  8
AM_VIS
100
AcDbLine
 10
14.13261879321867
 20
7.35951428184404
 30
0.0
 11
14.03711879321867
 21
7.35951428184404
 31
0.0
  0
LINE
  5
268
330
2
100
AcDbEntity
  8
AM_VIS
100
AcDbLine
 10
14.34461879321867
 20
7.35951428184404
 30
0.0
 11
14.24761879321867
 21
7.35951428184404
 31
0.0
  0
LINE
  5
269
330
2
100
AcDbEntity
  8
AM_VIS
100
AcDbLine
 10
14.34461879321867
 20
7.26251428184404
 30
0.0
 11
14.34461879321867
 21
7.35951428184404
 31
0.0
  0
LINE
  5
26A
330
2
100
AcDbEntity
  8
AM_VIS
100
AcDbLine
 10
14.34461879321867
 20
7.05051428184404
 30
0.0
 11
14.34461879321867
 21
7.147514281844039
 31
0.0
  0
LINE
  5
26B
330
2
100
AcDbEntity
  8
AM_VIS
100
AcDbLine
 10
14.24761879321867
 20
7.05051428184404
 30
0.0
 11
14.34461879321867
 21
7.05051428184404
 31
0.0
  0
LINE
  5
26C
330
2
100
AcDbEntity
  8
AM_VIS
100
AcDbLine
 10
14.03711879321867
 20
7.05051428184404
 30
0.0
 11
14.13261879321866
 21
7.05051428184404
 31
0.0
  0
LINE
  5
26D
330
2
100
AcDbEntity
  8
AM_VIS
100
AcDbLine
 10
14.13261879321866
 20
7.05051428184404
 30
0.0
 11
14.24761879321867
 21
7.05051428184404
 31
0.0
  0
LINE
  5
26E
330
2
100
AcDbEntity
  8
AM_VIS
100
AcDbLine
 10
14.34461879321867
 20
7.147514281844036
 30
0.0
 11
14.34461879321867
 21
7.26251428184404
 31
0.0
  0
LINE
  5
26F
330
2
100
AcDbEntity
  8
AM_VIS
100
AcDbLine
 10
14.24761879321867
 20
7.35951428184404
 30
0.0
 11
14.13261879321867
 21
7.35951428184404
 31
0.0
  0
CIRCLE
  5
270
330
2
100
AcDbEntity
  8
AM_VIS
100
AcDbCircle
 10
14.19011879321867
 20
7.205014281844039
 30
0.0
 40
0.1359585000000001
  0
LINE
  5
271
330
2
100
AcDbEntity
  8
AM_VIS
100
AcDbLine
 10
14.17335179321867
 20
7.18824728184404
 30
0.0
 11
14.17335179321867
 21
7.119156154034262
 31
0.0
  0
LINE
  5
272
330
2
100
AcDbEntity
  8
AM_VIS
100
AcDbLine
 10
14.17335179321867
 20
7.290872409653817
 30
0.0
 11
14.17335179321867
 21
7.221781281844038
 31
0.0
  0
ARC
  5
273
330
2
100
AcDbEntity
  8
AM_VIS
100
AcDbCircle
 10
14.19011879321867
 20
7.205014281844039
 30
0.0
 40
0.087480000000001
100
AcDbArc
 50
168.9499350406695
 51
191.0500649593304
  0
ARC
  5
274
330
2
100
AcDbEntity
  8
AM_VIS
100
AcDbCircle
 10
14.19011879321867
 20
7.205014281844039
 30
0.0
 40
0.087480000000001
100
AcDbArc
 50
78.94993504066866
 51
101.0500649593301
  0
ARC
  5
275
330
2
100
AcDbEntity
  8
AM_VIS
100
AcDbCircle
 10
14.19011879321867
 20
7.205014281844039
 30
0.0
 40
0.087480000000001
100
AcDbArc
 50
348.9499350406696
 51
11.05006495933045
  0
ARC
  5
276
330
2
100
AcDbEntity
  8
AM_VIS
100
AcDbCircle
 10
14.19011879321867
 20
7.205014281844039
 30
0.0
 40
0.087480000000001
100
AcDbArc
 50
258.9499350406699
 51
281.0500649593304
  0
LINE
  5
277
330
2
100
AcDbEntity
  8
AM_VIS
100
AcDbLine
 10
14.20688579321867
 20
7.119156154034262
 30
0.0
 11
14.20688579321867
 21
7.188247281844039
 31
0.0
  0
LINE
  5
278
330
2
100
AcDbEntity
  8
AM_VIS
100
AcDbLine
 10
14.20688579321867
 20
7.221781281844038
 30
0.0
 11
14.20688579321867
 21
7.290872409653817
 31
0.0
  0
LINE
  5
279
330
2
100
AcDbEntity
  8
AM_VIS
100
AcDbLine
 10
14.27597692102844
 20
7.221781281844038
 30
0.0
 11
14.20688579321867
 21
7.221781281844038
 31
0.0
  0
LINE
  5
27A
330
2
100
AcDbEntity
  8
AM_VIS
100
AcDbLine
 10
14.17335179321867
 20
7.221781281844038
 30
0.0
 11
14.10426066540889
 21
7.221781281844038
 31
0.0
  0
LINE
  5
27B
330
2
100
AcDbEntity
  8
AM_VIS
100
AcDbLine
 10
14.20688579321867
 20
7.18824728184404
 30
0.0
 11
14.27597692102844
 21
7.18824728184404
 31
0.0
  0
LINE
  5
27C
330
2
100
AcDbEntity
  8
AM_VIS
100
AcDbLine
 10
14.10426066540889
 20
7.18824728184404
 30
0.0
 11
14.17335179321867
 21
7.18824728184404
 31
0.0
  0
CIRCLE
  5
27D
330
2
100
AcDbEntity
  8
AM_VIS
100
AcDbCircle
 10
14.57511879321867
 20
7.236514281844039
 30
0.0
 40
0.1100000000000003
  0
LINE
  5
27E
330
2
100
AcDbEntity
  8
AM_VIS
100
AcDbLine
 10
14.62511879321867
 20
7.211514281844036
 30
0.0
 11
14.62511879321867
 21
7.261514281844037
 31
0.0
  0
LINE
  5
27F
330
2
100
AcDbEntity
  8
AM_VIS
100
AcDbLine
 10
14.60011879321867
 20
7.211514281844036
 30
0.0
 11
14.62511879321867
 21
7.211514281844036
 31
0.0
  0
LINE
  5
280
330
2
100
AcDbEntity
  8
AM_VIS
100
AcDbLine
 10
14.62511879321867
 20
7.261514281844037
 30
0.0
 11
14.60011879321867
 21
7.261514281844037
 31
0.0
  0
LINE
  5
281
330
2
100
AcDbEntity
  8
AM_VIS
100
AcDbLine
 10
14.55011879321867
 20
7.186514281844036
 30
0.0
 11
14.60011879321867
 21
7.186514281844036
 31
0.0
  0
LINE
  5
282
330
2
100
AcDbEntity
  8
AM_VIS
100
AcDbLine
 10
14.60011879321867
 20
7.261514281844037
 30
0.0
 11
14.60011879321867
 21
7.28651428184404
 31
0.0
  0
LINE
  5
283
330
2
100
AcDbEntity
  8
AM_VIS
100
AcDbLine
 10
14.60011879321867
 20
7.186514281844036
 30
0.0
 11
14.60011879321867
 21
7.211514281844036
 31
0.0
  0
LINE
  5
284
330
2
100
AcDbEntity
  8
AM_VIS
100
AcDbLine
 10
14.60011879321867
 20
7.28651428184404
 30
0.0
 11
14.55011879321867
 21
7.28651428184404
 31
0.0
  0
LINE
  5
285
330
2
100
AcDbEntity
  8
AM_VIS
100
AcDbLine
 10
14.55011879321867
 20
7.28651428184404
 30
0.0
 11
14.55011879321867
 21
7.261514281844037
 31
0.0
  0
LINE
  5
286
330
2
100
AcDbEntity
  8
AM_VIS
100
AcDbLine
 10
14.55011879321867
 20
7.261514281844037
 30
0.0
 11
14.52511879321867
 21
7.261514281844037
 31
0.0
  0
LINE
  5
287
330
2
100
AcDbEntity
  8
AM_VIS
100
AcDbLine
 10
14.52511879321867
 20
7.261514281844037
 30
0.0
 11
14.52511879321867
 21
7.211514281844036
 31
0.0
  0
LINE
  5
288
330
2
100
AcDbEntity
  8
AM_VIS
100
AcDbLine
 10
14.52511879321867
 20
7.211514281844036
 30
0.0
 11
14.55011879321867
 21
7.211514281844036
 31
0.0
  0
LINE
  5
289
330
2
100
AcDbEntity
  8
AM_VIS
100
AcDbLine
 10
14.55011879321867
 20
7.211514281844036
 30
0.0
 11
14.55011879321867
 21
7.186514281844036
 31
0.0
  0
CIRCLE
  5
28A
330
2
100
AcDbEntity
  8
AM_VIS
100
AcDbCircle
 10
13.37111879321867
 20
6.30851428184404
 30
0.0
 40
0.1100000000000003
  0
LINE
  5
28B
330
2
100
AcDbEntity
  8
AM_VIS
100
AcDbLine
 10
13.42111879321867
 20
6.283514281844036
 30
0.0
 11
13.42111879321867
 21
6.333514281844038
 31
0.0
  0
LINE
  5
28C
330
2
100
AcDbEntity
  8
AM_VIS
100
AcDbLine
 10
13.39611879321867
 20
6.283514281844036
 30
0.0
 11
13.42111879321867
 21
6.283514281844036
 31
0.0
  0
LINE
  5
28D
330
2
100
AcDbEntity
  8
AM_VIS
100
AcDbLine
 10
13.42111879321867
 20
6.333514281844036
 30
0.0
 11
13.39611879321867
 21
6.333514281844036
 31
0.0
  0
LINE
  5
28E
330
2
100
AcDbEntity
  8
AM_VIS
100
AcDbLine
 10
13.34611879321867
 20
6.258514281844038
 30
0.0
 11
13.39611879321867
 21
6.258514281844038
 31
0.0
  0
LINE
  5
28F
330
2
100
AcDbEntity
  8
AM_VIS
100
AcDbLine
 10
13.39611879321867
 20
6.333514281844036
 30
0.0
 11
13.39611879321867
 21
6.35851428184404
 31
0.0
  0
LINE
  5
290
330
2
100
AcDbEntity
  8
AM_VIS
100
AcDbLine
 10
13.39611879321867
 20
6.258514281844038
 30
0.0
 11
13.39611879321867
 21
6.283514281844039
 31
0.0
  0
LINE
  5
291
330
2
100
AcDbEntity
  8
AM_VIS
100
AcDbLine
 10
13.39611879321867
 20
6.35851428184404
 30
0.0
 11
13.34611879321867
 21
6.35851428184404
 31
0.0
  0
LINE
  5
292
330
2
100
AcDbEntity
  8
AM_VIS
100
AcDbLine
 10
13.34611879321867
 20
6.35851428184404
 30
0.0
 11
13.34611879321867
 21
6.333514281844036
 31
0.0
  0
LINE
  5
293
330
2
100
AcDbEntity
  8
AM_VIS
100
AcDbLine
 10
13.34611879321867
 20
6.333514281844036
 30
0.0
 11
13.32111879321867
 21
6.333514281844036
 31
0.0
  0
LINE
  5
294
330
2
100
AcDbEntity
  8
AM_VIS
100
AcDbLine
 10
13.32111879321867
 20
6.333514281844036
 30
0.0
 11
13.32111879321867
 21
6.283514281844036
 31
0.0
  0
LINE
  5
295
330
2
100
AcDbEntity
  8
AM_VIS
100
AcDbLine
 10
13.32111879321867
 20
6.283514281844036
 30
0.0
 11
13.34611879321867
 21
6.283514281844036
 31
0.0
  0
LINE
  5
296
330
2
100
AcDbEntity
  8
AM_VIS
100
AcDbLine
 10
13.34611879321867
 20
6.283514281844036
 30
0.0
 11
13.34611879321867
 21
6.258514281844036
 31
0.0
  0
LINE
  5
297
330
2
100
AcDbEntity
  8
AM_VIS
100
AcDbLine
 10
13.97311879321867
 20
7.023514281844036
 30
0.0
 11
13.97311879321867
 21
7.385514281844035
 31
0.0
  0
LINE
  5
298
330
2
100
AcDbEntity
  8
AM_VIS
100
AcDbLine
 10
14.03711879321867
 20
7.023514281844036
 30
0.0
 11
13.97311879321867
 21
7.023514281844036
 31
0.0
  0
LINE
  5
299
330
2
100
AcDbEntity
  8
AM_VIS
100
AcDbLine
 10
14.03711879321867
 20
7.385514281844036
 30
0.0
 11
14.03711879321867
 21
7.023514281844036
 31
0.0
  0
LINE
  5
29A
330
2
100
AcDbEntity
  8
AM_VIS
100
AcDbLine
 10
14.00411879321867
 20
7.416514281844036
 30
0.0
 11
14.00611879321867
 21
7.416514281844036
 31
0.0
  0
LINE
  5
29B
330
2
100
AcDbEntity
  8
AM_VIS
100
AcDbLine
 10
13.61911879321867
 20
7.416514281844039
 30
0.0
 11
13.62111879321867
 21
7.416514281844039
 31
0.0
  0
LINE
  5
29C
330
2
100
AcDbEntity
  8
AM_VIS
100
AcDbLine
 10
13.58811879321867
 20
7.023514281844036
 30
0.0
 11
13.58811879321867
 21
7.385514281844039
 31
0.0
  0
LINE
  5
29D
330
2
100
AcDbEntity
  8
AM_VIS
100
AcDbLine
 10
13.65211879321867
 20
7.023514281844036
 30
0.0
 11
13.58811879321867
 21
7.023514281844036
 31
0.0
  0
LINE
  5
29E
330
2
100
AcDbEntity
  8
AM_VIS
100
AcDbLine
 10
13.65211879321867
 20
7.385514281844039
 30
0.0
 11
13.65211879321867
 21
7.023514281844036
 31
0.0
  0
LINE
  5
29F
330
2
100
AcDbEntity
  8
AM_VIS
100
AcDbLine
 10
13.19111879321867
 20
7.023514281844036
 30
0.0
 11
13.19111879321867
 21
7.385514281844039
 31
0.0
  0
LINE
  5
2A0
330
2
100
AcDbEntity
  8
AM_VIS
100
AcDbLine
 10
13.25511879321866
 20
7.023514281844036
 30
0.0
 11
13.19111879321867
 21
7.023514281844036
 31
0.0
  0
LINE
  5
2A1
330
2
100
AcDbEntity
  8
AM_VIS
100
AcDbLine
 10
13.25511879321867
 20
7.385514281844039
 30
0.0
 11
13.25511879321866
 21
7.023514281844036
 31
0.0
  0
LINE
  5
2A2
330
2
100
AcDbEntity
  8
AM_VIS
100
AcDbLine
 10
13.22211879321867
 20
7.416514281844039
 30
0.0
 11
13.22411879321867
 21
7.416514281844039
 31
0.0
  0
LINE
  5
2A3
330
2
100
AcDbEntity
  8
AM_VIS
100
AcDbLine
 10
13.61911879321867
 20
7.416514281844031
 30
0.0
 11
13.22811879321867
 21
7.416514281844031
 31
0.0
  0
LINE
  5
2A4
330
2
100
AcDbEntity
  8
AM_VIS
100
AcDbLine
 10
13.57461879321867
 20
7.356514281844036
 30
0.0
 11
13.58811879321867
 21
7.356514281844036
 31
0.0
  0
LINE
  5
2A5
330
2
100
AcDbEntity
  8
AM_VIS
100
AcDbLine
 10
13.26711879321867
 20
7.013514281844035
 30
0.0
 11
13.26711879321867
 21
7.05051428184404
 31
0.0
  0
LINE
  5
2A6
330
2
100
AcDbEntity
  8
AM_VIS
100
AcDbLine
 10
13.58811879321867
 20
7.023514281844035
 30
0.0
 11
13.58811879321867
 21
7.013514281844035
 31
0.0
  0
LINE
  5
2A7
330
2
100
AcDbEntity
  8
AM_VIS
100
AcDbLine
 10
13.65211879321867
 20
7.013514281844035
 30
0.0
 11
13.65211879321867
 21
7.023514281844035
 31
0.0
  0
LINE
  5
2A8
330
2
100
AcDbEntity
  8
AM_VIS
100
AcDbLine
 10
13.97311879321867
 20
7.023514281844035
 30
0.0
 11
13.97311879321867
 21
7.013514281844035
 31
0.0
  0
LINE
  5
2A9
330
2
100
AcDbEntity
  8
AM_VIS
100
AcDbLine
 10
14.03711879321867
 20
7.013514281844035
 30
0.0
 11
14.03711879321867
 21
7.023514281844035
 31
0.0
  0
LINE
  5
2AA
330
2
100
AcDbEntity
  8
AM_VIS
100
AcDbLine
 10
14.35811879321867
 20
7.356514281844036
 30
0.0
 11
14.35811879321867
 21
7.013514281844035
 31
0.0
  0
LINE
  5
2AB
330
2
100
AcDbEntity
  8
AM_VIS
100
AcDbLine
 10
14.34461879321867
 20
7.356514281844036
 30
0.0
 11
14.35811879321867
 21
7.356514281844036
 31
0.0
  0
LINE
  5
2AC
330
2
100
AcDbEntity
  8
AM_VIS
100
AcDbLine
 10
14.45211879321867
 20
7.416514281844035
 30
0.0
 11
14.00611879321867
 21
7.416514281844034
 31
0.0
  0
LINE
  5
2AD
330
2
100
AcDbEntity
  8
AM_VIS
100
AcDbLine
 10
13.19111879321867
 20
7.023514281844035
 30
0.0
 11
13.19111879321867
 21
7.013514281844035
 31
0.0
  0
LINE
  5
2AE
330
2
100
AcDbEntity
  8
AM_VIS
100
AcDbLine
 10
13.95961879321866
 20
7.356514281844036
 30
0.0
 11
13.97311879321867
 21
7.356514281844036
 31
0.0
  0
LINE
  5
2AF
330
2
100
AcDbEntity
  8
AM_VIS
100
AcDbLine
 10
14.00411879321867
 20
7.416514281844034
 30
0.0
 11
13.62111879321867
 21
7.416514281844031
 31
0.0
  0
ARC
  5
2B0
330
2
100
AcDbEntity
  8
AM_VIS
100
AcDbCircle
 10
14.00611879321867
 20
7.385514281844039
 30
0.0
 40
0.0310000000000005
100
AcDbArc
 50
359.9999999999968
 51
90.00000000000328
  0
ARC
  5
2B1
330
2
100
AcDbEntity
  8
AM_VIS
100
AcDbCircle
 10
14.00411879321867
 20
7.385514281844035
 30
0.0
 40
0.0310000000000004
100
AcDbArc
 50
90.0
 51
180.0
  0
ARC
  5
2B2
330
2
100
AcDbEntity
  8
AM_VIS
100
AcDbCircle
 10
13.61911879321867
 20
7.385514281844036
 30
0.0
 40
0.0310000000000009
100
AcDbArc
 50
90.00000000000328
 51
179.9999999999966
  0
ARC
  5
2B3
330
2
100
AcDbEntity
  8
AM_VIS
100
AcDbCircle
 10
13.62111879321867
 20
7.385514281844039
 30
0.0
 40
0.0310000000000006
100
AcDbArc
 50
0.0
 51
90.0
  0
ARC
  5
2B4
330
2
100
AcDbEntity
  8
AM_VIS
100
AcDbCircle
 10
13.22211879321867
 20
7.385514281844036
 30
0.0
 40
0.0310000000000009
100
AcDbArc
 50
90.00000000000328
 51
179.9999999999966
  0
ARC
  5
2B5
330
2
100
AcDbEntity
  8
AM_VIS
100
AcDbCircle
 10
13.22411879321867
 20
7.385514281844039
 30
0.0
 40
0.0310000000000006
100
AcDbArc
 50
0.0
 51
90.0
  0
ARC
  5
2B6
330
2
100
AcDbEntity
  8
AM_VIS
100
AcDbCircle
 10
13.22811879321866
 20
7.379514281844035
 30
0.0
 40
0.0369999999999976
100
AcDbArc
 50
89.99999999999728
 51
93.23581070381299
  0
LINE
  5
2B7
330
2
100
AcDbEntity
  8
AM_VIS
100
AcDbLine
 10
14.03711879321867
 20
7.013514281844035
 30
0.0
 11
14.03711879321867
 21
7.023514281844036
 31
0.0
  0
LINE
  5
2B8
330
2
100
AcDbEntity
  8
AM_VIS
100
AcDbLine
 10
14.34311879321867
 20
7.05051428184404
 30
0.0
 11
14.34311879321867
 21
7.013514281844035
 31
0.0
  0
LINE
  5
2B9
330
2
100
AcDbEntity
  8
AM_VIS
100
AcDbLine
 10
14.75511879321867
 20
7.379514281844035
 30
0.0
 11
14.75511879321867
 21
6.165514281844036
 31
0.0
  0
LINE
  5
2BA
330
2
100
AcDbEntity
  8
AM_VIS
100
AcDbLine
 10
14.45211879321867
 20
7.416514281844039
 30
0.0
 11
14.71811879321867
 21
7.416514281844034
 31
0.0
  0
LINE
  5
2BB
330
2
100
AcDbEntity
  8
AM_VIS
100
AcDbLine
 10
14.43211879321867
 20
7.013514281844035
 30
0.0
 11
14.43211879321867
 21
7.396514281844036
 31
0.0
  0
LINE
  5
2BC
330
2
100
AcDbEntity
  8
AM_VIS
100
AcDbLine
 10
13.19111879321867
 20
7.013514281844035
 30
0.0
 11
14.43211879321867
 21
7.013514281844035
 31
0.0
  0
LINE
  5
2BD
330
2
100
AcDbEntity
  8
AM_VIS
100
AcDbLine
 10
13.19111879321867
 20
6.165514281844036
 30
0.0
 11
13.19111879321867
 21
7.013514281844035
 31
0.0
  0
LINE
  5
2BE
330
2
100
AcDbEntity
  8
AM_VIS
100
AcDbLine
 10
14.71811879321867
 20
6.128514281844037
 30
0.0
 11
13.22811879321867
 21
6.128514281844037
 31
0.0
  0
ARC
  5
2BF
330
2
100
AcDbEntity
  8
AM_VIS
100
AcDbCircle
 10
14.71811879321867
 20
6.165514281844036
 30
0.0
 40
0.0369999999999995
100
AcDbArc
 50
270.0
 51
0.0
  0
ARC
  5
2C0
330
2
100
AcDbEntity
  8
AM_VIS
100
AcDbCircle
 10
14.71811879321867
 20
7.379514281844033
 30
0.0
 40
0.0369999999999986
100
AcDbArc
 50
0.000000000001374
 51
89.99999999999934
  0
ARC
  5
2C1
330
2
100
AcDbEntity
  8
AM_VIS
100
AcDbCircle
 10
14.45211879321867
 20
7.39651428184404
 30
0.0
 40
0.0199999999999982
100
AcDbArc
 50
90.00000000001016
 51
180.000000000005
  0
ARC
  5
2C2
330
2
100
AcDbEntity
  8
AM_VIS
100
AcDbCircle
 10
13.22811879321867
 20
6.165514281844036
 30
0.0
 40
0.036999999999999
100
AcDbArc
 50
180.0
 51
270.0
  0
CIRCLE
  5
2C3
330
2
100
AcDbEntity
  8
AM_VIS
100
AcDbCircle
 10
14.57511879321867
 20
7.236514281844036
 30
0.0
 40
0.125
  0
CIRCLE
  5
2C4
330
2
100
AcDbEntity
  8
AM_VIS
100
AcDbCircle
 10
13.37111879321867
 20
6.308514281844036
 30
0.0
 40
0.125
  0
LINE
  5
2C5
330
2
100
AcDbEntity
  8
AM_VIS
100
AcDbLine
 10
13.26711879321867
 20
7.013514281844035
 30
0.0
 11
13.26711879321867
 21
7.05051428184404
 31
0.0
  0
LINE
  5
2C6
330
2
100
AcDbEntity
  8
AM_VIS
100
AcDbLine
 10
13.57311879321867
 20
7.05051428184404
 30
0.0
 11
13.57311879321867
 21
7.013514281844035
 31
0.0
  0
LINE
  5
2C7
330
2
100
AcDbEntity
  8
AM_VIS
100
AcDbLine
 10
13.65211879321867
 20
7.013514281844035
 30
0.0
 11
13.65211879321867
 21
7.023514281844036
 31
0.0
  0
LINE
  5
2C8
330
2
100
AcDbEntity
  8
AM_VIS
100
AcDbLine
 10
13.95811879321867
 20
7.05051428184404
 30
0.0
 11
13.95811879321867
 21
7.013514281844035
 31
0.0
  0
LINE
  5
2C9
330
2
100
AcDbEntity
  8
0
100
AcDbLine
 10
12.87378900610123
 20
4.586590004653148
 30
0.0
 11
12.99878900610123
 21
5.086590004653148
 31
0.0
  0
LINE
  5
2CA
330
2
100
AcDbEntity
  8
0
100
AcDbLine
 10
12.99878900610123
 20
5.086590004653148
 30
0.0
 11
13.12378900610123
 21
4.586590004653148
 31
0.0
  0
LINE
  5
2CB
330
2
100
AcDbEntity
  8
0
100
AcDbLine
 10
13.12378900610123
 20
4.586590004653148
 30
0.0
 11
13.24878900610123
 21
5.086590004653148
 31
0.0
  0
LINE
  5
2CC
330
2
100
AcDbEntity
  8
0
100
AcDbLine
 10
13.24878900610123
 20
5.086590004653148
 30
0.0
 11
13.37378900610123
 21
4.586590004653148
 31
0.0
  0
LINE
  5
2CD
330
2
100
AcDbEntity
  8
0
100
AcDbLine
 10
13.37378900610123
 20
4.586590004653148
 30
0.0
 11
13.49878900610123
 21
5.086590004653148
 31
0.0
  0
LINE
  5
2CE
330
2
100
AcDbEntity
  8
0
100
AcDbLine
 10
13.49878900610123
 20
5.086590004653148
 30
0.0
 11
13.62378900610123
 21
4.586590004653148
 31
0.0
  0
LINE
  5
2CF
330
2
100
AcDbEntity
  8
0
100
AcDbLine
 10
13.62378900610123
 20
4.586590004653148
 30
0.0
 11
13.74878900610123
 21
5.086590004653148
 31
0.0
  0
LINE
  5
2D0
330
2
100
AcDbEntity
  8
0
100
AcDbLine
 10
13.74878900610123
 20
5.086590004653148
 30
0.0
 11
13.87378900610123
 21
4.586590004653148
 31
0.0
  0
LINE
  5
2D1
330
2
100
AcDbEntity
  8
0
100
AcDbLine
 10
13.87378900610123
 20
4.586590004653148
 30
0.0
 11
13.99878900610123
 21
5.086590004653148
 31
0.0
  0
LINE
  5
2D2
330
2
100
AcDbEntity
  8
0
100
AcDbLine
 10
13.99878900610123
 20
5.086590004653148
 30
0.0
 11
14.12378900610123
 21
4.586590004653148
 31
0.0
  0
LINE
  5
2D3
330
2
100
AcDbEntity
  8
0
100
AcDbLine
 10
14.12378900610123
 20
4.586590004653148
 30
0.0
 11
14.24878900610123
 21
5.086590004653148
 31
0.0
  0
LINE
  5
2D4
330
2
100
AcDbEntity
  8
0
100
AcDbLine
 10
14.24878900610123
 20
5.086590004653148
 30
0.0
 11
14.37378900610123
 21
4.586590004653148
 31
0.0
  0
LINE
  5
2D5
330
2
100
AcDbEntity
  8
0
100
AcDbLine
 10
14.37378900610123
 20
4.586590004653148
 30
0.0
 11
14.49878900610123
 21
5.086590004653148
 31
0.0
  0
LINE
  5
2D6
330
2
100
AcDbEntity
  8
0
100
AcDbLine
 10
14.49878900610123
 20
5.086590004653148
 30
0.0
 11
14.62378900610123
 21
4.586590004653148
 31
0.0
  0
LINE
  5
2D7
330
2
100
AcDbEntity
  8
0
100
AcDbLine
 10
14.62378900610123
 20
4.586590004653148
 30
0.0
 11
14.74878900610123
 21
5.086590004653148
 31
0.0
  0
LINE
  5
2D8
330
2
100
AcDbEntity
  8
0
100
AcDbLine
 10
14.74878900610123
 20
5.086590004653148
 30
0.0
 11
14.87378900610123
 21
4.586590004653148
 31
0.0
  0
LINE
  5
2D9
330
2
100
AcDbEntity
  8
0
100
AcDbLine
 10
14.87378900610123
 20
4.586590004653148
 30
0.0
 11
14.99878900610123
 21
5.086590004653148
 31
0.0
  0
LINE
  5
2DA
330
2
100
AcDbEntity
  8
0
100
AcDbLine
 10
14.99878900610123
 20
5.086590004653148
 30
0.0
 11
15.12378900610123
 21
4.586590004653148
 31
0.0
  0
LINE
  5
2DB
330
2
100
AcDbEntity
  8
0
100
AcDbLine
 10
15.12378900610123
 20
4.586590004653148
 30
0.0
 11
15.24878900610123
 21
5.086590004653148
 31
0.0
  0
LINE
  5
2DC
330
2
100
AcDbEntity
  8
0
100
AcDbLine
 10
15.24878900610123
 20
5.086590004653148
 30
0.0
 11
15.37378900610123
 21
4.586590004653148
 31
0.0
  0
LINE
  5
2DD
330
2
100
AcDbEntity
  8
0
100
AcDbLine
 10
15.37378900610123
 20
4.586590004653148
 30
0.0
 11
15.49878900610123
 21
5.086590004653148
 31
0.0
  0
LINE
  5
2DE
330
2
100
AcDbEntity
  8
0
100
AcDbLine
 10
15.87378900610123
 20
4.836590004653148
 30
0.0
 11
15.62378900610123
 21
4.836590004653148
 31
0.0
  0
LINE
  5
2DF
330
2
100
AcDbEntity
  8
0
100
AcDbLine
 10
15.62378900610123
 20
4.836590004653148
 30
0.0
 11
15.49878900610123
 21
5.086590004653148
 31
0.0
  0
CIRCLE
  5
2E0
330
2
100
AcDbEntity
  8
0
100
AcDbCircle
 10
12.12378900610123
 20
4.836590004653148
 30
0.0
 40
0.0625
  0
CIRCLE
  5
2E1
330
2
100
AcDbEntity
  8
0
100
AcDbCircle
 10
15.87378900610123
 20
4.836590004653148
 30
0.0
 40
0.0625
  0
HATCH
  5
2E2
330
2
100
AcDbEntity
  8
0
100
AcDbHatch
 10
0.0
 20
0.0
 30
0.0
210
0.0
220
0.0
230
1.0
  2
SOLID
 70
     1
 71
     0
 91
        2
 92
        7
 72
     1
 73
     1
 93
        2
 10
12.18628900610123
 20
4.836590004653148
 42
1.0
 10
12.06128900610123
 20
4.836590004653148
 42
1.0
 97
        0
 92
        7
 72
     1
 73
     1
 93
        2
 10
15.93628900610123
 20
4.836590004653148
 42
1.0
 10
15.81128900610123
 20
4.836590004653148
 42
1.0
 97
        0
 75
     0
 76
     1
 47
0.004847388811527
 98
        2
 10
12.12662985146725
 20
4.808172621264724
 10
15.88909667983814
 20
4.803325250641033
  0
MTEXT
  5
2E3
330
2
100
AcDbEntity
  8
0
100
AcDbMText
 10
12.1107437327584
 20
5.143334781406063
 30
0.0
 40
0.1875
 41
0.3163549234205476
 71
     5
 72
     5
  1
{\fArial|b0|i0|c0|p34;\C256;1}
 73
     1
 44
1.0
1001
ACAD
1000
MTEXTBEGIN
1070
    73
1070
     1
1070
    44
1040
1.0
1070
    74
1070
     0
1000
MTEXTEND
  0
MTEXT
  5
2E4
330
2
100
AcDbEntity
  8
0
100
AcDbMText
 10
15.86992340570796
 20
5.100696204661398
 30
0.0
 40
0.1875
 41
0.3163549234205476
 71
     5
 72
     5
  1
{\fArial|b0|i0|c0|p34;3}
 73
     1
 44
1.0
1001
ACAD
1000
MTEXTBEGIN
1070
    73
1070
     1
1070
    44
1040
1.0
1070
    74
1070
     0
1000
MTEXTEND
  0
MTEXT
  5
2E5
330
2
100
AcDbEntity
  8
0
100
AcDbMText
 10
15.86622368204946
 20
4.497525412438053
 30
0.0
 40
0.1875
 41
0.3163549234205476
 71
     5
 72
     5
  1
{\fArial|b0|i0|c0|p34;0}
 73
     1
 44
1.0
1001
ACAD
1000
MTEXTBEGIN
1070
    73
1070
     1
1070
    44
1040
1.0
1070
    74
1070
     0
1000
MTEXTEND
  0
MTEXT
  5
2E6
330
2
100
AcDbEntity
  8
0
100
AcDbMText
 10
12.1107437327584
 20
4.541039955978179
 30
0.0
 40
0.1875
 41
0.3163549234205476
 71
     5
 72
     5
  1
{\fArial|b0|i0|c0|p34;\U+2126}
 73
     1
 44
1.0
1001
ACAD
1000
MTEXTBEGIN
1070
    73
1070
     1
1070
    44
1040
1.0
1070
    74
1070
     0
1000
MTEXTEND
  0
LEADER
  5
2E7
330
2
100
AcDbEntity
  8
0
100
AcDbLeader
  3
Standard
 76
     2
 10
15.25742046567304
 20
4.497525412438053
 30
0.0
 10
15.66328927659065
 20
4.497525412438053
 30
0.0
1001
ACAD
1000
DSTYLE
1002
{
1070
   147
1040
0.09
1070
    77
1070
     0
1002
}
  0
SOLID
  5
2E8
330
2
100
AcDbEntity
  8
0
370
    30
100
AcDbTrace
 10
15.52044453824483
 20
5.279076643155294
 30
0.0
 11
15.4996112049115
 21
5.154076643155294
 31
0.0
 12
15.47877787157816
 22
5.279076643155294
 32
0.0
 13
15.47877787157816
 23
5.279076643155294
 33
0.0
1001
ACAD
1000
DSTYLE
1002
{
1070
   147
1040
0.09
1070
    77
1070
     0
1002
}
  0
LWPOLYLINE
  5
2E9
330
2
100
AcDbEntity
  8
0
370
    30
100
AcDbPolyline
 90
        2
 70
     0
 43
0.0
 10
15.4996112049115
 20
5.279076643155294
 10
15.4996112049115
 20
5.565414023941289
1001
ACAD
1000
DSTYLE
1002
{
1070
   147
1040
0.09
1070
    77
1070
     0
1002
}
  0
CIRCLE
  5
2EA
330
2
100
AcDbEntity
  8
0
100
AcDbCircle
 10
15.4996112049115
 20
5.565414023941289
 30
0.0
 40
0.0625
  0
HATCH
  5
2EB
330
2
100
AcDbEntity
  8
0
100
AcDbHatch
 10
0.0
 20
0.0
 30
0.0
210
0.0
220
0.0
230
1.0
  2
SOLID
 70
     1
 71
     0
 91
        1
 92
        7
 72
     1
 73
     1
 93
        2
 10
15.5621112049115
 20
5.565414023941289
 42
1.0
 10
15.4371112049115
 20
5.565414023941289
 42
1.0
 97
        0
 75
     0
 76
     1
 47
0.0035641382793842
 98
        1
 10
15.55243043929118
 20
5.556418695405158
  0
MTEXT
  5
2EC
330
2
100
AcDbEntity
  8
0
100
AcDbMText
 10
13.8112122337672
 20
6.907578120513718
 30
0.0
 40
0.1875
 41
0.3163549234205476
 71
     5
 72
     5
  1
{\fArial|b0|i0|c0|p34;2}
 73
     1
 44
1.0
1001
ACAD
1000
MTEXTBEGIN
1070
    73
1070
     1
1070
    44
1040
1.0
1070
    74
1070
     0
1000
MTEXTEND
  0
ARC
  5
2ED
330
2
100
AcDbEntity
  8
0
100
AcDbCircle
 10
12.60251552702599
 20
3.130750169222354
 30
0.0
 40
1.0
100
AcDbArc
 50
290.0
 51
249.9999999999999
  0
SOLID
  5
2EE
330
2
100
AcDbEntity
  8
0
370
    30
100
AcDbTrace
 10
13.39924861968419
 20
2.415067767296813
 30
0.0
 11
12.94453567035178
 21
2.191057548436475
 31
0.0
 12
13.30201757846827
 22
2.550433576871638
 32
0.0
 13
13.30201757846827
 23
2.550433576871638
 33
0.0
1001
ACAD
1000
DSTYLE
1002
{
1070
   147
1040
0.09
1070
    77
1070
     0
1002
}
  0
MTEXT
  5
2EF
330
2
100
AcDbEntity
  8
0
100
AcDbMText
 10
12.60251552702599
 20
3.130750169222354
 30
0.0
 40
0.125
 41
1.58963167066791
 71
     5
 72
     5
  1
{\fArial|b0|i0|c0|p34;CLOCKWISE KNOB ROTATION AS SEEN FROM THE FRONT OF THE PANEL}
 73
     1
 44
1.0
1001
ACAD
1000
MTEXTBEGIN
1070
    73
1070
     1
1070
    44
1040
1.0
1070
    74
1070
     0
1000
MTEXTEND
  0
MTEXT
  5
2F0
330
2
100
AcDbEntity
  8
0
100
AcDbMText
 10
13.92644280016898
 20
4.046581575699458
 30
0.0
 40
0.125
 41
2.046511057869679
 71
     1
 72
     5
  1
{\fArial|b0|i0|c0|p34;2 IS THE COMMON \P\P1 \fArial|b0|i0|c0|p32;\U+2192\fArial|b0|i0|c0|p34; 2 IS DECREASING RESISTANCE (\U+2193 \U+2126)\P\P3 \U+2192 2 IS INCREASING RESISTANCE (\U+2191\H0.6522x; \H1.533x;\U+2126)}
 73
     1
 44
1.0
1001
ACAD
1000
MTEXTBEGIN
1070
    73
1070
     1
1070
    44
1040
1.0
1070
    74
1070
     0
1000
MTEXTEND
  0
LINE
  5
2F1
330
2
100
AcDbEntity
  8
AM_VIS
100
AcDbLine
 10
3.233695798750098
 20
7.416714281844023
 30
0.0
 11
3.2336957987501
 21
7.483700515849124
 31
0.0
  0
LINE
  5
2F2
330
2
100
AcDbEntity
  8
AM_VIS
100
AcDbLine
 10
3.3036957987501
 20
7.483700515849124
 30
0.0
 11
3.3036957987501
 21
7.416714281844023
 31
0.0
  0
LINE
  5
2F3
330
2
100
AcDbEntity
  8
AM_VIS
100
AcDbLine
 10
3.333695798750098
 20
7.603472771599641
 30
0.0
 11
3.333695798750098
 21
7.538472771599643
 31
0.0
  0
LINE
  5
2F4
330
2
100
AcDbEntity
  8
AM_VIS
100
AcDbLine
 10
3.203695798750098
 20
7.538472771599643
 30
0.0
 11
3.203695798750098
 21
7.603472771599641
 31
0.0
  0
LINE
  5
2F5
330
2
100
AcDbEntity
  8
AM_VIS
100
AcDbLine
 10
2.8836957987501
 20
7.416714281844023
 30
0.0
 11
2.8836957987501
 21
7.483700515849124
 31
0.0
  0
LINE
  5
2F6
330
2
100
AcDbEntity
  8
AM_VIS
100
AcDbLine
 10
2.9536957987501
 20
7.483700515849124
 30
0.0
 11
2.9536957987501
 21
7.416714281844023
 31
0.0
  0
LINE
  5
2F7
330
2
100
AcDbEntity
  8
AM_VIS
100
AcDbLine
 10
2.9836957987501
 20
7.603472771599641
 30
0.0
 11
2.9836957987501
 21
7.538472771599643
 31
0.0
  0
LINE
  5
2F8
330
2
100
AcDbEntity
  8
AM_VIS
100
AcDbLine
 10
2.853695798750098
 20
7.538472771599643
 30
0.0
 11
2.853695798750098
 21
7.603472771599641
 31
0.0
  0
LINE
  5
2F9
330
2
100
AcDbEntity
  8
AM_VIS
100
AcDbLine
 10
3.0586957987501
 20
7.416714281844023
 30
0.0
 11
3.058695798750101
 21
7.483700515849124
 31
0.0
  0
LINE
  5
2FA
330
2
100
AcDbEntity
  8
AM_VIS
100
AcDbLine
 10
3.128695798750098
 20
7.483700515849124
 30
0.0
 11
3.128695798750098
 21
7.416714281844023
 31
0.0
  0
LINE
  5
2FB
330
2
100
AcDbEntity
  8
AM_VIS
100
AcDbLine
 10
3.1586957987501
 20
7.603472771599641
 30
0.0
 11
3.1586957987501
 21
7.538472771599643
 31
0.0
  0
LINE
  5
2FC
330
2
100
AcDbEntity
  8
AM_VIS
100
AcDbLine
 10
3.0286957987501
 20
7.538472771599643
 30
0.0
 11
3.0286957987501
 21
7.603472771599641
 31
0.0
  0
ARC
  5
2FD
330
2
100
AcDbEntity
  8
AM_VIS
100
AcDbCircle
 10
3.268695798750099
 20
7.538472771599643
 30
0.0
 40
0.0650000000000004
100
AcDbArc
 50
180.0
 51
237.421029607196
  0
ARC
  5
2FE
330
2
100
AcDbEntity
  8
AM_VIS
100
AcDbCircle
 10
3.268695798750099
 20
7.538472771599643
 30
0.0
 40
0.0650000000000003
100
AcDbArc
 50
302.5789703928041
 51
0.0
  0
ARC
  5
2FF
330
2
100
AcDbEntity
  8
AM_VIS
100
AcDbCircle
 10
3.268695798750099
 20
7.603472771599641
 30
0.0
 40
0.0650000000000004
100
AcDbArc
 50
0.0
 51
180.0
  0
ARC
  5
300
330
2
100
AcDbEntity
  8
AM_VIS
100
AcDbCircle
 10
2.9186957987501
 20
7.538472771599643
 30
0.0
 40
0.0650000000000004
100
AcDbArc
 50
180.0
 51
237.421029607196
  0
ARC
  5
301
330
2
100
AcDbEntity
  8
AM_VIS
100
AcDbCircle
 10
2.9186957987501
 20
7.538472771599643
 30
0.0
 40
0.0650000000000003
100
AcDbArc
 50
302.5789703928041
 51
0.0
  0
ARC
  5
302
330
2
100
AcDbEntity
  8
AM_VIS
100
AcDbCircle
 10
2.9186957987501
 20
7.603472771599641
 30
0.0
 40
0.0650000000000004
100
AcDbArc
 50
0.0
 51
180.0
  0
ARC
  5
303
330
2
100
AcDbEntity
  8
AM_VIS
100
AcDbCircle
 10
3.093695798750098
 20
7.538472771599643
 30
0.0
 40
0.0650000000000004
100
AcDbArc
 50
180.0
 51
237.4210296071977
  0
ARC
  5
304
330
2
100
AcDbEntity
  8
AM_VIS
100
AcDbCircle
 10
3.093695798750098
 20
7.538472771599643
 30
0.0
 40
0.0650000000000003
100
AcDbArc
 50
302.5789703928041
 51
0.0
  0
ARC
  5
305
330
2
100
AcDbEntity
  8
AM_VIS
100
AcDbCircle
 10
3.093695798750098
 20
7.603472771599641
 30
0.0
 40
0.0650000000000004
100
AcDbArc
 50
0.0
 51
180.0
  0
LINE
  5
306
330
2
100
AcDbEntity
  8
AM_VIS
100
AcDbLine
 10
3.880039718750106
 20
7.376714281844022
 30
0.0
 11
3.880039718750106
 21
6.168314281844025
 31
0.0
  0
LINE
  5
307
330
2
100
AcDbEntity
  8
AM_VIS
100
AcDbLine
 10
2.347351878750103
 20
7.41671428184402
 30
0.0
 11
3.840039718750106
 21
7.416714281844019
 31
0.0
  0
LINE
  5
308
330
2
100
AcDbEntity
  8
AM_VIS
100
AcDbLine
 10
2.307351878750104
 20
6.168314281844025
 30
0.0
 11
2.307351878750104
 21
7.376714281844022
 31
0.0
  0
LINE
  5
309
330
2
100
AcDbEntity
  8
AM_VIS
100
AcDbLine
 10
3.840039718750106
 20
6.128314281844023
 30
0.0
 11
2.347351878750103
 21
6.128314281844023
 31
0.0
  0
ARC
  5
30A
330
2
100
AcDbEntity
  8
AM_VIS
100
AcDbCircle
 10
3.840039718750106
 20
6.168314281844025
 30
0.0
 40
0.04
100
AcDbArc
 50
269.9999999999988
 51
0.0
  0
ARC
  5
30B
330
2
100
AcDbEntity
  8
AM_VIS
100
AcDbCircle
 10
3.840039718750106
 20
7.376714281844022
 30
0.0
 40
0.0399999999999996
100
AcDbArc
 50
0.0
 51
90.00000000000126
  0
ARC
  5
30C
330
2
100
AcDbEntity
  8
AM_VIS
100
AcDbCircle
 10
2.347351878750104
 20
7.376714281844022
 30
0.0
 40
0.0399999999999996
100
AcDbArc
 50
90.00000000000126
 51
180.0
  0
ARC
  5
30D
330
2
100
AcDbEntity
  8
AM_VIS
100
AcDbCircle
 10
2.347351878750104
 20
6.168314281844025
 30
0.0
 40
0.0399999999999996
100
AcDbArc
 50
180.0
 51
269.9999999999994
  0
ARC
  5
30E
330
2
100
AcDbEntity
  8
AM_VIS
100
AcDbCircle
 10
3.093695798750106
 20
6.772514281844022
 30
0.0
 40
0.59375
100
AcDbArc
 50
253.8275861621141
 51
246.1018823758548
  0
LINE
  5
30F
330
2
100
AcDbEntity
  8
AM_VIS
100
AcDbLine
 10
3.621195798750106
 20
6.62272886864067
 30
0.0
 11
3.621195798750106
 21
6.595437983929518
 31
0.0
  0
LINE
  5
310
330
2
100
AcDbEntity
  8
AM_VIS
100
AcDbLine
 10
3.360780344427098
 20
6.293601173369202
 30
0.0
 11
3.341482774783258
 21
6.274303603725361
 31
0.0
  0
LINE
  5
311
330
2
100
AcDbEntity
  8
AM_VIS
100
AcDbLine
 10
2.614782690275292
 20
6.505429736167026
 30
0.0
 11
2.595485120631454
 21
6.524727305810866
 31
0.0
  0
LINE
  5
312
330
2
100
AcDbEntity
  8
AM_VIS
100
AcDbLine
 10
2.566195798750106
 20
6.922299695047361
 30
0.0
 11
2.566195798750106
 21
6.949590579758513
 31
0.0
  0
LINE
  5
313
330
2
100
AcDbEntity
  8
AM_VIS
100
AcDbLine
 10
2.826611253073118
 20
7.251427390318838
 30
0.0
 11
2.845908822716955
 21
7.270724959962674
 31
0.0
  0
LINE
  5
314
330
2
100
AcDbEntity
  8
AM_VIS
100
AcDbLine
 10
3.243481211953458
 20
7.300014281844018
 30
0.0
 11
3.270772096664606
 21
7.300014281844018
 31
0.0
  0
LINE
  5
315
330
2
100
AcDbEntity
  8
AM_VIS
100
AcDbLine
 10
3.572608907224926
 20
7.039598827521007
 30
0.0
 11
3.591906476868762
 21
7.020301257877171
 31
0.0
  0
ARC
  5
316
330
2
100
AcDbEntity
  8
AM_VIS
100
AcDbCircle
 10
3.521195798750106
 20
6.949590579758516
 30
0.0
 40
0.1
100
AcDbArc
 50
13.36878840630202
 51
44.99999999999984
  0
ARC
  5
317
330
2
100
AcDbEntity
  8
AM_VIS
100
AcDbCircle
 10
3.521195798750107
 20
6.595437983929519
 30
0.0
 40
0.1
100
AcDbArc
 50
328.3687884063037
 51
0.0
  0
ARC
  5
318
330
2
100
AcDbEntity
  8
AM_VIS
100
AcDbCircle
 10
3.270772096664603
 20
6.345014281844017
 30
0.0
 40
0.1
100
AcDbArc
 50
283.3687884063053
 51
314.9999999999999
  0
ARC
  5
319
330
2
100
AcDbEntity
  8
AM_VIS
100
AcDbCircle
 10
2.666195798750107
 20
6.595437983929519
 30
0.0
 40
0.1
100
AcDbArc
 50
193.3687884063053
 51
224.9999999999999
  0
ARC
  5
31A
330
2
100
AcDbEntity
  8
AM_VIS
100
AcDbCircle
 10
2.666195798750107
 20
6.949590579758516
 30
0.0
 40
0.1
100
AcDbArc
 50
148.3687884063039
 51
180.0
  0
ARC
  5
31B
330
2
100
AcDbEntity
  8
AM_VIS
100
AcDbCircle
 10
2.916619500835611
 20
7.200014281844021
 30
0.0
 40
0.1
100
AcDbArc
 50
103.3687884063061
 51
134.9999999999999
  0
ARC
  5
31C
330
2
100
AcDbEntity
  8
AM_VIS
100
AcDbCircle
 10
3.270772096664606
 20
7.200014281844017
 30
0.0
 40
0.1
100
AcDbArc
 50
58.36878840630303
 51
90.0
  0
LINE
  5
31D
330
2
100
AcDbEntity
  8
AM_VIS
100
AcDbLine
 10
2.926173305172111
 20
6.196375223850712
 30
0.0
 11
2.851014750905265
 21
6.223783100830098
 31
0.0
  0
LINE
  5
31E
330
2
100
AcDbEntity
  8
AM_VIS
100
AcDbLine
 10
2.960524882171867
 20
6.29057496307275
 30
0.0
 11
2.926173305172111
 21
6.196375223850712
 31
0.0
  0
LINE
  5
31F
330
2
100
AcDbEntity
  8
AM_VIS
100
AcDbLine
 10
2.851014750905265
 20
6.223783100830098
 30
0.0
 11
2.885366327905018
 21
6.317982840052136
 31
0.0
  0
LINE
  5
320
330
2
100
AcDbEntity
  8
AM_VIS
100
AcDbLine
 10
2.57321523658179
 20
7.004893249061253
 30
0.0
 11
2.60618370713343
 21
6.992870721567313
 31
0.0
  0
LINE
  5
321
330
2
100
AcDbEntity
  8
AM_VIS
100
AcDbLine
 10
2.578775830154041
 20
6.917712167300463
 30
0.0
 11
2.545807359602404
 21
6.929734694794402
 31
0.0
  0
LINE
  5
322
330
2
100
AcDbEntity
  8
AM_VIS
100
AcDbLine
 10
2.561343720240669
 20
6.568795690383443
 30
0.0
 11
2.593157160051045
 21
6.583606708757892
 31
0.0
  0
LINE
  5
323
330
2
100
AcDbEntity
  8
AM_VIS
100
AcDbLine
 10
2.626921987767264
 20
6.511081289701572
 30
0.0
 11
2.595108547956886
 21
6.496270271327126
 31
0.0
  0
LINE
  5
324
330
2
100
AcDbEntity
  8
AM_VIS
100
AcDbLine
 10
3.29741439021068
 20
6.240162203334575
 30
0.0
 11
3.282603371836233
 21
6.271975643144951
 31
0.0
  0
LINE
  5
325
330
2
100
AcDbEntity
  8
AM_VIS
100
AcDbLine
 10
3.355128790892551
 20
6.305740470861168
 30
0.0
 11
3.369939809266998
 21
6.273927031050794
 31
0.0
  0
LINE
  5
326
330
2
100
AcDbEntity
  8
AM_VIS
100
AcDbLine
 10
3.614176360918428
 20
6.54013531462678
 30
0.0
 11
3.58120789036679
 21
6.55215784212072
 31
0.0
  0
LINE
  5
327
330
2
100
AcDbEntity
  8
AM_VIS
100
AcDbLine
 10
3.608615767346174
 20
6.627316396387566
 30
0.0
 11
3.641584237897813
 21
6.615293868893628
 31
0.0
  0
LINE
  5
328
330
2
100
AcDbEntity
  8
AM_VIS
100
AcDbLine
 10
3.62604787725955
 20
6.976232873304587
 30
0.0
 11
3.594234437449174
 21
6.961421854930142
 31
0.0
  0
LINE
  5
329
330
2
100
AcDbEntity
  8
AM_VIS
100
AcDbLine
 10
3.560469609732956
 20
7.033947273986457
 30
0.0
 11
3.592283049543334
 21
7.048758292360905
 31
0.0
  0
LINE
  5
32A
330
2
100
AcDbEntity
  8
AM_VIS
100
AcDbLine
 10
3.326074765967346
 20
7.292994844012339
 30
0.0
 11
3.314052238473408
 21
7.2600263734607
 31
0.0
  0
LINE
  5
32B
330
2
100
AcDbEntity
  8
AM_VIS
100
AcDbLine
 10
3.238893684206558
 20
7.287434250440082
 30
0.0
 11
3.250916211700498
 21
7.320402720991723
 31
0.0
  0
LINE
  5
32C
330
2
100
AcDbEntity
  8
AM_VIS
100
AcDbLine
 10
2.889977207289536
 20
7.304866360353455
 30
0.0
 11
2.904788225663981
 21
7.27305292054308
 31
0.0
  0
LINE
  5
32D
330
2
100
AcDbEntity
  8
AM_VIS
100
AcDbLine
 10
2.832262806607669
 20
7.239288092826861
 30
0.0
 11
2.81745178823322
 21
7.271101532637241
 31
0.0
  0
ARC
  5
32E
330
2
100
AcDbEntity
  8
AM_VIS
100
AcDbCircle
 10
3.093695798750109
 20
6.772514281844016
 30
0.0
 40
0.5000000000000007
100
AcDbArc
 50
254.5533000047696
 51
245.3761685331982
  0
ARC
  5
32F
330
2
100
AcDbEntity
  8
AM_VIS
100
AcDbCircle
 10
3.093695798750109
 20
6.772514281844016
 30
0.0
 40
0.5699999999999932
100
AcDbArc
 50
163.9887981584232
 51
200.9406703795446
  0
ARC
  5
330
330
2
100
AcDbEntity
  8
AM_VIS
100
AcDbCircle
 10
3.093695798750109
 20
6.772514281844016
 30
0.0
 40
0.5699999999999932
100
AcDbArc
 50
118.9887981584234
 51
155.9406703795445
  0
ARC
  5
331
330
2
100
AcDbEntity
  8
AM_VIS
100
AcDbCircle
 10
3.093695798750109
 20
6.772514281844016
 30
0.0
 40
0.5699999999999932
100
AcDbArc
 50
73.9887981584232
 51
110.9406703795445
  0
ARC
  5
332
330
2
100
AcDbEntity
  8
AM_VIS
100
AcDbCircle
 10
3.093695798750109
 20
6.772514281844016
 30
0.0
 40
0.5699999999999932
100
AcDbArc
 50
28.98879815842372
 51
65.94067037954456
  0
ARC
  5
333
330
2
100
AcDbEntity
  8
AM_VIS
100
AcDbCircle
 10
3.093695798750109
 20
6.772514281844016
 30
0.0
 40
0.5699999999999932
100
AcDbArc
 50
343.9887981584233
 51
20.94067037954457
  0
ARC
  5
334
330
2
100
AcDbEntity
  8
AM_VIS
100
AcDbCircle
 10
3.093695798750109
 20
6.772514281844016
 30
0.0
 40
0.5699999999999932
100
AcDbArc
 50
298.9887981584235
 51
335.9406703795445
  0
ARC
  5
335
330
2
100
AcDbEntity
  8
AM_VIS
100
AcDbCircle
 10
3.093695798750126
 20
6.772514281844022
 30
0.0
 40
0.5350000000000124
100
AcDbArc
 50
155.6769365206664
 51
164.252532017304
  0
ARC
  5
336
330
2
100
AcDbEntity
  8
AM_VIS
100
AcDbCircle
 10
3.093695798750109
 20
6.772514281844031
 30
0.0
 40
0.5350000000000066
100
AcDbArc
 50
200.6769365206666
 51
209.2525320173041
  0
ARC
  5
337
330
2
100
AcDbEntity
  8
AM_VIS
100
AcDbCircle
 10
3.093695798750093
 20
6.772514281844017
 30
0.0
 40
0.5350000000000066
100
AcDbArc
 50
290.6769365206663
 51
299.252532017304
  0
ARC
  5
338
330
2
100
AcDbEntity
  8
AM_VIS
100
AcDbCircle
 10
3.093695798750106
 20
6.772514281844008
 30
0.0
 40
0.5350000000000006
100
AcDbArc
 50
335.6769365206659
 51
344.2525320173033
  0
ARC
  5
339
330
2
100
AcDbEntity
  8
AM_VIS
100
AcDbCircle
 10
3.093695798750107
 20
6.772514281844003
 30
0.0
 40
0.5350000000000066
100
AcDbArc
 50
20.67693652066666
 51
29.25253201730408
  0
ARC
  5
33A
330
2
100
AcDbEntity
  8
AM_VIS
100
AcDbCircle
 10
3.093695798750112
 20
6.772514281844
 30
0.0
 40
0.5350000000000124
100
AcDbArc
 50
65.6769365206661
 51
74.25253201730324
  0
ARC
  5
33B
330
2
100
AcDbEntity
  8
AM_VIS
100
AcDbCircle
 10
3.093695798750122
 20
6.772514281844022
 30
0.0
 40
0.5350000000000024
100
AcDbArc
 50
110.6769365206669
 51
119.2525320173044
  0
ARC
  5
33C
330
2
100
AcDbEntity
  8
AM_VIS
100
AcDbCircle
 10
3.093695798750109
 20
6.772514281844016
 30
0.0
 40
0.5699999999999932
100
AcDbArc
 50
253.9887981584233
 51
290.9406703795445
  0
ARC
  5
33D
330
2
100
AcDbEntity
  8
AM_VIS
100
AcDbCircle
 10
3.093695798750109
 20
6.772514281844016
 30
0.0
 40
0.5699999999999932
100
AcDbArc
 50
208.9887981584237
 51
245.9406703795445
  0
LINE
  5
33E
330
2
100
AcDbEntity
  8
AM_VIS
100
AcDbLine
 10
2.307351878750099
 20
6.165514281844031
 30
0.0
 11
2.307351878750099
 21
6.168314281844026
 31
0.0
  0
LINE
  5
33F
330
2
100
AcDbEntity
  8
AM_VIS
100
AcDbLine
 10
2.307351878750099
 20
7.376714281844026
 30
0.0
 11
2.307351878750099
 21
7.379514281844033
 31
0.0
  0
ARC
  5
340
330
2
100
AcDbEntity
  8
AM_VIS
100
AcDbCircle
 10
2.344351878750101
 20
6.165514281844031
 30
0.0
 40
0.0370000000000004
100
AcDbArc
 50
180.0
 51
268.1763055436734
  0
ARC
  5
341
330
2
100
AcDbEntity
  8
AM_VIS
100
AcDbCircle
 10
2.3443518787501
 20
7.379514281844032
 30
0.0
 40
0.0370000000000004
100
AcDbArc
 50
91.82369445599434
 51
179.9999999999986
  0
LINE
  5
342
330
2
100
AcDbEntity
  8
AM_VIS
100
AcDbLine
 10
8.267135017867261
 20
6.128314281844025
 30
0.0
 11
9.29713501786726
 21
6.128314281844032
 31
0.0
  0
LINE
  5
343
330
2
100
AcDbEntity
  8
AM_VIS
100
AcDbLine
 10
8.267135017867254
 20
7.376714281844026
 30
0.0
 11
8.267135017867261
 21
6.168314281844025
 31
0.0
  0
LINE
  5
344
330
2
100
AcDbEntity
  8
AM_VIS
100
AcDbLine
 10
9.297135017867256
 20
6.168314281844032
 30
0.0
 11
9.297135017867251
 21
7.376714281844034
 31
0.0
  0
LINE
  5
345
330
2
100
AcDbEntity
  8
AM_VIS
100
AcDbLine
 10
9.297135017867251
 20
7.416714281844034
 30
0.0
 11
8.267135017867252
 21
7.416714281844027
 31
0.0
  0
LINE
  5
346
330
2
100
AcDbEntity
  8
AM_VIS
100
AcDbLine
 10
8.267135017867261
 20
6.128314281844025
 30
0.0
 11
8.267135017867261
 21
6.168314281844025
 31
0.0
  0
LINE
  5
347
330
2
100
AcDbEntity
  8
AM_VIS
100
AcDbLine
 10
9.29713501786726
 20
6.168314281844032
 30
0.0
 11
9.29713501786726
 21
6.128314281844032
 31
0.0
  0
LINE
  5
348
330
2
100
AcDbEntity
  8
AM_VIS
100
AcDbLine
 10
8.267135017867254
 20
7.376714281844026
 30
0.0
 11
8.267135017867254
 21
7.416714281844027
 31
0.0
  0
LINE
  5
349
330
2
100
AcDbEntity
  8
AM_VIS
100
AcDbLine
 10
9.297135017867251
 20
7.416714281844035
 30
0.0
 11
9.297135017867251
 21
7.376714281844034
 31
0.0
  0
LINE
  5
34A
330
2
100
AcDbEntity
  8
AM_VIS
100
AcDbLine
 10
8.846135017867251
 20
7.416714281844031
 30
0.0
 11
8.846135017867251
 21
7.483700515849127
 31
0.0
  0
LINE
  5
34B
330
2
100
AcDbEntity
  8
AM_VIS
100
AcDbLine
 10
8.812135017867248
 20
7.483700515849124
 30
0.0
 11
8.812135017867248
 21
7.41671428184403
 31
0.0
  0
LINE
  5
34C
330
2
100
AcDbEntity
  8
AM_VIS
100
AcDbLine
 10
8.846135017867251
 20
7.483700515849127
 30
0.0
 11
8.812135017867248
 21
7.483700515849127
 31
0.0
  0
LINE
  5
34D
330
2
100
AcDbEntity
  8
AM_VIS
100
AcDbLine
 10
8.846135017867251
 20
7.538472771599644
 30
0.0
 11
8.846135017867251
 21
7.603472771599642
 31
0.0
  0
LINE
  5
34E
330
2
100
AcDbEntity
  8
AM_VIS
100
AcDbLine
 10
8.812135017867248
 20
7.603472771599641
 30
0.0
 11
8.812135017867248
 21
7.538472771599643
 31
0.0
  0
LINE
  5
34F
330
2
100
AcDbEntity
  8
AM_VIS
100
AcDbLine
 10
8.846135017867251
 20
7.668472771599644
 30
0.0
 11
8.812135017867248
 21
7.668472771599644
 31
0.0
  0
LINE
  5
350
330
2
100
AcDbEntity
  8
AM_VIS
100
AcDbLine
 10
8.846135017867251
 20
7.538472771599644
 30
0.0
 11
8.846135017867251
 21
7.483700515849127
 31
0.0
  0
LINE
  5
351
330
2
100
AcDbEntity
  8
AM_VIS
100
AcDbLine
 10
8.812135017867248
 20
7.483700515849127
 30
0.0
 11
8.812135017867248
 21
7.538472771599643
 31
0.0
  0
LINE
  5
352
330
2
100
AcDbEntity
  8
AM_VIS
100
AcDbLine
 10
8.846135017867251
 20
7.668472771599644
 30
0.0
 11
8.846135017867251
 21
7.603472771599642
 31
0.0
  0
LINE
  5
353
330
2
100
AcDbEntity
  8
AM_VIS
100
AcDbLine
 10
8.812135017867248
 20
7.603472771599641
 30
0.0
 11
8.812135017867248
 21
7.668472771599643
 31
0.0
  0
LINE
  5
354
330
2
100
AcDbEntity
  8
AM_VIS
100
AcDbLine
 10
8.267135017867254
 20
7.376714281844026
 30
0.0
 11
8.267135017867261
 21
6.168314281844026
 31
0.0
  0
LINE
  5
355
330
2
100
AcDbEntity
  8
AM_VIS
100
AcDbLine
 10
7.817135017867252
 20
7.376714281844022
 30
0.0
 11
7.81713501786726
 21
6.168314281844025
 31
0.0
  0
LINE
  5
356
330
2
100
AcDbEntity
  8
AM_VIS
100
AcDbLine
 10
8.267135017867254
 20
7.416714281844023
 30
0.0
 11
7.817135017867253
 21
7.41671428184402
 31
0.0
  0
LINE
  5
357
330
2
100
AcDbEntity
  8
AM_VIS
100
AcDbLine
 10
8.267135017867261
 20
6.128314281844025
 30
0.0
 11
7.81713501786726
 21
6.128314281844023
 31
0.0
  0
LINE
  5
358
330
2
100
AcDbEntity
  8
AM_VIS
100
AcDbLine
 10
7.577135017867256
 20
6.342398018491889
 30
0.0
 11
7.692135017867259
 21
6.342398018491889
 31
0.0
  0
LINE
  5
359
330
2
100
AcDbEntity
  8
AM_VIS
100
AcDbLine
 10
7.546136434730136
 20
6.352513302421469
 30
0.0
 11
7.563417904381974
 21
6.377513209606277
 31
0.0
  0
LINE
  5
35A
330
2
100
AcDbEntity
  8
AM_VIS
100
AcDbLine
 10
7.528852131352539
 20
6.37751320960628
 30
0.0
 11
7.546133601004378
 21
6.352513302421469
 31
0.0
  0
LINE
  5
35B
330
2
100
AcDbEntity
  8
AM_VIS
100
AcDbLine
 10
7.504635017867257
 20
6.377514281844019
 30
0.0
 11
7.505135017867258
 21
6.377514281844019
 31
0.0
  0
LINE
  5
35C
330
2
100
AcDbEntity
  8
AM_VIS
100
AcDbLine
 10
7.525135017867257
 20
6.377514281844018
 30
0.0
 11
7.528853682484732
 21
6.377514281844018
 31
0.0
  0
LINE
  5
35D
330
2
100
AcDbEntity
  8
AM_VIS
100
AcDbLine
 10
7.563416353249779
 20
6.377514281844017
 30
0.0
 11
7.567135017867257
 21
6.377514281844017
 31
0.0
  0
LINE
  5
35E
330
2
100
AcDbEntity
  8
AM_VIS
100
AcDbLine
 10
7.57713501786725
 20
7.207514281844022
 30
0.0
 11
7.692135017867253
 21
7.207514281844022
 31
0.0
  0
LINE
  5
35F
330
2
100
AcDbEntity
  8
AM_VIS
100
AcDbLine
 10
7.567135017867257
 20
6.377514281844022
 30
0.0
 11
7.577135017867256
 21
6.377514281844022
 31
0.0
  0
LINE
  5
360
330
2
100
AcDbEntity
  8
AM_VIS
100
AcDbLine
 10
7.567135017867252
 20
7.167514281844022
 30
0.0
 11
7.57713501786725
 21
7.167514281844022
 31
0.0
  0
LINE
  5
361
330
2
100
AcDbEntity
  8
AM_VIS
100
AcDbLine
 10
7.567135017867252
 20
7.16751428184402
 30
0.0
 11
7.546135017867253
 21
7.197514281844021
 31
0.0
  0
LINE
  5
362
330
2
100
AcDbEntity
  8
AM_VIS
100
AcDbLine
 10
7.525135017867253
 20
7.16751428184402
 30
0.0
 11
7.546135017867253
 21
7.19751428184402
 31
0.0
  0
LINE
  5
363
330
2
100
AcDbEntity
  8
AM_VIS
100
AcDbLine
 10
7.505135017867258
 20
6.37751428184402
 30
0.0
 11
7.525135017867256
 21
6.37751428184402
 31
0.0
  0
LINE
  5
364
330
2
100
AcDbEntity
  8
AM_VIS
100
AcDbLine
 10
7.505135017867252
 20
7.16751428184402
 30
0.0
 11
7.525135017867253
 21
7.16751428184402
 31
0.0
  0
LINE
  5
365
330
2
100
AcDbEntity
  8
AM_VIS
100
AcDbLine
 10
7.505135017867254
 20
7.167514281844022
 30
0.0
 11
7.504635017867252
 21
7.168228567558308
 31
0.0
  0
LINE
  5
366
330
2
100
AcDbEntity
  8
AM_VIS
100
AcDbLine
 10
8.267135017867261
 20
6.128314281844026
 30
0.0
 11
8.267135017867261
 21
6.168314281844026
 31
0.0
  0
LINE
  5
367
330
2
100
AcDbEntity
  8
AM_VIS
100
AcDbLine
 10
7.81713501786726
 20
6.128314281844025
 30
0.0
 11
7.81713501786726
 21
6.168314281844025
 31
0.0
  0
LINE
  5
368
330
2
100
AcDbEntity
  8
AM_VIS
100
AcDbLine
 10
8.267135017867254
 20
7.376714281844026
 30
0.0
 11
8.267135017867254
 21
7.416714281844023
 31
0.0
  0
LINE
  5
369
330
2
100
AcDbEntity
  8
AM_VIS
100
AcDbLine
 10
7.817135017867252
 20
7.376714281844022
 30
0.0
 11
7.817135017867252
 21
7.416714281844022
 31
0.0
  0
LINE
  5
36A
330
2
100
AcDbEntity
  8
AM_VIS
100
AcDbLine
 10
7.577135017867256
 20
6.342398018491889
 30
0.0
 11
7.57713501786725
 21
7.207514281844022
 31
0.0
  0
LINE
  5
36B
330
2
100
AcDbEntity
  8
AM_VIS
100
AcDbLine
 10
7.567135017867257
 20
6.377514281844022
 30
0.0
 11
7.567135017867252
 21
7.167514281844022
 31
0.0
  0
LINE
  5
36C
330
2
100
AcDbEntity
  8
AM_VIS
100
AcDbLine
 10
7.546135017867257
 20
6.352514281844022
 30
0.0
 11
7.546135017867253
 21
7.19751428184402
 31
0.0
  0
LINE
  5
36D
330
2
100
AcDbEntity
  8
AM_VIS
100
AcDbLine
 10
7.525135017867256
 20
6.377514281844022
 30
0.0
 11
7.525135017867253
 21
7.167514281844022
 31
0.0
  0
LINE
  5
36E
330
2
100
AcDbEntity
  8
AM_VIS
100
AcDbLine
 10
7.505135017867258
 20
6.37751428184402
 30
0.0
 11
7.505135017867252
 21
7.16751428184402
 31
0.0
  0
LINE
  5
36F
330
2
100
AcDbEntity
  8
AM_VIS
100
AcDbLine
 10
7.817135017867252
 20
7.366264281844022
 30
0.0
 11
7.754635017867252
 21
7.366264281844022
 31
0.0
  0
LINE
  5
370
330
2
100
AcDbEntity
  8
AM_VIS
100
AcDbLine
 10
7.817135017867259
 20
6.178764281844022
 30
0.0
 11
7.754635017867259
 21
6.178764281844022
 31
0.0
  0
LINE
  5
371
330
2
100
AcDbEntity
  8
AM_VIS
100
AcDbLine
 10
7.754635017867259
 20
6.178764281844022
 30
0.0
 11
7.754635017867252
 21
7.366264281844022
 31
0.0
  0
LINE
  5
372
330
2
100
AcDbEntity
  8
AM_VIS
100
AcDbLine
 10
7.754635017867252
 20
7.366264281844022
 30
0.0
 11
7.692135017867252
 21
7.366264281844022
 31
0.0
  0
LINE
  5
373
330
2
100
AcDbEntity
  8
AM_VIS
100
AcDbLine
 10
7.754635017867259
 20
6.178764281844022
 30
0.0
 11
7.692135017867259
 21
6.178764281844022
 31
0.0
  0
LINE
  5
374
330
2
100
AcDbEntity
  8
AM_VIS
100
AcDbLine
 10
7.754635017867252
 20
7.366264281844022
 30
0.0
 11
7.754635017867257
 21
6.178764281844022
 31
0.0
  0
LINE
  5
375
330
2
100
AcDbEntity
  8
AM_VIS
100
AcDbLine
 10
7.692135017867259
 20
6.178764281844022
 30
0.0
 11
7.692135017867252
 21
7.366264281844022
 31
0.0
  0
LINE
  5
376
330
2
100
AcDbEntity
  8
AM_VIS
100
AcDbLine
 10
7.504635017867257
 20
6.595437983929522
 30
0.0
 11
7.504635017867256
 21
6.949590579758517
 31
0.0
  0
LINE
  5
377
330
2
100
AcDbEntity
  8
AM_VIS
100
AcDbLine
 10
7.504635017867259
 20
6.274303603725365
 30
0.0
 11
7.504635017867257
 21
6.524727305810867
 31
0.0
  0
LINE
  5
378
330
2
100
AcDbEntity
  8
AM_VIS
100
AcDbLine
 10
7.20463501786726
 20
6.245014281844019
 30
0.0
 11
7.50463501786726
 21
6.245014281844022
 31
0.0
  0
LINE
  5
379
330
2
100
AcDbEntity
  8
AM_VIS
100
AcDbLine
 10
7.204635017867256
 20
6.949590579758513
 30
0.0
 11
7.204635017867257
 21
6.595437983929518
 31
0.0
  0
LINE
  5
37A
330
2
100
AcDbEntity
  8
AM_VIS
100
AcDbLine
 10
7.204635017867258
 20
6.524727305810866
 30
0.0
 11
7.20463501786726
 21
6.274303603725361
 31
0.0
  0
LINE
  5
37B
330
2
100
AcDbEntity
  8
AM_VIS
100
AcDbLine
 10
7.504635017867255
 20
7.020301257877173
 30
0.0
 11
7.504635017867252
 21
7.270724959962674
 31
0.0
  0
LINE
  5
37C
330
2
100
AcDbEntity
  8
AM_VIS
100
AcDbLine
 10
7.204635017867253
 20
7.270724959962673
 30
0.0
 11
7.204635017867254
 21
7.020301257877171
 31
0.0
  0
LINE
  5
37D
330
2
100
AcDbEntity
  8
AM_VIS
100
AcDbLine
 10
7.504635017867252
 20
7.300014281844021
 30
0.0
 11
7.204635017867253
 21
7.30001428184402
 31
0.0
  0
LINE
  5
37E
330
2
100
AcDbEntity
  8
AM_VIS
100
AcDbLine
 10
7.204635017867253
 20
7.27251428184402
 30
0.0
 11
7.157135017867253
 21
7.27251428184402
 31
0.0
  0
LINE
  5
37F
330
2
100
AcDbEntity
  8
AM_VIS
100
AcDbLine
 10
7.204635017867257
 20
6.27251428184402
 30
0.0
 11
7.157135017867252
 21
6.27251428184402
 31
0.0
  0
LINE
  5
380
330
2
100
AcDbEntity
  8
AM_VIS
100
AcDbLine
 10
7.504635017867255
 20
7.020301257877173
 30
0.0
 11
7.504635017867255
 21
6.949590579758517
 31
0.0
  0
LINE
  5
381
330
2
100
AcDbEntity
  8
AM_VIS
100
AcDbLine
 10
7.504635017867257
 20
6.595437983929522
 30
0.0
 11
7.504635017867257
 21
6.524727305810867
 31
0.0
  0
LINE
  5
382
330
2
100
AcDbEntity
  8
AM_VIS
100
AcDbLine
 10
7.504635017867259
 20
6.274303603725365
 30
0.0
 11
7.504635017867259
 21
6.245014281844019
 31
0.0
  0
LINE
  5
383
330
2
100
AcDbEntity
  8
AM_VIS
100
AcDbLine
 10
7.204635017867254
 20
6.949590579758513
 30
0.0
 11
7.204635017867254
 21
7.02030125787717
 31
0.0
  0
LINE
  5
384
330
2
100
AcDbEntity
  8
AM_VIS
100
AcDbLine
 10
7.204635017867258
 20
6.524727305810865
 30
0.0
 11
7.204635017867258
 21
6.595437983929519
 31
0.0
  0
LINE
  5
385
330
2
100
AcDbEntity
  8
AM_VIS
100
AcDbLine
 10
7.20463501786726
 20
6.245014281844017
 30
0.0
 11
7.20463501786726
 21
6.274303603725361
 31
0.0
  0
LINE
  5
386
330
2
100
AcDbEntity
  8
AM_VIS
100
AcDbLine
 10
7.504635017867252
 20
7.30001428184402
 30
0.0
 11
7.504635017867252
 21
7.270724959962674
 31
0.0
  0
LINE
  5
387
330
2
100
AcDbEntity
  8
AM_VIS
100
AcDbLine
 10
7.204635017867253
 20
7.270724959962673
 30
0.0
 11
7.204635017867253
 21
7.300014281844017
 31
0.0
  0
LINE
  5
388
330
2
100
AcDbEntity
  8
AM_VIS
100
AcDbLine
 10
7.157135017867252
 20
6.196375223850712
 30
0.0
 11
6.607135017867252
 21
6.196375223850712
 31
0.0
  0
LINE
  5
389
330
2
100
AcDbEntity
  8
AM_VIS
100
AcDbLine
 10
6.607135017867252
 20
6.272514281844014
 30
0.0
 11
6.607135017867252
 21
6.196375223850712
 31
0.0
  0
LINE
  5
38A
330
2
100
AcDbEntity
  8
AM_VIS
100
AcDbLine
 10
6.657135017867253
 20
6.240162203334575
 30
0.0
 11
6.657135017867255
 21
6.271975643144951
 31
0.0
  0
LINE
  5
38B
330
2
100
AcDbEntity
  8
AM_VIS
100
AcDbLine
 10
6.657135017867253
 20
6.273927031050797
 30
0.0
 11
7.157135017867253
 21
6.273927031050797
 31
0.0
  0
LINE
  5
38C
330
2
100
AcDbEntity
  8
AM_VIS
100
AcDbLine
 10
7.157135017867253
 20
6.271975643144951
 30
0.0
 11
6.657135017867253
 21
6.271975643144951
 31
0.0
  0
LINE
  5
38D
330
2
100
AcDbEntity
  8
AM_VIS
100
AcDbLine
 10
7.157135017867253
 20
6.540135314626781
 30
0.0
 11
6.65713501786725
 21
6.540135314626781
 31
0.0
  0
LINE
  5
38E
330
2
100
AcDbEntity
  8
AM_VIS
100
AcDbLine
 10
6.657135017867252
 20
6.54013531462678
 30
0.0
 11
6.657135017867252
 21
6.55215784212072
 31
0.0
  0
LINE
  5
38F
330
2
100
AcDbEntity
  8
AM_VIS
100
AcDbLine
 10
6.65713501786725
 20
6.615293868893629
 30
0.0
 11
7.157135017867252
 21
6.615293868893629
 31
0.0
  0
LINE
  5
390
330
2
100
AcDbEntity
  8
AM_VIS
100
AcDbLine
 10
7.157135017867253
 20
6.552157842120719
 30
0.0
 11
6.657135017867253
 21
6.552157842120719
 31
0.0
  0
LINE
  5
391
330
2
100
AcDbEntity
  8
AM_VIS
100
AcDbLine
 10
7.157135017867253
 20
6.976232873304586
 30
0.0
 11
6.657135017867253
 21
6.976232873304586
 31
0.0
  0
LINE
  5
392
330
2
100
AcDbEntity
  8
AM_VIS
100
AcDbLine
 10
6.657135017867253
 20
7.048758292360902
 30
0.0
 11
7.157135017867253
 21
7.048758292360902
 31
0.0
  0
LINE
  5
393
330
2
100
AcDbEntity
  8
AM_VIS
100
AcDbLine
 10
6.657135017867253
 20
7.033947273986457
 30
0.0
 11
6.657135017867253
 21
7.048758292360905
 31
0.0
  0
LINE
  5
394
330
2
100
AcDbEntity
  8
AM_VIS
100
AcDbLine
 10
7.157135017867253
 20
7.033947273986457
 30
0.0
 11
6.657135017867253
 21
7.033947273986457
 31
0.0
  0
LINE
  5
395
330
2
100
AcDbEntity
  8
AM_VIS
100
AcDbLine
 10
7.15713501786725
 20
7.29299484401233
 30
0.0
 11
6.65713501786725
 21
7.29299484401233
 31
0.0
  0
LINE
  5
396
330
2
100
AcDbEntity
  8
AM_VIS
100
AcDbLine
 10
6.65713501786725
 20
7.320402720991717
 30
0.0
 11
7.15713501786725
 21
7.320402720991717
 31
0.0
  0
LINE
  5
397
330
2
100
AcDbEntity
  8
AM_VIS
100
AcDbLine
 10
6.657135017867255
 20
7.292994844012339
 30
0.0
 11
6.657135017867255
 21
7.320402720991723
 31
0.0
  0
LINE
  5
398
330
2
100
AcDbEntity
  8
AM_VIS
100
AcDbLine
 10
7.157135017867255
 20
6.24016220333458
 30
0.0
 11
6.657135017867255
 21
6.24016220333458
 31
0.0
  0
LINE
  5
399
330
2
100
AcDbEntity
  8
AM_VIS
100
AcDbLine
 10
7.157135017867252
 20
6.271975643144951
 30
0.0
 11
7.157135017867252
 21
6.240162203334575
 31
0.0
  0
LINE
  5
39A
330
2
100
AcDbEntity
  8
AM_VIS
100
AcDbLine
 10
7.157135017867252
 20
6.552157842120717
 30
0.0
 11
7.157135017867252
 21
6.540135314626778
 31
0.0
  0
LINE
  5
39B
330
2
100
AcDbEntity
  8
AM_VIS
100
AcDbLine
 10
7.157135017867255
 20
7.048758292360908
 30
0.0
 11
7.157135017867255
 21
7.033947273986459
 31
0.0
  0
LINE
  5
39C
330
2
100
AcDbEntity
  8
AM_VIS
100
AcDbLine
 10
7.157135017867252
 20
7.320402720991723
 30
0.0
 11
7.157135017867252
 21
7.292994844012337
 31
0.0
  0
LINE
  5
39D
330
2
100
AcDbEntity
  8
AM_VIS
100
AcDbLine
 10
7.157135017867252
 20
6.196375223850712
 30
0.0
 11
7.157135017867252
 21
6.202514281844022
 31
0.0
  0
LINE
  5
39E
330
2
100
AcDbEntity
  8
AM_VIS
100
AcDbLine
 10
6.657135017867253
 20
7.272514281844014
 30
0.0
 11
6.607135017867252
 21
7.272514281844014
 31
0.0
  0
LINE
  5
39F
330
2
100
AcDbEntity
  8
AM_VIS
100
AcDbLine
 10
6.657135017867253
 20
6.272514281844014
 30
0.0
 11
6.607135017867252
 21
6.272514281844014
 31
0.0
  0
LINE
  5
3A0
330
2
100
AcDbEntity
  8
AM_VIS
100
AcDbLine
 10
7.157135017867255
 20
7.342514281844009
 30
0.0
 11
6.657135017867255
 21
7.342514281844009
 31
0.0
  0
LINE
  5
3A1
330
2
100
AcDbEntity
  8
AM_VIS
100
AcDbLine
 10
7.157135017867253
 20
6.202514281844022
 30
0.0
 11
6.657135017867253
 21
6.202514281844022
 31
0.0
  0
LINE
  5
3A2
330
2
100
AcDbEntity
  8
AM_VIS
100
AcDbLine
 10
6.607135017867252
 20
6.272514281844014
 30
0.0
 11
6.607135017867252
 21
7.272514281844017
 31
0.0
  0
LINE
  5
3A3
330
2
100
AcDbEntity
  8
AM_VIS
100
AcDbLine
 10
6.657135017867253
 20
7.320402720991714
 30
0.0
 11
6.657135017867255
 21
7.342514281844009
 31
0.0
  0
LINE
  5
3A4
330
2
100
AcDbEntity
  8
AM_VIS
100
AcDbLine
 10
6.657135017867255
 20
7.048758292360902
 30
0.0
 11
6.657135017867253
 21
7.29299484401233
 31
0.0
  0
LINE
  5
3A5
330
2
100
AcDbEntity
  8
AM_VIS
100
AcDbLine
 10
6.657135017867253
 20
6.615293868893629
 30
0.0
 11
6.657135017867253
 21
6.976232873304586
 31
0.0
  0
LINE
  5
3A6
330
2
100
AcDbEntity
  8
AM_VIS
100
AcDbLine
 10
6.657135017867253
 20
6.273927031050797
 30
0.0
 11
6.657135017867253
 21
6.540135314626781
 31
0.0
  0
LINE
  5
3A7
330
2
100
AcDbEntity
  8
AM_VIS
100
AcDbLine
 10
6.657135017867253
 20
6.273927031050795
 30
0.0
 11
6.657135017867253
 21
6.271975643144951
 31
0.0
  0
LINE
  5
3A8
330
2
100
AcDbEntity
  8
AM_VIS
100
AcDbLine
 10
6.657135017867253
 20
6.615293868893629
 30
0.0
 11
6.657135017867253
 21
6.552157842120717
 31
0.0
  0
LINE
  5
3A9
330
2
100
AcDbEntity
  8
AM_VIS
100
AcDbLine
 10
6.657135017867255
 20
7.033947273986457
 30
0.0
 11
6.657135017867253
 21
6.976232873304587
 31
0.0
  0
LINE
  5
3AA
330
2
100
AcDbEntity
  8
AM_VIS
100
AcDbLine
 10
6.657135017867253
 20
6.202514281844022
 30
0.0
 11
6.657135017867255
 21
6.240162203334581
 31
0.0
  0
LINE
  5
3AB
330
2
100
AcDbEntity
  8
AM_VIS
100
AcDbLine
 10
7.157135017867253
 20
6.202514281844022
 30
0.0
 11
7.157135017867255
 21
6.240162203334581
 31
0.0
  0
LINE
  5
3AC
330
2
100
AcDbEntity
  8
AM_VIS
100
AcDbLine
 10
7.157135017867253
 20
6.271975643144951
 30
0.0
 11
7.157135017867253
 21
6.273927031050795
 31
0.0
  0
LINE
  5
3AD
330
2
100
AcDbEntity
  8
AM_VIS
100
AcDbLine
 10
7.157135017867253
 20
6.273927031050797
 30
0.0
 11
7.157135017867253
 21
6.540135314626781
 31
0.0
  0
LINE
  5
3AE
330
2
100
AcDbEntity
  8
AM_VIS
100
AcDbLine
 10
7.157135017867255
 20
6.552157842120717
 30
0.0
 11
7.157135017867255
 21
6.615293868893628
 31
0.0
  0
LINE
  5
3AF
330
2
100
AcDbEntity
  8
AM_VIS
100
AcDbLine
 10
7.157135017867253
 20
6.615293868893629
 30
0.0
 11
7.157135017867253
 21
6.976232873304585
 31
0.0
  0
LINE
  5
3B0
330
2
100
AcDbEntity
  8
AM_VIS
100
AcDbLine
 10
7.157135017867253
 20
6.976232873304587
 30
0.0
 11
7.157135017867255
 21
7.033947273986456
 31
0.0
  0
LINE
  5
3B1
330
2
100
AcDbEntity
  8
AM_VIS
100
AcDbLine
 10
7.157135017867255
 20
7.048758292360902
 30
0.0
 11
7.157135017867253
 21
7.292994844012329
 31
0.0
  0
LINE
  5
3B2
330
2
100
AcDbEntity
  8
AM_VIS
100
AcDbLine
 10
7.157135017867253
 20
7.320402720991714
 30
0.0
 11
7.157135017867255
 21
7.342514281844008
 31
0.0
  0
LINE
  5
3B3
330
2
100
AcDbEntity
  8
AM_VIS
100
AcDbLine
 10
9.914135017867256
 20
7.023514281844036
 30
0.0
 11
9.914135017867254
 21
7.385514281844039
 31
0.0
  0
LINE
  5
3B4
330
2
100
AcDbEntity
  8
AM_VIS
100
AcDbLine
 10
9.614135017867257
 20
7.023514281844035
 30
0.0
 11
9.914135017867256
 21
7.023514281844036
 31
0.0
  0
LINE
  5
3B5
330
2
100
AcDbEntity
  8
AM_VIS
100
AcDbLine
 10
9.614135017867251
 20
7.416514281844036
 30
0.0
 11
9.914135017867252
 21
7.416514281844039
 31
0.0
  0
LINE
  5
3B6
330
2
100
AcDbEntity
  8
AM_VIS
100
AcDbLine
 10
9.614135017867251
 20
7.385514281844036
 30
0.0
 11
9.614135017867251
 21
7.379514281844036
 31
0.0
  0
LINE
  5
3B7
330
2
100
AcDbEntity
  8
AM_VIS
100
AcDbLine
 10
9.614135017867251
 20
7.416514281844031
 30
0.0
 11
9.297135017867251
 21
7.416514281844031
 31
0.0
  0
LINE
  5
3B8
330
2
100
AcDbEntity
  8
AM_VIS
100
AcDbLine
 10
9.614135017867257
 20
6.128514281844037
 30
0.0
 11
9.297135017867256
 21
6.128514281844034
 31
0.0
  0
LINE
  5
3B9
330
2
100
AcDbEntity
  8
AM_VIS
100
AcDbLine
 10
9.614135017867257
 20
7.023514281844035
 30
0.0
 11
9.61413501786726
 21
6.165514281844035
 31
0.0
  0
LINE
  5
3BA
330
2
100
AcDbEntity
  8
AM_VIS
100
AcDbLine
 10
9.914135017867252
 20
7.416514281844036
 30
0.0
 11
9.914135017867252
 21
7.385514281844039
 31
0.0
  0
LINE
  5
3BB
330
2
100
AcDbEntity
  8
AM_VIS
100
AcDbLine
 10
9.614135017867251
 20
7.385514281844036
 30
0.0
 11
9.614135017867251
 21
7.416514281844036
 31
0.0
  0
LINE
  5
3BC
330
2
100
AcDbEntity
  8
AM_VIS
100
AcDbLine
 10
9.614135017867257
 20
6.128514281844034
 30
0.0
 11
9.614135017867257
 21
6.165514281844034
 31
0.0
  0
LINE
  5
3BD
330
2
100
AcDbEntity
  8
AM_VIS
100
AcDbLine
 10
9.91413501786725
 20
7.013514281844035
 30
0.0
 11
9.91413501786725
 21
7.023514281844036
 31
0.0
  0
LINE
  5
3BE
330
2
100
AcDbEntity
  8
AM_VIS
100
AcDbLine
 10
9.614135017867257
 20
7.013514281844034
 30
0.0
 11
9.914135017867256
 21
7.013514281844035
 31
0.0
  0
LINE
  5
3BF
330
2
100
AcDbEntity
  8
AM_VIS
100
AcDbLine
 10
9.914135017867259
 20
6.165514281844036
 30
0.0
 11
9.914135017867254
 21
7.013514281844035
 31
0.0
  0
LINE
  5
3C0
330
2
100
AcDbEntity
  8
AM_VIS
100
AcDbLine
 10
9.614135017867257
 20
6.128514281844037
 30
0.0
 11
9.914135017867259
 21
6.128514281844037
 31
0.0
  0
LINE
  5
3C1
330
2
100
AcDbEntity
  8
AM_VIS
100
AcDbLine
 10
9.614135017867257
 20
6.165514281844035
 30
0.0
 11
9.614135017867251
 21
7.013514281844034
 31
0.0
  0
LINE
  5
3C2
330
2
100
AcDbEntity
  8
AM_VIS
100
AcDbLine
 10
9.914135017867259
 20
6.165514281844036
 30
0.0
 11
9.914135017867259
 21
6.128514281844037
 31
0.0
  0
LINE
  5
3C3
330
2
100
AcDbEntity
  8
AM_VIS
100
AcDbLine
 10
9.614135017867257
 20
6.165514281844035
 30
0.0
 11
9.614135017867257
 21
6.128514281844037
 31
0.0
  0
LINE
  5
3C4
330
2
100
AcDbEntity
  8
AM_VIS
100
AcDbLine
 10
3.558082637292656
 20
2.662608512696791
 30
0.0
 11
3.558082637292654
 21
2.801412931454505
 31
0.0
  0
LINE
  5
3C5
330
2
100
AcDbEntity
  8
AM_VIS
100
AcDbLine
 10
3.056036822650209
 20
2.372752226467443
 30
0.0
 11
3.141150110509193
 21
2.421892406124443
 31
0.0
  0
LINE
  5
3C6
330
2
100
AcDbEntity
  8
AM_VIS
100
AcDbLine
 10
3.399226799689868
 20
2.570893052094477
 30
0.0
 11
3.428218177718515
 21
2.587631232003495
 31
0.0
  0
LINE
  5
3C7
330
2
100
AcDbEntity
  8
AM_VIS
100
AcDbLine
 10
3.52715561153104
 20
2.644752786048088
 30
0.0
 11
3.558082637292657
 21
2.662608512696793
 31
0.0
  0
LINE
  5
3C8
330
2
100
AcDbEntity
  8
AM_VIS
100
AcDbLine
 10
3.558082637292656
 20
2.801412931454507
 30
0.0
 11
3.289382060441766
 21
2.956547281830773
 31
0.0
  0
LINE
  5
3C9
330
2
100
AcDbEntity
  8
AM_VIS
100
AcDbLine
 10
2.935828669848495
 20
2.4421544358463
 30
0.0
 11
3.304474491010868
 21
2.654992199930031
 31
0.0
  0
LINE
  5
3CA
330
2
100
AcDbEntity
  8
AM_VIS
100
AcDbLine
 10
3.405316407809833
 20
2.713213307739513
 30
0.0
 11
3.558082637292654
 21
2.801412931454507
 31
0.0
  0
LINE
  5
3CB
330
2
100
AcDbEntity
  8
AM_VIS
100
AcDbLine
 10
3.468059345629151
 20
2.134870911913365
 30
0.0
 11
4.090313313073312
 21
2.494129407521569
 31
0.0
  0
LINE
  5
3CC
330
2
100
AcDbEntity
  8
AM_VIS
100
AcDbLine
 10
2.561062075819625
 20
2.536051542652989
 30
0.0
 11
3.289382060441766
 21
2.956547281830773
 31
0.0
  0
LINE
  5
3CD
330
2
100
AcDbEntity
  8
AM_VIS
100
AcDbLine
 10
2.561062075819625
 20
2.536051542652989
 30
0.0
 11
3.616551769678328
 21
1.926664283776794
 31
0.0
  0
LINE
  5
3CE
330
2
100
AcDbEntity
  8
AM_VIS
100
AcDbLine
 10
4.373156025547936
 20
1.311515759705853
 30
0.0
 11
3.644836040925794
 21
0.8910200205280697
 31
0.0
  0
LINE
  5
3CF
330
2
100
AcDbEntity
  8
AM_VIS
100
AcDbLine
 10
3.644836040925791
 20
1.877674488921131
 30
0.0
 11
3.644836040925796
 21
0.8910200205280689
 31
0.0
  0
LINE
  5
3D0
330
2
100
AcDbEntity
  8
AM_VIS
100
AcDbLine
 10
4.34487175430047
 20
2.34716002295458
 30
0.0
 11
4.090313313073312
 21
2.494129407521569
 31
0.0
  0
LINE
  5
3D1
330
2
100
AcDbEntity
  8
AM_VIS
100
AcDbLine
 10
4.373156025547936
 20
1.311515759705853
 30
0.0
 11
4.373156025547931
 21
2.298170228098917
 31
0.0
  0
LINE
  5
3D2
330
2
100
AcDbEntity
  8
AM_VIS
100
AcDbLine
 10
3.644836040925791
 20
1.877674488921131
 30
0.0
 11
4.373156025547933
 21
2.298170228098916
 31
0.0
  0
LINE
  5
3D3
330
2
100
AcDbEntity
  8
AM_VIS
100
AcDbLine
 10
4.34487175430047
 20
2.34716002295458
 30
0.0
 11
3.616551769678328
 21
1.926664283776794
 31
0.0
  0
LINE
  5
3D4
330
2
100
AcDbEntity
  8
AM_VIS
100
AcDbLine
 10
3.090260790859636
 20
2.352993009208995
 30
0.0
 11
3.141150110509193
 21
2.382373971607544
 31
0.0
  0
LINE
  5
3D5
330
2
100
AcDbEntity
  8
AM_VIS
100
AcDbLine
 10
3.468059345629152
 20
2.134870911913363
 30
0.0
 11
2.935828669848495
 21
2.442154435846299
 31
0.0
  0
LINE
  5
3D6
330
2
100
AcDbEntity
  8
AM_VIS
100
AcDbLine
 10
2.541062075819625
 20
2.538032695567258
 30
0.0
 11
3.269382060441766
 21
2.958528434745042
 31
0.0
  0
LINE
  5
3D7
330
2
100
AcDbEntity
  8
AM_VIS
100
AcDbLine
 10
3.636551769678333
 20
0.8727089359952469
 30
0.0
 11
4.364871754300476
 21
1.29320467517303
 31
0.0
  0
ELLIPSE
  5
3D8
330
2
100
AcDbEntity
  8
AM_VIS
100
AcDbEllipse
 10
3.289382060441766
 20
2.923887418593666
 30
0.0
 11
-0.0200000000000024
 21
0.0346410161513762
 31
0.0
210
0.0
220
0.0
230
1.0
 40
0.5773502691896243
 41
5.497787143781946
 42
6.283185307179382
  0
ELLIPSE
  5
3D9
330
2
100
AcDbEntity
  8
AM_VIS
100
AcDbEllipse
 10
2.561062075819625
 20
2.50339167941588
 30
0.0
 11
-0.0200000000000003
 21
0.0346410161513774
 31
0.0
210
0.0
220
0.0
230
1.0
 40
0.5773502691896243
 41
5.497787143782141
 42
6.283185307179656
  0
ELLIPSE
  5
3DA
330
2
100
AcDbEntity
  8
AM_VIS
100
AcDbEllipse
 10
3.616551769678333
 20
0.9073499521466242
 30
0.0
 11
-0.0200000000000003
 21
0.0346410161513774
 31
0.0
210
0.0
220
0.0
230
1.0
 40
0.5773502691896243
 41
3.141592653589875
 42
3.926990816987244
  0
ELLIPSE
  5
3DB
330
2
100
AcDbEntity
  8
AM_VIS
100
AcDbEllipse
 10
4.344871754300474
 20
1.327845691324409
 30
0.0
 11
-0.0200000000000024
 21
0.0346410161513762
 31
0.0
210
0.0
220
0.0
230
1.0
 40
0.5773502691896243
 41
3.141592653589603
 42
3.926990816987051
  0
ELLIPSE
  5
3DC
330
2
100
AcDbEntity
  8
AM_VIS
100
AcDbEllipse
 10
3.616551769678328
 20
1.894004420539686
 30
0.0
 11
-0.0200000000000003
 21
0.0346410161513774
 31
0.0
210
0.0
220
0.0
230
1.0
 40
0.5773502691896243
 41
3.926990816987223
 42
5.497787143782121
  0
ELLIPSE
  5
3DD
330
2
100
AcDbEntity
  8
AM_VIS
100
AcDbEllipse
 10
4.34487175430047
 20
2.31450015971747
 30
0.0
 11
-0.0200000000000024
 21
0.0346410161513762
 31
0.0
210
0.0
220
0.0
230
1.0
 40
0.5773502691896243
 41
3.926990816987049
 42
5.497787143781946
  0
LINE
  5
3DE
330
2
100
AcDbEntity
  8
AM_VIS
100
AcDbLine
 10
3.141150110509193
 20
2.457272076217147
 30
0.0
 11
3.325687694446466
 21
2.563814899978938
 31
0.0
  0
LINE
  5
3DF
330
2
100
AcDbEntity
  8
AM_VIS
100
AcDbLine
 10
3.788873293110026
 20
2.320092930851238
 30
0.0
 11
3.646714173105161
 21
2.402168537053806
 31
0.0
  0
LINE
  5
3E0
330
2
100
AcDbEntity
  8
AM_VIS
100
AcDbLine
 10
3.573175067861758
 20
2.444626359262048
 30
0.0
 11
3.522970486397513
 21
2.473611987884982
 31
0.0
  0
LINE
  5
3E1
330
2
100
AcDbEntity
  8
AM_VIS
100
AcDbLine
 10
3.449431381154113
 20
2.516069810093223
 30
0.0
 11
3.399226799689869
 21
2.545055438716156
 31
0.0
  0
LINE
  5
3E2
330
2
100
AcDbEntity
  8
AM_VIS
100
AcDbLine
 10
3.141150110509193
 20
2.457272076217147
 30
0.0
 11
3.141150110509194
 21
2.342962554887266
 31
0.0
  0
LINE
  5
3E3
330
2
100
AcDbEntity
  8
AM_VIS
100
AcDbLine
 10
3.58381232656593
 20
2.201700926616715
 30
0.0
 11
3.141150110509193
 21
2.457272076217146
 31
0.0
  0
LINE
  5
3E4
330
2
100
AcDbEntity
  8
AM_VIS
100
AcDbLine
 10
3.141150110509194
 20
2.342962554887266
 30
0.0
 11
3.157908142079858
 21
2.313936792772034
 31
0.0
  0
LINE
  5
3E5
330
2
100
AcDbEntity
  8
AM_VIS
100
AcDbLine
 10
3.121970655117618
 20
2.343522482849872
 30
0.0
 11
3.129623870832396
 21
2.330266724390588
 31
0.0
  0
LINE
  5
3E6
330
2
100
AcDbEntity
  8
AM_VIS
100
AcDbLine
 10
3.622672542544816
 20
2.297656974695059
 30
0.0
 11
3.573175067861758
 21
2.326234355027529
 31
0.0
  0
LINE
  5
3E7
330
2
100
AcDbEntity
  8
AM_VIS
100
AcDbLine
 10
3.573175067861758
 20
2.326234355027529
 30
0.0
 11
3.573175067861758
 21
2.451392501887144
 31
0.0
  0
LINE
  5
3E8
330
2
100
AcDbEntity
  8
AM_VIS
100
AcDbLine
 10
3.646714173105162
 20
2.311537416570831
 30
0.0
 11
3.646714173105162
 21
2.434938768318261
 31
0.0
  0
LINE
  5
3E9
330
2
100
AcDbEntity
  8
AM_VIS
100
AcDbLine
 10
3.646714173105162
 20
2.311537416570831
 30
0.0
 11
3.622672542544818
 21
2.297656974695058
 31
0.0
  0
LINE
  5
3EA
330
2
100
AcDbEntity
  8
AM_VIS
100
AcDbLine
 10
3.622672542544816
 20
2.422815121554674
 30
0.0
 11
3.622672542544818
 21
2.29765697469506
 31
0.0
  0
LINE
  5
3EB
330
2
100
AcDbEntity
  8
AM_VIS
100
AcDbLine
 10
3.667927376540757
 20
2.469169474266529
 30
0.0
 11
3.667927376540756
 21
2.522241752026829
 31
0.0
  0
LINE
  5
3EC
330
2
100
AcDbEntity
  8
AM_VIS
100
AcDbLine
 10
3.667927376540757
 20
2.469169474266529
 30
0.0
 11
3.643885745980413
 21
2.455289032390755
 31
0.0
  0
LINE
  5
3ED
330
2
100
AcDbEntity
  8
AM_VIS
100
AcDbLine
 10
3.643885745980413
 20
2.508361310151056
 30
0.0
 11
3.643885745980413
 21
2.455289032390755
 31
0.0
  0
LINE
  5
3EE
330
2
100
AcDbEntity
  8
AM_VIS
100
AcDbLine
 10
3.667927376540756
 20
2.522241752026829
 30
0.0
 11
3.643885745980412
 21
2.508361310151056
 31
0.0
  0
LINE
  5
3EF
330
2
100
AcDbEntity
  8
AM_VIS
100
AcDbLine
 10
3.551961864426159
 20
2.508361310151058
 30
0.0
 11
3.551961864426159
 21
2.56143358791136
 31
0.0
  0
LINE
  5
3F0
330
2
100
AcDbEntity
  8
AM_VIS
100
AcDbLine
 10
3.375185169129524
 20
2.44054387635741
 30
0.0
 11
3.325687694446466
 21
2.469121256689879
 31
0.0
  0
LINE
  5
3F1
330
2
100
AcDbEntity
  8
AM_VIS
100
AcDbLine
 10
3.325687694446466
 20
2.469121256689882
 30
0.0
 11
3.325687694446466
 21
2.594279403549497
 31
0.0
  0
LINE
  5
3F2
330
2
100
AcDbEntity
  8
AM_VIS
100
AcDbLine
 10
3.399226799689869
 20
2.454424318233184
 30
0.0
 11
3.399226799689869
 21
2.577825669980615
 31
0.0
  0
LINE
  5
3F3
330
2
100
AcDbEntity
  8
AM_VIS
100
AcDbLine
 10
3.399226799689869
 20
2.454424318233184
 30
0.0
 11
3.375185169129526
 21
2.44054387635741
 31
0.0
  0
LINE
  5
3F4
330
2
100
AcDbEntity
  8
AM_VIS
100
AcDbLine
 10
3.375185169129524
 20
2.565702023217026
 30
0.0
 11
3.375185169129526
 21
2.44054387635741
 31
0.0
  0
LINE
  5
3F5
330
2
100
AcDbEntity
  8
AM_VIS
100
AcDbLine
 10
3.420440003125464
 20
2.612056375928878
 30
0.0
 11
3.420440003125464
 21
2.665128653689181
 31
0.0
  0
LINE
  5
3F6
330
2
100
AcDbEntity
  8
AM_VIS
100
AcDbLine
 10
3.420440003125464
 20
2.612056375928878
 30
0.0
 11
3.396398372565121
 21
2.598175934053106
 31
0.0
  0
LINE
  5
3F7
330
2
100
AcDbEntity
  8
AM_VIS
100
AcDbLine
 10
3.396398372565119
 20
2.651248211813407
 30
0.0
 11
3.396398372565119
 21
2.598175934053105
 31
0.0
  0
LINE
  5
3F8
330
2
100
AcDbEntity
  8
AM_VIS
100
AcDbLine
 10
3.420440003125463
 20
2.665128653689181
 30
0.0
 11
3.396398372565119
 21
2.651248211813407
 31
0.0
  0
LINE
  5
3F9
330
2
100
AcDbEntity
  8
AM_VIS
100
AcDbLine
 10
3.304474491010868
 20
2.65124821181341
 30
0.0
 11
3.304474491010868
 21
2.70432048957371
 31
0.0
  0
LINE
  5
3FA
330
2
100
AcDbEntity
  8
AM_VIS
100
AcDbLine
 10
3.498928855837169
 20
2.369100425526234
 30
0.0
 11
3.449431381154111
 21
2.397677805858704
 31
0.0
  0
LINE
  5
3FB
330
2
100
AcDbEntity
  8
AM_VIS
100
AcDbLine
 10
3.449431381154111
 20
2.397677805858704
 30
0.0
 11
3.449431381154111
 21
2.522835952718319
 31
0.0
  0
LINE
  5
3FC
330
2
100
AcDbEntity
  8
AM_VIS
100
AcDbLine
 10
3.522970486397515
 20
2.382980867402006
 30
0.0
 11
3.522970486397515
 21
2.506382219149438
 31
0.0
  0
LINE
  5
3FD
330
2
100
AcDbEntity
  8
AM_VIS
100
AcDbLine
 10
3.522970486397517
 20
2.382980867402006
 30
0.0
 11
3.498928855837171
 21
2.369100425526234
 31
0.0
  0
LINE
  5
3FE
330
2
100
AcDbEntity
  8
AM_VIS
100
AcDbLine
 10
3.498928855837171
 20
2.494258572385851
 30
0.0
 11
3.498928855837171
 21
2.369100425526234
 31
0.0
  0
LINE
  5
3FF
330
2
100
AcDbEntity
  8
AM_VIS
100
AcDbLine
 10
3.544183689833111
 20
2.540612925097703
 30
0.0
 11
3.544183689833111
 21
2.593685202858004
 31
0.0
  0
LINE
  5
400
330
2
100
AcDbEntity
  8
AM_VIS
100
AcDbLine
 10
3.544183689833111
 20
2.540612925097703
 30
0.0
 11
3.520142059272767
 21
2.52673248322193
 31
0.0
  0
LINE
  5
401
330
2
100
AcDbEntity
  8
AM_VIS
100
AcDbLine
 10
3.520142059272767
 20
2.579804760982231
 30
0.0
 11
3.520142059272767
 21
2.526732483221931
 31
0.0
  0
LINE
  5
402
330
2
100
AcDbEntity
  8
AM_VIS
100
AcDbLine
 10
3.544183689833111
 20
2.593685202858003
 30
0.0
 11
3.520142059272767
 21
2.579804760982231
 31
0.0
  0
LINE
  5
403
330
2
100
AcDbEntity
  8
AM_VIS
100
AcDbLine
 10
3.428218177718515
 20
2.579804760982231
 30
0.0
 11
3.428218177718513
 21
2.632877038742534
 31
0.0
  0
LINE
  5
404
330
2
100
AcDbEntity
  8
AM_VIS
100
AcDbLine
 10
3.141150110509193
 20
2.354595746583108
 30
0.0
 11
3.121970655117616
 21
2.343522482849872
 31
0.0
  0
LINE
  5
405
330
2
100
AcDbEntity
  8
AM_VIS
100
AcDbLine
 10
3.654465435763633
 20
2.439413961900689
 30
0.0
 11
3.630423805203288
 21
2.425533520024917
 31
0.0
  0
LINE
  5
406
330
2
100
AcDbEntity
  8
AM_VIS
100
AcDbLine
 10
3.589465435763631
 20
2.605069542152969
 30
0.0
 11
3.565423805203287
 21
2.591189100277196
 31
0.0
  0
LINE
  5
407
330
2
100
AcDbEntity
  8
AM_VIS
100
AcDbLine
 10
3.406978062348341
 20
2.582300863563042
 30
0.0
 11
3.382936431787996
 21
2.568420421687268
 31
0.0
  0
LINE
  5
408
330
2
100
AcDbEntity
  8
AM_VIS
100
AcDbLine
 10
3.341978062348339
 20
2.747956443815319
 30
0.0
 11
3.317936431787995
 21
2.734076001939548
 31
0.0
  0
LINE
  5
409
330
2
100
AcDbEntity
  8
AM_VIS
100
AcDbLine
 10
3.530721749055986
 20
2.510857412731867
 30
0.0
 11
3.506680118495641
 21
2.496976970856094
 31
0.0
  0
LINE
  5
40A
330
2
100
AcDbEntity
  8
AM_VIS
100
AcDbLine
 10
3.465721749055984
 20
2.676512992984144
 30
0.0
 11
3.44168011849564
 21
2.662632551108372
 31
0.0
  0
LINE
  5
40B
330
2
100
AcDbEntity
  8
AM_VIS
100
AcDbLine
 10
3.110391128367332
 20
2.341370753430048
 30
0.0
 11
3.141150110509194
 21
2.359129460049651
 31
0.0
  0
LINE
  5
40C
330
2
100
AcDbEntity
  8
AM_VIS
100
AcDbLine
 10
3.431205075848206
 20
2.526592772367921
 30
0.0
 11
3.442497365855379
 21
2.53311237904333
 31
0.0
  0
ARC
  5
40D
330
2
100
AcDbEntity
  8
AM_VIS
100
AcDbCircle
 10
3.483795783378272
 20
2.025903602514115
 30
0.0
 40
0.5622196883719121
100
AcDbArc
 50
40.47722750059628
 51
71.92089826095784
  0
LINE
  5
40E
330
2
100
AcDbEntity
  8
AM_VIS
100
AcDbLine
 10
3.544181586905413
 20
2.570336577794571
 30
0.0
 11
3.552832431566078
 21
2.57123753615309
 31
0.0
  0
ELLIPSE
  5
40F
330
2
100
AcDbEntity
  8
AM_VIS
100
AcDbEllipse
 10
3.597923805203288
 20
2.481825171270906
 30
0.0
 11
-0.0325000000000007
 21
0.0562916512459886
 31
0.0
210
0.0
220
0.0
230
0.9999999999999998
 40
0.5773502691896243
 41
0.7853981633974413
 42
1.787584189928157
  0
ELLIPSE
  5
410
330
2
100
AcDbEntity
  8
AM_VIS
100
AcDbEllipse
 10
3.621965435763633
 20
2.495705613146679
 30
0.0
 11
-0.032500000000004
 21
0.0562916512459865
 31
0.0
210
0.0
220
0.0
230
1.0
 40
0.5773502691896243
 41
3.141592653589618
 42
3.926990816987058
  0
ELLIPSE
  5
411
330
2
100
AcDbEntity
  8
AM_VIS
100
AcDbEllipse
 10
3.597923805203288
 20
2.481825171270906
 30
0.0
 11
-0.0325000000000006
 21
0.0562916512459885
 31
0.0
210
0.0
220
0.0
230
1.0
 40
0.5773502691896243
 41
2.924804790456519
 42
3.926990816987233
  0
ELLIPSE
  5
412
330
2
100
AcDbEntity
  8
AM_VIS
100
AcDbEllipse
 10
3.621965435763632
 20
2.54877789090698
 30
0.0
 11
-0.032500000000004
 21
0.0562916512459867
 31
0.0
210
0.0
220
0.0
230
1.0
 40
0.5773502691896245
 41
3.926990816987061
 42
6.283185307179411
  0
ELLIPSE
  5
413
330
2
100
AcDbEntity
  8
AM_VIS
100
AcDbEllipse
 10
3.597923805203286
 20
2.534897449031207
 30
0.0
 11
-0.0325000000000007
 21
0.0562916512459886
 31
0.0
210
0.0
220
0.0
230
0.9999999999999998
 40
0.5773502691896244
 41
3.926990816987233
 42
7.068583470577027
  0
ELLIPSE
  5
414
330
2
100
AcDbEntity
  8
AM_VIS
100
AcDbEllipse
 10
3.350436431787996
 20
2.624712072933258
 30
0.0
 11
-0.0325000000000007
 21
0.0562916512459886
 31
0.0
210
0.0
220
0.0
230
0.9999999999999998
 40
0.5773502691896243
 41
0.7853981633974413
 42
1.787584189928157
  0
ELLIPSE
  5
415
330
2
100
AcDbEntity
  8
AM_VIS
100
AcDbEllipse
 10
3.374478062348341
 20
2.638592514809031
 30
0.0
 11
-0.032500000000004
 21
0.0562916512459865
 31
0.0
210
0.0
220
0.0
230
1.0
 40
0.5773502691896243
 41
3.141592653589619
 42
3.926990816987061
  0
ELLIPSE
  5
416
330
2
100
AcDbEntity
  8
AM_VIS
100
AcDbEllipse
 10
3.350436431787996
 20
2.624712072933258
 30
0.0
 11
-0.0325000000000006
 21
0.0562916512459885
 31
0.0
210
0.0
220
0.0
230
1.0
 40
0.5773502691896243
 41
2.924804790456519
 42
3.926990816987233
  0
ELLIPSE
  5
417
330
2
100
AcDbEntity
  8
AM_VIS
100
AcDbEllipse
 10
3.374478062348339
 20
2.691664792569332
 30
0.0
 11
-0.032500000000004
 21
0.0562916512459867
 31
0.0
210
0.0
220
0.0
230
1.0
 40
0.5773502691896245
 41
3.926990816987061
 42
6.283185307179411
  0
ELLIPSE
  5
418
330
2
100
AcDbEntity
  8
AM_VIS
100
AcDbEllipse
 10
3.350436431787994
 20
2.677784350693559
 30
0.0
 11
-0.0325000000000007
 21
0.0562916512459886
 31
0.0
210
0.0
220
0.0
230
0.9999999999999998
 40
0.5773502691896244
 41
3.926990816987233
 42
7.068583470577027
  0
ELLIPSE
  5
419
330
2
100
AcDbEntity
  8
AM_VIS
100
AcDbEllipse
 10
3.47418011849564
 20
2.553268622102081
 30
0.0
 11
-0.0325000000000007
 21
0.0562916512459886
 31
0.0
210
0.0
220
0.0
230
0.9999999999999998
 40
0.5773502691896243
 41
0.7853981633974394
 42
1.787584189928185
  0
ELLIPSE
  5
41A
330
2
100
AcDbEntity
  8
AM_VIS
100
AcDbEllipse
 10
3.498221749055984
 20
2.567149063977854
 30
0.0
 11
-0.032500000000004
 21
0.0562916512459865
 31
0.0
210
0.0
220
0.0
230
1.0
 40
0.5773502691896243
 41
3.141592653589623
 42
3.926990816987062
  0
ELLIPSE
  5
41B
330
2
100
AcDbEntity
  8
AM_VIS
100
AcDbEllipse
 10
3.47418011849564
 20
2.553268622102081
 30
0.0
 11
-0.0325000000000006
 21
0.0562916512459885
 31
0.0
210
0.0
220
0.0
230
1.0
 40
0.5773502691896243
 41
2.924804790456517
 42
3.926990816987231
  0
ELLIPSE
  5
41C
330
2
100
AcDbEntity
  8
AM_VIS
100
AcDbEllipse
 10
3.498221749055984
 20
2.620221341738155
 30
0.0
 11
-0.032500000000004
 21
0.0562916512459867
 31
0.0
210
0.0
220
0.0
230
1.0
 40
0.5773502691896245
 41
3.926990816987061
 42
6.283185307179411
  0
ELLIPSE
  5
41D
330
2
100
AcDbEntity
  8
AM_VIS
100
AcDbEllipse
 10
3.47418011849564
 20
2.606340899862384
 30
0.0
 11
-0.0325000000000007
 21
0.0562916512459886
 31
0.0
210
0.0
220
0.0
230
0.9999999999999998
 40
0.5773502691896244
 41
3.926990816987233
 42
7.068583470577027
  0
ELLIPSE
  5
41E
330
2
100
AcDbEntity
  8
AM_VIS
100
AcDbEllipse
 10
3.357507499599863
 20
1.860505166157526
 30
0.0
 11
-0.2700000000000018
 21
0.4676537180435913
 31
-0.0000000000000001
210
-0.0000000000000001
220
0.0000000000000001
230
1.0
 40
0.5773502691896243
 41
6.162522350177222
 42
6.194373218430081
  0
ELLIPSE
  5
41F
330
2
100
AcDbEntity
  8
AM_VIS
100
AcDbEllipse
 10
3.727324346160428
 20
2.074019022070126
 30
0.0
 11
-0.2700000000000025
 21
0.4676537180435927
 31
-0.0000000000000001
210
-0.0000000000000001
220
0.0000000000000001
230
0.9999999999999998
 40
0.5773502691896243
 41
5.974179378295005
 42
5.998019719043416
  0
ELLIPSE
  5
420
330
2
100
AcDbEntity
  8
AM_VIS
100
AcDbEllipse
 10
3.727324346160428
 20
2.074019022070126
 30
0.0
 11
-0.2700000000000025
 21
0.4676537180435927
 31
-0.0000000000000001
210
-0.0000000000000001
220
0.0000000000000001
230
0.9999999999999998
 40
0.5773502691896243
 41
5.056809674003969
 42
5.663844196972369
  0
LINE
  5
421
330
2
100
AcDbEntity
  8
AM_VIS
100
AcDbLine
 10
3.644836040925791
 20
1.877674488921129
 30
0.0
 11
3.644836040925796
 21
0.8910200205280698
 31
0.0
  0
LINE
  5
422
330
2
100
AcDbEntity
  8
AM_VIS
100
AcDbLine
 10
3.644836040925796
 20
0.8910200205280698
 30
0.0
 11
3.326637989391851
 21
0.7073082898193293
 31
0.0
  0
LINE
  5
423
330
2
100
AcDbEntity
  8
AM_VIS
100
AcDbLine
 10
3.326637989391847
 20
1.693962758212388
 30
0.0
 11
3.326637989391853
 21
0.7073082898193293
 31
0.0
  0
LINE
  5
424
330
2
100
AcDbEntity
  8
AM_VIS
100
AcDbLine
 10
3.644836040925791
 20
1.877674488921129
 30
0.0
 11
3.326637989391846
 21
1.693962758212388
 31
0.0
  0
LINE
  5
425
330
2
100
AcDbEntity
  8
AM_VIS
100
AcDbLine
 10
2.561062075819624
 20
2.536051542652985
 30
0.0
 11
3.616551769678329
 21
1.92666428377679
 31
0.0
  0
LINE
  5
426
330
2
100
AcDbEntity
  8
AM_VIS
100
AcDbLine
 10
3.616551769678329
 20
1.926664283776791
 30
0.0
 11
3.298353718144384
 21
1.74295255306805
 31
0.0
  0
LINE
  5
427
330
2
100
AcDbEntity
  8
AM_VIS
100
AcDbLine
 10
2.24286402428568
 20
2.352339811944245
 30
0.0
 11
3.298353718144386
 21
1.74295255306805
 31
0.0
  0
LINE
  5
428
330
2
100
AcDbEntity
  8
AM_VIS
100
AcDbLine
 10
2.561062075819624
 20
2.536051542652985
 30
0.0
 11
2.24286402428568
 21
2.352339811944244
 31
0.0
  0
LINE
  5
429
330
2
100
AcDbEntity
  8
AM_VIS
100
AcDbLine
 10
2.214579753038221
 20
1.809740058010906
 30
0.0
 11
2.214579753038219
 21
2.33600988032569
 31
0.0
  0
LINE
  5
42A
330
2
100
AcDbEntity
  8
AM_VIS
100
AcDbLine
 10
3.298353718144391
 20
0.6909783582007743
 30
0.0
 11
2.885899710647778
 21
0.9291087904572815
 31
0.0
  0
LINE
  5
42B
330
2
100
AcDbEntity
  8
AM_VIS
100
AcDbLine
 10
3.636551769678336
 20
0.8727089359952469
 30
0.0
 11
3.318353718144392
 21
0.6889972052865061
 31
0.0
  0
LINE
  5
42C
330
2
100
AcDbEntity
  8
AM_VIS
100
AcDbLine
 10
2.541062075819624
 20
2.538032695567253
 30
0.0
 11
2.22286402428568
 21
2.354320964858513
 31
0.0
  0
LINE
  5
42D
330
2
100
AcDbEntity
  8
AM_VIS
100
AcDbLine
 10
2.922636829170146
 20
1.107137733327266
 30
0.0
 11
2.943564173334959
 21
1.119220141114245
 31
0.0
  0
LINE
  5
42E
330
2
100
AcDbEntity
  8
AM_VIS
100
AcDbLine
 10
2.487636829170139
 20
1.860579834619725
 30
0.0
 11
2.508564173334953
 21
1.872662242406704
 31
0.0
  0
ELLIPSE
  5
42F
330
2
100
AcDbEntity
  8
AM_VIS
100
AcDbEllipse
 10
3.616551769678336
 20
0.9073499521466246
 30
0.0
 11
-0.0200000000000003
 21
0.0346410161513774
 31
0.0
210
0.0
220
0.0
230
1.0
 40
0.5773502691896243
 41
3.141592653589801
 42
3.926990816987244
  0
ELLIPSE
  5
430
330
2
100
AcDbEntity
  8
AM_VIS
100
AcDbEllipse
 10
3.298353718144392
 20
0.7236382214378834
 30
0.0
 11
-0.0200000000000003
 21
0.0346410161513774
 31
0.0
210
0.0
220
0.0
230
1.0
 40
0.5773502691896243
 41
2.356194490192303
 42
3.926990816987221
  0
ELLIPSE
  5
431
330
2
100
AcDbEntity
  8
AM_VIS
100
AcDbEllipse
 10
3.616551769678329
 20
1.894004420539683
 30
0.0
 11
-0.0200000000000001
 21
0.034641016151377
 31
0.0
210
0.0
220
0.0
230
0.9999999999999998
 40
0.5773502691896243
 41
3.926990816987251
 42
5.497787143782169
  0
ELLIPSE
  5
432
330
2
100
AcDbEntity
  8
AM_VIS
100
AcDbEllipse
 10
3.298353718144384
 20
1.710292689830941
 30
0.0
 11
-0.0200000000000001
 21
0.034641016151377
 31
0.0
210
0.0
220
0.0
230
0.9999999999999998
 40
0.5773502691896243
 41
3.926990816987227
 42
5.497787143782145
  0
ELLIPSE
  5
433
330
2
100
AcDbEntity
  8
AM_VIS
100
AcDbEllipse
 10
2.561062075819624
 20
2.503391679415877
 30
0.0
 11
-0.0200000000000001
 21
0.034641016151377
 31
0.0
210
0.0
220
0.0
230
0.9999999999999998
 40
0.5773502691896243
 41
5.497787143782145
 42
6.283185307179572
  0
ELLIPSE
  5
434
330
2
100
AcDbEntity
  8
AM_VIS
100
AcDbEllipse
 10
2.242864024285681
 20
2.319679948707135
 30
0.0
 11
-0.0200000000000001
 21
0.034641016151377
 31
0.0
210
0.0
220
0.0
230
0.9999999999999998
 40
0.5773502691896243
 41
5.497787143782167
 42
7.06858347057704
  0
ELLIPSE
  5
435
330
2
100
AcDbEntity
  8
AM_VIS
100
AcDbEllipse
 10
2.600903243730263
 20
1.423679495361181
 30
0.0
 11
-0.2175000000000031
 21
0.3767210506462291
 31
0.0
210
0.0
220
0.0
230
1.0
 40
0.5773502691896243
 41
4.497225100638056
 42
4.927552860131313
  0
LINE
  5
436
330
2
100
AcDbEntity
  8
AM_VIS
100
AcDbLine
 10
2.47373387121503
 20
2.035861668569519
 30
0.0
 11
2.429539697390871
 21
2.010346150415526
 31
0.0
  0
LINE
  5
437
330
2
100
AcDbEntity
  8
AM_VIS
100
AcDbLine
 10
3.06748387121504
 20
1.007456501575502
 30
0.0
 11
3.023289697390881
 21
0.9819409834215115
 31
0.0
  0
ELLIPSE
  5
438
330
2
100
AcDbEntity
  8
AM_VIS
100
AcDbEllipse
 10
2.770608871215035
 20
1.52165908507251
 30
0.0
 11
-0.2968750000000349
 21
0.5142025834969904
 31
-0.0000000000000001
210
-0.0000000000000001
220
0.0000000000000001
230
1.0
 40
0.5773502691896243
 41
3.141592653589619
 42
6.283185307179411
  0
ELLIPSE
  5
439
330
2
100
AcDbEntity
  8
AM_VIS
100
AcDbEllipse
 10
2.726414697390877
 20
1.496143566918519
 30
0.0
 11
-0.2968750000000042
 21
0.5142025834970081
 31
0.0
210
0.0
220
0.0
230
1.0
 40
0.5773502691896243
 41
3.141592653589792
 42
6.283185307179588
  0
ELLIPSE
  5
43A
330
2
100
AcDbEntity
  8
AM_VIS
100
AcDbEllipse
 10
2.726414697390877
 20
1.496143566918519
 30
0.0
 11
-0.2218750000000032
 21
0.3842987729293428
 31
0.0
210
0.0
220
0.0
230
1.0
 40
0.5773502691896243
 41
0.0997578810833935
 42
0.1098154837445774
  0
ELLIPSE
  5
43B
330
2
100
AcDbEntity
  8
AM_VIS
100
AcDbEllipse
 10
2.726414697390877
 20
1.496143566918519
 30
0.0
 11
-0.2218750000000032
 21
0.3842987729293428
 31
0.0
210
0.0
220
0.0
230
1.0
 40
0.5773502691896243
 41
3.031777169845212
 42
3.041834772506398
  0
LINE
  5
43C
330
2
100
AcDbEntity
  8
AM_VIS
100
AcDbLine
 10
2.429539697390871
 20
2.010346150415526
 30
0.0
 11
2.385345523566713
 21
1.984830632261535
 31
0.0
  0
LINE
  5
43D
330
2
100
AcDbEntity
  8
AM_VIS
100
AcDbLine
 10
3.023289697390881
 20
0.9819409834215111
 30
0.0
 11
2.979095523566721
 21
0.9564254652675192
 31
0.0
  0
ELLIPSE
  5
43E
330
2
100
AcDbEntity
  8
AM_VIS
100
AcDbEllipse
 10
2.726414697390877
 20
1.496143566918519
 30
0.0
 11
-0.2968750000000349
 21
0.5142025834969904
 31
-0.0000000000000001
210
-0.0000000000000001
220
0.0000000000000001
230
1.0
 40
0.5773502691896243
 41
3.141592653589619
 42
6.283185307179411
  0
ELLIPSE
  5
43F
330
2
100
AcDbEntity
  8
AM_VIS
100
AcDbEllipse
 10
2.682220523566716
 20
1.470628048764526
 30
0.0
 11
-0.2968750000000042
 21
0.5142025834970081
 31
0.0
210
0.0
220
0.0
230
1.0
 40
0.5773502691896243
 41
2.664690210839033
 42
6.760087749930356
  0
ELLIPSE
  5
440
330
2
100
AcDbEntity
  8
AM_VIS
100
AcDbEllipse
 10
2.726414697390877
 20
1.496143566918519
 30
0.0
 11
-0.2218750000000262
 21
0.3842987729293295
 31
0.0
210
0.0
220
0.0
230
1.0
 40
0.5773502691896243
 41
3.031777169845042
 42
3.041834772506224
  0
ELLIPSE
  5
441
330
2
100
AcDbEntity
  8
AM_VIS
100
AcDbEllipse
 10
2.726414697390877
 20
1.496143566918519
 30
0.0
 11
-0.2218750000000262
 21
0.3842987729293295
 31
0.0
210
0.0
220
0.0
230
1.0
 40
0.5773502691896243
 41
0.0997578810832232
 42
0.1098154837444061
  0
ELLIPSE
  5
442
330
2
100
AcDbEntity
  8
AM_VIS
100
AcDbEllipse
 10
2.682220523566716
 20
1.470628048764526
 30
0.0
 11
-0.2218750000000032
 21
0.3842987729293428
 31
0.0
210
0.0
220
0.0
230
1.0
 40
0.5773502691896243
 41
3.229096771072367
 42
6.195681189697007
  0
LINE
  5
443
330
2
100
AcDbEntity
  8
AM_VIS
100
AcDbLine
 10
2.674849853136989
 20
1.75249234483666
 30
0.0
 11
2.424426151051486
 21
1.897074536647186
 31
0.0
  0
LINE
  5
444
330
2
100
AcDbEntity
  8
AM_VIS
100
AcDbLine
 10
2.922636829170146
 20
1.034148329272335
 30
0.0
 11
2.922636829170144
 21
1.323312712893389
 31
0.0
  0
LINE
  5
445
330
2
100
AcDbEntity
  8
AM_VIS
100
AcDbLine
 10
2.71050479481418
 20
1.200838225754228
 30
0.0
 11
2.922636829170143
 21
1.323312712893389
 31
0.0
  0
LINE
  5
446
330
2
100
AcDbEntity
  8
AM_VIS
100
AcDbLine
 10
2.922636829170146
 20
1.034148329272335
 30
0.0
 11
2.710504794814183
 21
0.9116738421331758
 31
0.0
  0
LINE
  5
447
330
2
100
AcDbEntity
  8
AM_VIS
100
AcDbLine
 10
2.689794116695527
 20
0.8658961308011186
 30
0.0
 11
2.901926151051491
 21
0.9883706179402793
 31
0.0
  0
LINE
  5
448
330
2
100
AcDbEntity
  8
AM_VIS
100
AcDbLine
 10
2.374426151051488
 20
1.90202741893286
 30
0.0
 11
2.162294116695524
 21
1.779552931793699
 31
0.0
  0
LINE
  5
449
330
2
100
AcDbEntity
  8
AM_VIS
100
AcDbLine
 10
2.212294116695523
 20
1.774600049508026
 30
0.0
 11
2.424426151051488
 21
1.897074536647188
 31
0.0
  0
LINE
  5
44A
330
2
100
AcDbEntity
  8
AM_VIS
100
AcDbLine
 10
2.710504794814181
 20
1.200838225754228
 30
0.0
 11
2.710504794814183
 21
0.9116738421331756
 31
0.0
  0
LINE
  5
44B
330
2
100
AcDbEntity
  8
AM_VIS
100
AcDbLine
 10
2.689794116695527
 20
0.8658961308011193
 30
0.0
 11
2.668398228085265
 21
0.8535432087524331
 31
0.0
  0
LINE
  5
44C
330
2
100
AcDbEntity
  8
AM_VIS
100
AcDbLine
 10
2.115061102233586
 20
1.752282938179463
 30
0.0
 11
2.162294116695524
 21
1.779552931793699
 31
0.0
  0
LINE
  5
44D
330
2
100
AcDbEntity
  8
AM_VIS
100
AcDbLine
 10
2.212294116695523
 20
1.774600049508025
 30
0.0
 11
2.462717818781027
 21
1.6300178576975
 31
0.0
  0
LINE
  5
44E
330
2
100
AcDbEntity
  8
AM_VIS
100
AcDbLine
 10
2.90192615105149
 20
1.393005055399257
 30
0.0
 11
2.72484985313699
 21
1.699710200203369
 31
0.0
  0
LINE
  5
44F
330
2
100
AcDbEntity
  8
AM_VIS
100
AcDbLine
 10
2.901926151051488
 20
1.393005055399257
 30
0.0
 11
2.689794116695525
 21
1.270530568260096
 31
0.0
  0
LINE
  5
450
330
2
100
AcDbEntity
  8
AM_VIS
100
AcDbLine
 10
2.512717818781026
 20
1.577235713064208
 30
0.0
 11
2.689794116695525
 21
1.270530568260096
 31
0.0
  0
LINE
  5
451
330
2
100
AcDbEntity
  8
AM_VIS
100
AcDbLine
 10
2.674849853136989
 20
1.75249234483666
 30
0.0
 11
2.462717818781026
 21
1.6300178576975
 31
0.0
  0
LINE
  5
452
330
2
100
AcDbEntity
  8
AM_VIS
100
AcDbLine
 10
2.512717818781024
 20
1.577235713064208
 30
0.0
 11
2.724849853136989
 21
1.69971020020337
 31
0.0
  0
ELLIPSE
  5
453
330
2
100
AcDbEntity
  8
AM_VIS
100
AcDbEllipse
 10
2.851926151051488
 20
1.364137541939774
 30
0.0
 11
-0.0500000000000059
 21
0.0866025403784404
 31
0.0
210
0.0
220
0.0
230
1.0
 40
0.5773502691896244
 41
3.926990816987063
 42
4.712388980384509
  0
ELLIPSE
  5
454
330
2
100
AcDbEntity
  8
AM_VIS
100
AcDbEllipse
 10
2.851926151051491
 20
1.074973158318722
 30
0.0
 11
-0.0500000000000059
 21
0.0866025403784405
 31
0.0
210
0.0
220
0.0
230
0.9999999999999998
 40
0.5773502691896243
 41
3.141592653589618
 42
3.926990816987065
  0
ELLIPSE
  5
455
330
2
100
AcDbEntity
  8
AM_VIS
100
AcDbEllipse
 10
2.424426151051489
 20
1.815424878554417
 30
0.0
 11
-0.0500000000000059
 21
0.0866025403784405
 31
0.0
210
0.0
220
0.0
230
0.9999999999999998
 40
0.5773502691896243
 41
5.497787143781961
 42
6.283185307179406
  0
ELLIPSE
  5
456
330
2
100
AcDbEntity
  8
AM_VIS
100
AcDbEllipse
 10
2.639794116695525
 20
1.241663054800614
 30
0.0
 11
-0.0500000000000007
 21
0.0866025403784434
 31
0.0
210
0.0
220
0.0
230
1.0
 40
0.5773502691896243
 41
3.926990816987236
 42
4.712388980384681
  0
ELLIPSE
  5
457
330
2
100
AcDbEntity
  8
AM_VIS
100
AcDbEllipse
 10
2.639794116695528
 20
0.9524986711795616
 30
0.0
 11
-0.0500000000000007
 21
0.0866025403784435
 31
0.0
210
0.0
220
0.0
230
1.0
 40
0.5773502691896243
 41
3.14159265358979
 42
3.926990816987236
  0
ELLIPSE
  5
458
330
2
100
AcDbEntity
  8
AM_VIS
100
AcDbEllipse
 10
2.212294116695525
 20
1.692950391415256
 30
0.0
 11
-0.0500000000000007
 21
0.0866025403784435
 31
0.0
210
0.0
220
0.0
230
1.0
 40
0.5773502691896243
 41
5.497787143782132
 42
6.28318530717958
  0
ELLIPSE
  5
459
330
2
100
AcDbEntity
  8
AM_VIS
100
AcDbEllipse
 10
2.337505967738276
 20
1.27160700716339
 30
0.0
 11
-0.2500000000000035
 21
0.4330127018922174
 31
-0.0000000000000001
210
-0.0000000000000001
220
0.0000000000000002
230
0.9999999999999998
 40
0.5773502691896244
 41
5.132034968218169
 42
5.285239126931215
  0
ENDSEC
  0
SECTION
  2
OBJECTS
  0
DICTIONARY
  5
8
330
0
100
AcDbDictionary
281
     1
  3
ACAD_COLOR
350
2B
  3
ACAD_GROUP
350
27
  3
ACAD_IMAGE_DICT
350
13C
  3
ACAD_IMAGE_VARS
350
45E
  3
ACAD_LAYOUT
350
C
  3
ACAD_MATERIAL
350
2A
  3
ACAD_MLINESTYLE
350
28
  3
ACAD_PLOTSETTINGS
350
29
  3
ACAD_PLOTSTYLENAME
350
7
  3
ACAD_TABLESTYLE
350
2C
  3
ACDBHEADERROUNDTRIPXREC
350
84D
  3
AcDbVariableDictionary
350
460
  3
AcmDictionary
350
7EA
  3
AMG
350
707
  3
AMGSNAPSETTINGS
350
82D
  3
DWGPROPS
350
84C
  3
MAPISURF_MODULE
350
7B8
  0
DICTIONARY
  5
16
330
15
100
AcDbDictionary
280
     1
281
     1
  3
ACAD_LAYERSTATES
360
17
  0
DICTIONARY
  5
3
330
2
100
AcDbDictionary
280
     1
281
     1
  3
ACAD_INDEX
360
835
  0
DICTIONARY
  5
E
330
D
100
AcDbDictionary
280
     1
281
     1
  3
ACAD_SORTENTS
360
45A
  0
DICTIONARY
  5
851
330
11F
100
AcDbDictionary
280
     1
281
     1
  3
ACAD_MTEXT_RT
360
852
  0
IMAGEDEF_REACTOR
  5
13D
330
13A
100
AcDbRasterImageDefReactor
 90
        2
330
13A
  0
DICTIONARY
  5
2B
102
{ACAD_REACTORS
330
8
102
}
330
8
100
AcDbDictionary
281
     1
  0
DICTIONARY
  5
27
102
{ACAD_REACTORS
330
8
102
}
330
8
100
AcDbDictionary
281
     1
  0
DICTIONARY
  5
13C
102
{ACAD_REACTORS
330
8
102
}
330
8
100
AcDbDictionary
281
     1
  3
c3 logo 05
350
13B
  0
RASTERVARIABLES
  5
45E
102
{ACAD_REACTORS
330
8
102
}
330
8
100
AcDbRasterVariables
 90
        0
 70
     1
 71
     1
 72
     5
  0
DICTIONARY
  5
C
102
{ACAD_REACTORS
330
8
102
}
330
8
100
AcDbDictionary
281
     1
  3
Layout1
350
12
  3
Model
350
B
  0
DICTIONARY
  5
2A
102
{ACAD_REACTORS
330
8
102
}
330
8
100
AcDbDictionary
281
     1
  0
DICTIONARY
  5
28
102
{ACAD_REACTORS
330
8
102
}
330
8
100
AcDbDictionary
281
     1
  3
Standard
350
2D
  0
DICTIONARY
  5
29
102
{ACAD_REACTORS
330
8
102
}
330
8
100
AcDbDictionary
281
     1
  0
ACDBDICTIONARYWDFLT
  5
7
102
{ACAD_REACTORS
330
8
102
}
330
8
100
AcDbDictionary
281
     1
  3
Normal
350
6
100
AcDbDictionaryWithDefault
340
6
  0
DICTIONARY
  5
2C
102
{ACAD_REACTORS
330
8
102
}
330
8
100
AcDbDictionary
281
     1
  3
Standard
350
2E
  0
DICTIONARY
  5
84D
102
{ACAD_REACTORS
330
8
102
}
330
8
100
AcDbDictionary
281
     1
  0
DICTIONARY
  5
460
102
{ACAD_REACTORS
330
8
102
}
330
8
100
AcDbDictionary
281
     1
  3
CTABLESTYLE
350
461
  3
DIMASSOC
350
463
  3
HIDETEXT
350
462
  3
INDEXCTL
350
83E
  3
PROJECTNAME
350
464
  0
DICTIONARY
  5
7EA
102
{ACAD_REACTORS
330
8
102
}
330
8
100
AcDbDictionary
281
     1
  3
AcmStdDictionary
350
7FA
  3
AMDTSECTSYM_ARROWCOLOR
350
818
  0
DICTIONARY
  5
707
102
{ACAD_REACTORS
330
8
102
}
330
8
100
AcDbDictionary
281
     1
  3
AcMgSettings
350
708
  0
DICTIONARY
  5
82D
102
{ACAD_REACTORS
330
8
102
}
330
8
100
AcDbDictionary
281
     1
  3
DIMENSION
350
832
  3
FEA
350
831
  3
HATCH (1)
350
82E
  3
HATCH (2)
350
82F
  3
SIMPLE WELD
350
833
  3
SYMBOLS
350
830
  0
XRECORD
  5
84C
102
{ACAD_REACTORS
330
8
102
}
330
8
100
AcDbXrecord
280
     1
  1
DWGPROPS COOKIE
  2

  3

  4

  6

  7

  8

  9

300
AmdtFileType=84
301
=
302
=
303
=
304
=
305
=
306
=
307
=
308
=
309
=
 40
0.9226174884259259
 41
2451767.623554144
 42
2454293.729804884
  1

 90
        1
  0
DICTIONARY
  5
17
102
{ACAD_REACTORS
330
16
102
}
330
16
100
AcDbDictionary
281
     1
  0
DICTIONARY
  5
835
102
{ACAD_REACTORS
330
3
102
}
330
3
100
AcDbDictionary
281
     1
  3
*A1
350
836
  0
SORTENTSTABLE
  5
45A
102
{ACAD_REACTORS
330
E
102
}
330
E
100
AcDbSortentsTable
330
D
  0
XRECORD
  5
852
102
{ACAD_REACTORS
330
851
102
}
330
851
100
AcDbXrecord
280
     1
 40
303599.0
  1
{\fArial|b0|i0|c0|p34;P.O. BOX 496^IBEAVER, PA 15009^I\C256;www.c3controls.com}
  0
IMAGEDEF
  5
13B
102
{ACAD_REACTORS
330
13C
330
13D
102
}
330
13C
100
AcDbRasterImageDef
 90
        0
  1
K:\Archive- EngrDwgs\Borders\Title Blocks\c3 logo Size A.bmp
 10
223.0
 20
45.0
 11
0.264550269889837
 21
0.264550269889837
280
     1
281
     2
  0
LAYOUT
  5
12
102
{ACAD_XDICTIONARY
360
13
102
}
102
{ACAD_REACTORS
330
C
102
}
330
C
100
AcDbPlotSettings
  1

  2
\\NTSERVER_40\HP DesignJet 750C (D/A1) by HP
  4
User1287
  6

 40
4.995333194732666
 41
16.93332099914551
 42
4.995330810546875
 43
16.93331909179687
 44
431.71533203125
 45
279.2306518554688
 46
0.0
 47
0.0
 48
0.0
 49
0.0
140
0.0
141
0.0
142
1.0
143
1.0
 70
   688
 72
     0
 73
     0
 74
     5
  7

 75
    16
147
1.0
148
0.0
149
0.0
100
AcDbLayout
  1
Layout1
 70
     1
 71
     1
 10
-0.1966666612099475
 20
-0.6666661810687208
 11
16.7999999541936
 21
10.32666656914658
 12
0.0
 22
0.0
 32
0.0
 14
-0.1972183653293129
 24
-0.667137473205937
 34
-0.0000000000000152
 15
16.80381923232815
 25
10.33353391351359
 35
0.0000000000000001
146
0.0
 13
0.0
 23
0.0
 33
0.0
 16
1.0
 26
0.0
 36
0.0
 17
0.0
 27
1.0
 37
0.0
 76
     0
330
D
  0
LAYOUT
  5
B
102
{ACAD_XDICTIONARY
360
84E
102
}
102
{ACAD_REACTORS
330
C
102
}
330
C
100
AcDbPlotSettings
  1

  2
\\COMPUTER24\KATHY'S NEC
  4

  6

 40
0.0
 41
0.0
 42
0.0
 43
0.0
 44
0.0
 45
0.0
 46
0.0
 47
0.0
 48
0.0
 49
0.0
140
0.0
141
0.0
142
1.0
143
1.0
 70
  1712
 72
     0
 73
     0
 74
     0
  7

 75
     0
147
1.0
148
0.0
149
0.0
100
AcDbLayout
  1
Model
 70
     1
 71
     0
 10
0.0
 20
0.0
 11
12.0
 21
9.0
 12
0.0
 22
0.0
 32
0.0
 14
0.0
 24
0.0
 34
0.0
 15
0.0
 25
0.0
 35
0.0
146
0.0
 13
0.0
 23
0.0
 33
0.0
 16
1.0
 26
0.0
 36
0.0
 17
0.0
 27
1.0
 37
0.0
 76
     0
330
2
  0
MLINESTYLE
  5
2D
102
{ACAD_REACTORS
330
28
102
}
330
28
100
AcDbMlineStyle
  2
STANDARD
 70
     0
  3

 62
   256
 51
90.0
 52
90.0
 71
     2
 49
0.5
 62
   256
  6
BYLAYER
 49
-0.5
 62
   256
  6
BYLAYER
  0
ACDBPLACEHOLDER
  5
6
102
{ACAD_REACTORS
330
7
102
}
330
7
  0
TABLESTYLE
  5
2E
102
{ACAD_REACTORS
330
2C
102
}
330
2C
100
AcDbTableStyle
  3
Standard
 70
     0
 71
     0
 40
0.06
 41
0.06
280
     0
281
     0
  7
Standard
140
0.18
170
     2
 62
     0
 63
     7
283
     0
274
    -2
284
     1
 64
     0
275
    -2
285
     1
 65
     0
276
    -2
286
     1
 66
     0
277
    -2
287
     1
 67
     0
278
    -2
288
     1
 68
     0
279
    -2
289
     1
 69
     0
  7
Standard
140
0.25
170
     5
 62
     0
 63
     7
283
     0
274
    -2
284
     1
 64
     0
275
    -2
285
     1
 65
     0
276
    -2
286
     1
 66
     0
277
    -2
287
     1
 67
     0
278
    -2
288
     1
 68
     0
279
    -2
289
     1
 69
     0
  7
Standard
140
0.18
170
     5
 62
     0
 63
     7
283
     0
274
    -2
284
     1
 64
     0
275
    -2
285
     1
 65
     0
276
    -2
286
     1
 66
     0
277
    -2
287
     1
 67
     0
278
    -2
288
     1
 68
     0
279
    -2
289
     1
 69
     0
  0
DICTIONARYVAR
  5
461
102
{ACAD_REACTORS
330
460
102
}
330
460
100
DictionaryVariables
280
     0
  1
STANDARD
  0
DICTIONARYVAR
  5
463
102
{ACAD_REACTORS
330
460
102
}
330
460
100
DictionaryVariables
280
     0
  1
1
  0
DICTIONARYVAR
  5
462
102
{ACAD_REACTORS
330
460
102
}
330
460
100
DictionaryVariables
280
     0
  1
1
  0
DICTIONARYVAR
  5
83E
102
{ACAD_REACTORS
330
460
102
}
330
460
100
DictionaryVariables
280
     0
  1
1
  0
DICTIONARYVAR
  5
464
102
{ACAD_REACTORS
330
460
102
}
330
460
100
DictionaryVariables
280
     0
  1

  0
DICTIONARY
  5
7FA
102
{ACAD_REACTORS
330
7EA
102
}
330
7EA
100
AcDbDictionary
281
     1
  0
XRECORD
  5
818
102
{ACAD_REACTORS
330
7EA
102
}
330
7EA
100
AcDbXrecord
280
     1
 90
-1023410169
  0
DICTIONARY
  5
708
102
{ACAD_REACTORS
330
707
102
}
330
707
100
AcDbDictionary
281
     1
  3
DWGSETTINGS
350
709
  3
TRANSSETTINGS
350
70D
  0
ACAMGFILTERDAT
  5
832
102
{ACAD_REACTORS
330
82D
102
}
330
82D
100
AcAmgFilterDat
 70
    15
  1
DIMENSION,AMDT_*_DIM
  2
*
  3
*
  4
*
  5
*
290
     1
  0
ACAMGFILTERDAT
  5
831
102
{ACAD_REACTORS
330
82D
102
}
330
82D
100
AcAmgFilterDat
 70
    15
  1
*
  2
AM_FEA-AM_*
  3
*
  4
*
  5
*
290
     1
  0
ACAMGFILTERDAT
  5
82E
102
{ACAD_REACTORS
330
82D
102
}
330
82D
100
AcAmgFilterDat
 70
    15
  1
HATCH
  2
*
  3
*
  4
*
  5
*
290
     1
  0
ACAMGFILTERDAT
  5
82F
102
{ACAD_REACTORS
330
82D
102
}
330
82D
100
AcAmgFilterDat
 70
    15
  1
LINE
  2
8,8N,*-8,*-8N,AM_8,AM_8N,*-AM_8,*-AM_8N
  3
*
  4
*
  5
INSERT,STDPART2D
290
     1
  0
ACAMGFILTERDAT
  5
833
102
{ACAD_REACTORS
330
82D
102
}
330
82D
100
AcAmgFilterDat
 70
    15
  1
ARC
  2
AM_5
  3
*
  4
2
  5
INSERT
290
     0
  0
ACAMGFILTERDAT
  5
830
102
{ACAD_REACTORS
330
82D
102
}
330
82D
100
AcAmgFilterDat
 70
    15
  1
ACMFCFRAME,ACMDATUMTARGET,ACMDATUMID,ACMWELDSYM,ACMSURFSYM,ACMFEATID,ACMPARTREF,ACMBALLOON,AMDTEDGESYM,AMGSCREWCALCTABLE
  2
*
  3
*
  4
*
  5
*
290
     1
  0
LAYER_INDEX
  5
836
102
{ACAD_REACTORS
330
835
102
}
330
835
100
AcDbIndex
 40
2454293.729804884
100
AcDbLayerIndex
  8
0
360
837
 90
      105
  8
AM_VIS
360
838
 90
      747
  8
CENTER
360
839
 90
        1
  8
PHANTOM
360
83A
 90
        4
  8
10
360
83B
 90
       80
  8
DIMENSION
360
83C
 90
       11
  8
Defpoints
360
83D
 90
        0
  0
DICTIONARY
  5
13
330
12
100
AcDbDictionary
280
     1
281
     1
  3
ACAD_XREC_ROUNDTRIP
360
850
  3
ADSK_XREC_LAYOUTTHUMBNAIL
360
14
  0
DICTIONARY
  5
84E
330
B
100
AcDbDictionary
280
     1
281
     1
  3
ACAD_XREC_ROUNDTRIP
360
84F
  0
IDBUFFER
  5
837
330
0
100
AcDbIdBuffer
330
132
330
133
330
134
330
135
330
136
330
137
330
138
330
139
330
13A
330
13E
330
13F
330
140
330
141
330
142
330
143
330
144
330
145
330
2C9
330
2CA
330
2CB
330
2CC
330
2CD
330
2CE
330
2CF
330
2D0
330
2D1
330
2D2
330
2D3
330
2D4
330
2D5
330
2D6
330
2D7
330
2D8
330
2D9
330
2DA
330
2DB
330
2DC
330
2DD
330
2DE
330
2DF
330
2E0
330
2E1
330
2E2
330
2E3
330
2E4
330
2E5
330
2E6
330
2E7
330
2E8
330
2E9
330
2EA
330
2EB
330
2EC
330
2ED
330
2EE
330
2EF
330
2F0
330
2F
330
34
330
39
330
3E
330
43
330
48
330
4D
330
52
330
AE
330
AF
330
B0
330
B1
330
B2
330
B3
330
B4
330
B5
330
B6
330
C5
330
D3
330
E1
330
EF
330
FD
330
109
330
10A
330
10B
330
10C
330
10D
330
10E
330
10F
330
110
330
111
330
120
330
121
330
123
330
124
330
125
330
126
330
127
330
128
330
129
330
12A
330
12B
330
12C
330
12D
330
12E
330
12F
330
130
330
131
  0
IDBUFFER
  5
838
330
0
100
AcDbIdBuffer
330
35F
330
360
330
361
330
362
330
363
330
364
330
365
330
366
330
367
330
368
330
369
330
36A
330
36B
330
36C
330
36D
330
36E
330
36F
330
370
330
371
330
372
330
373
330
374
330
375
330
376
330
377
330
378
330
379
330
37A
330
37B
330
37C
330
37D
330
37E
330
37F
330
380
330
381
330
382
330
383
330
384
330
385
330
386
330
387
330
388
330
389
330
38A
330
38B
330
38C
330
38D
330
38E
330
38F
330
390
330
391
330
392
330
393
330
394
330
395
330
396
330
397
330
398
330
399
330
39A
330
39B
330
39C
330
39D
330
39E
330
39F
330
3A0
330
3A1
330
3A2
330
3A3
330
3A4
330
3A5
330
3A6
330
3A7
330
3A8
330
3A9
330
3AA
330
3AB
330
3AC
330
3AD
330
3AE
330
3AF
330
3B0
330
3B1
330
3B2
330
3B3
330
3B4
330
3B5
330
3B6
330
3B7
330
3B8
330
3B9
330
3BA
330
3BB
330
3BC
330
3BD
330
3BE
330
3BF
330
3C0
330
3C1
330
3C2
330
3C3
330
3C4
330
3C5
330
3C6
330
3C7
330
3C8
330
3C9
330
3CA
330
3CB
330
3CC
330
3CD
330
3CE
330
3CF
330
3D0
330
3D1
330
3D2
330
3D3
330
3D4
330
3D5
330
3D6
330
3D7
330
3D8
330
3D9
330
3DA
330
3DB
330
3DC
330
3DD
330
3DE
330
3DF
330
3E0
330
3E1
330
3E2
330
3E3
330
3E4
330
3E5
330
3E6
330
3E7
330
3E8
330
3E9
330
3EA
330
3EB
330
3EC
330
3ED
330
3EE
330
3EF
330
3F0
330
3F1
330
3F2
330
3F3
330
3F4
330
3F5
330
3F6
330
3F7
330
3F8
330
3F9
330
3FA
330
3FB
330
3FC
330
3FD
330
3FE
330
3FF
330
400
330
401
330
402
330
403
330
404
330
405
330
406
330
407
330
408
330
409
330
40A
330
40B
330
40C
330
40D
330
40E
330
40F
330
410
330
411
330
412
330
413
330
414
330
415
330
416
330
417
330
418
330
419
330
41A
330
41B
330
41C
330
41D
330
41E
330
41F
330
420
330
421
330
422
330
423
330
424
330
425
330
426
330
427
330
428
330
429
330
42A
330
42B
330
42C
330
42D
330
42E
330
42F
330
430
330
431
330
432
330
433
330
434
330
435
330
436
330
437
330
438
330
439
330
43A
330
43B
330
43C
330
43D
330
43E
330
43F
330
440
330
441
330
442
330
443
330
444
330
445
330
446
330
447
330
448
330
449
330
44A
330
44B
330
44C
330
44D
330
44E
330
44F
330
450
330
451
330
452
330
453
330
454
330
455
330
456
330
457
330
458
330
459
330
146
330
148
330
149
330
14A
330
14B
330
14C
330
14D
330
14E
330
14F
330
150
330
151
330
152
330
153
330
154
330
155
330
156
330
157
330
158
330
159
330
15A
330
15B
330
15C
330
15D
330
15E
330
15F
330
160
330
161
330
162
330
163
330
164
330
165
330
166
330
167
330
168
330
169
330
16A
330
16B
330
16C
330
16D
330
16E
330
16F
330
170
330
171
330
172
330
173
330
174
330
175
330
176
330
177
330
178
330
179
330
17A
330
17B
330
17C
330
17D
330
17E
330
17F
330
180
330
181
330
182
330
183
330
184
330
185
330
186
330
187
330
188
330
189
330
18A
330
18B
330
18C
330
18D
330
18E
330
18F
330
190
330
191
330
192
330
193
330
194
330
195
330
196
330
197
330
198
330
199
330
19A
330
19B
330
19C
330
19D
330
19E
330
19F
330
1A0
330
1A1
330
1A2
330
1A3
330
1A4
330
1A5
330
1A6
330
1A7
330
1A8
330
1A9
330
1AA
330
1AB
330
1AC
330
1AD
330
1AE
330
1AF
330
1B0
330
1B1
330
1B2
330
1B3
330
1B4
330
1B5
330
1B6
330
1B7
330
1B8
330
1B9
330
1BA
330
1BB
330
1BC
330
1BD
330
1BE
330
1BF
330
1C0
330
1C1
330
1C2
330
1C3
330
1C4
330
1C5
330
1C6
330
1C7
330
1C8
330
1C9
330
1CA
330
1CB
330
1CC
330
1CD
330
1CE
330
1CF
330
1D0
330
1D1
330
1D2
330
1D3
330
1D4
330
1D5
330
1D6
330
1D7
330
1D8
330
1D9
330
1DA
330
1DB
330
1DC
330
1DD
330
1DE
330
1DF
330
1E0
330
1E1
330
1E2
330
1E3
330
1E4
330
1E5
330
1E6
330
1E7
330
1E8
330
1E9
330
1EA
330
1EB
330
1EC
330
1ED
330
1EE
330
1EF
330
1F0
330
1F1
330
1F2
330
1F3
330
1F4
330
1F5
330
1F6
330
1F7
330
1F8
330
1F9
330
1FA
330
1FB
330
1FC
330
1FD
330
1FE
330
1FF
330
200
330
201
330
202
330
203
330
204
330
205
330
206
330
207
330
208
330
209
330
20A
330
20B
330
20C
330
20D
330
20E
330
20F
330
210
330
211
330
212
330
213
330
214
330
215
330
216
330
217
330
218
330
219
330
21A
330
21B
330
21C
330
21D
330
21E
330
21F
330
220
330
221
330
222
330
223
330
224
330
225
330
226
330
227
330
228
330
229
330
22A
330
22B
330
22C
330
22D
330
22E
330
22F
330
230
330
231
330
232
330
233
330
234
330
235
330
236
330
237
330
238
330
239
330
23A
330
23B
330
23C
330
23D
330
23E
330
23F
330
240
330
241
330
242
330
243
330
244
330
245
330
246
330
247
330
248
330
249
330
24A
330
24B
330
24C
330
24D
330
24E
330
24F
330
250
330
251
330
252
330
253
330
254
330
255
330
256
330
257
330
258
330
259
330
25A
330
25B
330
25C
330
25D
330
25E
330
25F
330
260
330
261
330
262
330
263
330
264
330
265
330
266
330
267
330
268
330
269
330
26A
330
26B
330
26C
330
26D
330
26E
330
26F
330
270
330
271
330
272
330
273
330
274
330
275
330
276
330
277
330
278
330
279
330
27A
330
27B
330
27C
330
27D
330
27E
330
27F
330
280
330
281
330
282
330
283
330
284
330
285
330
286
330
287
330
288
330
289
330
28A
330
28B
330
28C
330
28D
330
28E
330
28F
330
290
330
291
330
292
330
293
330
294
330
295
330
296
330
297
330
298
330
299
330
29A
330
29B
330
29C
330
29D
330
29E
330
29F
330
2A0
330
2A1
330
2A2
330
2A3
330
2A4
330
2A5
330
2A6
330
2A7
330
2A8
330
2A9
330
2AA
330
2AB
330
2AC
330
2AD
330
2AE
330
2AF
330
2B0
330
2B1
330
2B2
330
2B3
330
2B4
330
2B5
330
2B6
330
2B7
330
2B8
330
2B9
330
2BA
330
2BB
330
2BC
330
2BD
330
2BE
330
2BF
330
2C0
330
2C1
330
2C2
330
2C3
330
2C4
330
2C5
330
2C6
330
2C7
330
2C8
330
2F1
330
2F2
330
2F3
330
2F4
330
2F5
330
2F6
330
2F7
330
2F8
330
2F9
330
2FA
330
2FB
330
2FC
330
2FD
330
2FE
330
2FF
330
300
330
301
330
302
330
303
330
304
330
305
330
306
330
307
330
308
330
309
330
30A
330
30B
330
30C
330
30D
330
30E
330
30F
330
310
330
311
330
312
330
313
330
314
330
315
330
316
330
317
330
318
330
319
330
31A
330
31B
330
31C
330
31D
330
31E
330
31F
330
320
330
321
330
322
330
323
330
324
330
325
330
326
330
327
330
328
330
329
330
32A
330
32B
330
32C
330
32D
330
32E
330
32F
330
330
330
331
330
332
330
333
330
334
330
335
330
336
330
337
330
338
330
339
330
33A
330
33B
330
33C
330
33D
330
33E
330
33F
330
340
330
341
330
342
330
343
330
344
330
345
330
346
330
347
330
348
330
349
330
34A
330
34B
330
34C
330
34D
330
34E
330
34F
330
350
330
351
330
352
330
353
330
354
330
355
330
356
330
357
330
358
330
359
330
35A
330
35B
330
35C
330
35D
330
35E
  0
IDBUFFER
  5
839
330
0
100
AcDbIdBuffer
330
5A
  0
IDBUFFER
  5
83A
330
0
100
AcDbIdBuffer
330
57
330
5C
330
5D
330
5E
  0
IDBUFFER
  5
83B
330
0
100
AcDbIdBuffer
330
90
330
91
330
92
330
93
330
94
330
95
330
96
330
97
330
98
330
99
330
9A
330
9B
330
9C
330
9D
330
9E
330
9F
330
A0
330
A1
330
A2
330
A3
330
A4
330
A5
330
A6
330
A7
330
A8
330
A9
330
AA
330
AB
330
AC
330
AD
330
11E
330
11F
330
5F
330
61
330
62
330
63
330
64
330
65
330
66
330
67
330
68
330
69
330
6A
330
6B
330
6C
330
6D
330
6E
330
6F
330
70
330
71
330
72
330
73
330
74
330
75
330
76
330
77
330
78
330
79
330
7A
330
7B
330
7C
330
7D
330
7E
330
7F
330
80
330
81
330
82
330
83
330
84
330
85
330
86
330
87
330
88
330
89
330
8A
330
8B
330
8C
330
8D
330
8E
330
8F
  0
IDBUFFER
  5
83C
330
0
100
AcDbIdBuffer
330
112
330
114
330
115
330
116
330
117
330
118
330
119
330
11A
330
11B
330
11C
330
11D
  0
IDBUFFER
  5
83D
330
0
100
AcDbIdBuffer
  0
XRECORD
  5
850
102
{ACAD_REACTORS
330
13
102
}
330
13
100
AcDbXrecord
280
     1
102
SHADEPLOT
 70
     0
102
SHADEPLOTRESLEVEL
 70
     2
102
SHADEPLOTCUSTOMDPI
 70
   300
  0
XRECORD
  5
14
102
{ACAD_REACTORS
330
13
102
}
330
13
100
AcDbXrecord
280
     1
310
28000000B40000007400000001000800000000009051000000000000000000000001000000000000FFFFFF0000000000FFFFFF000000000000000000000000000000000000000000000000000000000000000000330000006600000099000000CC000000FF00000000330000333300006633000099330000CC330000FF3300
310
0000660000336600006666000099660000CC660000FF66000000990000339900006699000099990000CC990000FF99000000CC000033CC000066CC000099CC0000CCCC0000FFCC000000FF000033FF000066FF000099FF0000CCFF0000FFFF000000003300330033006600330099003300CC003300FF003300003333003333
310
33006633330099333300CC333300FF33330000663300336633006666330099663300CC663300FF66330000993300339933006699330099993300CC993300FF99330000CC330033CC330066CC330099CC3300CCCC3300FFCC330000FF330033FF330066FF330099FF3300CCFF3300FFFF330000006600330066006600660099
310
006600CC006600FF00660000336600333366006633660099336600CC336600FF33660000666600336666006666660099666600CC666600FF66660000996600339966006699660099996600CC996600FF99660000CC660033CC660066CC660099CC6600CCCC6600FFCC660000FF660033FF660066FF660099FF6600CCFF6600
310
FFFF660000009900330099006600990099009900CC009900FF00990000339900333399006633990099339900CC339900FF33990000669900336699006666990099669900CC669900FF66990000999900339999006699990099999900CC999900FF99990000CC990033CC990066CC990099CC9900CCCC9900FFCC990000FF99
310
0033FF990066FF990099FF9900CCFF9900FFFF99000000CC003300CC006600CC009900CC00CC00CC00FF00CC000033CC003333CC006633CC009933CC00CC33CC00FF33CC000066CC003366CC006666CC009966CC00CC66CC00FF66CC000099CC003399CC006699CC009999CC00CC99CC00FF99CC0000CCCC0033CCCC0066CC
310
CC0099CCCC00CCCCCC00FFCCCC0000FFCC0033FFCC0066FFCC0099FFCC00CCFFCC00FFFFCC000000FF003300FF006600FF009900FF00CC00FF00FF00FF000033FF003333FF006633FF009933FF00CC33FF00FF33FF000066FF003366FF006666FF009966FF00CC66FF00FF66FF000099FF003399FF006699FF009999FF00CC
310
99FF00FF99FF0000CCFF0033CCFF0066CCFF0099CCFF00CCCCFF00FFCCFF0000FFFF0033FFFF0066FFFF0099FFFF00CCFFFF00FFFFFF00000000000D0D0D001A1A1A00282828003535350043434300505050005D5D5D006B6B6B00787878008686860093939300A1A1A100AEAEAE00BBBBBB00C9C9C900D6D6D600E4E4E400
310
F1F1F100FFFFFF0000000000000000000000000000000000000000000000000000000000000000000000000000000000EFEFE2E2E2E2E2E2E2E2E2E2E2E2E2E2E2E2E2E2E2E2E2E2E2E2E2E2E2E2E2E2E2E2E2E2E2E2E2E2E2E2E2E2E2E2E2E2E2E2E2E2E2E2E2E2E2E2E2E2E2E2E2E2E2E2E2E2E2E2E2E2E2E2E2E2E2E2E2
310
E2E2E2E2E2E2E2E2E2E2E2E2E2E2E2E2E2E2E2E2E2E2E2E2E2E2E2E2E2E2E2E2E2E2E2E2E2E2E2E2E2E2E2E2E2E2E2E2E2E2E2E2E2E2E2E2E2E2E2E2E2E2E2E2E2E2E2E2E2E2E2E2E2E2E2E2E2E2E2E2E2E2E2E2E2E2E2E2E2E2E2E2E2E2E2E2E2E2E2E2EFE2E2E2E2E2E2E2E2E2E2E2E2E2E2E2E2E2E2E2E2E2E2E2E2E2E2
310
E2E2E2E2E2E2E2E2E2E2E2E2E2E2E2E2E2E2E2E2E2E2E2E2E2E2E2E2E2E2E2E2E2E2E2E2E2E2E2E2E2E2E2E2E2E2E2E2E2E2E2E2E2E2E2E2E2E2E2E2E2E2E2E2E2E2E2E2E2E2E2E2E2E2E2E2E2E2E2E2E2E2E2E2E2E2E2E2E2E2E2E2E2E2E2E2E2E2E2E2E2E2E2E2E2E2E2E2E2E2E2E2E2E2E2E2E2E2E2E2E2E2E2E2E2E2E2
310
E2E2E2E2E2E2E2E2E2E2E2E2E2E2E2E2E2E2E2E2E2E2E2E2E2E2EFE2F5BEBEBEF5F5F5F5F5F5F5F5F5F5F5F5F5F5F5F5F5F5F5F5F5F5F5F5F5F5F5F5F5F5F5F5F5F5F5F5F5F5F5F5F5F5F5F5F5F5F5F5F5F5F5F5F5F5F5F5F5F5F5F5F5F5F5F5F5F5F5F5F5F5F5F5F5F5F5F5F5F5F5F5F5F5F5F5F5F5F5F5F5F5F5F5F5F5F5
310
F5F5F5F5F5F5F5F5F5F5F5F5F5F5F5F5F5F5F5F5F5F5F5F5F5F5F5F5F5F5F5F5F5F5F5F5F5F5F5F5F5F5F5F5F5F5F5F5F5F5F5F5F5F5F5F5F5F5F5F5F5F5F5F5F5F5F5F5F5F5F5F5F5F5F5F5F5F5E2EFE2F5BEE2BEBEE2E2E2E2E2E2E2E2E2E2E2E2E2E2E2E2E2E2E2E2E2E2E2E2E2E2E2E2E2E2E2E2E2E2E2E2E2E2E2E2E2
310
E2E2E2E2E2E2E2E2E2E2E2E2E2E2E2E2E2E2E2E2E2E2E2E2E2E2E2E2E2E2E2E2E2E2E2E2E2E2E2E2E2E2E2E2E2E2E2E2E2E2E2E2E2E2E2E2E2E2E2E2E2E2E2E2E2E2E2E2E2E2E2E2E2E2E2E2E2E2E2E2E2E2E2E2E2E2E2E2E2E2E2E2E2E2E2E2E2E2E2E2E2E2E2E2E2E2E2E2E2E2E2E2E2E2E2E2E2E2E2E2E2E2E2E2E2E2E2
310
E2E2F5F5E2EFE2F5BEE2BEF5F5F5F5F5F5F5F5F5F5F5F5F5F5F5F5F5F5F5F5F5F5F5F5F5F5F5F5F5F5F5F5F5F5F5F5F5F5F5F5F5F5F5F5F5F5F5F5F5F5F5F5F5F5F5F5F5F5F5F5F5F5F5F5F5F5F5F5F5F5F5F5F5F5F5F5F5E2E2E2E2F5E2F5F5F5F5F5F5F5F5F5F5F5E2E2E2E2E2E2E2E2E2E2F5F5F5F5F5F5F5F5F5F5E2F5
310
E2E2E2E2F5E2F5E2E2F5E2F5F5F5E20FE2E2E2F5F5F5F5E2E2E2E2E2E2E2F5F5E2E2E2F5E2F5E2F5F5E2E2E2E2E2E2E2E2E2E2F5F5F5E2F5F5E2EFE2F5BEE2BEF5F5F5F5F5F5F5F5F5F5F5F5F5F5F5F5F5F5F5F5F5F5F5F5F5F5F5F5F5F5F5F5F5F5F5F5F5F5F5F5F5F5F5F5F5F5F5F5F5F5F5F5F5F5F5F5F5F5F5F5F5F5F5
310
F5F5F5F5F5F5F5F5F5F5F5F5F5F5E2E2E2E2E2E2F5F5F5F5F5F5F5F5F5F5F5E2E2E2E2E2E2E2E2E2E2F5F5F5F5F5F5F5F5F5F5E2F5E2E2E2E2F5E2F5E2E2E2E2E2E2E2E2E2E2E2E2E2E2E2E2E2E2E2E2E2E2E2E2E2E2E2E2E2E2E2E2E2E2E2E2E2E2E2E2E2E2E2E2F5F5F5E2F5F5E2EFE2F5F5E2F5F5F5F5F5F5F5F5F5F5F5
310
F5F5F5F5F5F5F5F5F5F5F5F5F5F5F5F5F5F5F5F5F5F5F5F5F5F5F5F5F5F5F5F5F5F5F5F5F5F5F5F5F5F5F5F5F5F5F5F5F5F5F5F5F5F5F5F5F5F5F5F5F5F5F5F5F5F5F5E2E2E2E2E2E2E2E2E2E2E2E2E2E2E2E2E2E2E2E2E2E2E2E2E2E2E2E2E2E2E2E2E2E2E2E2E2E2E2E2E2E2E2E2E2E2E2E2E2E2E2E2E2E2E2E2E2E2E2E2
310
E2F5E2E2E2E2E2E2E2E2E2E2E2E2E2E2E2E2E2E2E2E2E2E2E2E2E2E2E2E2E2E2E2E2F5F5E2EFE2F5F5E2F5F5F5F5F5F5F5F5F5F5F5F5F5F5F5F5F5F5F5F5F5F5F5F5F5F5F5F5F5F5F5F5F5F5F5F5F5F5F5F5F5F5F5F5F5F5F5F5F5F5F5F5F5F5F5F5F5F5F5F5F5F5F5F5F5F5F5F5F5F5F5F5F5F5F5F5F5F5E2E2E2E2E2E2F5
310
F5F5F5F5F5F5F5F5F5E2E2E2E2E2E2E2E2E2E2E2E2F5F5F5F5F5F5F5F5F5E2F5E2E2E2E2F5E2F5E2E2E2E2F5E2E2E2E2E2E2E2E2E2F5F5E2F5F5F5F5F5F5F5F5F5F5F5F5F5F5F5F5F5F5F5F5F5F5F5F5F5F5F5F5F5F5E2F5F5E2EFE2F5E2E2E2E2E2E2E2E2F5F5F5F5F5F5F5F5F5E2E2E2E2E2E2E2E2E2E2E2E2E2E2E2E2F5
310
F5F5F5F5F5F5F5F5E2E2E2E2E2E2E2E2E2E2E2E2E2E2E2E2F5F5F5F5F5F5F5F5F5E2E2E2E2E2E2E2E2E2E2E2E2E2E2E2E2E2E2E2E2E2E2E2E2E2E2E2E2E2E2E2E2E2E2E2E2E2E2E2E2E2E2E2E2E2E2E2E2E2E2E2E2E2E2E2E2E2E2E2E2E2E2E20FE2E2E2E2E2E2E2E2E2E2F5E2E2E2E2E2E2E2E2E2E2E2E2E2E2E2E2F5F5F5
310
F5F5F5F5F5F5E2E2E2E2E2E2E2E2F5E2EFE2F5E2E2F5F5F5F5F5F5F5F5F5F5F5F5F5F5F5F5F5F5F5F5F5F5F5F5F5F5F5F5F5F5F5F5F5F5F5F5F5F5F5F5F5F5F5F5F5F5F5F5F5F5F5F5F5F5F5F5F5F5F5F5F5F5F5F5F5F5F5F5F5F5F5F5F5F5F5F5F5F5E2E2E2E2E2E2F5F5F5F5F5F5F5F5F5F5E2E2E2E2E2E2E2E2E2E2E2E2
310
F5F5F5F5F5F5F5F5F5E2F5E2E2E2E2F5E2F5E2E2E2E2E2E2E2E2E2E2E2E2E2E2E2E2E2E2E2E2E2E2E2E2E2E2E2F5F5F5F5F5F5F5F5F5F5F5F5F5F5F5F5F5F5F5F5E2E2F5E2EFE2F5E2E2F5F5F5F5F5F5F5F5F5F5F5F5F5F5F5F5F5F5F5F5F5F5F5F5F5F5F5F5F5F5F5F5F5F5F5F5F5F5F5F5F5F5F5F5F5F5F5F5F5F5F5F5F5
310
F5F5F5F5F5F5F5F5F5F5F5F5F5F5F5F5F5F5F5F5F5F5F5F5F5E2E2E2E2E2E2E2E2E2E2E2E2E2E2E2E2E2E2E2E2E2E2E2E2E2E2E2E2E2E2E2E2E2E2E2E2E2E2E2E2E2E2E2E2E2E2E2E2E2E2F5F5F5F5F5F5F5F5F5F5F5F5E2E2E2E2E2E2E2E2E2E2E2E2E2E2E2E2E2E2E2E2E2E2E2E2E2E2E2E2E2F5F5E2E2F5E2EFE2F5E2E2
310
F5F5F5F5F5F5F5F5F5F5F5F5F5F5F5F5F5F5F5F5F5F5F5F5F5F5F5F5F5F5F5F5F5F5F5F5F5F5F5F5F5F5F5F5F5F5F5F5F5F5F5F5F5F5F5F5F5F5F5F5F5F5F5F5F5F5F5F5F5F5F5F5F5F5F5F5F5F5E2E2E2E2E2E2F5F5F5F5F5F5F5F5F5F5E2E2E2E2E2E2E2E2E2E2E2E2F5F5F5F5F5F5F5F5F5E2F5E2E2E2E2F5E2F5E2E2E2
310
E2E2E2E2E2E2E2E2E2E2E2E2E2E2F5F5F5E2F5F5F5F5F5F5F5F5F5F5F5F5F5F5F5F5F5F5F5F5F5F5F5F5F5F5E2E2F5E2EFE2F5E2E2F5F5F5F5F5F5F5F5F5F5F5F5F5F5F5F5F5F5F5F5F5F5F5F5F5F5F5F5F5F5F5F5F5F5F5F5F5F5F5F5F5F5F5F5F5F5F5F5F5F5F5F5F5F5F5F5F5F5F5F5F5F5F5F5F5F5F5F5F5F5F5F5F5F5
310
F5F5F5F5E2E2E2E2E2E2E2E2E2E2E2E2E2E2E2E2E2E2E2E2E2E2E2E2E2E2E2E2E2E2E2E2E2E2E2E2E2E2E2E2E2E2E2E2E2E2E2E2E2E2F5F5E2E2E2E2E2E2E2E2F5F5E2E2E2E2E2F5F5F5F5F5F5F5F5F5F5F5F5F5F5F5F5F5F5F5F5F5F5F5F5F5F5E2E2F5E2EFE2F5E2E2F5F5F5F5F5F5F5F5F5F5F5F5F5F5F5F5F5F5F5F5E2
310
E2E2F5F5F5F5F5F5F5F5F5F5F5F5F5F5F5F5F5F5F5F5F5F5F5F5F5F5F5F5F5F5F5F5F5F5F5F5F5F5F5F5F5F5F5F5F5F5F5F5F5F5F5F5F5F5F5E2E2E2E2E2E2F5F5F5F5F5F5F5F5F5F5E2E2E2E2E2E2E2E2E2E2E2E2F5F5F5F5F5F5F5F5F5E2F5E2E2E2E2F5E2F5E2E2E2E2F5F5F5F5F5F5F5F5F5F5F5F5E2E2E2E2E2E2E2E2
310
E2E2E2E2E2E2E2E2E2E2E2E2E2E2E2E2E2E2E2E2E2E2E2E2E2F5E2EFE2F5E2E2F5F5F5F5F5F5F5F5F5F5F5F5F5F5F5F5F5E2E2E2E2E2E2E2F5F5F5F5F5F5F5F5F5F5F5F5F5F5F5F5F5F5F5F5F5F5E2E2E2E2E2E2E2E2E2E2E2E2E2E2E2E2E2E2E2F5F5F5F5F5F5F5F5F5F5F5F5F5E2E2E2E2E2E2E2E2E2E2E2E2E2E2E2E2E2
310
E2E2E2E2E2E2E2E2E2E2E2E2E2E2E2E2E2E2E2E2E2E2E2E2E2E2E2E2E2E2E2E2E2F5F5E2E2E2E2E2E2E2E2F5F5E2F5F5E2E2E2E2E2E2E2E2E2E2E2E2E2E2E2E2E2E2E2E2E2E2E2E2E2F5F5F5E2E2F5E2EFE2F5E2E2F5F5F5F5F5F5F5F5F5F5F5F5F5F5F5F5F5E2E2F5F5F5E2E2E2F5F5F5F5F5F5F5E2E2F5F5F5F5F5F5F5F5
310
F5F5F5E2F5F5F5E2E2E2E2E2E2E2E2E2E2E2E2E2E2E2E2F5F5F5F5F5F5F5F5F5F5F5F5F5E2E2E2E2E2E2F5F5F5F5F5F5F5F5F5F5E2E2E2E2E2E2E2E2E2E2E2E2F5F5F5F5F5F5F5F5F5E2F5E2E2E2E2F5E2F5E2E2E2E2F5F5F5E2E2E2E2E2E2F5F5F5E2F5F5E20000000000000000000000000000000000000000000000E2F5
310
F5F5E2E2F5E2EFE2F5E2E2F5F5F5F5F5F5F5F5F5F5F5F5F5F5F5F5E2E2F5F5F5F5E2E2E2E2E2F5F5F5E2E2F5E2E2E2F5F5F5F5F5F5F5F5F5E2F5F5F5F5F5F5F5F5F5F5F5F5F5F5F5F5F5F5F5F5F5F5F5F5F5F5F5F5F5F5F5F5E2E2E2E2E2E2E2E2E2E2E2E2E2E2E2E2E2E2E2E2E2E2E2E2E2E2E2E2E2E2E2E2E2E2E2E2E2E2
310
E2E2E2E2E2E2E2E2E2E2E2E2F5F5F5E2E2E2E2E2E2F5F5F5E2F5F5E23EBCDBF2F30000EEE7000000E7E9010000DA00E601F301E2F5F5F5E2E2F5E2EFE2F5F5E2F5F5F5F5F5F5F5F5F5F5F5F5F5F5F5F5E2F5F5F5F5F5E2E2F5E2E2E2E2E2F5F5F5E2F5F5E2F5F5F5F5F5F5F5E2F5F5F5F5F5F5F5F5F5F5F5F5F5F5F5F5F5F5
310
F5F5F5F5F5F5F5F5F5F5F5F5F5F5F5E2E2E2E2E2E2F5F5F5F5F5F5F5F5F5F5E2E2E2E2E2E2E2E2E2E2E2E2F5F5F5F5F5F5F5F5F5E2F5E2E2E2E2F5E2F5E2E2E2E2F5F5F5E2E2E2E2E2F5F5F5F5E2F5F5E23D68003D4400E90101E400E701E4E9010101E9E701E9F0E2F5F5F5E2F5F5E2EFE2F5F5E2F5F5F5F5F5F5F5F5F5F5
310
F5F5F5F5F5E2E2F5F5F5F5F5E2E2F5F5F5E2E2E2E2F5F5E2F5F5E2E2E2F5F5F5F5F5E2F5F5F5F5F5F5F5F5F5F5F5F5F5F5F5F5F5F5F5F5F5F5F5F5F5F5F5F5F5F5F5F5F5E2E2E2E2E2E2F5F5F5F5F5F5F5F5F5F5E2E2E2E2E2E2E2E2E2E2E2E2F5F5F5F5F5F5F5F5F5E2F5E2E2E2E2F5E2F5E2E2E2E2F5F5F5F5F5F5F5F5F5
310
F5F5F5E2F5F5E20000003E3D0000000000000000000000000000EC000000E2F5F5F5E2F5F5E2EFE2F5F5E2F5F5F5F5F5F5F5F5F5F5F5F5F5F5F5E2F5F5F5F5F5F5E2E2E2E2F5E2F5E2E2E2F5E2F5F5E2F5F5E2E2F5F5E2F5F5F5F5F5F5F5F5F5F5F5F5F5F5F5F5F5F5F5F5F5F5F5F5F5F5F5F5F5F5F5F5F5F5E2E2E2E2E2E2
310
E2E2E2E2E2E2E2E2E2E2E2E2E2E2E2E2E2E2E2E2E2E2E2E2E2E2E2E2E2E2E2E2E2E2E2E2E2E2E2E2E2E2E2E2F5F5F5E2E2E2E2E2E2F5F5F5E2F5F5E2E2E2E2E2E2E2E2E2E2E2E2E2E2E2E2E2E2E2E2E2E2E2E2E2F5F5F5E2F5F5E2EFE2F5F5E2F5F5F5F5F5F5F5F5F5F5F5F5F5F5F5E2F5F5F5F5F5E2E2E2E2E2E2E2F5E2F5
310
E2E2E2F5F5E2F5F5F5F5E2E2E2F5F5F5F5F5F5F5F5F5F5F5F5F5F5F5F5F5F5F5F5F5F5F5F5F5F5F5F5F5F5F5F5F5F5F5F5F5F5F5F5F5F5F5F5F5F5F5F5F5F5F5F5F5F5F5F5F5F5F5F5F5F5F5F5F5F5F5F5F5F5F5F5F5F5F5F5F5F5F5F5F5F5F5E2E2E2E2E2E2E2E2E2E2E2E2E2E2E2E2E2E2E2E2E2E2E2E2E2E2E2E2E2E2E2
310
E2E2E2E2E2E2E2E2E2E2E2E2E2E2F5F5E2EFE2F5F5E2F5F5F5E2E2E2E2E2E2F5F5F5F5F5F5E2F5F5F5F5E2E2F5F5F5E2E2E2E2E2E2E2E2E2F5F5E2F5F5F5F5F5E2E2E2F5F5F5F5F5F5F5F5F5F5F5F5F5F5F5F5F5F5F5F5F5F5F5F5F5F5F5F5F5F5F5F5F5F5F5F5F5F5F5F5F5F5F5F5F5F5F5F5F5F5F5F5F5F5F5F5F5F5F5F5
310
F5F5F5F5F5F5F5F5F5F5F5F5F5F5F5F5F5F5F5F5F5F5F5F5F5F5F5F5F5F5F5F5F5F5F5F5F5F5F5F5F5F5F5F5F5F5F5F5F5F5F5F5F5F5F5F5F5F5F5F5F5F5F5F5F5F5E2F5F5E2EFE2F5F5E2F5F5F5E2E2E2E2E2E2E2E2E2E2E2E2E2E2E2F5E2E2E2F5F5F5F5E2F5E2E2E2E2E2E2F5F5E2F5F5F5F5F5E2F5E2E2F5F5F5F5F5F5
310
F5F5F5F5F5F5F5F5F5F5F5F5F5F5F5F5F5F5F5F5F5F5F5F5F5F5F5F5F5F5F5F5F5F5F5F5F5F5F5F5F5F5F5F5F5F5F5F5F5F5F5F5F5F5F5F5F5F5F5F5F5F5F5F5F5F5F5F5F5F5F5F5F5F5F5F5F5F5F5F5F5F5F5F5F5F5F5F5F5F5F5F5F5F5F5F5F5F5F5F5F5F5F5F5F5F5F5F5F5F5F5F5F5F5F5F5F5F5F5E2F5F5E2EFE2F5F5
310
E2F5F5F5E2E2E2E2E2E2F5F5F5F5F5F5E2E2E2E2E2E2E2E2E2F5E2F5F5E2E2E2E2F5E2F5F5E2F5F5F5F5E2F5F5E2F5E2F5F5F5F5F5F5F5F5F5F5F5F5F5F5F5F5F5F5F5F5F5F5F5F5E2E2E2E2E2E2F5E2E2E2E2E2E2F5E2E2E2E2E2E2E2E2E2E2F5E2E2E2E2E2E2F5F5F5F5F5F5F5F5F5F5F5F5F5F5F5F5F5F5F5F5F5F5F5F5
310
F5F5F5F5F5F5F5F5F5F5F5F5F5F5F5F5F5F5F5F5F5F5F5F5F5F5F5F5F5F5F5F5F5F5F5F5F5F5F5F5F5F5F5F5F5E2F5F5E2EFE2F5F5E2F5F5F5F5F5F5F5F5F5F5F5F5F5F5F5F5E2E2E2F5F5E2E2E2E2E2F5F5E2E2E2E2F5E2F5F5E2F5F5F5F5E2F5F5E2F5E2E2E2F5F5F5F5F5F5F5F5F5F5F5F5F5F5F5F5F5F5F5F5F5F5E2E2
310
E2E2E2E2F5E2E2E2E2E2E2F5E2F5E2E2E2E2E2E2E2E2F5E2E2E2E2E2E2F5F5F5F5F5F5F5F5F5F5F5F5F5F5F5F5F5F5F5F5F5F5F5F5F5F5F5F5F5F5F5F5F5F5F5F5F5F5F5F5F5F5F5F5F5F5F5F5F5F5F5F5F5F5F5F5F5F5F5F5F5F5F5F5F5F5F5F5F5E2F5F5E2EFE2F5F5E2F5F5F5F5F5F5F5F5F5F5F5F5F5F5F5F5F5E2E2E2
310
F5F5F5E2E2F5E2E2E2E2E2F5F5E2F5F5E2F5F5F5E2F5F5F5E2F5E2F5E2F5F5F5F5F5F5F5F5F5F5F5F5F5F5F5F5F5F5F5F5F5E2E2E2E2E2E2E2E2E2F5E2E2E2E2E2E2E2E2E2E2E2E2E2E2E2E2E2E2E2E2E2E2E2E2E2F5F5F5F5F5F5F5F5F5F5F5F5F5F5F5F5F5F5F5F5F5F5F5F5F5F5F5F5F5F5F5F5F5F5F5F5F5F5F5F5F5F5
310
F5F5F5F5F5F5F5F5F5F5F5F5F5F5F5F5F5F5F5F5F5F5F5F5E2F5F5E2EFE2F5E2E2F5F5F5F5F5F5F5F5F5F5F5F5F5F5F5F5F5F5F5E2E2E2E2E2F5E2E2F5E2E2E2F5F5E2E2E2E2F5F5F5E2E2F5F5E2F5E2F5E2F5F5F5F5F5F5F5F5F5F5F5F5F5F5F5F5F5F5F5F5E2E2E2E2E2E2E2E2E2E2F5E2E2E2E2E2F5E2E2E2E2E2E2E2E2
310
E2E2F5E2E2E2E2E2E2E2E2E2F5F5F5F5F5F5F5F5F5F5F5F5F5F5F5F5F5F5F5F5F5F5F5F5F5F5F5F5F5F5F5F5F5F5F5F5F5F5F5F5F5F5F5F5F5F5F5F5F5F5F5F5F5F5F5F5F5F5F5F5F5F5F5F5F5E2E2F5E2EFE2F5E2E2F5F5F5F5F5F5F5F5F5F5F5F5F5F5F5F5F5F5F5F5F5F5E2E2E2E2E2E2E2E2F5E2E2F5E2E2E2F5F5F5E2
310
F5F5F5E2F5E2F5E2F5F5F5F5F5F5F5F5F5F5F5F5F5F5F5F5F5F5F5F5F5F5F5E2F5F5F5F5F5F5F5F5F5F5F5F5F5F5F5F5F5F5F5F5F5F5F5F5F5F5F5F5F5F5F5F5F5F5F5F5F5F5F5F5F5F5F5F5F5F5F5F5F5F5F5F5F5F5F5F5F5F5F5F5F5F5F5F5F5F5F5F5F5F5F5F5F5F5F5F5F5F5F5F5F5F5F5F5F5F5F5F5F5F5F5F5F5F5F5
310
F5F5F5E2E2F5E2EFE2F5E2E2F5F5F5F5F5F5F5F5F5F5F5F5F5F5F5F5F5F5F5F5F5F5E2E2F5F5E2E2E2E2E2F5F5F5F5F5E2E2E2F5F5F5F5F5E2F5E2F5E2F5F5F5F5F5F5F5F5F5F5F5F5F5F5F5F5F5F5F5F5F5F5E2F5E2E2F5F5F5F5F5F5F5F5F5F5F5F5F5F5F5F5F5F5F5F5F5F5F5F5F5F5F5F5E2F5F5F5F5F5F5F5F5F5F5F5
310
F5F5F5F5F5F5F5F5F5F5F5F5F5F5F5F5F5F5F5F5F5F5F5F5F5F5F5F5F5F5F5F5F5F5F5F5F5F5F5F5F5F5F5F5F5F5F5F5F5F5F5F5F5F5F5F5E2E2F5E2EFE2F5E2E2F5F5F5F5F5F5F5F5F5F5F5F5F5F5F5F5F5F5F5F5F5F5E2F5E2E2E2E2E2F5F5F5F5F5E2E2F5E2E2E2F5F5F5F5E2F5E2F5E2F5F5F5F5F5F5F5F5F5F5F5F5F5
310
F5F5F5F5F5F5F5F5F5E2F5E2E2E2F5F5F5F5F5F5F5F5F5F5F5F5F5F5F5F5F5F5F5F5F5F5F5F5F5F5F5E2F5F5F5F5F5F5F5F5F5F5F5F5F5F5F5F5F5F5F5F5F5F5F5F5F5F5F5F5F5F5F5F5F5F5F5F5F5F5F5F5F5F5F5F5F5F5F5F5F5F5F5F5F5F5F5F5F5F5F5F5F5F5F5F5F5F5F5E2E2F5E2EFE2F5E2E2F5F5F5F5F5F5F5F5F5
310
F5F5F5F5F5F5F5F5F5F5F5F5F5E2F5F5E2E2F5F5F5F5F5E2E2E2F5F5F5F5E2E2E2F5F5E2F5E2F5E2F5F5F5F5F5F5F5F5F5F5F5F5F5F5F5F5F5F5F5F5F5F5E2E2F5E2E2F5F5F5F5F5F5F5F5F5F5F5F5F5F5F5F5F5F5F5F5F5F5F5F5F5F5F5E2E2F5F5F5F5F5F5F5F5F5F5F5F5F5F5F5F5F5F5F5F5F5F5F5F5F5F5F5F5F5F5F5
310
F5F5F5F5F5F5F5F5F5F5F5F5F5F5F5F5F5F5F5F5F5F5F5F5F5F5F5F5F5F5F5F5F5F5F5E2E2F5E2EFE2F5E2E2F5F5F5F5F5F5F5F5F5F5F5F5F5F5F5F5F5F5F5F5F5F5E2E2E2F5F5F5F5F5E2E2E2E2F5E2E2F5F5F5F5E2E2E2E2F5F5E2E2F5F5F5F5F5F5F5F5F5F5F5F5F5F5F5F5F5F5F5F5F5F5E2E2E2E2E2E2F5F5F5F5F5F5
310
F5F5F5F5F5F5F5F5F5F5F5F5F5F5F5F5F5F5F5F5E2E2F5F5F5F5F5F5F5F5F5F5F5F5F5F5F5F5F5F5F5E2E2E2F5F5F5F5F5F5E2E2E2F5F5F5F5F5F5F5F5F5F5F5F5F5F5F5F5F5F5F5F5F5F5F5F5F5F5F5F5F5F5F5F5F5F5F5E2E2F5E2EFE2F5E2E2F5F5F5F5F5F5F5F5F5F5F5F5F5F5F5F5F5F5F5F5F5F5E2F5F5F5F5F5E2E2
310
E2E2F5E2E2E2E2E2E2E2F5F5F5E2E2F5F5F5E2F5F5F5F5F5F5F5F5F5F5F5F5F5F5F5F5F5F5F5F5F5F5E2E2E2E2F5E2F5F5F5F5F5F5F5F5F5F5F5F5F5F5F5F5F5F5F5F5F5F5F5F5F5F5E2E2F5F5F5F5F5F5F5F5F5F5F5F5F5F5F5F5F5F5E2E2F5F5F5F5F5F5F5F5F5E2E2E2F5F5F5F5F5F5F5F5F5F5F5F5F5F5F5F5F5F5F5F5
310
F5F5F5F5F5F5F5F5F5F5F5F5F5F5E2E2F5E2EFE2F5E2E2F5F5F5F5F5F5F5F5F5F5F5F5F5F5F5F5F5F5F5F5F5F5F5E2E2F5E2E2F5E2F5E2E2E2E2E2E2E2E2E2E2F5E2F5F5E2E2E2E2F5F5F5F5F5F5F5F5F5F5F5F5F5F5F5F5F5F5F5F5F5F5E2F5E2E2E2F5F5F5F5F5F5F5F5F5F5F5F5F5F5F5F5F5F5F5F5F5F5F5F5F5F5F5E2
310
E2F5F5F5F5F5F5F5F5F5F5F5F5F5F5F5F5F5E2E2F5F5F5F5F5F5F5F5F5F5F5E2E2E2E2F5F5F5F5F5F5F5F5F5F5F5F5F5F5F5F5F5F5F5F5F5F5F5F5F5F5F5F5F5F5F5F5E2E2F5E2EFE2F5E2E2F5F5F5F5F5F5F5F5F5F5F5F5F5F5F5F5F5F5F5F5F5F5F5F5F5E2F5F5F5F5E2E2E2E2E2E2E2E2E2F5F5E2F5F5E2E2E2E2E2F5F5
310
F5F5F5F5F5F5F5F5F5F5F5F5F5F5F5F5F5F5F5F5F5E2E2F5E2F5F5F5F5F5F5F5F5F5F5F5F5F5F5F5F5F5F5F5F5F5F5F5F5F5F5F5F5F5F5F5F5F5F5F5F5F5F5F5F5F5F5F5F5F5E2E2F5F5F5F5F5F5F5F5F5F5F5F5F5F5E2E2F5F5F5F5F5F5F5F5F5F5F5F5F5F5F5F5F5F5F5F5F5F5F5F5F5F5F5F5F5F5F5F5E2E2F5E2EFE2F5
310
E2E2F5F5F5F5F5F5F5F5F5F5F5F5F5F5F5F5F5F5F5F5F5F5F5F5F5F5E2E2F5F5F5F5E2E2E2E2E2F5F5E2E2F5F5E2F5E2F5E2E2F5F5F5F5F5F5F5F5F5F5F5F5F5F5F5F5F5F5F5F5F5F5E2F5E2E2E2F5F5F5F5F5F5F5F5F5F5F5F5F5F5F5F5F5F5F5F5F5F5F5F5F5F5E2E2F5F5F5F5F5F5F5F5F5F5F5F5F5F5F5F5F5E2F5F5F5
310
F5F5E2E2E2E2E2E2F5F5F5F5F5F5E2F5F5F5E2E2E2E2E2E2E2E2E2E2E2E2E2E2F5E2E2E2F5F5F5F5F5F5F5F5F5F5E2E2F5E2EFE2F5E2E2F5F5F5F5F5F5F5F5F5F5F5F5F5F5F5F5F5F5F5F5F5F5F5F5F5F5F5F5E2E2F5F5F5E2E2E2F5E2E2F5F5E2E2E2E2E2F5E2F5F5F5F5F5F5F5F5F5F5F5F5F5F5F5F5F5F5F5F5F5F5F5E2
310
F5E2E2E2E2F5F5F5F5F5F5F5F5F5F5F5F5F5F5F5F5F5F5F5F5F5F5F5F5F5F5E2F5F5F5F5F5F5F5F5F5F5F5F5F5F5F5F5E2E2F5F5F5F5F5E2E2E2E2E2E2F5F5F5F5F5F5E2F5F5F5E2E2E2E2E2E2E2E2E2E2E2E2E2E2F5E2E2E2F5F5F5F5F5F5F5F5F5F5E2E2F5E2EFE2F5E2E2F5F5F5F5F5F5F5F5F5F5F5F5F5F5F5F5F5F5F5
310
F5F5F5F5F5F5F5F5F5F5F5E2E2F5E2F5E2E2F5F5E2E2E2F5E2F5F5E2F5F5F5F5F5F5F5F5F5F5F5F5F5F5F5F5F5F5F5F5F5F5F5E2E2E2E2E2E2E2E2E2E2E2E2E2E2E2E2E2E2E2E2E2E2E2E2E2E2E2E2E2E2E2E2E2E2E2E2E2E2F5F5F5F5F5F5F5F5F5F5F5F5E2F5F5E2E2E2E2E2E2E2E2E2E2E2E2E2E2F5F5F5E2F5F5F5E2E2
310
E2E2E2E2E2E2E2E2E2E2E2E2E2E2E2E2E2F5F5F5F5F5F5F5F5E2E2F5E2EFE2F5E2E2F5F5F5F5F5F5F5F5F5F5F5F5F5F5F5F5F5F5F5F5F5F5F5F5F5F5F5F5F5F5F5F5E2E2E2F5F5E2E2E2F5E2E2E2F5F5E2F5F5F5F5F5F5F5F5F5F5F5F5F5F5F5F5F5F5F5F5F5F5F5F5E2E2E2E2E2E2E2F5E2E2E2E2E2E2E2E2E2E2E2F5F5F5
310
F5F5F5F5F5F5F5F5F5E2E2E2E2E2E2E2E2E2E2F5F5F5F5F5F5F5F5E2F5F5E2E2E2E2E2E2E2E2E2E2E2E2E2E2F5F5F5E2F5F5F5E2E2E2E2E2E2E2E2E2E2E2E2E2E2E2E2E2E2E2F5F5F5F5F5F5F5F5E2E2F5E2EFE2F5E2E2F5F5F5F5F5F5F5F5F5F5F5F5F5F5F5F5F5F5F5F5F5F5F5F5F5F5F5F5F5F5F5F5F5E2E2F5E2E2E2E2
310
F5F5F5F5F5E2F5F5F5F5F5F5F5F5F5F5F5F5F5F5F5F5F5F5F5F5F5F5F5F5F5E2E2E2E2E2E2F5E2E2E2E2E2E2E2E2E2E2E2E2F5F5F5F5F5F5F5F5F5F5F5F5E2E2E2E2E2E2E2E2E2E2F5F5F5F5F5F5F5E2F5F5E2E2E2E2E2E2E2E2E2E2E2E2E2E2E2E2F5F5E2F5F5F5F5F5F5F5F5F5F5F5F5F5F5F5F5F5F5F5F5F5F5F5F5F5F5
310
F5F5F5F5E2E2F5E2EFE2F5E2E2F5F5F5F5F5F5F5F5F5F5F5F5F5F5F5F5F5F5F5F5F5F5F5F5F5F5F5F5F5F5F5F5E2F5F5E2E2F5E2E2F5F5F5F5F5E2F5F5F5F5F5F5F5F5F5F5F5F5F5F5F5F5F5F5F5F5F5F5F5F5F5F5F5F5F5F5F5F5F5F5F5F5F5F5F5F5F5F5F5F5F5F5F5F5F5F5F5F5F5F5F5F5F5F5F5F5F5F5F5F5F5F5F5F5
310
F5F5F5F5F5E2F5F5E2E2E2E2E2E2E2E2E2E2E2E2E2E2E2E2F5F5E2F5F5F5F5F5F5F5F5F5F5F5F5F5F5F5F5F5F5F5F5F5F5F5F5F5F5F5F5F5F5E2E2F5E2EFE2F5E2E2F5F5F5F5F5F5F5F5F5F5F5F5F5F5F5F5F5F5F5F5F5F5F5F5F5F5F5F5F5F5F5F5E2F5F5F5E2E2E2F5F5F5F5F5E2F5F5F5F5F5F5F5F5F5F5F5F5F5F5F5F5
310
F5F5F5F5F5F5F5F5F5F5E2E2E2E2E2E2E2F5E2F5F5E2E2E2E2E2E2E2E2E2E2E2E2E2E2E2E2E2E2E2E2F5F5F5F5F5F5F5F5F5F5F5F5F5F5F5F5F5E2F5F5F5F5E2E2E2E2E2E2E2E2E2E2E2E2F5F5F5F5E2F5F5F5F5F5F5F5F5F5F5F5F5F5F5F5F5F5F5F5F5F5F5F5F5F5F5F5F5F5F5E2E2F5E2EFE2F5F5E2F5F5F5F5F5F5F5F5
310
F5F5F5F5F5F5F5F5F5F5F5F5F5F5F5F5F5F5F5F5F5F5F5F5E2F5F5F5F5F5F5F5F5F5F5F5E2F5F5F5F5F5F5F5F5F5F5F5F5F5F5F5F5F5F5F5F5F5F5F5F5F5F5E2E2E2E2E2E2E2E2E2E2F5E2E2E2E2E2E2E2E2E2E2E2E2E2E2E2E2E2E2E2E2F5F5F5F5F5F5F5F5F5F5F5F5F5F5F5F5F5E2E2F5F5F5E2E2E2E2E2E2E2E2E2E2E2
310
E2F5F5F5F5E2F5F5E2E2E2E2E2E2E2E2E2E2E2E2E2E2E2E2E2F5F5F5F5F5F5F5F5F5F5F5E2F5F5E2EFE2F5F5E2F5F5F5F5F5F5F5F5F5F5F5F5F5F5F5F5F5F5F5F5F5F5F5F5F5F5F5F5F5F5F5E2F5F5F5F5F5F5F5F5F5F5F5E2F5F5F5F5F5F5F5F5F5F5F5F5F5F5F5F5F5F5F5F5F5F5F5F5F5F5F5F5F5F5F5F5F5F5F5F5F5F5
310
F5F5F5F5F5F5F5F5F5F5F5F5F5F5F5F5F5F5F5F5F5F5F5F5F5F5F5F5F5F5F5F5F5F5F5F5F5F5E2F5F5F5F5F5F5F5F5F5F5F5F5F5F5F5F5F5F5F5E2F5F5E2E2E2E2E2E2E2E2E2E2E2E2E2E2E2E2E2F5F5F5F5F5F5F5F5F5F5F5E2F5F5E2EFE2F5F5E2F5F5F5F5F5F5F5F5F5F5F5F5F5F5F5F5F5F5F5F5F5F5F5F5F5F5F5F5F5
310
F5F5E2F5F5F5F5F5F5F5F5F5F5F5E2F5F5F5F5F5F5F5F5F5F5F5F5F5F5F5F5F5F5F5F5F5F5F5F5F5F5F5F5F5F5F5F5F5F5F5F5F5F5F5F5F5F5F5F5F5F5F5F5F5F5F5F5F5F5F5F5F5F5F5F5F5F5F5F5F5F5F5F5F5F5F5F5F5F5F5F5E2F5E2E2E2E2E2E2E2E2E2E2E2E2E2E2E2E2E2E2E2F5F5E2E2E2E2E2E2E2E2E2E2E2E2E2
310
E2E2E2E2E2E2E2E2F5F5F5F5F5F5F5E2F5F5E2EFE2F5F5E2F5F5F5F5F5F5F5F5F5F5F5F5F5F5F5F5E2E2E2E2E2E2E2E2E2F5F5F5F5F5E2F5F5F5F5F5F5F5F5F5F5F5F5F5E2E2F5F5F5F5F5F5F5F5F5F5F5F5F5F5F5F5F5F5F5F5F5F5F5F5F5F5F5F5F5F5F5F5F5F5F5F5F5F5F5F5F5F5F5F5F5F5F5F5F5F5F5F5F5F5F5F5F5
310
F5F5F5F5F5F5F5F5F5F5F5F5F5F5F5F5F5F5E2E2E2E2E2E2E2E2E2E2E2E2E2E2E2E2E2E2E2F5F5F5E2E2E2E2E2E2E2E2E2E2E2E2E2E2E2E2E2E2E2E2E2F5F5F5F5F5F5F5E2F5F5E2EFE2F5F5E2F5F5F5F5F5F5F5F5F5F5F5F5F5F5F5F5E2E2E2E2E2E2E2E2E2E2E2E2E2E2E2F5F5F5F5F5F5F5F5F5F5F5F5F5F5F5E2E2F5F5
310
F5E2E2E2E2E2E2E2E2E2F5E2E2E2E2E2E2E2F5F5F5F5F5F5F5F5F5F5F5F5F5F5F5F5F5F5F5F5F5F5F5F5F5F5F5F5F5F5F5F5F5F5F5F5F5F5F5F5F5F5F5F5F5F5F5F5F5F5F5F5F5E2F5F5F5F5F5F5F5F5F5F5F5F5F5F5F5F5E2E2F5F5F5F5F5F5F5F5F5F5F5F5F5F5F5F5F5F5F5F5F5F5F5F5F5F5F5F5F5F5F5E2F5F5E2EFE2
310
F5F5E2F5F5F5F5F5F5F5F5F5F5F5F5F5F5F5F5F5F5F5F5F5F5F5F5F5F5F5F5F5F5F5F5F5F5F5F5F5F5F5F5F5F5F5F5F5F5F5F5E2E2E2E2E2E2E2E2E2E2E2F5F5E2E2E2E2E2E2E2F5F5F5F5F5F5F5F5F5F5F5F5F5F5F5F5F5F5F5F5F5F5F5F5F5F5F5F5F5F5F5F5F5F5F5F5F5F5F5F5F5F5F5F5F5F5F5F5F5F5F5F5F5F5E2F5
310
F5F5F5F5F5F5F5F5F5F5F5F5F5E2E2F5F5F5F5F5F5F5F5F5F5F5F5F5F5F5F5F5F5F5F5F5F5F5F5F5F5F5F5F5F5F5F5E2F5F5E2EFE2F5F5E2F5F5F5F5F5F5F5F5F5F5F5F5F5F5F5F5F5F5F5F5F5F5F5F5F5F5F5F5F5F5F5F5F5F5F5F5F5F5F5F5F5F5F5F5F5F5F5F5F5F5F5F5F5F5F5F5F5F5F5F5F5F5F5F5F5F5F5F5F5F5F5
310
F5F5F5F5F5F5F5F5F5F5F5F5F5F5F5F5F5F5F5F5F5F5F5F5F5F5F5F5F5F5F5F5F5F5F5F5F5F5F5F5F5F5F5F5F5F5F5F5F5F5F5F5E2F5F5F5F5F5F5F5F5F5F5F5F5E2E2F5F5F5F5F5F5E2E2E2E2E2E2E2E2E2E2E2E2E2E2E2E2F5F5F5F5F5F5F5F5F5F5F5E2F5F5E2EFE2F5F5E2F5F5F5F5F5F5F5F5F5F5F5F5F5F5F5F5F5F5
310
F5F5F5F5F5F5F5F5F5F5F5F5F5F5F5F5F5F5F5F5F5F5F5F5F5F5F5F5F5F5F5F5F5F5F5F5F5F5F5F5F5F5F5F5F5F5F5F5F5F5F5F5F5F5F5F5F5F5F5F5F5F5F5F5F5F5F5F5F5F5F5F5F5F5F5F5F5F5F5F5F5F5F5F5F5F5F5F5F5F5F5F5F5F5F5F5F5F5F5F5F5F5F5F5F5F5E2F5F5F5F5F5F5F5F5F5F5E2E2F5F5F5F5F5F5F5E2
310
E2E2E2E2E2E2E2E2E2E2E2E2E2E2E2F5F5F5F5F5F5F5F5F5F5F5E2F5F5E2EFE2F5F5E2F5F5F5F5F5F5F5F5F5F5F5F5F5F5F5F5F5F5F5F5F5F5F5F5F5F5F5F5F5F5F5F5F5F5F5F5F5F5F5F5F5F5F5F5F5F5F5F5F5F5F5F5F5F5F5F5F5F5F5F5F5F5F5F5F5F5F5F5F5F5F5F5F5F5F5F5F5F5F5F5F5F5F5F5F5F5F5F5F5F5F5F5
310
F5F5F5F5F5F5F5F5F5F5F5F5F5F5F5F5F5F5F5F5F5F5F5F5F5F5F5F5F5F5F5F5F5E2E2E2F5F5F5F5F5E2E2E2F5F5F5F5F5F5F5F5F5F5F5F5F5F5F5F5F5F5F5F5F5F5F5F5F5F5F5F5F5F5F5F5F5F5F5E2F5F5E2EFE2F5E2E2F5F5F5F5F5F5F5F5F5F5F5F5F5F5F5F5F5F5F5F5F5F5F5F5F5F5F5F5F5F5F5F5F5F5F5F5F5F5F5
310
F5F5F5F5F5F5F5F5F5F5F5F5F5F5F5F5F5F5F5F5F5F5F5F5F5F5F5F5F5F5F5F5F5F5F5F5F5F5F5F5F5F5F5F5F5F5F5F5F5F5F5F5F5F5F5F5F5F5F5F5F5F5F5F5F5F5F5F5F5F5F5F5F5F5F5F5F5F5F5F5F5F5F5F5F5F5F5F5F5E2E2E2E2E2F5F5F5F5F5F5F5F5F5F5F5F5F5F5F5F5F5F5F5F5F5F5F5F5F5F5F5F5F5F5F5F5F5
310
F5F5F5F5F5E2E2F5E2EFE2F5E2E2F5F5F5F5F5F5F5F5F5F5F5F5F5F5F5F5F5F5F5F5F5F5F5F5F5F5F5F5F5F5F5F5F5F5F5F5F5F5F5F5F5F5F5F5F5F5F5F5F5F5F5F5F5F5F5F5F5F5F5F5F5F5F5F5F5F5F5F5F5F5F5F5F5F5F5F5F5F5F5F5F5F5F5F5F5F5F5F5F5F5F5F5F5F5F5F5F5F5F5F5F5F5F5F5F5F5F5F5F5F5F5F5F5
310
F5F5F5F5F5F5F5F5F5F5F5F5F5F5F5F5F5F5F5F5F5F5F5F5F5F5F5F5F5F5F5F5F5F5F5F5F5F5F5F5F5F5F5F5F5F5F5F5F5F5E2E2E2F5F5F5F5F5E2E2F5E2EFE2F5E2E2F5F5F5F5F5F5F5F5F5F5F5F5F5F5F5F5F5F5F5F5F5F5F5F5F5F5F5F5F5F5F5F5F5F5F5F5F5F5F5F5F5F5F5F5F5F5F5F5F5F5F5F5F5F5F5F5F5F5F5F5
310
F5F5F5F5F5F5F5F5F5F5F5F5F5F5F5F5F5F5F5F5F5F5F5F5F5F5F5F5F5F5F5F5F5F5F5F5F5F5F5F5F5F5F5F5F5F5F5F5F5F5F5F5F5F5F5F5F5F5F5F5F5F5F5F5E2E2E2F5F5F5F5F5F5F5F5F5F5F5F5F5F5F5F5F5F5F5F5F5F5F5F5F5F5F5F5F5F5F5F5F5F5F5F5E2E2E2F5F5F5F5F5E2E2F5E2EFE2F5E2E2F5F5F5F5F5F5F5
310
F5F5F5F5F5F5F5F5F5F5F5F5F5F5F5F5F5F5F5F5F5F5F5F5F5F5F5F5F5F5F5F5F5F5F5F5F5F5F5F5F5F5F5F5F5F5F5F5F5F5F5F5F5F5F5F5F5F5F5F5F5F5F5F5F5F5F5F5F5F5F5F5F5F5F5F5F5F5F5F5F5F5F5F5F5F5F5F5F5F5F5F5F5F5F5F5F5F5F5F5F5F5F5F5F5F5F5F5F5F5F5F5F5F5F5F5F5E2E2E2F5F5F5F5F5F5F5
310
F5F5F5F5F5F5F5F5F5F5F5F5F5F5F5F5F5F5F5F5F5F5F5F5F5E2F5F5F5E2E2E2F5F5F5F5F5E2E2F5E2EFE2F5E2E2F5F5F5F5F5F5F5F5F5F5F5F5F5F5F5F5F5F5F5F5F5F5F5F5F5F5F5F5F5F5F5F5F5F5F5F5F5F5F5F5F5F5F5F5F5F5F5F5F5F5F5F5F5F5F5F5F5F5F5F5F5F5F5F5F5F5F5F5F5F5F5F5F5F5F5F5F5F5F5F5F5
310
F5F5F5F5F5F5F5F5F5F5F5F5F5F5F5F5F5F5F5F5F5F5F5F5F5F5F5F5F5F5F5F5F5F5F5F5F5F5F5F5F5F5F5E2E2E2F5F5F5E2F5F5E2F5E2F5F5E2F5E2F5F5E2F5F5E2F5E2F5F5E2F5E2F5F5E2E2E2E2E2E2E2E2E2E2F5F5F5F5F5E2E2F5E2EFE2F5E2E2F5F5F5F5F5F5F5F5F5F5F5F5F5F5F5F5F5F5F5F5F5F5F5F5F5F5F5F5
310
F5F5F5F5F5F5F5F5F5F5F5F5F5F5F5F5F5F5F5F5F5F5F5F5F5F5F5F5F5F5F5F5F5F5F5F5F5F5F5F5F5F5F5F5F5F5F5F5F5F5F5F5F5F5F5F5F5F5F5F5F5F5F5F5F5F5F5F5F5F5F5F5F5F5F5F5F5F5F5F5F5F5F5F5F5F5F5F5F5F5F5F5F5F5F5F5F5F5F5F5F5F5E2F5F5E2F5E2F5F5E2F5E2F5F5E2F5F5E2F5E2F5F5E2F5E2F5
310
F5E2F5F5E2F5F5F5F5F5F5F5F5F5F5F5E2E2F5E2EFE2F5E2E2F5F5F5F5F5F5F5F5F5F5F5F5F5F5F5F5F5F5F5F5F5F5F5F5F5F5F5F5F5F5F5F5F5F5F5F5F5F5F5F5F5F5F5F5F5F5F5F5F5F5F5F5F5F5F5F5F5F5F5F5F5F5F5F5F5F5F5F5F5F5F5F5F5F5F5F5F5F5F5F5F5F5F5F5F5F5F5F5F5F5F5F5F5F5F5F5F5F5F5F5F5F5
310
F5F5F5F5F5F5F5F5F5F5F5F5F5F5F5F5F5F5F5F5F5F5F5E2F5F5F5F5E2F5E2E2F5E2E2F5E2F5E2E2F5E2F5E2E2F5E2E2F5E2F5E2E2F5E2F5E2E2F5F5F5F5E2F5F5F5F5F5F5E2E2F5E2EFE2F5E2E2F5F5F5F5F5F5F5F5F5F5F5F5F5F5F5F5F5F5F5F5F5F5F5F5F5F5F5F5F5F5F5F5F5F5F5F5F5F5F5F5F5F5F5F5F5F5F5F5F5
310
F5F5F5F5F5F5F5F5F5F5F5F5F5F5F5F5F5F5F5F5F5F5F5F5F5F5F5F5F5F5F5F5F5F5F5F5F5F5F5F5F5F5F5F5F5F5F5F5F5F5F5F5F5F5F5F5F5F5F5F5F5F5F5F5F5F5F5F5F5F5F5F5F5F5F5E2E2E2E2F5E2E2F5E2E2E2F5E2E2E2E2F5E2E2E2F5E2E2E2F5E2E2E2E2F5E2E2E2F5E2E2F5E2E2E2E2E2F5F5F5F5F5E2E2F5E2EF
310
E2F5E2E2F5F5F5F5F5F5F5F5F5F5F5F5F5F5F5F5F5F5F5F5F5F5F5F5F5F5F5F5F5F5F5F5F5F5F5F5F5F5F5F5F5F5F5F5F5F5F5F5F5F5F5F5F5F5F5F5F5F5F5F5F5F5F5F5F5F5F5F5F5F5F5F5F5F5F5F5F5F5F5F5F5F5F5E2E2E2F5F5F5F5F5F5F5F5F5F5F5F5F5F5F5F5F5F5F5F5F5F5F5F5F5F5F5F5F5F5F5F5F5F5F5F5F5
310
F5E2E2E2F5E2E2F5E2E2F5E2F5E2E2F5E2F5E2E2F5E2E2F5E2F5E2E2F5E2F5E2E2F5E2E2F5E2E2F5E2E2E2F5F5F5F5F5E2E2F5E2EFE2F5E2E2F5F5F5F5F5F5F5F5F5F5F5F5F5F5F5F5F5F5F5F5F5F5F5F5F5F5F5F5F5F5F5F5F5F5F5F5F5F5F5F5F5F5F5F5F5F5F5F5F5F5F5F5F5F5F5F5F5F5F5F5F5F5F5F5F5F5F5F5F5F5
310
F5F5F5F5F5F5F5F5F5F5F5F5E2E2E2E2E2E2E2E2E2E2E2E2E2F5F5F5F5F5F5F5F5F5F5F5F5F5F5F5F5F5F5F5F5F5F5F5F5F5F5F5F5F5E2E2E2F5E2E2F5E2F5F5E2F5F5E2F5E2F5F5E2F5E2F5F5E2F5F5E2F5E2F5F5E2F5E2F5F5E2F5F5E2E2E2F5F5F5F5F5E2E2F5E2EFE2F5E2E2F5F5F5F5F5F5F5F5F5F5F5F5F5F5F5F5F5
310
F5F5F5F5F5F5F5F5F5F5F5F5F5F5F5F5F5F5F5F5F5F5F5F5F5F5F5F5F5F5F5F5F5F5F5F5F5F5F5F5F5F5F5F5F5F5F5F5F5F5F5F5F5F5F5F5F5F5F5F5E2F5E2F5F5E2E2E2E2E2E2E2E2E2E2E2E2E2F5F5F5F5F5F5F5F5F5F5F5F5F5F5F5F5F5F5F5F5F5F5F5F5F5F5F5F5F5E2E2E2F5F5E2F5E2F5F5E2F5F5E2F5E2F5F5E2F5
310
E2F5F5E2F5F5E2F5E2F5F5E2F5E2F5F5E2F5F5E2E2E2F5F5F5F5F5E2E2F5E2EFE2F5E2E2F5F5F5F5F5F5F5F5F5F5F5F5F5F5F5F5F5F5F5F5F5F5F5F5F5F5F5F5F5F5F5F5F5F5F5F5F5F5F5F5F5F5F5F5F5F5F5F5F5F5F5F5F5F5F5F5F5F5F5F5F5F5F5F5F5F5F5F5F5F5F5F5F5F5E2E2E2E2F5E2E2E2F5E2E2F5F5E2E2E2E2
310
E2E2E2F5F5F5F5F5F5F5F5F5F5F5F5F5F5F5F5F5F5F5F5F5F5F5F5F5F5F5F5F5F5E2E2E2F5F5F5F5F5F5F5F5F5F5F5F5F5F5F5F5F5F5F5F5F5F5F5F5F5F5F5F5F5F5F5F5F5E2F5F5F5F5F5F5F5F5F5F5E2E2F5E2EFE2F5E2E2F5F5F5F5F5F5F5F5F5F5F5F5F5F5F5F5F5F5F5F5F5F5F5F5F5F5F5F5F5F5F5F5F5F5F5F5F5F5
310
F5F5F5F5F5F5F5F5F5F5F5F5F5F5F5F5F5F5F5F5F5F5F5F5F5F5F5F5F5F5F5F5F5F5F5F5F5F5F5F0F0F0F5F5F5E2E2E2E2E2E2F5E2E2E2E2F5F5F5F5F5F5F5F5F5F5F5F5F5F5F5F5F5F5F5F5F5F5F5F5F5F5F5F5F5F5F5F5F5F5F5F5F5F5F5F5F5F5F5F5F5F5F5F5F5F5F5F5F5F5F5F5F5F5F5F5F5F5F5F5F5F5E2F5F5F5F5
310
F5F5F5F5F5F5E2E2F5E2EFE2F5E2E2F5F5F5F5F5F5F5F5F5F5F5F5F5F5F5F5F5F5F5F5F5F5F5F5F5F5F5F5F5F5F5F5F5F5F5F5F5F5F5F5F5F5F5F5F5F5F5F5F5F5F5F5F5F5F5F5F5F5F5F5F5F5F5F5F5F5F5F5F5F5F5F5F5F5F5F5F5F0F0F0F5F5F5E2E2E2E2E2E2F5E2E2E2E2F5F5F5F5F5F5F5F5F5F5F5F5F5F5F5F5F5F5
310
F5F5F5F5F5F5F5F5F5F5F5F5F5F5F5F5F5F5F5F5F5F5F5F5F5F5F5F5F5F5F5F5F5F5F5F5F5F5F5F5F5F5F5F5F5F5F5F5E2F5F5F5F5F5F5F5F5F5F5E2E2F5E2EFE2F5E2E2F5F5F5F5F5F5F5F5F5F5F5F5F5F5F5F5F5F5F5F5F5F5F5F5F5F5F5F5F5F5F5F5F5F5F5F5F5F5F5F5F5F5F5F5F5F5F5F5F5F5F5F5F5F5F5F5F5F5F5
310
F5F5F5F5F5F5F5F5F5F5F5F5F5F5F5F5F5F5F0F0F0F5F5F5E2E2E2E2E2E2F5E2E2E2E2F5F5F5F5F5F5F5F5F5F5F5F5F5F5F5F5F5F5F5F5F5F5F5F5F5F5F5F5F5F5F5F5F5F5F5F5F5F5F5F5F5F5F5F5F5F5F5F5F5F5F5F5F5F5F5F5F5F5F5F5F5F5F5F5F5E2E2E2F5F5F5F5F5F5F5F5F5E2E2F5E2EFE2F5E2E2F5F5F5F5F5F5
310
F5F5F5F5F5F5F5F5F5F5F5F5F5F5F5F5F5F5F5F5F5F5F5F5F5F5F5F5F5F5F5F5F5F5F5F5F5F5F5F5F5F5F5F5F5F5F5F5F5F5F5F5F5F5F5F5F5F5F5F5F5F5F5F5F5F5F5F5F5F5F5F0F0F0F5F5F5F5F5F5F5F5F5F5F5F5F5F5F5F5F5F5F5F5F5F5F5F5F5F5F5F5F5F5F5F5F5F5F5F5F5F5F5F5F5F5F5F5F5F5F5F5F5F5F5F5F5
310
F5F5F5F5F5F5F5F5F5F5F5F5F5F5F5F5F5F5F5F5F5F5F5F5F5F5E2E2E2F5F5F5F5F5F5F5F5F5E2E2F5E2EFE2F5F5E2F5F5F5F5F5F5F5F5F5F5F5F5F5F5F5F5F5F5F5F5F5F5F5F5F5F5F5F5F5F5F5F5F5F5F5F5F5F5F5F5F5F5F5F5F5F5F5F5F5F5F5F5F5F5F5F5F5F5F5F5F5F5F5F5F5F5F5F5F5F5F5F5F5F5F5F5F5F0F0F0
310
F5F5F5F5F5F5F5F5F5F5F5F5F5F5F5F5F5F5F5F5F5F5F5F5F5F5F5F5F5F5F5F5F5F5F5F5F5F5F5F5F5F5F5F5F5F5F5F5F5F5F5F5F5F5F5F5F5F5F5F5F5F5F5F5F5F5F5F5F5F5F5F5F5F5F5F5F5F5F5E2E2E2F5F5F5F5F5F5F5F5F5E2F5F5E2EFE2F5F5E2F5F5F5F5F5F5F5F5F5F5F5F5F5F5F5F5F5F5F5F5F5F5F5F5F5F5F5
310
F5F5F5F5F5F5F5F5F5F5F5F5F5F5F5F5F5F5E2E2F5F5F5F5F5F5F5F5F5F5F5F5F5F5F5F5F5F5F5F5F5F5F5F5F5F5F5F5F5F5F0F0F0F5F5F5F5F5F5F5F5F5F5F5F5F5F5F5F5F5F5F5F5F5F5F5F5F5F5F5F5F5F5F5F5F5F5F5F5F5F5F5F5F5F5F5F5F5F5F5F5F5F5F5F5F5F5F5F5F5F5F5F5F5F5F5F5F5F5F5F5F5F5F5F5F5F5
310
F5F5F5F5F5E2E2E2F5F5F5F5F5F5F5F5F5E2F5F5E2EFE2F5F5E2F5F5F5F5F5F5F5F5F5F5F5F5F5F5F5F5F5F5F5F5F5F5F5F5F5F5F5F5F5F5F5F5F5F5F5F5F5F5F5F5F5F5F5E2E2E2E2F5F5F5F5F5F5F5F5F5F5F5F5F5F5F5F5F5F5F5F5F5F5F5F5F5F5F5F5F5F5F0F0F0F5F5F5F5F5F5F5F5F5F5F5F5F5F5F5F5F5F5F5F5F5
310
F5F5F5F5F5F5F5F5F5F5F5F5F5F5F5F5F5F5F5F5F5F5F5F5F5F5F5F5F5F5F5F5F5F5F5F5F5F5F5F5F5F5F5F5F5F5F5F5F5F5F5F5F5F5F5F5F5F5F5F5F5F5F5F5F5F5F5F5F5F5E2F5F5E2EFE2F5F5E2F5F5F5F5F5F5F5F5F5F5F5F5F5F5F5F5F5F5F5F5F5F5F5F5F5F5F5F5F5F5F5F5F5F5F5F5F5F5F5F5E2E2E2E2E2E2E2F5
310
F5F5F5F5F5F5F5F5F5F5F5F5F5F5F5F5F5F5F5F5F5F5F5F5F5F5F5F5F5F0F0F0F5F5F5F5F5F5F5F5F5F5F5F5F5F5F5F5F5F5F5F5F5F5F5F5F5F5F5F5F5F5F5F5F5F5F5F5F5F5F5F5F5F5F5F5F5F5F5F5F5F5F5F5F5F5F5F5F5F5F5F5F5F5F5F5F5F5F5F5F5F5F5F5F5F5F5F5F5F5F5F5F5F5F5F5F5F5F5F5F5F5F5E2F5F5E2
310
EFE2F5F5E2F5F5F5F5F5F5F5F5F5F5F5F5F5F5F5F5F5F5F5F5F5F5F5F5F5F5F5F5F5F5F5F5F5F5F5F5F5F5F5E2F5F5F5F5E2E2E2F5F5F5F5F5F5F5F5F5F5F5F5F5F5F5F5F5F5F5F5F5F5F5F5F5F5F5F5F5F5F0F0F0F5F5F5F5F5F5F5F5F5F5F5F5F5F5F5F5F5F5F5F5F5F5F5F5F5F5F5F5F5F5F5F5F5F5F5F5F5F5F5F5F5F5
310
F5F5F5F5F5F5F5F5F5F5F5F5F5F5F5F5F5F5F5F5F5F5F5F5F5F5F5F5F5F5F5F5F5F5F5F5F5F5F5F5F5F5F5F5F5F5F5F5F5E2F5F5E2EFE2F5F5E2F5F5F5F5F5F5F5F5F5F5F5F5F5F5F5E2E2E2E2E2E2E2E2E2E2E2E2E2E2E2E2E2E2E2E2E2E2E2E2E2F5F5F5F5F5F5F5F5F5F5F5F5F5F5F5F5F5F5F5F5F5F5F5F5F5F5F5F5E2
310
E2E2E2E2E2F5F5F5F0F0F0E2E2E2E2E2E2E2E2E2E2E2E2E2E2E2E2E2E2E2E2E2E2E2F5F5F5F5F5F5F5F5F5F5F5F5F5F5F5F5F5F5F5F5F5F5F5F5F5F5F5F5F5F5F5F5F5E2E2E2E2E2E2E2E2E2E2E2E2E2E2E2E2E2F5F5F5F5F5F5F5F5F5F5F5F5F5F5F5F5F5F5E2F5F5E2EFE2F5F5E2F5F5F5F5F5F5F5F5F5F5F5F5F5F5F5F5
310
E2F5F5F5F5F5F5E2F5F5F5F5E2E2E2E2E2E2E2F5E2F5F5E2F5F5F5F5F5F5F5F5F5F5F5F5F5F5F5F5F5F5F5F5F5F5F5F5F5F5F5F5E2E2E2E2E2E2E2E2E2F0F0F0E2F5F5F5F5E2F5F5F5F5F5F5F5F5F5F5E2F5F5E2F5F5E2F5F5F5F5F5F5F5F5F5F5F5F5F5F5F5F5F5F5F5F5F5F5F5F5F5F5F5F5F5F5F5F5F5E2E2E2E2F5F5F5
310
F5F5F5F5F5F5F5F5F5E2F5F5F5F5F5F5F5F5F5F5F5F5F5F5F5F5F5F5E2F5F5E2EFE2F5F5E2F5F5F5F5F5F5F5F5F5F5F5F5F5F5F5F5E2F5F5F5F5F5F5E2F5F5F5E2E2E2F5F5F5E2E2E2F5F5F5E2F5F5F5F5F5F5F5F5F5F5F5F5F5F5F5F5F5F5F5F5F5F5F5F5F5F5F5F5E2F5F5F5F5E2E2F5F5F0F0F0E2F5F5F5F5E2F5F5F5F5
310
F5F5F5F5F5F5E2F5F5E2F5F5E2F5F5F5F5F5F5F5F5F5F5F5F5F5F5F5F5F5F5F5F5F5F5F5F5F5F5F5F5F5F5F5F5F5E2E2E2E2F5F5F5F5F5F5F5F5F5F5F5F5E2F5F5F5F5F5F5F5F5F5F5F5F5F5F5F5F5F5F5E2F5F5E2EFE2F5F5E2F5F5F5F5F5F5F5F5F5F5F5F5F5F5F5F5E2F5F5F5F5F5F5E2F5F5E2E2F5F5F5F5F5F5F5E2E2
310
F5F5E2F5F5F5F5F5F5F5F5F5F5F5F5F5F5F5F5F5F5F5F5F5F5F5F5F5F5F5F5E2F5F5F5F5E2E2F5F5E2E2E2E2F5F5F5F5E2F5F5F5F5F5F5F5F5F5F5E2F5F5E2F5F5E2F5F5F5F5F5F5F5F5F5F5F5F5F5F5F5F5F5F5F5F5F5F5F5F5F5F5F5F5F5F5F5F5F5E2E2E2F5F5F5F5F5F5F5F5F5F5F5F5F5E2F5F5F5F5F5F5F5F5F5F5F5
310
F5F5F5F5F5F5F5E2F5F5E2EFE2F5E2E2F5F5F5F5F5F5F5F5F5F5F5F5F5F5F5F5E2F5F5F5F5F5F5E2F5E2E2E2F5F5F5F5F5F5F5F5E2E2F5E2F5F5F5F5F5F5F5F5F5F5F5F5F5F5F5F5F5F5F5F5F5F5F5F5F5F5F5F5E2E2E2E2E2E2E2F5F5E2E2E2E2F5F5F5F5E2F5F5F5F5F5F5F5F5F5F5E2F5F5E2F5F5E2F5F5F5F5F5F5F5F5
310
F5F5F5F5F5F5F5F5F5F5F5F5F5F5F5F5F5F5F5F5F5F5F5F5F5E2F5F5F5F5F5F5F5F5F5F5F5F5F5F5F5E2F5F5F5F5F5F5F5F5F5F5F5F5F5F5F5F5F5F5E2E2F5E2EFE2F5E2E2F5F5F5F5F5F5F5F5F5F5F5F5F5F5F5F5E2F5F5F5F5F5F5E2F5E2E2F5F5F5F5E2F5F5F5F5E2E2F5E2F5F5F5F5F5F5F5F5F5F5F5F5F5F5F5F5F5F5
310
F5F5F5F5F5F5F5F5F5F5E2E2E2E2E2E2E2F5F5E2E2E2E2F5F5F5F5E2F5F5F5F5F5F5F5F5F5F5E2F5F5E2F5F5E2F5F5F5F5F5F5F5F5F5F5F5F5F5F5F5F5F5F5F5F5F5F5F5F5F5F5F5F5F5F5F5F5F5E2F5E2E2F5F5E2E2F5F5F5F5F5F5F5F5E2F5F5F5F5F5F5F5F5F5F5F5F5F5F5F5F5F5F5E2E2F5E2EFE2F5E2E2F5F5F5F5F5
310
F5F5F5F5F5F5F5F5F5F5F5E2E2F5F5F5F5F5E2F5E2E2F5F5F5E2E2E2F5F5F5E2E2F5E2F5F5F5F5F5F5F5F5F5F5F5F5F5F5F5F5F5F5F5F5F5F5F5F5F5F5F5F5E2F5F5F5F5E2E2F5F5E2E2E2E2F5F5F5F5E2F5F5F5F5F5F5F5F5F5F5E2F5F5E2F5F5E2F5F5F5F5F5F5F5F5F5F5F5F5F5F5F5F5F5F5F5F5F5F5F5F5F5F5F5F5F5
310
F5F5F5F5E2F5E2E2F5F5E2E2F5F5E2E2F5F5F5F5E2F5F5F5F5F5F5F5F5F5F5F5F5F5F5F5F5F5F5E2E2F5E2EFE2F5E2E2F5F5F5F5F5F5F5F5F5F5F5F5F5F5F5E2E2E2F5F5F5F5F5E2F5E2E2F5F5F5F5E2F5F5F5F5E2E2F5E2F5F5F5F5F5F5F5F5F5F5F5F5F5F5F5F5F5F5F5F5F5F5F5F5F5F5F5F5E2F5F5F5F5E2E2F5F5E2E2
310
E2E2F5F5F5F5E2F5F5F5F5F5F5F5F5F5F5E2F5F5E2F5F5E2F5F5F5F5F5F5F5F5F5F5F5F5F5F5F5F5F5F5F5F5F5F5F5F5F5F5F5F5F5F5F5F5F5E2F5E2E2F5F5E2E2F5F5E2E2F5F5F5F5E2F5F5F5F5F5F5F5F5F5F5F5F5F5F5F5F5F5F5E2E2F5E2EFE2F5E2E2F5F5F5F5F5F5F5F5F5F5F5F5F5F5E2E2E2E2F5F5F5F5F5E2F5E2
310
E2F5F5F5F5F5F5F5F5F5E2E2F5E2F5F5F5F5F5F5F5F5F5F5F5F5F5F5F5F5F5F5F5F5F5F5F5F5F5F5F5F5E2E2E2E2E2E2E2F5F5E2E2E2E2F5F5F5F5E2F5F5F5F5F5F5F5F5F5F5E2F5F5E2F5F5E2F5F5F5F5F5F5F5F5F5F5F5F5F5F5F5F5F5F5F5F5F5F5F5F5F5F5F5F5F5F5F5F5F5E2F5E2E2F5F5E2E2F5F5E2E2F5F5F5F5E2
310
F5F5F5F5F5F5F5F5F5F5F5F5F5F5F5F5F5F5E2E2F5E2EFE2F5E2E2F5F5F5F5F5F5F5F5F5F5F5F5F5F5F5E2E2E2F5F5F5F5F5E2F5E2E2E2F5F5F5F5F5F5F5E2E2F5F5E2F5F5F5F5F5F5F5F5F5F5F5F5F5F5F5F5F5F5F5F5F5F5F5F5F5F5F5F5E2E2E2E2E2E2E2F5F5E2E2E2E2F5F5F5F5E2F5F5F5F5F5F5F5F5F5F5E2F5F5E2
310
E2E2E2F5F5F5F5F5F5F5F5F5F5F5F5F5F5F5F5F5F5F5F5F5F5F5F5F5F5F5F5F5F5F5F5F5E2E2E2E2E2E2E2E2E2E2E2E2E2E2F5F5E2F5F5F5F5F5F5F5F5F5F5F5F5F5F5F5F5F5F5E2E2F5E2EFE2F5E2E2F5F5F5F5F5F5F5F5F5F5F5F5F5F5F5F5E2F5F5F5F5F5F5E2F5F5E2E2E2F5F5F5F5F5F5E2E2F5F5E2F5F5F5F5F5F5F5
310
F5F5F5F5F5F5F5F5F5F5F5F5F5F5F5F5F5F5F5F5F5E2F5F5F5F5E2E2F5F5E2E2E2E2F5F5F5F5E2F5F5F5F5F5F5F5F5F5F5E2F5F5F5F5F5E2F5F5F5F5F5F5F5F5F5F5F5F5F5F5F5F5F5F5F5F5F5F5F5F5F5F5F5F5F5F5F5F5F5E2E2E2E2E2E2E2E2E2E2E2E2E2E2E2E2E2F5F5F5F5F5F5F5F5F5F5F5F5F5F5F5F5F5F5E2E2F5
310
E2EFE2F5E2E2F5F5F5F5F5F5F5F5F5F5F5F5F5F5F5F5E2F5F5F5F5F5F5E2F5F5F5E2E2E2E2E2E2E2E2E2F5F5F5E2F5F5F5F5F5F5F5F5F5F5F5F5F5F5F5F5F5F5F5F5F5F5F5F5F5F5F5E2E2E2E2E2E2E2E2F5F5F0F0F0E2F5F5F5F5E2F5F5F5F5F5F5F5F5F5F5E2F5F5F5F5F5E2F5F5F5F5F5F5F5F5F5F5F5F5F5F5F5F5F5F5
310
F5F5F5F5F5F5F5F5F5F5F5F5F5F5F5E2E2E2E2E2E2E2E2E2E2E2E2E2E2E2E2E2F5F5F5F5F5F5F5F5F5F5F5F5F5F5F5F5F5F5E2E2F5E2EFE2F5E2E2F5F5F5F5F5F5F5F5F5F5F5F5F5F5F5F5E2F5F5F5F5F5F5E2F5F5F5F5F5E2E2E2E2E2E2F5F5F5F5E2F5F5F5F5F5F5F5F5F5F5F5F5F5F5F5F5F5F5F5F5F5F5F5F5F5F5F5E2
310
E2E2E2E2E2E2E2E2E2F0F0F0E2F5F5F5F5E2F5F5F5F5F5F5F5F5F5F5E2F5F5E2F5F5E2F5F5F5F5F5F5F5F5F5F5F5F5F5F5F5F5F5F5F5F5F5F5F5F5F5F5F5F5F5F5F5F5F5E2E2E2E2E2E2E2E2E2E2E2E2E2E2E2E2E2F5F5F5F5F5F5F5F5F5F5F5F5F5F5F5F5F5F5E2E2F5E2EFE2F5E2E2F5F5F5F5F5F5F5F5F5F5F5F5F5F5F5
310
E2E2E2E2E2E2E2E2E2E2E2E2E2E2E2E2E2E2E2E2E2E2E2E2E2F5F5F5F5F5F5F5F5F5F5F5F5F5F5F5F5F5F5F5F5F5F5F5F5F5F5F5E2F5F5F5F5F5F5F5F5F5F0F0F0E2E2E2E2E2E2E2E2E2E2E2E2E2E2E2E2E2E2E2E2E2E2E2F5F5F5F5F5F5F5F5F5F5F5F5F5F5F5F5F5F5F5F5F5F5F5F5F5F5F5F5F5F5F5F5F5E2E2E2E2E2E2
310
E2E2E2E2E2E2E2E2E2E2E2F5F5F5F5F5F5F5F5F5F5F5F5F5F5F5F5F5F5E2E2F5E2EFE2F5E2E2F5F5F5F5F5F5F5F5F5F5F5F5F5F5F5F5F5F5F5F5F5F5F5E2F5F5F5F5E2F5E2F5E2F5E2F5F5F5F5E2F5F5F5F5F5F5F5F5F5F5F5F5F5F5F5F5F5F5F5F5F5F5F5F5F5F5F5E2F5F5F5F5F5F5F5F5F5F0F0F0F5F5F5F5F5F5F5F5F5
310
F5F5E2F5F5F5F5F5F5F5F5F5F5E2F5F5F5F5F5F5F5F5F5F5F5F5F5F5F5F5F5F5F5F5F5F5F5F5F5F5F5F5F5F5F5F5F5F5F5F5F5F5E2F5E2F5E2F5E2F5F5F5F5F5F5F5F5F5F5F5F5F5F5F5F5F5F5F5F5F5F5F5E2E2F5E2EFE2F5E2E2F5F5F5F5F5F5F5F5F5F5F5F5F5F5F5F5F5F5F5F5F5F5F5E2F5F5F5F5E2E2E2E2E2E2E2F5
310
F5F5F5E2F5F5F5F5F5F5F5F5F5F5F5F5F5F5F5F5F5F5F5F5F5F5F5F5F5F5F5E2F5F5F5F5F5F5F5F5F5F0F0F0F5F5F5F5F5F5F5F5F5F5F5E2F5F5F5F5F5F5F5F5F5F5E2F5F5F5F5F5F5F5F5F5F5F5F5F5F5F5F5F5F5F5F5F5F5F5F5F5F5F5F5F5F5F5F5F5F5F5F5F5F5E2E2E2E2E2E2E2F5F5F5F5F5F5F5F5F5F5F5F5F5F5F5
310
F5F5F5F5F5F5F5F5E2E2F5E2EFE2F5E2E2F5F5F5F5F5F5F5F5F5F5F5F5F5F5F5F5F5F5F5F5F5F5F5E2F5F5F5F5F5F5F5F5F5F5F5F5F5F5F5E2F5F5F5F5F5F5F5F5F5F5F5F5F5F5F5F5F5F5F5F5F5F5F5F5F5F5F5E2F5F5F5F5F5F5F5F5F5F0F0F0F5F5F5F5F5F5F5F5F5F5F5F5F5F5F5F5F5F5F5F5F5F5E2F5F5F5F5F5F5F5
310
F5F5F5F5F5F5F5F5F5F5F5F5F5F5F5F5F5F5F5F5F5F5F5F5F5F5F5F5F5F5F5F5F5F5F5F5F5F5F5F5F5F5F5F5F5F5F5F5F5F5F5F5F5F5F5F5F5F5F5F5F5E2E2F5E2EFE2F5E2E2F5F5F5F5F5F5F5F5F5F5F5F5F5F5F5F5F5F5F5F5F5F5F5E2F5F5F5F5F5F5F5F5F5F5F5F5F5F5F5E2F5F5F5F5F5F5F5F5F5F5F5F5F5F5F5F5F5
310
F5F5F5F5F5F5F5F5F5F5E2F5F5F5F5F5F5F5F5F5F0F0F0F5F5F5F5F5F5F5F5F5F5F5F5F5F5F5F5F5F5F5F5F5F5E2F5F5F5F5F5F5F5F5F5F5F5F5F5F5F5F5F5F5F5F5F5F5F5F5F5F5F5F5F5F5F5F5F5F5F5F5F5F5F5F5F5F5F5F5F5F5F5F5F5F5F5F5F5F5F5F5F5F5F5F5F5F5F5F5F5F5F5F5E2E2F5E2EFE2F5E2E2F5F5F5F5
310
F5F5F5F5F5F5F5F5F5F5F5F5F5F5F5F5F5F5F5E2F5F5F5F5F5F5F5F5F5F5F5F5F5F5F5E2F5F5F5F5F5F5F5F5F5F5F5F5F5F5F5F5F5F5F5F5F5F5F5F5F5F5F5E2F5F5F5F5F5F5F5F5F5F0F0F0F5F5F5F5F5F5F5F5F5F5F5F5F5F5F5F5F5F5F5F5F5F5E2F5F5F5F5F5F5F5F5F5F5F5F5F5F5F5F5F5F5F5F5F5F5F5F5F5F5F5F5
310
F5F5F5F5F5F5F5F5F5F5F5F5F5F5F5F5F5F5F5F5F5F5F5F5F5F5F5F5F5F5F5F5F5F5F5F5F5F5F5F5E2E2F5E2EFE2F5E2E2F5F5F5F5F5F5F5F5F5F5F5F5F5F5F5F5F5F5F5F5F5F5F5E2F5F5F5F5F5F5F5F5F5F5F5F5F5F5F5E2F5F5F5F5F5F5F5F5F5F5F5F5F5F5F5F5F5F5F5F5F5F5F5F5F5F5F5E2F5F5F5F5F5F5F5F5F5F0
310
F0F0F5F5F5F5F5F5F5F5F5F5F5F5F5F5F5F5F5F5F5F5F5F5E2F5F5F5F5F5F5F5F5F5F5F5F5F5F5F5F5F5F5F5F5F5F5F5F5F5F5F5F5F5F5F5F5F5F5F5F5F5F5F5F5F5F5F5F5F5F5F5F5F5F5F5F5F5F5F5F5F5F5F5F5F5F5F5F5F5F5F5F5E2E2F5E2EFE2F5F5E2F5F5F5F5F5F5F5F5F5F5F5F5F5F5F5F5F5F5F5F5F5F5F5E2F5
310
F5F5F5F5F5F5F5F5F5F5F5F5F5F5E2F5F5F5F5F5F5F5F5F5F5F5F5F5F5F5F5F5F5F5F5F5F5F5F5F5F5F5E2F5F5F5F5F5F5F5F5F5F0F0F0F5F5F5F5F5F5F5F5F5F5F5F5F5F5F5F5F5F5F5F5F5F5E2F5F5F5F5F5F5F5F5F5F5F5F5F5F5F5F5F5F5F5F5F5F5F5F5F5F5F5F5F5F5F5F5F5F5F5F5F5F5F5F5F5F5F5F5F5F5F5F5F5
310
F5F5F5F5F5F5F5F5F5F5F5F5F5F5F5F5F5F5F5E2F5F5E2EFE2F5F5E2F5F5F5F5F5F5F5F5F5F5F5F5F5F5F5F5F5F5F5F5F5F5F5E2F5F5F5F5F5F5E2E2E2F5F5F5F5F5F5E2F5F5F5F5F5F5F5F5F5F5F5F5F5F5F5F5F5F5F5F5F5F5F5F5F5F5F5E2F5F5F5F5F5F5F5F5F5F0F0F0F5F5F5F5F5F5F5F5F5F5F5F5F5F5F5F5F5F5F5
310
F5F5F5E2F5F5F5F5F5F5F5F5F5F5F5F5F5F5F5F5F5F5F5F5F5F5F5F5F5F5F5F5F5F5F5F5F5F5F5F5F5F5F5F5F5F5F5F5F5F5F5F5F5F5F5F5F5F5F5F5F5F5F5F5F5F5F5F5F5F5F5F5E2F5F5E2EFE2F5F5E2F5F5F5F5F5F5F5F5F5F5F5F5F5F5F5F5F5F5F5F5F5F5F5E2E2F5F5F5F5F5E2E2E2F5F5F5F5F5E2E2F5F5F5F5F5F5
310
F5F5F5F5F5F5F5F5F5F5F5F5F5F5F5F5F5F5F5F5F5E2F5F5F5F5F5F5F5F5F5E2F5E2F5F5F5F5F5F5F5F5F5F5F5F5F5F5F5F5F5F5F5F5F5F5E2F5F5F5F5F5F5F5F5F5F5F5F5F5F5F5F5F5F5F5F5F5F5F5F5F5F5F5F5F5F5F5F5F5F5F5F5F5F5F5F5F5F5F5F5F5F5F5F5F5F5F5F5F5F5F5F5F5F5F5F5F5F5F5F5F5F5F5F5E2F5
310
F5E2EFE2F5F5E2F5F5F5F5F5F5F5F5F5F5F5F5F5F5F5F5F5F5F5F5F5F5F5E2E2E2E2E2E2E2E2E2E2E2E2E2E2E2E2E2F5F5F5F5F5F5F5F5F5F5F5F5F5F5F5F5F5F5F5F5F5F5F5F5F5F5F5E2F5F5F5F5F5F5F5F5F5E2F5E2F5F5F5F5F5F5F5F5F5F5F5F5F5F5F5F5F5F5F5F5F5F5E2F5F5F5F5F5F5F5F5F5F5F5F5F5F5F5F5F5
310
F5F5F5F5F5F5F5F5F5F5F5F5F5F5F5F5F5F5F5F5F5F5F5F5F5F5F5F5F5F5F5F5F5F5F5F5F5F5F5F5F5F5F5F5F5F5F5F5F5F5F5E2F5F5E2EFE2F5F5E2F5F5F5F5F5F5F5F5F5F5F5F5F5F5F5F5F5F5F5F5F5F5F5F5F5F5F5F5F5F5F5E2F5F5F5F5F5F5F5F5F5F5F5F5F5F5F5F5F5F5F5F5F5F5F5F5F5F5F5F5F5F5F5F5F5F5F5
310
E2F5F5F5E2E2F5F5F5F5E2F5E2F5F5F5F5F5F5F5F5F5F5F5E2F5F5F5F5F5F5F5F5F5F5E2F5F5F5F5F5F5F5F5F5F5F5F5F5F5F5F5F5F5F5F5F5F5F5F5F5F5F5F5F5F5F5F5F5F5F5F5F5F5F5F5F5F5F5F5F5F5F5F5F5F5F5F5F5F5F5F5F5F5F5F5F5F5F5F5F5F5F5F5E2F5F5E2EFE2F5F5E2F5F5F5F5F5F5F5F5F5F5F5F5F5F5
310
F5F5F5F5F5F5F5F5F5F5F5F5F5F5F5F5F5F5F5F5F5F5F5F5F5F5F5F5F5F5F5F5F5F5F5F5F5F5F5F5F5F5F5F5F5F5F5F5F5F5F5F5F5E2F5E2F5E2E2F5F5E2F5E2F5E2E2F5F5F5F5F5F5F5F5E2E2E2E2F5F5F5F5F5F5F5E2F5E2F5F5F5F5F5F5F5F5F5F5F5F5F5F5F5F5F5F5F5F5F5F5F5F5F5F5F5F5F5F5F5F5F5F5F5F5F5F5
310
F5F5F5F5F5F5F5F5F5F5F5F5F5F5F5F5F5F5F5F5F5F5F5F5F5F5F5F5F5F5E2F5F5E2EFE2F5F5E2F5F5F5F5F5F5F5F5F5F5F5F5F5F5F5F5F5F5F5F5F5F5F5F5F5F5F5F5F5F5F5F5F5F5F5F5F5F5F5F5F5F5F5F5F5F5F5F5F5F5F5F5F5F5F5F5F5F5F5F5F5F5F5F5F5F5F5E2E2E2E2E2E2E2E2E2E2E2F5E2E2E2E2E2E2E2E2E2
310
E2E2E2E2E2E2E2E2E2E2E2E2E2E2E2F5F5F5F5F5F5F5F5F5F5F5F5F5F5F5F5F5F5F5F5F5F5F5F5F5F5F5F5F5F5F5F5F5F5F5F5F5F5F5F5F5F5F5F5F5F5F5F5F5F5F5F5F5F5F5F5F5F5F5F5F5F5F5F5F5F5F5F5E2F5F5E2EFE2F5F5E2F5F5F5F5F5F5F5F5F5F5F5F5F5F5F5F5F5F5F5F5F5F5F5F5F5F5F5F5F5F5F5F5F5F5F5
310
F5F5F5F5F5F5F5F5F5F5F5F5F5F5F5F5F5F5F5F5F5F5F5F5F5F5F5F5F5F5F5F5F5F5F5F5E2E2F5F5F5F5F5F5F5F5F5F5F5F5F5F5F5F5F5F5E2F5F5F5F5F5F5F5F5F5F5F5F5F5F5F5F5F5F5F5F5F5F5F5F5F5F5F5F5F5F5F5F5F5F5F5F5F5F5F5F5F5F5F5F5F5F5F5F5F5F5F5F5F5F5F5F5F5F5F5F5F5F5F5F5F5F5F5F5F5F5
310
F5F5F5F5F5F5F5F5F5E2F5F5E2EFE2F5F5E2F5F5F5F5F5F5F5F5F5F5F5F5F5F5F5F5F5F5F5F5F5F5F5F5F5F5F5F5F5F5F5F5F5F5F5F5F5F5F5F5F5F5F5F5F5F5F5F5F5F5F5F5F5F5F5F5F5F5F5F5F5F5F5F5F5F5F5F5F5F5F5F5F5F5F5F5F5F5F5F5F5F5F5F5F5F5F5F5F5F5F5F5F5F5F5F5F5F5F5F5F5F5F5F5F5F5F5F5F5
310
F5F5F5F5F5F5F5F5F5F5F5F5F5F5F5F5F5F5F5F5F5F5F5F5F5F5F5F5F5F5F5F5F5F5F5F5F5F5F5F5F5F5F5F5F5F5F5F5F5F5F5F5F5F5F5F5F5F5F5F5F5F5E2F5F5E2EFE2F5E2E2F5E2E2E2E2E2E2E2E2E2E2F5E2E2E2E2E2E2E2E2E2E2E2E2E2E2E2E2E2E2E2E2F5E2E2E2E2E2E2E2E2E2E2E2F5E2E2F5E2E2E2E2E2E2F5F5
310
F5F5F5F5F5F5F5F5F5F5F5F5F5F5F5F5F5F5F5F5F5F5F5F5F5F5F5F5F5F5F5F5F5F5F5F5F5F5F5F5F5F5F5F5F5F5F5F5F5F5F5F5F5F5F5F5F5F5F5F5F5F5F5F5F5F5F5F5F5F5F5F5F5F5F5F5F5F5F5F5F5F5F5F5F5F5F5F5F5F5F5F5F5F5F5F5F5F5F5F5F5F5F5F5F5F5F5F5F5F5F5F5F5F5F5E2E2F5E2EFE2F5E2E2F5E2E2
310
E2E2E2E2E2E2E2E2E2E2E2E2E2E2E2E2E2E2E2E2E2E2E2E2E2E2E2E2E2E2E2E2E2E2E2E2E2E2E2E2E2E2E2E2E2E2E2E2E2E2E2F5F5F5F5F5F5F5F5F5F5F5F5F5F5F5F5F5F5F5F5F5F5F5F5F5F5F5F5F5F5F5F5F5F5F5F5F5F5F5F5F5F5F5F5F5F5F5F5F5F5F5F5F5F5F5F5F5F5F5F5F5F5F5F5F5F5F5F5F5F5F5F5F5F5F5F5
310
F5F5F5F5F5F5F5F5F5F5F5F5F5F5F5F5F5F5F5F5F5F5F5F5F5F5F5F5F5F5F5F5F5F5F5F5F5F5F5F5F5E2E2F5E2EFE2F5E2E2F5E2E2E2E2E2E2E2E2E2E2E2E2E2E2E2F5E2E2E2E2E2E2E2F5E2E2E2E2E2E2E2E2E2E2E2E2E2F5E2E2E2E2E2E2E2E2E2E2E2E2E2E2E2E2F5F5F5F5F5F5F5F5F5F5F5F5F5F5F5F5F5F5F5F5F5F5
310
F5F5F5F5F5F5F5F5F5F5F5F5F5F5F5F5F5F5F5F5F5F5F5F5F5F5F5F5F5F5F5F5F5F5F5F5F5F5F5F5F5F5F5F5F5F5F5F5F5F5F5F5F5F5F5F5F5F5F5F5F5F5F5F5F5F5F5F5F5F5F5F5F5F5F5F5F5F5F5F5F5F5F5F5F5F5F5F5F5F5F5F5F5F5E2E2F5E2EFE2F5E2E2F5E2E2E2E2E2E2E2E2E2E2E2E2E2E2E2E2E2E2E2E2E2E2E2
310
F5E2E2E2E2F5E2E2E2E2E2E2E2E2F5E2E2E2E2E2E2E2E2F5E2E2E2E2F5F5F5F5F5F5F5F5F5F5F5F5F5F5F5F5F5F5F5F5F5F5F5F5F5F5F5F5F5F5F5F5F5F5F5F5F5F5F5F5F5F5F5F5F5F5F5F5F5F5F5F5F5F5F5F5F5F5F5F5F5F5F5F5F5F5F5F5F5F5F5F5F5F5F5F5F5F5F5F5F5F5F5F5F5F5F5F5F5F5F5F5F5F5F5F5F5F5F5
310
F5F5F5F5F5F5F5F5F5F5F5F5F5F5F5F5F5F5F5F5E2E2F5E2EFE2F5E2E2F5F5F5F5F5F5F5F5F5F5F5F5F5F5F5F5F5F5F5F5F5F5F5F5F5F5F5F5F5F5F5F5F5F5F5F5F5F5F5F5F5F5F5F5F5F5F5F5F5F5F5F5F5F5F5F5F5F5F5F5F5F5F5F5F5F5F5F5F5F5F5F5F5F5F5F5F5F5F5F5F5F5F5F5F5F5F5F5F5F5F5F5F5F5F5F5F5F5
310
F5F5F5F5F5F5F5F5F5F5F5F5F5F5F5F5F5F5F5F5F5F5F5F5F5F5F5F5F5F5F5F5F5F5F5F5F5F5F5F5F5F5F5F5F5F5F5F5F5F5F5F5F5F5F5F5F5F5F5F5F5F5F5F5F5F5F5F5F5F5F5F5F5E2E2F5E2EFE2F5E2E2F5E2E2E2E2E2E2E2E2E2E2E2E2E2E2E2E2E2E2E2E2E2E2E2E2E2E2E2E2E2E2E2E2E2E2E2E2F5F5F5F5F5F5F5F5
310
F5F5F5F5F5F5F5F5F5F5F5F5F5F5F5F5F5F5F5F5F5F5F5F5F5F5F5F5F5F5F5F5F5F5F5F5F5F5F5F5F5F5F5F5F5F5F5F5F5F5F5F5F5F5F5F5F5F5F5F5F5F5F5F5F5F5F5F5F5F5F5F5F5F5F5F5F5F5F5F5F5F5F5F5F5F5F5F5F5F5F5F5F5F5F5F5F5F5F5F5F5F5F5F5F5F5F5F5F5F5F5F5F5F5F5F5F5F5F5F5F5F5F5F5F5F5E2
310
E2F5E2EFE2F5E2E2F5E2E2E2E2E2E2E2E2E2E2E2E2E2E2E2E2E2E2E2E2E2E2E2F5F5F5E2E2E2F5E2E2E2E2E2E2F5F5F5F5F5F5F5F5F5F5F5F5F5F5F5F5F5F5F5F5F5F5F5F5F5F5F5F5F5F5F5F5F5F5F5F5F5F5F5F5F5F5F5F5F5F5F5F5F5F5F5F5F5F5F5F5F5F5F5F5F5F5F5F5F5F5F5F5F5F5F5F5F5F5F5F5F5F5F5F5F5F5
310
F5F5F5F5F5F5F5F5F5F5F5F5F5F5F5F5F5F5F5F5F5F5F5F5F5F5F5F5F5F5F5F5F5F5F5F5F5F5F5F5F5F5F5F5F5F5F5F5F5F5F5F5E2E2F5E2EFE2F5E2E2E2E2E2E2E2E2F5F5F5F5F5F5F5F5F5E2E2E2E2E2E2E2E2E2E2E2E2E2E2E2E2F5F5F5F5F5F5F5F5F5E2E2E2E2E2E2E2E2E2E2E2E2E2E2E2E2F5F5F5F5F5F5F5F5F5E2
310
E2E2E2E2E2E2E2E2E2E2E2E2E2E2E2F5F5F5F5F5F5F5F5F5E2E2E2E2E2E2E2E2E2E2E2E2E2E2E2E2F5F5F5F5F5F5F5F5F5E2E2E2E2E2E2E2E2E2E2E2E2E2E2E2E2F5F5F5F5F5F5F5F5F5E2E2E2E2E2E2E2E2E2E2E2E2E2E2E2E2F5F5F5F5F5F5F5F5F5E2E2E2E2E2E2E2E2F5E2EFE2F5F5E2F5E2E2E2E2E2E2F5F5F5F5F5F5
310
F5F5F5F5F5F5F5F5F5F5F5F5F5F5F5F5F5F5F5F5F5F5F5F5F5F5F5F5F5F5F5F5F5F5F5F5F5F5F5F5F5F5F5F5F5F5F5F5F5F5F5F5F5F5F5F5F5F5F5F5F5F5F5F5F5F5F5F5F5F5F5F5F5F5F5F5F5F5F5F5F5F5F5F5F5F5F5F5F5F5F5F5F5F5F5F5F5F5F5F5F5F5F5F5F5F5F5F5F5F5F5F5F5F5F5F5F5F5F5F5F5F5F5F5F5F5F5
310
F5F5F5F5F5F5F5F5F5F5F5F5F5F5F5F5F5F5F5F5F5F5F5F5F5F5F5F5F5F5F5E2F5F5E2EFE2F5F5E2F5E2E2E2E2E2E2F5F5F5F5F5F5F5F5F5F5F5F5F5F5F5F5F5F5F5F5F5F5F5F5F5F5F5F5F5F5F5F5F5F5F5F5F5F5F5F5F5F5F5F5F5F5F5F5F5F5F5F5F5F5F5F5F5F5F5F5F5F5F5F5F5F5F5F5F5F5F5F5F5F5F5F5F5F5F5F5
310
F5F5F5F5F5F5F5F5F5F5F5F5F5F5F5F5F5F5F5F5F5F5F5F5F5F5F5F5F5F5F5F5F5F5F5F5F5F5F5F5F5F5F5F5F5F5F5F5F5F5F5F5F5F5F5F5F5F5F5F5F5F5F5F5F5F5F5F5F5F5F5F5F5F5F5F5F5F5F5F5F5F5F5F5E2F5F5E2EFE2F5F5E2F5E2E2E2E2E2F5F5F5F5F5F5F5F5F5F5F5F5F5F5F5F5F5F5F5F5F5F5F5F5F5F5F5F5
310
F5F5F5F5F5F5F5F5F5F5F5F5F5F5F5F5F5F5F5F5F5F5F5F5F5F5F5F5F5F5F5F5F5F5F5F5F5F5F5F5F5F5F5F5F5F5F5F5F5F5F5F5F5F5F5F5F5F5F5F5F5F5F5F5F5F5F5F5F5F5F5F5F5F5F5F5F5F5F5F5F5F5F5F5F5F5F5F5F5F5F5F5F5F5F5F5F5F5F5F5F5F5F5F5F5F5F5F5F5F5F5F5F5F5F5F5F5F5F5F5F5F5F5F5F5F5F5
310
F5F5F5F5F5F5F5F5F5F5E2F5F5E2EFE2F5F5E2F5F5F5F5F5F5F5F5F5F5F5F5F5F5F5F5F5F5F5F5F5F5F5F5F5F5F5F5F5F5F5F5F5F5F5F5F5F5F5F5F5F5F5F5F5F5F5F5F5F5F5F5F5F5F5F5F5F5F5F5F5F5F5F5F5F5F5F5F5F5F5F5F5F5F5F5F5F5F5F5F5F5F5F5F5F5F5F5F5F5F5F5F5F5F5F5F5F5F5F5F5F5F5F5F5F5F5F5
310
F5F5F5F5F5F5F5F5F5F5F5F5F5F5F5F5F5F5F5F5F5F5F5F5F5F5F5F5F5F5F5F5F5F5F5F5F5F5F5F5F5F5F5F5F5F5F5F5F5F5F5F5F5F5F5F5F5F5F5F5F5F5F5E2F5F5E2EFE2F5F5E2E2E2E2E2E2E2E2E2E2E2E2E2E2E2E2E2E2E2E2E2E2E2E2E2E2E2E2E2E2E2E2E2E2E2E2E2E2E2E2E2E2E2E2E2E2E2E2E2E2E2E2E2E2E2E2
310
E2E2E2E2E2E2E2E2E2E2E2E2E2E2E2E2E2E2E2E2E2E2E2E2E2E2E2E2E2E2E2E2E2E2E2E2E2E2E2E2E2E2E2E2E2E2E2E2E2E2E2E2E2E2E2E2E2E2E2E2E2E2E2E2E2E2E2E2E2E2E2E2E2E2E2E2E2E2E2E2E2E2E2E2E2E2E2E2E2E2E2E2E2E2E2E2E2E2E2E2E2E2E2E2E2E2E2E2E2E2E2E2E2E2E2E2E2F5F5E2EFE2F5F5F5F5F5
310
F5F5F5F5F5F5F5F5F5F5F5F5F5F5F5F5F5F5F5F5F5F5F5F5F5F5F5F5F5F5F5F5F5F5F5F5F5F5F5F5F5F5F5F5F5F5F5F5F5F5F5F5F5F5F5F5F5F5F5F5F5F5F5F5F5F5F5F5F5F5F5F5F5F5F5F5F5F5F5F5F5F5F5F5F5F5F5F5F5F5F5F5F5F5F5F5F5F5F5F5F5F5F5F5F5F5F5F5F5F5F5F5F5F5F5F5F5F5F5F5F5F5F5F5F5F5F5
310
F5F5F5F5F5F5F5F5F5F5F5F5F5F5F5F5F5F5F5F5F5F5F5F5F5F5F5F5F5F5F5F5F5F5F5F5F5F5F5F5F5F5F5F5F5E2EFE2E2E2E2E2E2E2E2E2E2E2E2E2E2E2E2E2E2E2E2E2E2E2E2E2E2E2E2E2E2E2E2E2E2E2E2E2E2E2E2E2E2E2E2E2E2E2E2E2E2E2E2E2E2E2E2E2E2E2E2E2E2E2E2E2E2E2E2E2E2E2E2E2E2E2E2E2E2E2E2
310
E2E2E2E2E2E2E2E2E2E2E2E2E2E2E2E2E2E2E2E2E2E2E2E2E2E2E2E2E2E2E2E2E2E2E2E2E2E2E2E2E2E2E2E2E2E2E2E2E2E2E2E2E2E2E2E2E2E2E2E2E2E2E2E2E2E2E2E2E2E2E2E2E2E2E2E2E2E2E2E2E2E2E2E2E2E2E2E2E2E2E2E2E2E2E2E2E2E2E2EF
  0
XRECORD
  5
84F
102
{ACAD_REACTORS
330
84E
102
}
330
84E
100
AcDbXrecord
280
     1
102
SHADEPLOT
 70
     0
102
SHADEPLOTRESLEVEL
 70
     2
102
SHADEPLOTCUSTOMDPI
 70
   300
  0
ENDSEC
  0
EOF
