  0
SECTION
  2
HEADER
  9
$ACADVER
  1
AC1015
  9
$ACADMAINTVER
 70
    20
  9
$DWGCODEPAGE
  3
ANSI_1252
  9
$INSBASE
 10
0.0
 20
0.0
 30
0.0
  9
$EXTMIN
 10
-0.1966374600465883
 20
-0.6673488298504111
 30
-0.0000000000022887
  9
$EXTMAX
 10
16.80476849502291
 20
10.33424134996394
 30
0.0000000000022889
  9
$LIMMIN
 10
0.0
 20
0.0
  9
$LIMMAX
 10
12.0
 20
9.0
  9
$ORTHOMODE
 70
     1
  9
$REGENMODE
 70
     1
  9
$FILLMODE
 70
     1
  9
$QTEXTMODE
 70
     0
  9
$MIRRTEXT
 70
     1
  9
$LTSCALE
 40
1.0
  9
$ATTMODE
 70
     1
  9
$TEXTSIZE
 40
0.125
  9
$TRACEWID
 40
0.05
  9
$TEXTSTYLE
  7
Standard
  9
$CLAYER
  8
0
  9
$CELTYPE
  6
ByLayer
  9
$CECOLOR
 62
   256
  9
$CELTSCALE
 40
1.0
  9
$DISPSILH
 70
     0
  9
$DIMSCALE
 40
1.0
  9
$DIMASZ
 40
0.125
  9
$DIMEXO
 40
0.0625
  9
$DIMDLI
 40
0.38
  9
$DIMRND
 40
0.0
  9
$DIMDLE
 40
0.0
  9
$DIMEXE
 40
0.0625
  9
$DIMTP
 40
0.0
  9
$DIMTM
 40
0.0
  9
$DIMTXT
 40
0.125
  9
$DIMCEN
 40
0.09
  9
$DIMTSZ
 40
0.0
  9
$DIMTOL
 70
     0
  9
$DIMLIM
 70
     0
  9
$DIMTIH
 70
     1
  9
$DIMTOH
 70
     1
  9
$DIMSE1
 70
     0
  9
$DIMSE2
 70
     0
  9
$DIMTAD
 70
     0
  9
$DIMZIN
 70
     0
  9
$DIMBLK
  1

  9
$DIMASO
 70
     1
  9
$DIMSHO
 70
     1
  9
$DIMPOST
  1

  9
$DIMAPOST
  1

  9
$DIMALT
 70
     0
  9
$DIMALTD
 70
     2
  9
$DIMALTF
 40
25.4
  9
$DIMLFAC
 40
1.0
  9
$DIMTOFL
 70
     0
  9
$DIMTVP
 40
0.0
  9
$DIMTIX
 70
     0
  9
$DIMSOXD
 70
     0
  9
$DIMSAH
 70
     0
  9
$DIMBLK1
  1

  9
$DIMBLK2
  1

  9
$DIMSTYLE
  2
Standard
  9
$DIMCLRD
 70
     0
  9
$DIMCLRE
 70
     0
  9
$DIMCLRT
 70
     0
  9
$DIMTFAC
 40
1.0
  9
$DIMGAP
 40
0.09
  9
$DIMJUST
 70
     0
  9
$DIMSD1
 70
     0
  9
$DIMSD2
 70
     0
  9
$DIMTOLJ
 70
     1
  9
$DIMTZIN
 70
     0
  9
$DIMALTZ
 70
     0
  9
$DIMALTTZ
 70
     0
  9
$DIMUPT
 70
     1
  9
$DIMDEC
 70
     4
  9
$DIMTDEC
 70
     4
  9
$DIMALTU
 70
     2
  9
$DIMALTTD
 70
     2
  9
$DIMTXSTY
  7
Standard
  9
$DIMAUNIT
 70
     0
  9
$DIMADEC
 70
     0
  9
$DIMALTRND
 40
0.0
  9
$DIMAZIN
 70
     0
  9
$DIMDSEP
 70
    46
  9
$DIMATFIT
 70
     3
  9
$DIMFRAC
 70
     0
  9
$DIMLDRBLK
  1

  9
$DIMLUNIT
 70
     5
  9
$DIMLWD
 70
    -2
  9
$DIMLWE
 70
    -2
  9
$DIMTMOVE
 70
     0
  9
$LUNITS
 70
     2
  9
$LUPREC
 70
     4
  9
$SKETCHINC
 40
0.1
  9
$FILLETRAD
 40
0.0
  9
$AUNITS
 70
     0
  9
$AUPREC
 70
     0
  9
$MENU
  1
.
  9
$ELEVATION
 40
0.0
  9
$PELEVATION
 40
0.0
  9
$THICKNESS
 40
0.0
  9
$LIMCHECK
 70
     0
  9
$CHAMFERA
 40
0.5
  9
$CHAMFERB
 40
0.5
  9
$CHAMFERC
 40
1.0
  9
$CHAMFERD
 40
0.0
  9
$SKPOLY
 70
     0
  9
$TDCREATE
 40
2451767.623554144
  9
$TDUCREATE
 40
2451767.790220810
  9
$TDUPDATE
 40
2454293.720765949
  9
$TDUUPDATE
 40
2454293.887432616
  9
$TDINDWG
 40
0.8727188426
  9
$TDUSRTIMER
 40
0.8727184722
  9
$USRTIMER
 70
     1
  9
$ANGBASE
 50
0.0
  9
$ANGDIR
 70
     0
  9
$PDMODE
 70
     0
  9
$PDSIZE
 40
0.0
  9
$PLINEWID
 40
0.0
  9
$SPLFRAME
 70
     0
  9
$SPLINETYPE
 70
     6
  9
$SPLINESEGS
 70
     8
  9
$HANDSEED
  5
8D0
  9
$SURFTAB1
 70
     6
  9
$SURFTAB2
 70
     6
  9
$SURFTYPE
 70
     6
  9
$SURFU
 70
     6
  9
$SURFV
 70
     6
  9
$UCSBASE
  2

  9
$UCSNAME
  2

  9
$UCSORG
 10
0.0
 20
0.0
 30
0.0
  9
$UCSXDIR
 10
1.0
 20
0.0
 30
0.0
  9
$UCSYDIR
 10
0.0
 20
1.0
 30
0.0
  9
$UCSORTHOREF
  2

  9
$UCSORTHOVIEW
 70
     0
  9
$UCSORGTOP
 10
0.0
 20
0.0
 30
0.0
  9
$UCSORGBOTTOM
 10
0.0
 20
0.0
 30
0.0
  9
$UCSORGLEFT
 10
0.0
 20
0.0
 30
0.0
  9
$UCSORGRIGHT
 10
0.0
 20
0.0
 30
0.0
  9
$UCSORGFRONT
 10
0.0
 20
0.0
 30
0.0
  9
$UCSORGBACK
 10
0.0
 20
0.0
 30
0.0
  9
$PUCSBASE
  2

  9
$PUCSNAME
  2

  9
$PUCSORG
 10
0.0
 20
0.0
 30
0.0
  9
$PUCSXDIR
 10
1.0
 20
0.0
 30
0.0
  9
$PUCSYDIR
 10
0.0
 20
1.0
 30
0.0
  9
$PUCSORTHOREF
  2

  9
$PUCSORTHOVIEW
 70
     0
  9
$PUCSORGTOP
 10
0.0
 20
0.0
 30
0.0
  9
$PUCSORGBOTTOM
 10
0.0
 20
0.0
 30
0.0
  9
$PUCSORGLEFT
 10
0.0
 20
0.0
 30
0.0
  9
$PUCSORGRIGHT
 10
0.0
 20
0.0
 30
0.0
  9
$PUCSORGFRONT
 10
0.0
 20
0.0
 30
0.0
  9
$PUCSORGBACK
 10
0.0
 20
0.0
 30
0.0
  9
$USERI1
 70
     0
  9
$USERI2
 70
     0
  9
$USERI3
 70
     0
  9
$USERI4
 70
     0
  9
$USERI5
 70
     0
  9
$USERR1
 40
0.0
  9
$USERR2
 40
0.0
  9
$USERR3
 40
0.0
  9
$USERR4
 40
0.0
  9
$USERR5
 40
0.0
  9
$WORLDVIEW
 70
     1
  9
$SHADEDGE
 70
     3
  9
$SHADEDIF
 70
    70
  9
$TILEMODE
 70
     1
  9
$MAXACTVP
 70
    64
  9
$PINSBASE
 10
0.0
 20
0.0
 30
0.0
  9
$PLIMCHECK
 70
     0
  9
$PEXTMIN
 10
-0.1961470455140741
 20
-0.6674552712129689
 30
-0.460014037014933
  9
$PEXTMAX
 10
16.80513795887893
 20
10.33384287778471
 30
0.0000140391569747
  9
$PLIMMIN
 10
-0.1958616540912353
 20
-0.6681565476002067
  9
$PLIMMAX
 10
16.80413786531698
 20
10.3318432121039
  9
$UNITMODE
 70
     0
  9
$VISRETAIN
 70
     1
  9
$PLINEGEN
 70
     0
  9
$PSLTSCALE
 70
     1
  9
$TREEDEPTH
 70
  3020
  9
$CMLSTYLE
  2
Standard
  9
$CMLJUST
 70
     0
  9
$CMLSCALE
 40
1.0
  9
$PROXYGRAPHICS
 70
     1
  9
$MEASUREMENT
 70
     0
  9
$CELWEIGHT
370
    -1
  9
$ENDCAPS
280
     0
  9
$JOINSTYLE
280
     0
  9
$LWDISPLAY
290
     0
  9
$INSUNITS
 70
     1
  9
$HYPERLINKBASE
  1

  9
$STYLESHEET
  1

  9
$XEDIT
290
     1
  9
$CEPSNTYPE
380
     0
  9
$PSTYLEMODE
290
     1
  9
$FINGERPRINTGUID
  2
{7CE50CF4-E616-4294-A437-71040225F884}
  9
$VERSIONGUID
  2
{1B1C69AC-E4C0-4F23-A216-1410A00797B1}
  9
$EXTNAMES
290
     1
  9
$PSVPSCALE
 40
0.0
  9
$OLESTARTUP
290
     0
  0
ENDSEC
  0
SECTION
  2
CLASSES
  0
CLASS
  1
ACDBDICTIONARYWDFLT
  2
AcDbDictionaryWithDefault
  3
ObjectDBX Classes
 90
        0
280
     0
281
     0
  0
CLASS
  1
ACDBPLACEHOLDER
  2
AcDbPlaceHolder
  3
ObjectDBX Classes
 90
        0
280
     0
281
     0
  0
CLASS
  1
LAYOUT
  2
AcDbLayout
  3
ObjectDBX Classes
 90
        0
280
     0
281
     0
  0
CLASS
  1
ACME_DOCUMENT
  2
AcMeDbDoc
  3
AcMeServices
 90
        0
280
     0
281
     0
  0
CLASS
  1
ACMESCOPE
  2
AcMeScope
  3
AcMeServices
 90
        0
280
     0
281
     0
  0
CLASS
  1
ACMECOMMANDHISTORY
  2
AcMeCommandHistory
  3
AcMeServices
 90
        0
280
     0
281
     0
  0
CLASS
  1
DICTIONARYVAR
  2
AcDbDictionaryVar
  3
ObjectDBX Classes
 90
        0
280
     0
281
     0
  0
CLASS
  1
ACIMSYSVARMAN
  2
AcImSysVarManager
  3
AcMeServices
 90
        0
280
     0
281
     0
  0
CLASS
  1
ACIMREALSYSVAR
  2
AcImRealSysVar
  3
AcMeServices
 90
        0
280
     0
281
     0
  0
CLASS
  1
ACIMINTSYSVAR
  2
AcImIntSysVar
  3
AcMeServices
 90
        0
280
     0
281
     0
  0
CLASS
  1
ACMEDRAWINGMAN
  2
AcMeDrawingMan
  3
AcMeServices
 90
        0
280
     0
281
     0
  0
CLASS
  1
ACMEVIEW
  2
AcMeView
  3
AcMeServices
 90
        0
280
     0
281
     0
  0
CLASS
  1
ACDBENTITYCACHE
  2
AcMeEntityCache
  3
AcMeServices
 90
        0
280
     0
281
     0
  0
CLASS
  1
GSMANAGER
  2
AcMeGSManager
  3
AcMeServices
 90
        0
280
     0
281
     0
  0
CLASS
  1
AMDTINTERNALREACTOR
  2
AmdtInternalReactor
  3
AcMeServices
 90
        0
280
     0
281
     0
  0
CLASS
  1
ACMESTATEMGR
  2
AcMeStateMgr
  3
AcMeServices
 90
        0
280
     0
281
     0
  0
CLASS
  1
ACGREFMASTER
  2
AcGrefMaster
  3
AcAttribServices
 90
        0
280
     0
281
     0
  0
CLASS
  1
AM_DRAWING_MGR
  2
AcDmDwgMgr
  3
AcMechDwgViewMgmt
 90
        0
280
     0
281
     0
  0
CLASS
  1
AM_DWG_DOCUMENT
  2
AcDmDwgDocument
  3
AcMechDwgViewMgmt
 90
        0
280
     0
281
     0
  0
CLASS
  1
AM_DWG_SHEET
  2
AcDmSheet
  3
AcMechDwgViewMgmt
 90
        0
280
     0
281
     0
  0
CLASS
  1
AM_VIEWDIMPARMAP
  2
AcDmViewDimParMap
  3
AcMechDwgViewMgmt
 90
        0
280
     0
281
     0
  0
CLASS
  1
AM_DWGMGR_NAME
  2
AcDmDwgMgrName
  3
AcMechDwgViewMgmt
 90
        0
280
     0
281
     0
  0
CLASS
  1
ACME_DATABASE
  2
AcMeDbDatabase
  3
AcMeServices
 90
        0
280
     0
281
     0
  0
CLASS
  1
ACRFINSADJUSTERMGR
  2
AcRfInsAdjusterMgr
  3
AcMeServices
 90
        0
280
     0
281
     0
  0
CLASS
  1
ACGREFACADMASTER
  2
AcGrefacadMaster
  3
AcGrefServices
 90
        0
280
     0
281
     0
  0
CLASS
  1
AMDTMENUSTATEMGR
  2
AmdtMenuStateMgr
  3
McadcomServices
 90
        0
280
     0
281
     0
  0
CLASS
  1
AMDTMCOMMENUSTATE
  2
AmdtMcomMenuState
  3
McadcomServices
 90
        0
280
     0
281
     0
  0
CLASS
  1
ASAPP
  2
AcAsAppObject
  3
AutoSurfServices
 90
        0
280
     0
281
     0
  0
CLASS
  1
IM_STATIC_MAN
  2
AcImStaticVarManager
  3
AcMeServices
 90
        0
280
     0
281
     0
  0
CLASS
  1
ACIMSTRSYSVAR
  2
AcImStrSysVar
  3
AcMeServices
 90
        0
280
     0
281
     0
  0
CLASS
  1
ACIMDBLSTATICVAR
  2
AcImDblStaticVar
  3
AcMeServices
 90
        0
280
     0
281
     0
  0
CLASS
  1
ACIMSTRSTATICVAR
  2
AcImStrStaticVar
  3
AcMeServices
 90
        0
280
     0
281
     0
  0
CLASS
  1
ACIMINTSTATICVAR
  2
AcImIntStaticVar
  3
AcMeServices
 90
        0
280
     0
281
     0
  0
CLASS
  1
ACADGREFMODULE
  2
AcAdGrefModule
  3
AdGrefServices
 90
        0
280
     0
281
     0
  0
CLASS
  1
AMIMASTER
  2
AmiMaster
  3
AmiServices
 90
        0
280
     0
281
     0
  0
CLASS
  1
ACASGREFMASTER
  2
AcAsGrefMaster
  3
AutoSurfResolverServices
 90
        0
280
     0
281
     0
  0
CLASS
  1
MAPIAMMOUDLE
  2
MApiAmModule
  3
MApiAmServices
 90
        0
280
     0
281
     0
  0
CLASS
  1
AMDTDMMENUSTATE
  2
AmdtDmMenuState
  3
AcMechDwgViewMgmt
 90
        0
280
     0
281
     0
  0
CLASS
  1
AMDTADMENUSTATE
  2
AmdtAdMenuState
  3
DesignerServices
 90
        0
280
     0
281
     0
  0
CLASS
  1
ADAPPL
  2
AcAdAppl
  3
DesignerServices
 90
        0
280
     0
281
     0
  0
CLASS
  1
DEPMGR
  2
AcAdDepMgr
  3
DesignerServices
 90
        0
280
     0
281
     0
  0
CLASS
  1
PARAMMGR
  2
AcAdParamMgr
  3
DesignerServices
 90
        0
280
     0
281
     0
  0
CLASS
  1
PARAMSCOPE
  2
AcAdParamScope
  3
DesignerServices
 90
        0
280
     0
281
     0
  0
CLASS
  1
NAMEDAPPL
  2
AcAdNamedAppl
  3
DesignerServices
 90
        0
280
     0
281
     0
  0
CLASS
  1
ADHNTMPLT
  2
AdHoleNoteTemplateMgr
  3
DesignerServices
 90
    32768
280
     0
281
     0
  0
CLASS
  1
AM_HNTEMPLATE_MGR_NAME
  2
AdHoleNoteTemplateMgrName
  3
DesignerServices
 90
    32768
280
     0
281
     0
  0
CLASS
  1
AMDTAMMENUSTATE
  2
AmdtAmMenuState
  3
DesignerAssemblies
 90
        0
280
     0
281
     0
  0
CLASS
  1
ACAMPROJECT
  2
AcAmProject
  3
DesignerAssemblies
 90
        0
280
     0
281
     0
  0
CLASS
  1
ACAMGRCOMPDEF
  2
AcAmGrCompDef
  3
DesignerAssemblies
 90
        0
280
     0
281
     0
  0
CLASS
  1
ACCMCONTEXT
  2
AcCmContext
  3
DesignerAssemblies
 90
        0
280
     0
281
     0
  0
CLASS
  1
ACAMCOMPDEF
  2
AcAmCompDef
  3
DesignerAssemblies
 90
        0
280
     0
281
     0
  0
CLASS
  1
ACAMCOMPDEFMGR
  2
AcAmCompDefMgr
  3
DesignerAssemblies
 90
        0
280
     0
281
     0
  0
CLASS
  1
AMCONTEXTMGR
  2
AcAmContextMgr
  3
DesignerAssemblies
 90
        0
280
     0
281
     0
  0
CLASS
  1
ACAMCONTEXTMODELER
  2
AcAmContextModeler
  3
DesignerAssemblies
 90
        0
280
     0
281
     0
  0
CLASS
  1
MAPIADMODULE
  2
MApiAdModule
  3
MApiAdServices
 90
        0
280
     0
281
     0
  0
CLASS
  1
ACMDATADICTIONARY
  2
AcmDataDictionary
  3
"AcmSymBB|Product Description: AutoCAD Mechanical 2004 DX|Company: Autodesk"
 90
        0
280
     0
281
     0
  0
CLASS
  1
ACMDATAENTRYBLOCK
  2
AcmDataEntryBlock
  3
"AcmSymBB|Product Description: AutoCAD Mechanical 2004 DX|Company: Autodesk"
 90
        0
280
     0
281
     0
  0
CLASS
  1
AMDTBROWSERDBTAB
  2
AmdtBrowserDbTab
  3
McadcomServices
 90
        0
280
     0
281
     0
  0
CLASS
  1
CBROWSERAPPOBJECT
  2
CBrowserAppObject
  3
McadcomServices
 90
        0
280
     0
281
     0
  0
CLASS
  1
DM_PLACEHOLDER
  2
AcDmSelsetPlaceholder
  3
AcMechDwgViewMgmt
 90
        0
280
     0
281
     0
  0
CLASS
  1
CATALOGSTATE
  2
AcAmCatalogState
  3
DesignerAssemblies
 90
        0
280
     0
281
     0
  0
CLASS
  1
ACAMGRCOMPDEFSET
  2
AcAmGrCompDefSet
  3
DesignerAssemblies
 90
        0
280
     0
281
     0
  0
CLASS
  1
AMGOBJPROPCFG
  2
AmgObjPropCfg
  3
"AmgLay|Product Description: AutoCAD Mechanical 2000|Company: Autodesk"
 90
        1
280
     0
281
     0
  0
CLASS
  1
LAYER_INDEX
  2
AcDbLayerIndex
  3
ObjectDBX Classes
 90
        0
280
     0
281
     0
  0
CLASS
  1
IDBUFFER
  2
AcDbIdBuffer
  3
ObjectDBX Classes
 90
        0
280
     0
281
     0
  0
CLASS
  1
ACRFATTGENMGR
  2
AcRfAttGeneralMgr
  3
AcAttribServices
 90
    32768
280
     0
281
     0
  0
CLASS
  1
ACAMCOMPENT
  2
AcAmCompEnt
  3
DesignerAssemblies
 90
    32768
280
     0
281
     1
  0
CLASS
  1
ADPART
  2
AcAdPart
  3
DesignerServices
 90
    32768
280
     0
281
     1
  0
CLASS
  1
ACAMCOMPENTCLONE
  2
AcAmCompEntClone
  3
DesignerAssemblies
 90
    32768
280
     0
281
     1
  0
CLASS
  1
WORKPLANEDISPLAYMGR
  2
AcAdDisplayMgr
  3
DesignerServices
 90
    32768
280
     0
281
     0
  0
CLASS
  1
ADBASE
  2
AcAdBase
  3
DesignerServices
 90
    32768
280
     0
281
     0
  0
CLASS
  1
ADDATUMPLANEABS
  2
AcAdDatumPlaneAbs
  3
DesignerServices
 90
    32768
280
     0
281
     0
  0
CLASS
  1
ADDATUMAXISABS
  2
AcAdDatumAxisAbs
  3
DesignerServices
 90
    32768
280
     0
281
     0
  0
CLASS
  1
PARAM
  2
AcAdParam
  3
DesignerServices
 90
    32768
280
     0
281
     0
  0
CLASS
  1
BODYID
  2
AcAdBodyId
  3
DesignerServices
 90
    32768
280
     0
281
     0
  0
CLASS
  1
ADDATUMORIENTEDPLANE
  2
AcAdDatumOrientedPlane
  3
DesignerServices
 90
    32768
280
     0
281
     0
  0
CLASS
  1
ACADCONSGROUP
  2
AcAdConstraintGroup
  3
DesignerServices
 90
    32768
280
     0
281
     0
  0
CLASS
  1
ACADREFLINEACAD
  2
AcAdVirtualReferenceLine
  3
DesignerServices
 90
    32768
280
     0
281
     0
  0
CLASS
  1
ACADCONSLINE
  2
AcAdConstrainedLine
  3
DesignerServices
 90
    32768
280
     0
281
     0
  0
CLASS
  1
ACADLINEACAD
  2
AcAdVirtualBoundedLineAcad
  3
DesignerServices
 90
    32768
280
     0
281
     0
  0
CLASS
  1
ACADCONSPOINT
  2
AcAdConstrainedPoint
  3
DesignerServices
 90
    32768
280
     0
281
     0
  0
CLASS
  1
ADPCURCNS
  2
AcAdPointCurveConstr
  3
DesignerServices
 90
    32768
280
     0
281
     0
  0
CLASS
  1
ADHORCNS
  2
AcAdHorizontalConstr
  3
DesignerServices
 90
    32768
280
     0
281
     0
  0
CLASS
  1
ADVERCNS
  2
AcAdVerticalConstr
  3
DesignerServices
 90
    32768
280
     0
281
     0
  0
CLASS
  1
ADCOLNCNS
  2
AcAdColinearConstr
  3
DesignerServices
 90
    32768
280
     0
281
     0
  0
CLASS
  1
ACAD_FIXCONSTRAINT
  2
AcAdFixedConstraint
  3
DesignerServices
 90
    32768
280
     0
281
     0
  0
CLASS
  1
ACADIMPPTACAD
  2
AcAdVirtualImplicitPoint
  3
DesignerServices
 90
    32768
280
     0
281
     0
  0
CLASS
  1
ADCLPROF2D
  2
AcAdClosedProfile2d
  3
DesignerServices
 90
    32768
280
     0
281
     0
  0
CLASS
  1
DEPEDGEFEATUREORDERING
  2
AcAdDepEdgeFeatureOrdering
  3
DesignerServices
 90
    32768
280
     0
281
     0
  0
CLASS
  1
ACADVOLFEATWITHTRIM
  2
AcAdVolFeatWithTrim
  3
DesignerServices
 90
    32768
280
     0
281
     0
  0
CLASS
  1
ADPLANEID
  2
AcAdPlaneId
  3
DesignerServices
 90
    32768
280
     0
281
     0
  0
CLASS
  1
ADDATUMPLANEFACE
  2
AcAdDatumPlaneFace
  3
DesignerServices
 90
    32768
280
     0
281
     0
  0
CLASS
  1
ADPARCNS
  2
AcAdParallelConstr
  3
DesignerServices
 90
    32768
280
     0
281
     0
  0
CLASS
  1
ACADCIRCLEACAD
  2
AcAdVirtualCircleAcad
  3
DesignerServices
 90
    32768
280
     0
281
     0
  0
CLASS
  1
ACADCONSCIRCLE
  2
AcAdConstrainedCircle
  3
DesignerServices
 90
    32768
280
     0
281
     0
  0
CLASS
  1
ADCTRPTCNS
  2
AcAdCenterPointConstr
  3
DesignerServices
 90
    32768
280
     0
281
     0
  0
CLASS
  1
ACADARCACAD
  2
AcAdVirtualArcAcad
  3
DesignerServices
 90
    32768
280
     0
281
     0
  0
CLASS
  1
ADCONCCNS
  2
AcAdConcentricConstr
  3
DesignerServices
 90
    32768
280
     0
281
     0
  0
CLASS
  1
ADEQRADCNS
  2
AcAdEqualRadiusConstr
  3
DesignerServices
 90
    32768
280
     0
281
     0
  0
CLASS
  1
EDGEID
  2
AcAdEdgeId
  3
DesignerServices
 90
    32768
280
     0
281
     0
  0
CLASS
  1
DEPEDGESECONDARYDEPID
  2
AcAdDepEdgeSecondaryDepId
  3
DesignerServices
 90
    32768
280
     0
281
     0
  0
CLASS
  1
ADFILLET
  2
AcAdFillet
  3
DesignerServices
 90
    32768
280
     0
281
     0
  0
CLASS
  1
ADTANCNS
  2
AcAdTangentConstr
  3
DesignerServices
 90
    32768
280
     0
281
     0
  0
CLASS
  1
ACAMCOMP
  2
AcAmComp
  3
DesignerAssemblies
 90
    32768
280
     0
281
     0
  0
CLASS
  1
ACAMCOMPFEEDBACK
  2
AcAmCompFeedback
  3
DesignerAssemblies
 90
    32768
280
     0
281
     0
  0
CLASS
  1
ACCMBODY
  2
AcCmBody
  3
DesignerAssemblies
 90
    32768
280
     0
281
     0
  0
CLASS
  1
ACAMCLONEREACTOR
  2
AcAmGrCompCloneReactor
  3
DesignerAssemblies
 90
    32768
280
     0
281
     0
  0
CLASS
  1
ACAMCLONECHILDREACTOR
  2
AcAmGrCloneChildReactor
  3
DesignerAssemblies
 90
    32768
280
     0
281
     0
  0
CLASS
  1
AM_VIEW_SELECT_FILTER
  2
AcDmSelectViewEntFilter
  3
AcMechDwgViewMgmt
 90
    32768
280
     0
281
     0
  0
CLASS
  1
ACDBSOLPLANERES
  2
AcDbSolPlaneRes
  3
AcGrefServices
 90
    32768
280
     0
281
     0
  0
CLASS
  1
AM_GREF_PLANE
  2
AcDmGrefPlnDef
  3
AcMechDwgViewMgmt
 90
    32768
280
     0
281
     0
  0
CLASS
  1
AM_ABS_AXIS
  2
AcDmAbsAxisDef
  3
AcMechDwgViewMgmt
 90
    32768
280
     0
281
     0
  0
CLASS
  1
AM_BASE_VIEW_ORIENT
  2
AcDmBaseViewOr
  3
AcMechDwgViewMgmt
 90
    32768
280
     0
281
     0
  0
CLASS
  1
ACMELINEARARROW
  2
AcImLinearArrowDisplay
  3
AcMeServices
 90
    32768
280
     0
281
     1
  0
CLASS
  1
AM_DWG_VIEWPORT
  2
AcDmViewport
  3
AcMechDwgViewMgmt
 90
    32768
280
     0
281
     0
  0
CLASS
  1
AM_VIEW_DISPLAY
  2
AcDmDwgViewDisplay
  3
AcMechDwgViewMgmt
 90
    32768
280
     0
281
     0
  0
CLASS
  1
AM_CLDFLTS
  2
AcDmClDflts
  3
AcMechDwgViewMgmt
 90
    32768
280
     0
281
     0
  0
CLASS
  1
AM_BASE_VIEW
  2
AcDmBaseView
  3
AcMechDwgViewMgmt
 90
    32768
280
     0
281
     0
  0
CLASS
  1
ACDMVWEDLINE
  2
AcDmViewEdgeLine
  3
AcMechDwgViewMgmt
 90
    32768
280
     0
281
     1
  0
CLASS
  1
ACDMVWEDARC
  2
AcDmViewEdgeArc
  3
AcMechDwgViewMgmt
 90
    32768
280
     0
281
     1
  0
CLASS
  1
ACDMVWEDSPLINE
  2
AcDmViewEdgeSpline
  3
AcMechDwgViewMgmt
 90
    32768
280
     0
281
     1
  0
CLASS
  1
ACDMVWEDELLIPSE
  2
AcDmViewEdgeEllipse
  3
AcMechDwgViewMgmt
 90
    32768
280
     0
281
     1
  0
CLASS
  1
AM_ORTHO_VIEW_ORIENT
  2
AcDmOrthoViewOr
  3
AcMechDwgViewMgmt
 90
    32768
280
     0
281
     0
  0
CLASS
  1
AM_ORTHO_VIEW
  2
AcDmOrthoView
  3
AcMechDwgViewMgmt
 90
    32768
280
     0
281
     0
  0
CLASS
  1
ACDMVWEDCIRC
  2
AcDmViewEdgeCircle
  3
AcMechDwgViewMgmt
 90
    32768
280
     0
281
     1
  0
CLASS
  1
AM_ISO_VIEW_ORIENT
  2
AcDmIsoViewOr
  3
AcMechDwgViewMgmt
 90
    32768
280
     0
281
     0
  0
CLASS
  1
AM_ISO_VIEW
  2
AcDmIsoView
  3
AcMechDwgViewMgmt
 90
    32768
280
     0
281
     0
  0
CLASS
  1
ACDMVIEWGEOM
  2
AcDmViewGeometry
  3
AcMechDwgViewMgmt
 90
    32768
280
     0
281
     1
  0
CLASS
  1
ACMBOM
  2
AcmBom
  3
"AcmSymBB|Product Description: AutoCAD Mechanical 2004 DX|Company: Autodesk"
 90
    32768
280
     0
281
     0
  0
CLASS
  1
ACMBOMROW
  2
AcmBomRow
  3
"AcmSymBB|Product Description: AutoCAD Mechanical 2004 DX|Company: Autodesk"
 90
    32768
280
     0
281
     0
  0
CLASS
  1
ACMSTANDARDANSI
  2
AcmStandardANSI
  3
"Amdt_StdImp|Product Description: AutoCAD Mechanical 2004 DX|Company: Autodesk"
 90
        0
280
     0
281
     0
  0
CLASS
  1
ACMSURFSTANDARDANSI
  2
AcmSurfTextStdANSI
  3
"Amdt_StdImp|Product Description: AutoCAD Mechanical 2004 DX|Company: Autodesk"
 90
        0
280
     0
281
     0
  0
CLASS
  1
ACMFCFSTANDARDANSI
  2
AcmFCFStdANSI
  3
"Amdt_StdImp|Product Description: AutoCAD Mechanical 2004 DX|Company: Autodesk"
 90
        0
280
     0
281
     0
  0
CLASS
  1
ACMWELDSTANDARDANSI
  2
AcmWeldingStdANSI
  3
"Amdt_StdImp|Product Description: AutoCAD Mechanical 2004 DX|Company: Autodesk"
 90
        0
280
     0
281
     0
  0
CLASS
  1
ACMIDSTANDARDANSI
  2
AcmIdStdANSI
  3
"Amdt_StdImp|Product Description: AutoCAD Mechanical 2004 DX|Company: Autodesk"
 90
        0
280
     0
281
     0
  0
CLASS
  1
ACMDATUMSTANDARDANSI
  2
AcmDatumStdANSI
  3
"Amdt_StdImp|Product Description: AutoCAD Mechanical 2004 DX|Company: Autodesk"
 90
        0
280
     0
281
     0
  0
CLASS
  1
ACMBOMSTANDARDANSI
  2
AcmBOMStdANSI
  3
"Amdt_StdImp|Product Description: AutoCAD Mechanical 2004 DX|Company: Autodesk"
 90
        0
280
     0
281
     0
  0
CLASS
  1
ACMDATAENTRYPART
  2
AcmDataEntryPart
  3
"AcmSymBB|Product Description: AutoCAD Mechanical 2004 DX|Company: Autodesk"
 90
    32768
280
     0
281
     0
  0
CLASS
  1
ACMPARTREF
  2
AcmPartRef
  3
"AcmSymBB|Product Description: AutoCAD Mechanical 2004 DX|Company: Autodesk"
 90
    33791
280
     0
281
     1
  0
CLASS
  1
ACMBALLOON
  2
AcmBalloon
  3
"AcmSymBB|Product Description: AutoCAD Mechanical 2004 DX|Company: Autodesk"
 90
    33791
280
     0
281
     1
  0
CLASS
  1
ACAMGRBLOCKRECORD
  2
AcAmGrBlockRecord
  3
DesignerAssemblies
 90
    32768
280
     0
281
     0
  0
CLASS
  1
ACAMVIEWREACTOR
  2
AcAmViewReactor
  3
DesignerAssemblies
 90
    32768
280
     0
281
     0
  0
CLASS
  1
AMVIEW
  2
AcAmView
  3
DesignerAssemblies
 90
    32768
280
     0
281
     0
  0
CLASS
  1
ACAMVIEWCONTEXT
  2
AcAmViewContext
  3
DesignerAssemblies
 90
    32768
280
     0
281
     0
  0
CLASS
  1
ACAMCOMPVIEWREACTOR
  2
AcAmGrCompViewReactor
  3
DesignerAssemblies
 90
    32768
280
     0
281
     0
  0
CLASS
  1
ACAMCOMPENTVIEW
  2
AcAmCompEntView
  3
DesignerAssemblies
 90
    32768
280
     0
281
     1
  0
CLASS
  1
ACAMVIEWENTITYFILTER
  2
AcAmViewEntityFilter
  3
DesignerAssemblies
 90
    32768
280
     0
281
     0
  0
CLASS
  1
ACDBSOLLINEDGRES
  2
AcDbSolLinEdgRes
  3
AcGrefServices
 90
    32768
280
     0
281
     0
  0
CLASS
  1
AM_GREF_AXIS
  2
AcDmGrefAxisDef
  3
AcMechDwgViewMgmt
 90
    32768
280
     0
281
     0
  0
CLASS
  1
TABLESTYLE
  2
AcDbTableStyle
  3
ObjectDBX Classes
 90
     2047
280
     0
281
     0
  0
CLASS
  1
AMGSETTINGSOBJ
  2
AmgSettingsObj
  3
"AcadM|Product Description: AutoCAD Mechanical 2000|Company: Autodesk"
 90
        0
280
     0
281
     0
  0
CLASS
  1
AMDTMAPISURFMOUDULE
  2
AmdtMApiSurfModule
  3
MApiSurfServices
 90
        0
280
     0
281
     0
  0
CLASS
  1
ACDMPARTVIEWDATA
  2
AcDmPartViewData
  3
AcMechDwgViewMgmt
 90
    32768
280
     0
281
     0
  0
CLASS
  1
ACDMDISPLAYATTRIBS
  2
AcDmDisplayAttribs
  3
AcMechDwgViewMgmt
 90
    32768
280
     0
281
     0
  0
CLASS
  1
ACDMBODYINSTANCEDATA
  2
AcDmBodyInstanceData
  3
AcMechDwgViewMgmt
 90
    32768
280
     0
281
     0
  0
CLASS
  1
ACRFINSADJ
  2
AcRfInsAdjuster
  3
AcMeServices
 90
    32768
280
     0
281
     0
  0
CLASS
  1
AMDTFORMULAUPDATEDISPATCHER
  2
AmdtFormulaUpdateDispatcher
  3
AcMeServices
 90
    32768
280
     0
281
     0
  0
CLASS
  1
ACAMGTITLESTD
  2
AcAmgTitleStd
  3
"TITLEAPP"
 90
        0
280
     0
281
     0
  0
CLASS
  1
ACMDETAILSTANDARDANSI
  2
AmdtDetailSymStdANSI
  3
"Amdt_StdImp|Product Description: AutoCAD Mechanical 2004 DX|Company: Autodesk"
 90
        0
280
     0
281
     0
  0
CLASS
  1
ACMSECTIONSTANDARDANSI
  2
AmdtSectionSymStdANSI
  3
"Amdt_StdImp|Product Description: AutoCAD Mechanical 2004 DX|Company: Autodesk"
 90
        0
280
     0
281
     0
  0
CLASS
  1
ACMCENTERLINESTANDARDANSI
  2
AmdtCenterLineStdANSI
  3
"Amdt_StdImp|Product Description: AutoCAD Mechanical 2004 DX|Company: Autodesk"
 90
        0
280
     0
281
     0
  0
CLASS
  1
ACMTHREADLINESTANDARDANSI
  2
AmdtThreadLineStdANSI
  3
"Amdt_StdImp|Product Description: AutoCAD Mechanical 2004 DX|Company: Autodesk"
 90
        0
280
     0
281
     0
  0
CLASS
  1
ACMNOTESTANDARDANSI
  2
AmdtNoteStdANSI
  3
"Amdt_StdImp|Product Description: AutoCAD Mechanical 2004 DX|Company: Autodesk"
 90
        0
280
     0
281
     0
  0
CLASS
  1
AMDTNOTETEMPLATEDB
  2
AmdtNoteTemplateDB
  3
AMDT_STDIMP_MODULE_NAME
 90
        0
280
     0
281
     0
  0
CLASS
  1
ACAMGLAYSTD
  2
AcAmgLayStd
  3
"AcAmgLayStd|Product Description: AutoCAD Mechanical 2000|Company: Autodesk"
 90
        0
280
     0
281
     0
  0
CLASS
  1
ACAMGDIMSTD
  2
AcAmgDimStd
  3
"AcAmgDimStd|Product Description: AutoCAD Mechanical 2000|Company: Autodesk"
 90
        0
280
     0
281
     0
  0
CLASS
  1
ACAMGHOLECHARTSTDANSI
  2
AcAmgHoleChartStdANSI
  3
ACMSYMBB_MODULE_NAME
 90
        0
280
     0
281
     0
  0
CLASS
  1
VAACXREFPANELOBJECT
  2
VaAcXREFPanelObject
  3
VAAC_ADDIN
 90
        0
280
     0
281
     0
  0
CLASS
  1
VAACIMAGEINVENTORY
  2
VaAcImageInventory
  3
VAAC_ADDIN
 90
        0
280
     0
281
     0
  0
CLASS
  1
ACAMGFILTERDAT
  2
AcAmgFilterDat
  3
"AcadM|Product Description: AutoCAD Mechanical 2000|Company: Autodesk"
 90
        0
280
     0
281
     0
  0
CLASS
  1
ACMEPLINE
  2
AcImPlineDisplay
  3
AcMeServices
 90
    32768
280
     0
281
     1
  0
CLASS
  1
AM_ADLINCTRLINE
  2
AcAdLineCl
  3
DesignerServices
 90
    32768
280
     0
281
     0
  0
CLASS
  1
IMAGE
  2
AcDbRasterImage
  3
ISM
 90
      127
280
     0
281
     1
  0
CLASS
  1
IMAGEDEF_REACTOR
  2
AcDbRasterImageDefReactor
  3
ISM
 90
        1
280
     0
281
     0
  0
CLASS
  1
SORTENTSTABLE
  2
AcDbSortentsTable
  3
ObjectDBX Classes
 90
        0
280
     0
281
     0
  0
CLASS
  1
IMAGEDEF
  2
AcDbRasterImageDef
  3
ISM
 90
        0
280
     0
281
     0
  0
CLASS
  1
RASTERVARIABLES
  2
AcDbRasterVariables
  3
ISM
 90
        0
280
     0
281
     0
  0
CLASS
  1
AM_ADCIRCTRLINE
  2
AcAdBullsEyeCl
  3
DesignerServices
 90
    32768
280
     0
281
     0
  0
ENDSEC
  0
SECTION
  2
TABLES
  0
TABLE
  2
VPORT
  5
21
330
0
100
AcDbSymbolTable
 70
     4
  0
VPORT
  5
8C8
330
21
100
AcDbSymbolTableRecord
100
AcDbViewportTableRecord
  2
*Active
 70
     0
 10
0.0
 20
0.0
 11
1.0
 21
1.0
 12
-8.578882283284848
 22
-6.810976282228638
 13
0.0
 23
0.0
 14
0.5
 24
0.5
 15
0.5
 25
0.5
 16
0.0
 26
0.0
 36
1.0
 17
16.88294780077301
 27
11.6444225422854
 37
0.0
 40
12.30068905330883
 41
1.387234042553191
 42
50.0
 43
0.0
 44
0.0
 50
0.0
 51
0.0
 71
     0
 72
   100
 73
     1
 74
     3
 75
     0
 76
     0
 77
     0
 78
     0
281
     0
 65
     0
110
0.0
120
0.0
130
0.0
111
1.0
121
0.0
131
0.0
112
0.0
122
1.0
132
0.0
 79
     0
146
0.0
  0
ENDTAB
  0
TABLE
  2
LTYPE
  5
1C
330
0
100
AcDbSymbolTable
 70
    19
  0
LTYPE
  5
1D
330
1C
100
AcDbSymbolTableRecord
100
AcDbLinetypeTableRecord
  2
ByBlock
 70
     0
  3

 72
    65
 73
     0
 40
0.0
  0
LTYPE
  5
1E
330
1C
100
AcDbSymbolTableRecord
100
AcDbLinetypeTableRecord
  2
ByLayer
 70
     0
  3

 72
    65
 73
     0
 40
0.0
  0
LTYPE
  5
9
330
1C
100
AcDbSymbolTableRecord
100
AcDbLinetypeTableRecord
  2
Continuous
 70
     0
  3
Solid line
 72
    65
 73
     0
 40
0.0
  0
LTYPE
  5
2BE
330
1C
100
AcDbSymbolTableRecord
100
AcDbLinetypeTableRecord
  2
PHANTOM
 70
     0
  3
Phantom ______  __  __  ______  __  __  ______
 72
    65
 73
     6
 40
2.5
 49
1.25
 74
     0
 49
-0.25
 74
     0
 49
0.25
 74
     0
 49
-0.25
 74
     0
 49
0.25
 74
     0
 49
-0.25
 74
     0
  0
LTYPE
  5
7EA
330
1C
100
AcDbSymbolTableRecord
100
AcDbLinetypeTableRecord
  2
HIDDEN
 70
     0
  3
Hidden __ __ __ __ __ __ __ __ __ __ __ __ __ _
 72
    65
 73
     2
 40
0.375
 49
0.25
 74
     0
 49
-0.125
 74
     0
  0
LTYPE
  5
7EB
330
1C
100
AcDbSymbolTableRecord
100
AcDbLinetypeTableRecord
  2
PHANTOM2
 70
     0
  3
Phantom (.5x) ___ _ _ ___ _ _ ___ _ _ ___ _ _
 72
    65
 73
     6
 40
1.25
 49
0.625
 74
     0
 49
-0.125
 74
     0
 49
0.125
 74
     0
 49
-0.125
 74
     0
 49
0.125
 74
     0
 49
-0.125
 74
     0
  0
LTYPE
  5
7EC
330
1C
100
AcDbSymbolTableRecord
100
AcDbLinetypeTableRecord
  2
CENTER
 70
     0
  3
Center ____ _ ____ _ ____ _ ____ _ ____ _ ____
 72
    65
 73
     4
 40
2.0
 49
1.25
 74
     0
 49
-0.25
 74
     0
 49
0.25
 74
     0
 49
-0.25
 74
     0
  0
LTYPE
  5
83B
330
1C
100
AcDbSymbolTableRecord
100
AcDbLinetypeTableRecord
  2
ASULTYPE
 70
     0
  3
Solid line
 72
    65
 73
     2
 40
3.0
 49
2.5
 74
     0
 49
0.5
 74
     0
  0
LTYPE
  5
83C
330
1C
100
AcDbSymbolTableRecord
100
AcDbLinetypeTableRecord
  2
ASVLTYPE
 70
     0
  3
__ __ __ __ __ __ __ __ __ __ __ __ __ __ __ __ __ __ __ __ __
 72
    65
 73
     2
 40
0.75
 49
0.5
 74
     0
 49
-0.25
 74
     0
  0
LTYPE
  5
885
330
1C
100
AcDbSymbolTableRecord
100
AcDbLinetypeTableRecord
  2
AM_ISO02W050
 70
     0
  3
__ __ __ __ __ __ __ __ __ __ __ __ __ __ __
 72
    65
 73
     2
 40
7.5
 49
6.0
 74
     0
 49
-1.5
 74
     0
  0
LTYPE
  5
886
330
1C
100
AcDbSymbolTableRecord
100
AcDbLinetypeTableRecord
  2
AM_ISO08W050
 70
     0
  3
____ . ____ . ____ . ____ . ____ . ____ . ____
 72
    65
 73
     4
 40
18.0
 49
12.0
 74
     0
 49
-1.5
 74
     0
 49
3.0
 74
     0
 49
-1.5
 74
     0
  0
LTYPE
  5
887
330
1C
100
AcDbSymbolTableRecord
100
AcDbLinetypeTableRecord
  2
AM_ISO09W050
 70
     0
  3
_____ . . _____ . . _____ . . ____ .. ____
 72
    65
 73
     6
 40
22.5
 49
12.0
 74
     0
 49
-1.5
 74
     0
 49
3.0
 74
     0
 49
-1.5
 74
     0
 49
3.0
 74
     0
 49
-1.5
 74
     0
  0
LTYPE
  5
888
330
1C
100
AcDbSymbolTableRecord
100
AcDbLinetypeTableRecord
  2
Amconstr
 70
     0
  3
_______________________
 72
    65
 73
     2
 40
9999.0
 49
9999.0
 74
     0
 49
0.0
 74
     0
  0
LTYPE
  5
889
330
1C
100
AcDbSymbolTableRecord
100
AcDbLinetypeTableRecord
  2
AM_ISO08W050x2
 70
     0
  3
__ . __ . __ . __ . __ . __
 72
    65
 73
     4
 40
9.0
 49
6.0
 74
     0
 49
-0.75
 74
     0
 49
1.5
 74
     0
 49
-0.75
 74
     0
  0
LTYPE
  5
88A
330
1C
100
AcDbSymbolTableRecord
100
AcDbLinetypeTableRecord
  2
AM_ISO02W050x2
 70
     0
  3
 _ _ _ _ _ _ _ _ _ _ _ _
 72
    65
 73
     2
 40
3.75
 49
3.0
 74
     0
 49
-0.75
 74
     0
  0
LTYPE
  5
88D
330
1C
100
AcDbSymbolTableRecord
100
AcDbLinetypeTableRecord
  2
Amzigzag
 70
     0
  3
/\/-/\/-/\/-/\/-/\/-/\/
 72
    65
 73
     2
 40
11.0001
 49
0.0001
 74
     4
 75
   135
340
88C
 46
0.04
 50
0.0
 44
0.0
 45
0.0
 49
-11.0
 74
     0
  0
LTYPE
  5
88E
330
1C
100
AcDbSymbolTableRecord
100
AcDbLinetypeTableRecord
  2
CENTER2
 70
     0
  3
Center (.5x) ___ _ ___ _ ___ _ ___ _ ___ _ ___
 72
    65
 73
     4
 40
1.125
 49
0.75
 74
     0
 49
-0.125
 74
     0
 49
0.125
 74
     0
 49
-0.125
 74
     0
  0
LTYPE
  5
88F
330
1C
100
AcDbSymbolTableRecord
100
AcDbLinetypeTableRecord
  2
HIDDEN2
 70
     0
  3
Hidden (.5x) _ _ _ _ _ _ _ _ _ _ _ _ _ _ _ _ _
 72
    65
 73
     2
 40
0.1875
 49
0.125
 74
     0
 49
-0.0625
 74
     0
  0
LTYPE
  5
890
330
1C
100
AcDbSymbolTableRecord
100
AcDbLinetypeTableRecord
  2
Amzigzag2
 70
     0
  3
/\/-/\/-/\/-/\/-/\/-/\/
 72
    65
 73
     2
 40
0.4401
 49
0.0001
 74
     4
 75
   135
340
88C
 46
0.0016
 50
0.0
 44
0.0
 45
0.0
 49
-0.4400000000000001
 74
     0
  0
LTYPE
  5
89E
330
1C
100
AcDbSymbolTableRecord
100
AcDbLinetypeTableRecord
  2
ACANSTGB
 70
     0
  3
__ . . __ . .
 72
    65
 73
     6
 40
0.35433070866
 49
0.15748031496
 74
     0
 49
-0.03937007874
 74
     0
 49
0.03937007874
 74
     0
 49
-0.03937007874
 74
     0
 49
0.03937007874
 74
     0
 49
-0.03937007874
 74
     0
  0
LTYPE
  5
89F
330
1C
100
AcDbSymbolTableRecord
100
AcDbLinetypeTableRecord
  2
ACANSTGL
 70
     0
  3
_ _ _ _ _
 72
    65
 73
     2
 40
0.11811023622
 49
0.07874015748
 74
     0
 49
-0.03937007874
 74
     0
  0
ENDTAB
  0
TABLE
  2
LAYER
  5
16
102
{ACAD_XDICTIONARY
360
17
102
}
330
0
100
AcDbSymbolTable
 70
     8
  0
LAYER
  5
5
330
16
100
AcDbSymbolTableRecord
100
AcDbLayerTableRecord
  2
0
 70
     0
 62
     7
  6
Continuous
370
    -3
390
6
  0
LAYER
  5
31
330
16
100
AcDbSymbolTableRecord
100
AcDbLayerTableRecord
  2
AM_VIS
 70
     0
 62
     7
  6
Continuous
370
    30
390
6
  0
LAYER
  5
2C0
330
16
100
AcDbSymbolTableRecord
100
AcDbLayerTableRecord
  2
CENTER
 70
     0
 62
     5
  6
Continuous
370
    -3
390
6
  0
LAYER
  5
2BD
330
16
100
AcDbSymbolTableRecord
100
AcDbLayerTableRecord
  2
PHANTOM
 70
     0
 62
     2
  6
PHANTOM
370
    -3
390
6
  0
LAYER
  5
2C5
330
16
100
AcDbSymbolTableRecord
100
AcDbLayerTableRecord
  2
10
 70
     0
 62
     7
  6
Continuous
370
    -3
390
6
  0
LAYER
  5
314
330
16
100
AcDbSymbolTableRecord
100
AcDbLayerTableRecord
  2
DIMENSION
 70
     0
 62
     1
  6
Continuous
370
    -3
390
6
  0
LAYER
  5
31F
330
16
100
AcDbSymbolTableRecord
100
AcDbLayerTableRecord
  2
Defpoints
 70
     0
 62
     7
  6
Continuous
290
     0
370
    -3
390
6
  0
LAYER
  5
366
330
16
100
AcDbSymbolTableRecord
100
AcDbLayerTableRecord
  2
14-20-HEXNUT
 70
     0
 62
     1
  6
Continuous
370
    -3
390
6
  0
ENDTAB
  0
TABLE
  2
STYLE
  5
19
330
0
100
AcDbSymbolTable
 70
     5
  0
STYLE
  5
1A
330
19
100
AcDbSymbolTableRecord
100
AcDbTextStyleTableRecord
  2
Standard
 70
     0
 40
0.125
 41
1.0
 50
0.0
 71
     0
 42
0.125
  3
simplex.shx
  4

  0
STYLE
  5
373
330
19
100
AcDbSymbolTableRecord
100
AcDbTextStyleTableRecord
  2
ADESK1
 70
     0
 40
0.0
 41
1.0
 50
0.0
 71
     0
 42
0.12
  3
romans.shx
  4

  0
STYLE
  5
88C
330
19
100
AcDbSymbolTableRecord
100
AcDbTextStyleTableRecord
  2

 70
     1
 40
0.0
 41
1.0
 50
0.0
 71
     0
 42
0.125
  3
ltypeshp.shx
  4

  0
STYLE
  5
891
330
19
100
AcDbSymbolTableRecord
100
AcDbTextStyleTableRecord
  2
ACANSTS
 70
     0
 40
1.0
 41
1.0
 50
0.0
 71
     0
 42
0.125
  3
romans.shx
  4

  0
STYLE
  5
89D
330
19
100
AcDbSymbolTableRecord
100
AcDbTextStyleTableRecord
  2
ACANSGDT
 70
     0
 40
0.0
 41
1.0
 50
0.0
 71
     0
 42
0.125
  3
amgdtans.shx
  4

  0
ENDTAB
  0
TABLE
  2
VIEW
  5
1F
330
0
100
AcDbSymbolTable
 70
     0
  0
ENDTAB
  0
TABLE
  2
UCS
  5
20
330
0
100
AcDbSymbolTable
 70
     0
  0
ENDTAB
  0
TABLE
  2
APPID
  5
23
330
0
100
AcDbSymbolTable
 70
    14
  0
APPID
  5
24
330
23
100
AcDbSymbolTableRecord
100
AcDbRegAppTableRecord
  2
ACAD
 70
     0
  0
APPID
  5
15
330
23
100
AcDbSymbolTableRecord
100
AcDbRegAppTableRecord
  2
ACAD_PSEXT
 70
     0
  0
APPID
  5
792
330
23
100
AcDbSymbolTableRecord
100
AcDbRegAppTableRecord
  2
GENIUS_GENDIM_13
 70
     0
  0
APPID
  5
793
330
23
100
AcDbSymbolTableRecord
100
AcDbRegAppTableRecord
  2
GENIUS_GENDTOL_13
 70
     0
  0
APPID
  5
794
330
23
100
AcDbSymbolTableRecord
100
AcDbRegAppTableRecord
  2
GENIUS_GE3DTOL_13
 70
     0
  0
APPID
  5
7BB
330
23
100
AcDbSymbolTableRecord
100
AcDbRegAppTableRecord
  2
MCAD_NO_VIS
 70
     0
  0
APPID
  5
7BC
330
23
100
AcDbSymbolTableRecord
100
AcDbRegAppTableRecord
  2
ACAD_TEMP_GRAPHIC
 70
     0
  0
APPID
  5
7EE
330
23
100
AcDbSymbolTableRecord
100
AcDbRegAppTableRecord
  2
AD_DRAW
 70
     0
  0
APPID
  5
7F1
330
23
100
AcDbSymbolTableRecord
100
AcDbRegAppTableRecord
  2
ACATTRIBSERVICES
 70
     0
  0
APPID
  5
83D
330
23
100
AcDbSymbolTableRecord
100
AcDbRegAppTableRecord
  2
ASURF_PCURVE_APPNAME
 70
     0
  0
APPID
  5
842
330
23
100
AcDbSymbolTableRecord
100
AcDbRegAppTableRecord
  2
AMG_3D2D_5.0
 70
     0
  0
APPID
  5
871
330
23
100
AcDbSymbolTableRecord
100
AcDbRegAppTableRecord
  2
DESIGNERASSEMBLIES
 70
     0
  0
APPID
  5
878
330
23
100
AcDbSymbolTableRecord
100
AcDbRegAppTableRecord
  2
ACADM_DIM_EDIT
 70
     0
  0
APPID
  5
879
330
23
100
AcDbSymbolTableRecord
100
AcDbRegAppTableRecord
  2
AMDT_DM_ADJ
 70
     0
  0
ENDTAB
  0
TABLE
  2
DIMSTYLE
  5
25
330
0
100
AcDbSymbolTable
 70
     7
100
AcDbDimStyleTable
 71
     1
340
26
  0
DIMSTYLE
105
26
102
{ACAD_REACTORS
330
313
330
32B
330
339
330
347
330
355
102
}
330
25
100
AcDbSymbolTableRecord
100
AcDbDimStyleTableRecord
  2
Standard
 70
     0
 41
0.125
 44
0.0625
140
0.125
277
     5
288
     1
340
1A
  0
DIMSTYLE
105
8A8
330
25
100
AcDbSymbolTableRecord
100
AcDbDimStyleTableRecord
  2
AM_ANSI
 70
     0
  4
mm
 41
0.1
 42
0.05
 43
0.5
 44
0.1
 47
0.1
 48
0.1
 78
     7
 79
     2
140
0.12
141
0.0
146
0.71
147
0.06
176
   256
177
   256
178
     2
274
     4
284
     7
340
1A
371
    -1
372
    -1
  0
DIMSTYLE
105
8A9
330
25
100
AcDbSymbolTableRecord
100
AcDbDimStyleTableRecord
  2
AM_ANSI$3
 70
     0
  4
mm
 41
0.1
 42
0.05
 43
0.5
 44
0.1
 47
0.1
 48
0.1
 78
     7
 79
     2
140
0.12
141
0.0
146
0.71
147
0.06
176
   256
177
   256
178
     2
274
     4
284
     7
288
     1
289
     0
340
1A
371
    -1
372
    -1
  0
DIMSTYLE
105
8AA
330
25
100
AcDbSymbolTableRecord
100
AcDbDimStyleTableRecord
  2
AM_ANSI$4
 70
     0
  4
mm
 41
0.1
 42
0.05
 43
0.5
 44
0.1
 47
0.1
 48
0.1
 78
     7
 79
     2
140
0.12
141
0.0
146
0.71
147
0.06
176
   256
177
   256
178
     2
274
     4
284
     7
288
     1
289
     0
340
1A
371
    -1
372
    -1
  0
DIMSTYLE
105
8AB
330
25
100
AcDbSymbolTableRecord
100
AcDbDimStyleTableRecord
  2
AM_ANSI$7
 70
     0
  4
mm
 41
0.1
 42
0.05
 43
0.5
 44
0.1
 47
0.1
 48
0.1
 78
     7
 79
     2
140
0.24
141
0.0
146
0.71
147
0.06
176
   256
177
   256
178
     2
274
     4
284
     7
340
1A
371
    -1
372
    -1
  0
DIMSTYLE
105
8AC
330
25
100
AcDbSymbolTableRecord
100
AcDbDimStyleTableRecord
  2
AM_ANSI$SF
 70
     0
  4
mm
 41
0.1
 42
0.05
 43
0.5
 44
0.1
 47
0.1
 48
0.1
 75
     1
 76
     1
 78
     7
 79
     2
140
0.12
141
0.0
146
0.71
147
0.06
176
   256
177
   256
178
     2
274
     4
284
     7
340
1A
371
    -1
372
    -1
  0
DIMSTYLE
105
8B1
330
25
100
AcDbSymbolTableRecord
100
AcDbDimStyleTableRecord
  2
AM_ANSI$SH
 70
     0
  4
mm
 41
0.1
 42
0.05
 43
0.5
 44
0.1
 47
0.1
 48
0.1
 75
     1
 76
     1
 78
     7
 79
     2
140
0.12
141
0.0
146
0.71
147
0.06
173
     1
176
   256
177
   256
178
     2
274
     4
284
     7
340
1A
343
8AD
371
    -1
372
    -1
  0
ENDTAB
  0
TABLE
  2
BLOCK_RECORD
  5
1
330
0
100
AcDbSymbolTable
 70
    15
  0
BLOCK_RECORD
  5
2
102
{ACAD_XDICTIONARY
360
3
102
}
330
1
100
AcDbSymbolTableRecord
100
AcDbBlockTableRecord
  2
*Model_Space
340
B
  0
BLOCK_RECORD
  5
D
102
{ACAD_XDICTIONARY
360
E
102
}
330
1
100
AcDbSymbolTableRecord
100
AcDbBlockTableRecord
  2
*Paper_Space
340
12
  0
BLOCK_RECORD
  5
295
330
1
100
AcDbSymbolTableRecord
100
AcDbBlockTableRecord
  2
*U0
340
0
102
{BLKREFS
331
294
102
}
  0
BLOCK_RECORD
  5
29A
330
1
100
AcDbSymbolTableRecord
100
AcDbBlockTableRecord
  2
*U1
340
0
102
{BLKREFS
331
299
102
}
  0
BLOCK_RECORD
  5
29F
330
1
100
AcDbSymbolTableRecord
100
AcDbBlockTableRecord
  2
*U2
340
0
102
{BLKREFS
331
29E
102
}
  0
BLOCK_RECORD
  5
2A4
330
1
100
AcDbSymbolTableRecord
100
AcDbBlockTableRecord
  2
*U3
340
0
102
{BLKREFS
331
2A3
102
}
  0
BLOCK_RECORD
  5
2A9
330
1
100
AcDbSymbolTableRecord
100
AcDbBlockTableRecord
  2
*U4
340
0
102
{BLKREFS
331
2A8
102
}
  0
BLOCK_RECORD
  5
2AE
330
1
100
AcDbSymbolTableRecord
100
AcDbBlockTableRecord
  2
*U5
340
0
102
{BLKREFS
331
2AD
102
}
  0
BLOCK_RECORD
  5
2B3
330
1
100
AcDbSymbolTableRecord
100
AcDbBlockTableRecord
  2
*U6
340
0
102
{BLKREFS
331
2B2
102
}
  0
BLOCK_RECORD
  5
2B8
330
1
100
AcDbSymbolTableRecord
100
AcDbBlockTableRecord
  2
*U7
340
0
102
{BLKREFS
331
2B7
102
}
  0
BLOCK_RECORD
  5
315
330
1
100
AcDbSymbolTableRecord
100
AcDbBlockTableRecord
  2
*D8
340
0
  0
BLOCK_RECORD
  5
32C
330
1
100
AcDbSymbolTableRecord
100
AcDbBlockTableRecord
  2
*D9
340
0
  0
BLOCK_RECORD
  5
33A
330
1
100
AcDbSymbolTableRecord
100
AcDbBlockTableRecord
  2
*D10
340
0
  0
BLOCK_RECORD
  5
348
330
1
100
AcDbSymbolTableRecord
100
AcDbBlockTableRecord
  2
*D11
340
0
  0
BLOCK_RECORD
  5
356
330
1
100
AcDbSymbolTableRecord
100
AcDbBlockTableRecord
  2
*D12
340
0
  0
BLOCK_RECORD
  5
8AD
330
1
100
AcDbSymbolTableRecord
100
AcDbBlockTableRecord
  2
GENAXEH
340
0
  0
ENDTAB
  0
ENDSEC
  0
SECTION
  2
BLOCKS
  0
BLOCK
  5
4
330
2
100
AcDbEntity
  8
0
100
AcDbBlockBegin
  2
*Model_Space
 70
     0
 10
0.0
 20
0.0
 30
0.0
  3
*Model_Space
  1

  0
ENDBLK
  5
A
330
2
100
AcDbEntity
  8
0
100
AcDbBlockEnd
  0
BLOCK
  5
10
330
D
100
AcDbEntity
 67
     1
  8
0
100
AcDbBlockBegin
  2
*Paper_Space
 70
     0
 10
0.0
 20
0.0
 30
0.0
  3
*Paper_Space
  1

  0
ENDBLK
  5
11
330
D
100
AcDbEntity
 67
     1
  8
0
100
AcDbBlockEnd
  0
BLOCK
  5
296
330
295
100
AcDbEntity
  8
0
  6
ByBlock
 62
     2
100
AcDbBlockBegin
  2
*U0
 70
     1
 10
0.0
 20
0.0
 30
0.0
  3
*U0
  1

  0
TEXT
  5
297
330
295
100
AcDbEntity
  8
0
  6
ByBlock
 62
     2
100
AcDbText
 10
15.253
 20
1.7495
 30
0.0
 40
0.094
  1
 
 41
0.8842105263157966
 72
     5
 11
15.3282
 21
1.7495
 31
0.0
100
AcDbText
  0
ENDBLK
  5
298
330
295
100
AcDbEntity
  8
0
100
AcDbBlockEnd
  0
BLOCK
  5
29B
330
29A
100
AcDbEntity
  8
0
  6
ByBlock
 62
     2
100
AcDbBlockBegin
  2
*U1
 70
     1
 10
0.0
 20
0.0
 30
0.0
  3
*U1
  1

  0
TEXT
  5
29C
330
29A
100
AcDbEntity
  8
0
  6
ByBlock
 62
     2
100
AcDbText
 10
15.253
 20
1.436999999999999
 30
0.0
 40
0.094
  1
 
 41
0.8842105263157966
 72
     5
 11
15.3282
 21
1.436999999999999
 31
0.0
100
AcDbText
  0
ENDBLK
  5
29D
330
29A
100
AcDbEntity
  8
0
100
AcDbBlockEnd
  0
BLOCK
  5
2A0
330
29F
100
AcDbEntity
  8
0
  6
ByBlock
 62
     2
100
AcDbBlockBegin
  2
*U2
 70
     1
 10
0.0
 20
0.0
 30
0.0
  3
*U2
  1

  0
TEXT
  5
2A1
330
29F
100
AcDbEntity
  8
0
  6
ByBlock
 62
     2
100
AcDbText
 10
15.253
 20
1.1245
 30
0.0
 40
0.094
  1
 
 41
0.8842105263157966
 72
     5
 11
15.3282
 21
1.1245
 31
0.0
100
AcDbText
  0
ENDBLK
  5
2A2
330
29F
100
AcDbEntity
  8
0
100
AcDbBlockEnd
  0
BLOCK
  5
2A5
330
2A4
100
AcDbEntity
  8
0
  6
ByBlock
 62
     2
100
AcDbBlockBegin
  2
*U3
 70
     1
 10
0.0
 20
0.0
 30
0.0
  3
*U3
  1

  0
TEXT
  5
2A6
330
2A4
100
AcDbEntity
  8
0
  6
ByBlock
 62
     2
100
AcDbText
 10
15.253
 20
0.812
 30
0.0
 40
0.094
  1
 
 41
0.8842105263157966
 72
     5
 11
15.3282
 21
0.812
 31
0.0
100
AcDbText
  0
ENDBLK
  5
2A7
330
2A4
100
AcDbEntity
  8
0
100
AcDbBlockEnd
  0
BLOCK
  5
2AA
330
2A9
100
AcDbEntity
  8
0
  6
ByBlock
 62
     2
100
AcDbBlockBegin
  2
*U4
 70
     1
 10
0.0
 20
0.0
 30
0.0
  3
*U4
  1

  0
TEXT
  5
2AB
330
2A9
100
AcDbEntity
  8
0
  6
ByBlock
 62
     2
100
AcDbText
 10
15.253
 20
1.7495
 30
0.0
 40
0.094
  1
 
 41
0.8842105263157966
 72
     5
 11
15.3282
 21
1.7495
 31
0.0
100
AcDbText
  0
ENDBLK
  5
2AC
330
2A9
100
AcDbEntity
  8
0
100
AcDbBlockEnd
  0
BLOCK
  5
2AF
330
2AE
100
AcDbEntity
  8
0
  6
ByBlock
 62
     2
100
AcDbBlockBegin
  2
*U5
 70
     1
 10
0.0
 20
0.0
 30
0.0
  3
*U5
  1

  0
TEXT
  5
2B0
330
2AE
100
AcDbEntity
  8
0
  6
ByBlock
 62
     2
100
AcDbText
 10
15.253
 20
1.436999999999999
 30
0.0
 40
0.094
  1
 
 41
0.8842105263157966
 72
     5
 11
15.3282
 21
1.436999999999999
 31
0.0
100
AcDbText
  0
ENDBLK
  5
2B1
330
2AE
100
AcDbEntity
  8
0
100
AcDbBlockEnd
  0
BLOCK
  5
2B4
330
2B3
100
AcDbEntity
  8
0
  6
ByBlock
 62
     2
100
AcDbBlockBegin
  2
*U6
 70
     1
 10
0.0
 20
0.0
 30
0.0
  3
*U6
  1

  0
TEXT
  5
2B5
330
2B3
100
AcDbEntity
  8
0
  6
ByBlock
 62
     2
100
AcDbText
 10
15.253
 20
1.1245
 30
0.0
 40
0.094
  1
 
 41
0.8842105263157966
 72
     5
 11
15.3282
 21
1.1245
 31
0.0
100
AcDbText
  0
ENDBLK
  5
2B6
330
2B3
100
AcDbEntity
  8
0
100
AcDbBlockEnd
  0
BLOCK
  5
2B9
330
2B8
100
AcDbEntity
  8
0
  6
ByBlock
 62
     2
100
AcDbBlockBegin
  2
*U7
 70
     1
 10
0.0
 20
0.0
 30
0.0
  3
*U7
  1

  0
TEXT
  5
2BA
330
2B8
100
AcDbEntity
  8
0
  6
ByBlock
 62
     2
100
AcDbText
 10
15.253
 20
0.812
 30
0.0
 40
0.094
  1
 
 41
0.8842105263157966
 72
     5
 11
15.3282
 21
0.812
 31
0.0
100
AcDbText
  0
ENDBLK
  5
2BB
330
2B8
100
AcDbEntity
  8
0
100
AcDbBlockEnd
  0
BLOCK
  5
316
330
315
100
AcDbEntity
  8
0
100
AcDbBlockBegin
  2
*D8
 70
     1
 10
0.0
 20
0.0
 30
0.0
  3
*D8
  1

  0
LINE
  5
317
330
315
100
AcDbEntity
  8
DIMENSION
 62
     0
370
    -2
100
AcDbLine
 10
9.135049599191827
 20
5.167800899516731
 30
0.0
 11
9.135049599191827
 21
4.725050751478955
 31
0.0
  0
LINE
  5
318
330
315
100
AcDbEntity
  8
DIMENSION
 62
     0
370
    -2
100
AcDbLine
 10
9.322549599191827
 20
5.085746401338912
 30
0.0
 11
9.322549599191827
 21
4.725050751478955
 31
0.0
  0
LINE
  5
319
330
315
100
AcDbEntity
  8
DIMENSION
 62
     0
370
    -2
100
AcDbLine
 10
9.010049599191827
 20
4.787550751478955
 30
0.0
 11
8.885049599191827
 21
4.787550751478955
 31
0.0
  0
LINE
  5
31A
330
315
100
AcDbEntity
  8
DIMENSION
 62
     0
370
    -2
100
AcDbLine
 10
9.447549599191827
 20
4.787550751478955
 30
0.0
 11
9.870049599191826
 21
4.787550751478955
 31
0.0
  0
SOLID
  5
31B
330
315
100
AcDbEntity
  8
DIMENSION
 62
     0
100
AcDbTrace
 10
9.010049599191827
 20
4.808384084812288
 30
0.0
 11
9.010049599191827
 21
4.766717418145622
 31
0.0
 12
9.135049599191827
 22
4.787550751478955
 32
0.0
 13
9.135049599191827
 23
4.787550751478955
 33
0.0
  0
SOLID
  5
31C
330
315
100
AcDbEntity
  8
DIMENSION
 62
     0
100
AcDbTrace
 10
9.447549599191827
 20
4.808384084812288
 30
0.0
 11
9.447549599191827
 21
4.766717418145622
 31
0.0
 12
9.322549599191827
 22
4.787550751478955
 32
0.0
 13
9.322549599191827
 23
4.787550751478955
 33
0.0
  0
MTEXT
  5
31D
330
315
100
AcDbEntity
  8
DIMENSION
 62
     0
100
AcDbMText
 10
10.47790674204897
 20
4.787550751478955
 30
0.0
 40
0.125
 41
0.0
 71
     5
 72
     1
  1
\A1;PANEL THK\P({\H1.000000x;\S3/16;}SHOWN)
 73
     1
 44
1.0
1001
ACAD
1000
MTEXTBEGIN
1070
    73
1070
     1
1070
    44
1040
1.0
1070
    74
1070
     0
1000
MTEXTEND
  0
POINT
  5
31E
330
315
100
AcDbEntity
  8
Defpoints
 62
     0
100
AcDbPoint
 10
9.135049599191827
 20
5.230300899516731
 30
0.0
  0
POINT
  5
320
330
315
100
AcDbEntity
  8
Defpoints
 62
     0
100
AcDbPoint
 10
9.322549599191827
 20
5.148246401338912
 30
0.0
  0
POINT
  5
321
330
315
100
AcDbEntity
  8
Defpoints
 62
     0
100
AcDbPoint
 10
9.322549599191827
 20
4.787550751478955
 30
0.0
  0
ENDBLK
  5
322
330
315
100
AcDbEntity
  8
0
100
AcDbBlockEnd
  0
BLOCK
  5
32D
330
32C
100
AcDbEntity
  8
0
100
AcDbBlockBegin
  2
*D9
 70
     1
 10
0.0
 20
0.0
 30
0.0
  3
*D9
  1

  0
LINE
  5
32E
330
32C
100
AcDbEntity
  8
DIMENSION
 62
     0
370
    -2
100
AcDbLine
 10
4.432565932376355
 20
7.595843146713106
 30
0.0
 11
4.432565932376355
 21
8.37851799197444
 31
0.0
  0
LINE
  5
32F
330
32C
100
AcDbEntity
  8
DIMENSION
 62
     0
370
    -2
100
AcDbLine
 10
2.859878092376353
 20
7.595843146713105
 30
0.0
 11
2.859878092376353
 21
8.37851799197444
 31
0.0
  0
LINE
  5
330
330
32C
100
AcDbEntity
  8
DIMENSION
 62
     0
370
    -2
100
AcDbLine
 10
4.307565932376355
 20
8.31601799197444
 30
0.0
 11
3.870150583804926
 21
8.31601799197444
 31
0.0
  0
LINE
  5
331
330
32C
100
AcDbEntity
  8
DIMENSION
 62
     0
370
    -2
100
AcDbLine
 10
2.984878092376353
 20
8.31601799197444
 30
0.0
 11
3.422293440947782
 21
8.31601799197444
 31
0.0
  0
SOLID
  5
332
330
32C
100
AcDbEntity
  8
DIMENSION
 62
     0
100
AcDbTrace
 10
4.307565932376355
 20
8.336851325307772
 30
0.0
 11
4.307565932376355
 21
8.295184658641105
 31
0.0
 12
4.432565932376355
 22
8.31601799197444
 32
0.0
 13
4.432565932376355
 23
8.31601799197444
 33
0.0
  0
SOLID
  5
333
330
32C
100
AcDbEntity
  8
DIMENSION
 62
     0
100
AcDbTrace
 10
2.984878092376353
 20
8.336851325307772
 30
0.0
 11
2.984878092376353
 21
8.295184658641105
 31
0.0
 12
2.859878092376353
 22
8.31601799197444
 32
0.0
 13
2.859878092376353
 23
8.31601799197444
 33
0.0
  0
MTEXT
  5
334
330
32C
100
AcDbEntity
  8
DIMENSION
 62
     0
100
AcDbMText
 10
3.646222012376353
 20
8.31601799197444
 30
0.0
 40
0.125
 41
0.0
 71
     5
 72
     1
  1
\A1;1{\H1.000000x;\S9/16;}
 73
     1
 44
1.0
1001
ACAD
1000
MTEXTBEGIN
1070
    73
1070
     1
1070
    44
1040
1.0
1070
    74
1070
     0
1000
MTEXTEND
  0
POINT
  5
335
330
32C
100
AcDbEntity
  8
Defpoints
 62
     0
100
AcDbPoint
 10
4.432565932376355
 20
7.533343146713106
 30
0.0
  0
POINT
  5
336
330
32C
100
AcDbEntity
  8
Defpoints
 62
     0
100
AcDbPoint
 10
2.859878092376353
 20
7.533343146713105
 30
0.0
  0
POINT
  5
337
330
32C
100
AcDbEntity
  8
Defpoints
 62
     0
100
AcDbPoint
 10
2.859878092376353
 20
8.31601799197444
 30
0.0
  0
ENDBLK
  5
338
330
32C
100
AcDbEntity
  8
0
100
AcDbBlockEnd
  0
BLOCK
  5
33B
330
33A
100
AcDbEntity
  8
0
100
AcDbBlockBegin
  2
*D10
 70
     1
 10
0.0
 20
0.0
 30
0.0
  3
*D10
  1

  0
LINE
  5
33C
330
33A
100
AcDbEntity
  8
DIMENSION
 62
     0
370
    -2
100
AcDbLine
 10
2.887532172376351
 20
7.623497226713105
 30
0.0
 11
1.982646032157917
 21
7.623497226713106
 31
0.0
  0
LINE
  5
33D
330
33A
100
AcDbEntity
  8
DIMENSION
 62
     0
370
    -2
100
AcDbLine
 10
2.887532172376353
 20
5.995715226713103
 30
0.0
 11
1.982646032157917
 21
5.995715226713103
 31
0.0
  0
LINE
  5
33E
330
33A
100
AcDbEntity
  8
DIMENSION
 62
     0
370
    -2
100
AcDbLine
 10
2.045146032157917
 20
7.498497226713105
 30
0.0
 11
2.045146032157917
 21
7.096492822467681
 31
0.0
  0
LINE
  5
33F
330
33A
100
AcDbEntity
  8
DIMENSION
 62
     0
370
    -2
100
AcDbLine
 10
2.045146032157917
 20
6.120715226713103
 30
0.0
 11
2.045146032157917
 21
6.624826155801013
 31
0.0
  0
SOLID
  5
340
330
33A
100
AcDbEntity
  8
DIMENSION
 62
     0
100
AcDbTrace
 10
2.024312698824584
 20
7.498497226713105
 30
0.0
 11
2.065979365491251
 21
7.498497226713105
 31
0.0
 12
2.045146032157917
 22
7.623497226713105
 32
0.0
 13
2.045146032157917
 23
7.623497226713105
 33
0.0
  0
SOLID
  5
341
330
33A
100
AcDbEntity
  8
DIMENSION
 62
     0
100
AcDbTrace
 10
2.024312698824583
 20
6.120715226713103
 30
0.0
 11
2.065979365491249
 21
6.120715226713103
 31
0.0
 12
2.045146032157917
 22
5.995715226713103
 32
0.0
 13
2.045146032157917
 23
5.995715226713103
 33
0.0
  0
MTEXT
  5
342
330
33A
100
AcDbEntity
  8
DIMENSION
 62
     0
100
AcDbMText
 10
2.045146032157916
 20
6.860659489134348
 30
0.0
 40
0.125
 41
0.0
 71
     5
 72
     1
  1
\A1;1{\H1.000000x;\S5/8;}
 73
     1
 44
1.0
1001
ACAD
1000
MTEXTBEGIN
1070
    73
1070
     1
1070
    44
1040
1.0
1070
    74
1070
     0
1000
MTEXTEND
  0
POINT
  5
343
330
33A
100
AcDbEntity
  8
Defpoints
 62
     0
100
AcDbPoint
 10
2.950032172376351
 20
7.623497226713105
 30
0.0
  0
POINT
  5
344
330
33A
100
AcDbEntity
  8
Defpoints
 62
     0
100
AcDbPoint
 10
2.950032172376353
 20
5.995715226713103
 30
0.0
  0
POINT
  5
345
330
33A
100
AcDbEntity
  8
Defpoints
 62
     0
100
AcDbPoint
 10
2.045146032157917
 20
5.995715226713103
 30
0.0
  0
ENDBLK
  5
346
330
33A
100
AcDbEntity
  8
0
100
AcDbBlockEnd
  0
BLOCK
  5
349
330
348
100
AcDbEntity
  8
0
100
AcDbBlockBegin
  2
*D11
 70
     1
 10
0.0
 20
0.0
 30
0.0
  3
*D11
  1

  0
LINE
  5
34A
330
348
100
AcDbEntity
  8
DIMENSION
 62
     0
370
    -2
100
AcDbLine
 10
11.47624959919182
 20
7.516106226713103
 30
0.0
 11
11.47624959919182
 21
9.297293306786706
 31
0.0
  0
LINE
  5
34B
330
348
100
AcDbEntity
  8
DIMENSION
 62
     0
370
    -2
100
AcDbLine
 10
9.322549599191827
 20
8.798764314768877
 30
0.0
 11
9.322549599191827
 21
9.297293306786706
 31
0.0
  0
LINE
  5
34C
330
348
100
AcDbEntity
  8
DIMENSION
 62
     0
370
    -2
100
AcDbLine
 10
11.35124959919182
 20
9.234793306786706
 30
0.0
 11
10.5129174000965
 21
9.234793306786706
 31
0.0
  0
LINE
  5
34D
330
348
100
AcDbEntity
  8
DIMENSION
 62
     0
370
    -2
100
AcDbLine
 10
9.447549599191827
 20
9.234793306786706
 30
0.0
 11
10.13053644771555
 21
9.234793306786706
 31
0.0
  0
SOLID
  5
34E
330
348
100
AcDbEntity
  8
DIMENSION
 62
     0
100
AcDbTrace
 10
11.35124959919182
 20
9.255626640120038
 30
0.0
 11
11.35124959919182
 21
9.213959973453372
 31
0.0
 12
11.47624959919182
 22
9.234793306786706
 32
0.0
 13
11.47624959919182
 23
9.234793306786706
 33
0.0
  0
SOLID
  5
34F
330
348
100
AcDbEntity
  8
DIMENSION
 62
     0
100
AcDbTrace
 10
9.447549599191827
 20
9.255626640120038
 30
0.0
 11
9.447549599191827
 21
9.213959973453372
 31
0.0
 12
9.322549599191827
 22
9.234793306786706
 32
0.0
 13
9.322549599191827
 23
9.234793306786706
 33
0.0
  0
MTEXT
  5
350
330
348
100
AcDbEntity
  8
DIMENSION
 62
     0
100
AcDbMText
 10
10.32172692390602
 20
9.234793306786706
 30
0.0
 40
0.125
 41
0.0
 71
     5
 72
     1
  1
\A1;2{\H1.000000x;\S1/8;}
 73
     1
 44
1.0
1001
ACAD
1000
MTEXTBEGIN
1070
    73
1070
     1
1070
    44
1040
1.0
1070
    74
1070
     0
1000
MTEXTEND
  0
POINT
  5
351
330
348
100
AcDbEntity
  8
Defpoints
 62
     0
100
AcDbPoint
 10
11.47624959919182
 20
7.453606226713103
 30
0.0
  0
POINT
  5
352
330
348
100
AcDbEntity
  8
Defpoints
 62
     0
100
AcDbPoint
 10
9.322549599191827
 20
8.736264314768877
 30
0.0
  0
POINT
  5
353
330
348
100
AcDbEntity
  8
Defpoints
 62
     0
100
AcDbPoint
 10
9.322549599191827
 20
9.234793306786706
 30
0.0
  0
ENDBLK
  5
354
330
348
100
AcDbEntity
  8
0
100
AcDbBlockEnd
  0
BLOCK
  5
357
330
356
100
AcDbEntity
  8
0
100
AcDbBlockBegin
  2
*D12
 70
     1
 10
0.0
 20
0.0
 30
0.0
  3
*D12
  1

  0
LINE
  5
358
330
356
100
AcDbEntity
  8
DIMENSION
 62
     0
370
    -2
100
AcDbLine
 10
9.135049599191827
 20
8.791304801599212
 30
0.0
 11
9.135049599191827
 21
9.318790615613265
 31
0.0
  0
LINE
  5
359
330
356
100
AcDbEntity
  8
DIMENSION
 62
     0
370
    -2
100
AcDbLine
 10
8.135049599191821
 20
7.372106226713103
 30
0.0
 11
8.135049599191821
 21
9.318790615613265
 31
0.0
  0
LINE
  5
35A
330
356
100
AcDbEntity
  8
DIMENSION
 62
     0
370
    -2
100
AcDbLine
 10
9.010049599191827
 20
9.256290615613265
 30
0.0
 11
8.751665570841963
 21
9.256290615613265
 31
0.0
  0
LINE
  5
35B
330
356
100
AcDbEntity
  8
DIMENSION
 62
     0
370
    -2
100
AcDbLine
 10
8.260049599191821
 20
9.256290615613265
 30
0.0
 11
8.54190366608006
 21
9.256290615613265
 31
0.0
  0
SOLID
  5
35C
330
356
100
AcDbEntity
  8
DIMENSION
 62
     0
100
AcDbTrace
 10
9.010049599191827
 20
9.277123948946599
 30
0.0
 11
9.010049599191827
 21
9.235457282279931
 31
0.0
 12
9.135049599191827
 22
9.256290615613265
 32
0.0
 13
9.135049599191827
 23
9.256290615613265
 33
0.0
  0
SOLID
  5
35D
330
356
100
AcDbEntity
  8
DIMENSION
 62
     0
100
AcDbTrace
 10
8.260049599191821
 20
9.277123948946599
 30
0.0
 11
8.260049599191821
 21
9.235457282279931
 31
0.0
 12
8.135049599191821
 22
9.256290615613265
 32
0.0
 13
8.135049599191821
 23
9.256290615613265
 33
0.0
  0
MTEXT
  5
35E
330
356
100
AcDbEntity
  8
DIMENSION
 62
     0
100
AcDbMText
 10
8.646784618461012
 20
9.256290615613265
 30
0.0
 40
0.125
 41
0.0
 71
     5
 72
     1
  1
\A1;1
 73
     1
 44
1.0
1001
ACAD
1000
MTEXTBEGIN
1070
    73
1070
     1
1070
    44
1040
1.0
1070
    74
1070
     0
1000
MTEXTEND
  0
POINT
  5
35F
330
356
100
AcDbEntity
  8
Defpoints
 62
     0
100
AcDbPoint
 10
9.135049599191827
 20
8.728804801599212
 30
0.0
  0
POINT
  5
360
330
356
100
AcDbEntity
  8
Defpoints
 62
     0
100
AcDbPoint
 10
8.135049599191821
 20
7.309606226713103
 30
0.0
  0
POINT
  5
361
330
356
100
AcDbEntity
  8
Defpoints
 62
     0
100
AcDbPoint
 10
8.135049599191821
 20
9.256290615613265
 30
0.0
  0
ENDBLK
  5
362
330
356
100
AcDbEntity
  8
0
100
AcDbBlockEnd
  0
BLOCK
  5
8AF
330
8AD
100
AcDbEntity
  8
0
100
AcDbBlockBegin
  2
GENAXEH
 70
     0
 10
0.0
 20
0.0
 30
0.0
  3
GENAXEH
  1

  0
LINE
  5
8AE
330
8AD
100
AcDbEntity
  8
0
100
AcDbLine
 10
-1.0
 20
0.0
 30
0.0
 11
1.0
 21
0.0
 31
0.0
  0
ENDBLK
  5
8B0
330
8AD
100
AcDbEntity
  8
0
100
AcDbBlockEnd
  0
ENDSEC
  0
SECTION
  2
ENTITIES
  0
LINE
  5
30
330
2
100
AcDbEntity
  8
AM_VIS
100
AcDbLine
 10
3.365052736637085
 20
2.400387994035759
 30
0.0
 11
3.372123804448951
 21
2.404470476940398
 31
0.0
  0
LINE
  5
32
330
2
100
AcDbEntity
  8
AM_VIS
100
AcDbLine
 10
3.365052736637086
 20
2.400387994035758
 30
0.0
 11
3.365052736637086
 21
2.3839844976453
 31
0.0
  0
LINE
  5
33
330
2
100
AcDbEntity
  8
AM_VIS
100
AcDbLine
 10
3.480311141970493
 20
2.33384352269015
 30
0.0
 11
3.365052736637085
 21
2.400387994035759
 31
0.0
  0
LINE
  5
34
330
2
100
AcDbEntity
  8
AM_VIS
100
AcDbLine
 10
3.480311141970493
 20
2.321649947990683
 30
0.0
 11
3.480311141970493
 21
2.33384352269015
 31
0.0
  0
LINE
  5
35
330
2
100
AcDbEntity
  8
AM_VIS
100
AcDbLine
 10
3.19218241458939
 20
2.666441048876805
 30
0.0
 11
3.192182414589388
 21
2.552131527546923
 31
0.0
  0
LINE
  5
36
330
2
100
AcDbEntity
  8
AM_VIS
100
AcDbLine
 10
3.634844630646125
 20
2.410869899276373
 30
0.0
 11
3.19218241458939
 21
2.666441048876805
 31
0.0
  0
LINE
  5
37
330
2
100
AcDbEntity
  8
AM_VIS
100
AcDbLine
 10
3.19218241458939
 20
2.552131527546923
 30
0.0
 11
3.251366853031247
 21
2.449621073148193
 31
0.0
  0
LINE
  5
38
330
2
100
AcDbEntity
  8
AM_VIS
100
AcDbLine
 10
3.487382209782357
 20
2.337926005594789
 30
0.0
 11
3.487382209782357
 21
2.325732430895321
 31
0.0
  0
LINE
  5
39
330
2
100
AcDbEntity
  8
AM_VIS
100
AcDbLine
 10
3.35798166882522
 20
2.412635442749675
 30
0.0
 11
3.487382209782357
 21
2.337926005594789
 31
0.0
  0
LINE
  5
3A
330
2
100
AcDbEntity
  8
AM_VIS
100
AcDbLine
 10
3.35798166882522
 20
2.388066980549941
 30
0.0
 11
3.35798166882522
 21
2.412635442749675
 31
0.0
  0
LINE
  5
3B
330
2
100
AcDbEntity
  8
AM_VIS
100
AcDbLine
 10
3.364989027675793
 20
2.384021280031253
 30
0.0
 11
3.365052736637086
 21
2.384058062417205
 31
0.0
  0
LINE
  5
3C
330
2
100
AcDbEntity
  8
AM_VIS
100
AcDbLine
 10
3.173002959197812
 20
2.552691455509529
 30
0.0
 11
3.223082581783786
 21
2.465951004766747
 31
0.0
  0
LINE
  5
3D
330
2
100
AcDbEntity
  8
AM_VIS
100
AcDbLine
 10
3.673704846625013
 20
2.506825947354713
 30
0.0
 11
3.624207371941955
 21
2.535403327687184
 31
0.0
  0
LINE
  5
3E
330
2
100
AcDbEntity
  8
AM_VIS
100
AcDbLine
 10
3.624207371941953
 20
2.535403327687183
 30
0.0
 11
3.624207371941956
 21
2.660561474546799
 31
0.0
  0
LINE
  5
3F
330
2
100
AcDbEntity
  8
AM_VIS
100
AcDbLine
 10
3.697746477185356
 20
2.520706389230483
 30
0.0
 11
3.697746477185357
 21
2.644107740977915
 31
0.0
  0
LINE
  5
40
330
2
100
AcDbEntity
  8
AM_VIS
100
AcDbLine
 10
3.697746477185356
 20
2.520706389230485
 30
0.0
 11
3.673704846625013
 21
2.506825947354713
 31
0.0
  0
LINE
  5
41
330
2
100
AcDbEntity
  8
AM_VIS
100
AcDbLine
 10
3.673704846625013
 20
2.631984094214329
 30
0.0
 11
3.673704846625013
 21
2.506825947354712
 31
0.0
  0
LINE
  5
42
330
2
100
AcDbEntity
  8
AM_VIS
100
AcDbLine
 10
3.718959680620952
 20
2.678338446926181
 30
0.0
 11
3.718959680620952
 21
2.731410724686484
 31
0.0
  0
LINE
  5
43
330
2
100
AcDbEntity
  8
AM_VIS
100
AcDbLine
 10
3.694918050060609
 20
2.717530282810713
 30
0.0
 11
3.694918050060608
 21
2.66445800505041
 31
0.0
  0
LINE
  5
44
330
2
100
AcDbEntity
  8
AM_VIS
100
AcDbLine
 10
3.602994168506357
 20
2.717530282810713
 30
0.0
 11
3.602994168506358
 21
2.770602560571016
 31
0.0
  0
LINE
  5
45
330
2
100
AcDbEntity
  8
AM_VIS
100
AcDbLine
 10
3.426217473209721
 20
2.649712849017063
 30
0.0
 11
3.376719998526663
 21
2.678290229349534
 31
0.0
  0
LINE
  5
46
330
2
100
AcDbEntity
  8
AM_VIS
100
AcDbLine
 10
3.376719998526663
 20
2.678290229349535
 30
0.0
 11
3.376719998526663
 21
2.803448376209151
 31
0.0
  0
LINE
  5
47
330
2
100
AcDbEntity
  8
AM_VIS
100
AcDbLine
 10
3.450259103770064
 20
2.663593290892835
 30
0.0
 11
3.450259103770066
 21
2.786994642640268
 31
0.0
  0
LINE
  5
48
330
2
100
AcDbEntity
  8
AM_VIS
100
AcDbLine
 10
3.450259103770064
 20
2.663593290892837
 30
0.0
 11
3.426217473209721
 21
2.649712849017064
 31
0.0
  0
LINE
  5
49
330
2
100
AcDbEntity
  8
AM_VIS
100
AcDbLine
 10
3.426217473209723
 20
2.774870995876681
 30
0.0
 11
3.426217473209721
 21
2.649712849017064
 31
0.0
  0
LINE
  5
4A
330
2
100
AcDbEntity
  8
AM_VIS
100
AcDbLine
 10
3.471472307205662
 20
2.821225348588533
 30
0.0
 11
3.471472307205663
 21
2.874297626348837
 31
0.0
  0
LINE
  5
4B
330
2
100
AcDbEntity
  8
AM_VIS
100
AcDbLine
 10
3.447430676645318
 20
2.860417184473066
 30
0.0
 11
3.447430676645318
 21
2.807344906712761
 31
0.0
  0
LINE
  5
4C
330
2
100
AcDbEntity
  8
AM_VIS
100
AcDbLine
 10
3.355506795091068
 20
2.860417184473065
 30
0.0
 11
3.355506795091068
 21
2.913489462233368
 31
0.0
  0
LINE
  5
4D
330
2
100
AcDbEntity
  8
AM_VIS
100
AcDbLine
 10
3.549961159917366
 20
2.578269398185888
 30
0.0
 11
3.500463685234308
 21
2.606846778518358
 31
0.0
  0
LINE
  5
4E
330
2
100
AcDbEntity
  8
AM_VIS
100
AcDbLine
 10
3.500463685234308
 20
2.606846778518358
 30
0.0
 11
3.50046368523431
 21
2.732004925377975
 31
0.0
  0
LINE
  5
4F
330
2
100
AcDbEntity
  8
AM_VIS
100
AcDbLine
 10
3.574002790477709
 20
2.59214984006166
 30
0.0
 11
3.574002790477711
 21
2.715551191809093
 31
0.0
  0
LINE
  5
50
330
2
100
AcDbEntity
  8
AM_VIS
100
AcDbLine
 10
3.574002790477711
 20
2.59214984006166
 30
0.0
 11
3.549961159917368
 21
2.578269398185888
 31
0.0
  0
LINE
  5
51
330
2
100
AcDbEntity
  8
AM_VIS
100
AcDbLine
 10
3.549961159917368
 20
2.703427545045505
 30
0.0
 11
3.549961159917366
 21
2.578269398185889
 31
0.0
  0
LINE
  5
52
330
2
100
AcDbEntity
  8
AM_VIS
100
AcDbLine
 10
3.595215993913308
 20
2.749781897757356
 30
0.0
 11
3.595215993913308
 21
2.80285417551766
 31
0.0
  0
LINE
  5
53
330
2
100
AcDbEntity
  8
AM_VIS
100
AcDbLine
 10
3.571174363352965
 20
2.788973733641888
 30
0.0
 11
3.571174363352965
 21
2.735901455881585
 31
0.0
  0
LINE
  5
54
330
2
100
AcDbEntity
  8
AM_VIS
100
AcDbLine
 10
3.479250481798713
 20
2.788973733641888
 30
0.0
 11
3.479250481798713
 21
2.842046011402191
 31
0.0
  0
LINE
  5
55
330
2
100
AcDbEntity
  8
AM_VIS
100
AcDbLine
 10
3.192182414589388
 20
2.563764719242766
 30
0.0
 11
3.173002959197813
 21
2.552691455509529
 31
0.0
  0
LINE
  5
56
330
2
100
AcDbEntity
  8
AM_VIS
100
AcDbLine
 10
3.705497739843828
 20
2.648582934560343
 30
0.0
 11
3.681456109283484
 21
2.634702492684571
 31
0.0
  0
LINE
  5
57
330
2
100
AcDbEntity
  8
AM_VIS
100
AcDbLine
 10
3.640497739843828
 20
2.814238514812624
 30
0.0
 11
3.616456109283484
 21
2.800358072936853
 31
0.0
  0
LINE
  5
58
330
2
100
AcDbEntity
  8
AM_VIS
100
AcDbLine
 10
3.458010366428537
 20
2.791469836222695
 30
0.0
 11
3.433968735868194
 21
2.777589394346923
 31
0.0
  0
LINE
  5
59
330
2
100
AcDbEntity
  8
AM_VIS
100
AcDbLine
 10
3.393010366428537
 20
2.957125416474977
 30
0.0
 11
3.368968735868194
 21
2.943244974599205
 31
0.0
  0
LINE
  5
5A
330
2
100
AcDbEntity
  8
AM_VIS
100
AcDbLine
 10
3.581754053136181
 20
2.72002638539152
 30
0.0
 11
3.557712422575839
 21
2.706145943515748
 31
0.0
  0
LINE
  5
5B
330
2
100
AcDbEntity
  8
AM_VIS
100
AcDbLine
 10
3.516754053136181
 20
2.885681965643801
 30
0.0
 11
3.492712422575839
 21
2.871801523768029
 31
0.0
  0
LINE
  5
5C
330
2
100
AcDbEntity
  8
AM_VIS
100
AcDbLine
 10
3.138539803680058
 20
2.53732785686077
 30
0.0
 11
3.192182414589388
 21
2.568298432709306
 31
0.0
  0
LINE
  5
5D
330
2
100
AcDbEntity
  8
AM_VIS
100
AcDbLine
 10
3.482237379928404
 20
2.735761745027571
 30
0.0
 11
3.493529669935578
 21
2.742281351702981
 31
0.0
  0
ARC
  5
5E
330
2
100
AcDbEntity
  8
AM_VIS
100
AcDbCircle
 10
3.534828087458456
 20
2.235072575173753
 30
0.0
 40
0.5622196883719263
100
AcDbArc
 50
40.47722750059618
 51
71.92089826095681
  0
LINE
  5
5F
330
2
100
AcDbEntity
  8
AM_VIS
100
AcDbLine
 10
3.595213890985608
 20
2.77950555045422
 30
0.0
 11
3.603864735646274
 21
2.78040650881274
 31
0.0
  0
ELLIPSE
  5
60
330
2
100
AcDbEntity
  8
AM_VIS
100
AcDbEllipse
 10
3.648956109283483
 20
2.690994143930561
 30
0.0
 11
-0.0324999999999997
 21
0.0562916512459891
 31
0.0
210
0.0
220
0.0
230
0.9999999999999998
 40
0.5773502691896279
 41
0.7853981633974465
 42
1.787584189928165
  0
ELLIPSE
  5
61
330
2
100
AcDbEntity
  8
AM_VIS
100
AcDbEllipse
 10
3.672997739843828
 20
2.704874585806332
 30
0.0
 11
-0.032500000000003
 21
0.0562916512459871
 31
0.0
210
0.0
220
0.0
230
1.0
 40
0.5773502691896276
 41
3.141592653589624
 42
3.926990816987068
  0
ELLIPSE
  5
62
330
2
100
AcDbEntity
  8
AM_VIS
100
AcDbEllipse
 10
3.648956109283483
 20
2.690994143930561
 30
0.0
 11
-0.0324999999999997
 21
0.056291651245989
 31
0.0
210
0.0
220
0.0
230
0.9999999999999998
 40
0.5773502691896276
 41
2.924804790456521
 42
3.92699081698724
  0
ELLIPSE
  5
63
330
2
100
AcDbEntity
  8
AM_VIS
100
AcDbEllipse
 10
3.672997739843828
 20
2.757946863566635
 30
0.0
 11
-0.0325000000000031
 21
0.0562916512459872
 31
0.0
210
0.0
220
0.0
230
1.0
 40
0.5773502691896276
 41
3.92699081698708
 42
6.283185307179428
  0
ELLIPSE
  5
64
330
2
100
AcDbEntity
  8
AM_VIS
100
AcDbEllipse
 10
3.648956109283485
 20
2.744066421690865
 30
0.0
 11
-0.0324999999999998
 21
0.0562916512459891
 31
0.0
210
0.0
220
0.0
230
1.0
 40
0.5773502691896276
 41
3.926990816987252
 42
7.068583470577046
  0
ELLIPSE
  5
65
330
2
100
AcDbEntity
  8
AM_VIS
100
AcDbEllipse
 10
3.401468735868194
 20
2.833881045592912
 30
0.0
 11
-0.0324999999999997
 21
0.0562916512459891
 31
0.0
210
0.0
220
0.0
230
0.9999999999999998
 40
0.5773502691896279
 41
0.7853981633974531
 42
1.787584189928171
  0
ELLIPSE
  5
66
330
2
100
AcDbEntity
  8
AM_VIS
100
AcDbEllipse
 10
3.425510366428537
 20
2.847761487468684
 30
0.0
 11
-0.032500000000003
 21
0.0562916512459871
 31
0.0
210
0.0
220
0.0
230
1.0
 40
0.5773502691896276
 41
3.141592653589626
 42
3.926990816987068
  0
ELLIPSE
  5
67
330
2
100
AcDbEntity
  8
AM_VIS
100
AcDbEllipse
 10
3.401468735868194
 20
2.833881045592912
 30
0.0
 11
-0.0324999999999997
 21
0.056291651245989
 31
0.0
210
0.0
220
0.0
230
0.9999999999999998
 40
0.5773502691896276
 41
2.924804790456528
 42
3.926990816987246
  0
ELLIPSE
  5
68
330
2
100
AcDbEntity
  8
AM_VIS
100
AcDbEllipse
 10
3.425510366428537
 20
2.900833765228988
 30
0.0
 11
-0.0325000000000031
 21
0.0562916512459872
 31
0.0
210
0.0
220
0.0
230
1.0
 40
0.5773502691896276
 41
3.926990816987073
 42
6.283185307179422
  0
ELLIPSE
  5
69
330
2
100
AcDbEntity
  8
AM_VIS
100
AcDbEllipse
 10
3.401468735868194
 20
2.886953323353216
 30
0.0
 11
-0.0324999999999998
 21
0.0562916512459891
 31
0.0
210
0.0
220
0.0
230
1.0
 40
0.5773502691896276
 41
3.926990816987246
 42
7.068583470577039
  0
ELLIPSE
  5
6A
330
2
100
AcDbEntity
  8
AM_VIS
100
AcDbEllipse
 10
3.525212422575838
 20
2.762437594761737
 30
0.0
 11
-0.0324999999999997
 21
0.0562916512459891
 31
0.0
210
0.0
220
0.0
230
0.9999999999999998
 40
0.5773502691896279
 41
0.7853981633974531
 42
1.787584189928195
  0
ELLIPSE
  5
6B
330
2
100
AcDbEntity
  8
AM_VIS
100
AcDbEllipse
 10
3.549254053136182
 20
2.776318036637509
 30
0.0
 11
-0.032500000000003
 21
0.0562916512459871
 31
0.0
210
0.0
220
0.0
230
1.0
 40
0.5773502691896276
 41
3.141592653589635
 42
3.92699081698708
  0
ELLIPSE
  5
6C
330
2
100
AcDbEntity
  8
AM_VIS
100
AcDbEllipse
 10
3.525212422575838
 20
2.762437594761737
 30
0.0
 11
-0.0324999999999997
 21
0.056291651245989
 31
0.0
210
0.0
220
0.0
230
0.9999999999999998
 40
0.5773502691896276
 41
2.924804790456526
 42
3.926990816987244
  0
ELLIPSE
  5
6D
330
2
100
AcDbEntity
  8
AM_VIS
100
AcDbEllipse
 10
3.549254053136182
 20
2.829390314397813
 30
0.0
 11
-0.0325000000000031
 21
0.0562916512459872
 31
0.0
210
0.0
220
0.0
230
1.0
 40
0.5773502691896276
 41
3.926990816987066
 42
6.283185307179416
  0
ELLIPSE
  5
6E
330
2
100
AcDbEntity
  8
AM_VIS
100
AcDbEllipse
 10
3.525212422575838
 20
2.815509872522041
 30
0.0
 11
-0.0324999999999998
 21
0.0562916512459891
 31
0.0
210
0.0
220
0.0
230
1.0
 40
0.5773502691896276
 41
3.926990816987244
 42
7.068583470577037
  0
ELLIPSE
  5
6F
330
2
100
AcDbEntity
  8
AM_VIS
100
AcDbEllipse
 10
3.408539803680053
 20
2.069674138817179
 30
0.0
 11
-0.2699999999999942
 21
0.4676537180435957
 31
0.0
210
0.0
220
0.0
230
1.0
 40
0.5773502691896276
 41
6.162522350177226
 42
6.353174827033234
  0
LINE
  5
70
330
2
100
AcDbEntity
  8
AM_VIS
100
AcDbLine
 10
3.114121813930744
 20
1.033666429396713
 30
0.0
 11
3.158315987754904
 21
1.059181947550702
 31
0.0
  0
LINE
  5
71
330
2
100
AcDbEntity
  8
AM_VIS
100
AcDbLine
 10
2.364121813930755
 20
2.332704535073375
 30
0.0
 11
2.408315987754914
 21
2.358220053227366
 31
0.0
  0
ELLIPSE
  5
72
330
2
100
AcDbEntity
  8
AM_VIS
100
AcDbEllipse
 10
2.783315987754909
 20
1.708701000389035
 30
0.0
 11
-0.3749999999999912
 21
0.6495190528383339
 31
0.0
210
0.0
220
0.0
230
0.9999999999999998
 40
0.5773502691896241
 41
3.141592653589801
 42
6.283185307179595
  0
ELLIPSE
  5
73
330
2
100
AcDbEntity
  8
AM_VIS
100
AcDbEllipse
 10
2.739121813930749
 20
1.683185482235044
 30
0.0
 11
-0.37500000000003
 21
0.6495190528383116
 31
0.0
210
0.0
220
0.0
230
0.9999999999999996
 40
0.5773502691896241
 41
2.730454791267281
 42
6.694323169501767
  0
ELLIPSE
  5
74
330
2
100
AcDbEntity
  8
AM_VIS
100
AcDbEllipse
 10
2.739121813930749
 20
1.683185482235044
 30
0.0
 11
-0.2953749999999932
 21
0.5116045072856612
 31
0.0
210
0.0
220
0.0
230
1.0
 40
0.5773502691896241
 41
3.479858929318468
 42
6.059429225168307
  0
LINE
  5
75
330
2
100
AcDbEntity
  8
AM_VIS
100
AcDbLine
 10
3.158315987754904
 20
1.059181947550704
 30
0.0
 11
3.202510161579062
 21
1.084697465704694
 31
0.0
  0
LINE
  5
76
330
2
100
AcDbEntity
  8
AM_VIS
100
AcDbLine
 10
2.408315987754914
 20
2.358220053227366
 30
0.0
 11
2.452510161579074
 21
2.383735571381357
 31
0.0
  0
ELLIPSE
  5
77
330
2
100
AcDbEntity
  8
AM_VIS
100
AcDbEllipse
 10
2.827510161579068
 20
1.734216518543025
 30
0.0
 11
-0.3749999999999912
 21
0.6495190528383339
 31
0.0
210
0.0
220
0.0
230
0.9999999999999998
 40
0.5773502691896241
 41
3.141592653589802
 42
6.283185307179595
  0
ELLIPSE
  5
78
330
2
100
AcDbEntity
  8
AM_VIS
100
AcDbEllipse
 10
2.783315987754909
 20
1.708701000389035
 30
0.0
 11
-0.37500000000003
 21
0.6495190528383116
 31
0.0
210
0.0
220
0.0
230
0.9999999999999996
 40
0.5773502691896241
 41
3.141592653589628
 42
6.283185307179418
  0
LINE
  5
79
330
2
100
AcDbEntity
  8
AM_VIS
100
AcDbLine
 10
2.802045516016255
 20
2.055104756361436
 30
0.0
 11
2.411033068900295
 21
2.280855897960332
 31
0.0
  0
LINE
  5
7A
330
2
100
AcDbEntity
  8
AM_VIS
100
AcDbLine
 10
3.092675204524021
 20
1.10021708648027
 30
0.0
 11
3.092675204524024
 21
1.55171936967806
 31
0.0
  0
LINE
  5
7B
330
2
100
AcDbEntity
  8
AM_VIS
100
AcDbLine
 10
3.088533068900292
 20
1.565657838179235
 30
0.0
 11
2.812045516016253
 21
2.044548327434779
 31
0.0
  0
ARC
  5
7C
330
2
100
AcDbEntity
  8
AM_VIS
100
AcDbCircle
 10
1.966618072497962
 20
1.237180239168937
 30
0.0
 40
0.8951762475829283
100
AcDbArc
 50
20.99079526681543
 51
39.00920473322486
  0
SPLINE
  5
7D
330
2
100
AcDbEntity
  8
AM_VIS
100
AcDbSpline
210
-0.0000000000002857
220
-0.0000000000020364
230
1.0
 70
     8
 71
     3
 72
     8
 73
     4
 74
     0
 42
0.0000000001
 43
0.0000000001
 40
0.1389000112756993
 40
0.1389000112756993
 40
0.1389000112756993
 40
0.1389000112756993
 40
0.1516522623428463
 40
0.1516522623428463
 40
0.1516522623428463
 40
0.1516522623428463
 10
2.630022845141898
 20
1.948295184714475
 30
0.0
 10
2.634426044125323
 20
1.947912214485505
 30
0.0
 10
2.638658630738286
 20
1.947277196116074
 30
-0.0000000000000004
 10
2.642339888531482
 20
1.946568737723455
 30
0.0
  0
SPLINE
  5
7E
330
2
100
AcDbEntity
  8
AM_VIS
100
AcDbSpline
210
0.0
220
0.0
230
1.0
 70
     8
 71
     3
 72
     8
 73
     4
 74
     0
 42
0.0000000001
 43
0.0000000001
 40
0.0
 40
0.0
 40
0.0
 40
0.0
 40
0.0127522510681388
 40
0.0127522510681388
 40
0.0127522510681388
 40
0.0127522510681388
 10
2.918827441415518
 20
1.467678248467909
 30
0.0
 10
2.91760035548436
 20
1.464135956504536
 30
0.0
 10
2.916034004217962
 20
1.460152919789866
 30
0.0
 10
2.91416406667324
 20
1.456148152497505
 30
0.0
  0
ARC
  5
7F
330
2
100
AcDbEntity
  8
AM_VIS
100
AcDbCircle
 10
2.35675363184878
 20
1.22798863836786
 30
0.0
 40
0.5223413396183681
100
AcDbArc
 50
347.3426711828024
 51
12.65732881725815
  0
ELLIPSE
  5
80
330
2
100
AcDbEntity
  8
AM_VIS
100
AcDbEllipse
 10
2.894685305791788
 20
1.463305632436258
 30
0.0
 11
0.0398557254070579
 21
0.0106793094365775
 31
0.0
210
0.0
220
0.0
230
1.0
 40
0.3178372451957779
 41
3.842031589623783
 42
5.136045891222043
  0
LINE
  5
81
330
2
100
AcDbEntity
  8
AM_VIS
100
AcDbLine
 10
2.91415659817577
 20
1.456121055838254
 30
0.0
 11
2.92295733364447
 21
1.453695359372391
 31
0.0
  0
SPLINE
  5
82
330
2
100
AcDbEntity
  8
AM_VIS
100
AcDbSpline
210
0.0
220
0.0
230
1.0
 70
     8
 71
     3
 72
     8
 73
     4
 74
     0
 42
0.0000000001
 43
0.0000000001
 40
0.0
 40
0.0
 40
0.0
 40
0.0
 40
0.0127522510681419
 40
0.0127522510681419
 40
0.0127522510681419
 40
0.0127522510681419
 10
2.922969577039248
 20
1.002237496768944
 30
0.0
 10
2.920515405176928
 20
0.9988167570490034
 30
0.0
 10
2.917517954411927
 20
0.9952954889839762
 30
0.0
 10
2.914164066673233
 20
0.9921474807355624
 30
0.0
  0
LINE
  5
83
330
2
100
AcDbEntity
  8
AM_VIS
100
AcDbLine
 10
2.918827441415515
 20
0.9930819545025354
 30
0.0
 11
3.088533068900288
 21
1.09106154421386
 31
0.0
  0
ARC
  5
84
330
2
100
AcDbEntity
  8
AM_VIS
100
AcDbCircle
 10
2.632121182107058
 20
1.108044244567498
 30
0.0
 40
0.2179152812633653
100
AcDbArc
 50
300.2384996211659
 51
321.384066881747
  0
ELLIPSE
  5
85
330
2
100
AcDbEntity
  8
AM_VIS
100
AcDbEllipse
 10
2.894685305791788
 20
1.025331507536531
 30
0.0
 11
0.0369551813004514
 21
-0.0213360838717672
 31
0.0
210
0.0
220
0.0
230
1.0
 40
0.7174389352142985
 41
4.319689898685966
 42
5.613704200284153
  0
SPLINE
  5
86
330
2
100
AcDbEntity
  8
AM_VIS
100
AcDbSpline
210
0.0
220
0.0
230
1.0
 70
     8
 71
     3
 72
     8
 73
     4
 74
     0
 42
0.0000000001
 43
0.0000000001
 40
0.1389000112756985
 40
0.1389000112756985
 40
0.1389000112756985
 40
0.1389000112756985
 40
0.1516522623428474
 40
0.1516522623428474
 40
0.1516522623428474
 40
0.1516522623428474
 10
2.914164066673233
 20
0.9921474807355624
 30
0.0
 10
2.916034004217765
 20
0.9920154494208208
 30
0.0
 10
2.917600355484452
 20
0.9923734961099151
 30
0.0
 10
2.918827441415515
 20
0.9930819545025354
 30
0.0
  0
LINE
  5
87
330
2
100
AcDbEntity
  8
AM_VIS
100
AcDbLine
 10
2.642339888531476
 20
0.8334517914173529
 30
0.0
 11
2.918827441415517
 21
0.9930819545025343
 31
0.0
  0
SPLINE
  5
88
330
2
100
AcDbEntity
  8
AM_VIS
100
AcDbSpline
210
0.0000000000009706
220
-0.0000000000022379
230
-1.0
 70
     8
 71
     3
 72
     8
 73
     4
 74
     0
 42
0.0000000001
 43
0.0000000001
 40
0.0
 40
0.0
 40
0.0
 40
0.0
 40
0.0127522510681433
 40
0.0127522510681433
 40
0.0127522510681433
 40
0.0127522510681433
 10
2.642339888531476
 20
0.8334517914173533
 30
0.0
 10
2.638658630737991
 20
0.8313264162393274
 30
0.0000000000000004
 10
2.634426044125681
 20
0.8294290178555215
 30
0.0
 10
2.63002284514189
 20
0.8280984699965737
 30
0.0000000000000004
  0
ELLIPSE
  5
89
330
2
100
AcDbEntity
  8
AM_VIS
100
AcDbEllipse
 10
2.626482024155206
 20
0.8704842706861104
 30
0.0
 11
-0.0000000000000001
 21
-0.0426721677435342
 31
0.0
210
0.0
220
0.0
230
1.0
 40
0.7174389352143005
 41
5.39257961390312
 42
6.399102363681588
  0
ARC
  5
8A
330
2
100
AcDbEntity
  8
AM_VIS
100
AcDbCircle
 10
2.18753457543463
 20
1.878090835688903
 30
0.0
 40
0.2179152812629587
100
AcDbArc
 50
98.61593311835568
 51
119.7615003788483
  0
ELLIPSE
  5
8B
330
2
100
AcDbEntity
  8
AM_VIS
100
AcDbEllipse
 10
1.978982024155214
 20
1.991987168586963
 30
0.0
 11
0.0369551813004498
 21
-0.02133608387177
 31
0.0
210
0.0
220
0.0
230
1.0
 40
0.7174389352142985
 41
3.025675597087931
 42
4.032198346866545
  0
SPLINE
  5
8C
330
2
100
AcDbEntity
  8
AM_VIS
100
AcDbSpline
210
-0.0000000000003784
220
0.0000000000005136
230
-1.0
 70
     8
 71
     3
 72
     8
 73
     4
 74
     0
 42
0.0000000001
 43
0.0000000001
 40
0.138942137350579
 40
0.138942137350579
 40
0.138942137350579
 40
0.138942137350579
 40
0.1516522623428477
 40
0.1516522623428477
 40
0.1516522623428477
 40
0.1516522623428477
 10
1.944045254491669
 20
2.016246509856455
 30
0.0
 10
1.947396372065836
 20
2.019391917987785
 30
0.0000000000000004
 10
1.951170791488621
 20
2.022118367455584
 30
0.0000000000000004
 10
1.954839888531481
 20
2.02423672162096
 30
0.0
  0
LINE
  5
8D
330
2
100
AcDbEntity
  8
AM_VIS
100
AcDbLine
 10
2.231327441415526
 20
2.18386688470614
 30
0.0
 11
1.954839888531483
 21
2.02423672162096
 31
0.0
  0
LINE
  5
8E
330
2
100
AcDbEntity
  8
AM_VIS
100
AcDbLine
 10
2.62999564449789
 20
1.948302265135565
 30
0.0
 11
2.632295297470936
 21
1.957136773856376
 31
0.0
  0
ELLIPSE
  5
8F
330
2
100
AcDbEntity
  8
AM_VIS
100
AcDbEllipse
 10
2.62648202415521
 20
1.92784734298752
 30
0.0
 11
0.0291764159704802
 21
0.02917641597048
 31
0.0
210
0.0
220
0.0
230
1.0
 40
0.3178372451957855
 41
1.147139415957573
 42
2.441153717555866
  0
ARC
  5
90
330
2
100
AcDbEntity
  8
AM_VIS
100
AcDbCircle
 10
2.153725692378662
 20
1.579643344887656
 30
0.0
 40
0.5223413396174318
100
AcDbArc
 50
47.34267118278704
 51
72.65732881727375
  0
ELLIPSE
  5
91
330
2
100
AcDbEntity
  8
AM_VIS
100
AcDbEllipse
 10
2.247185305791791
 20
2.146834405437382
 30
0.0
 11
0.0000000000000001
 21
0.0426721677435342
 31
0.0
210
0.0
220
0.0
230
1.0
 40
0.7174389352143005
 41
0.6694811068953366
 42
1.963495408493617
  0
SPLINE
  5
92
330
2
100
AcDbEntity
  8
AM_VIS
100
AcDbSpline
210
-0.0000000000010287
220
0.0000000000009315
230
-1.0
 70
     8
 71
     3
 72
     8
 73
     4
 74
     0
 42
0.0000000001
 43
0.0000000001
 40
0.0
 40
0.0
 40
0.0
 40
0.0
 40
0.0127522510681407
 40
0.0127522510681407
 40
0.0127522510681407
 40
0.0127522510681407
 10
2.231327441415523
 20
2.183866884706141
 30
0.0000000000000004
 10
2.230100355484363
 20
2.183158426313466
 30
0.0
 10
2.229007102322642
 20
2.181980949670074
 30
0.0000000000000004
 10
2.228186476023017
 20
2.180295520595445
 30
0.0
  0
LINE
  5
93
330
2
100
AcDbEntity
  8
AM_VIS
100
AcDbLine
 10
2.401033068900295
 20
2.281846474417466
 30
0.0
 11
2.231327441415523
 21
2.183866884706141
 31
0.0
  0
SPLINE
  5
94
330
2
100
AcDbEntity
  8
AM_VIS
100
AcDbSpline
210
0.0000000000002628
220
-0.0000000000013441
230
1.0
 70
     8
 71
     3
 72
     8
 73
     4
 74
     0
 42
0.0000000001
 43
0.0000000001
 40
0.1389000112756996
 40
0.1389000112756996
 40
0.1389000112756996
 40
0.1389000112756996
 40
0.1516522623428471
 40
0.1516522623428471
 40
0.1516522623428471
 40
0.1516522623428471
 10
2.228186476023017
 20
2.180295520595445
 30
0.0
 10
2.232589675006486
 20
2.181626068454208
 30
0.0
 10
2.237137907987484
 20
2.18246130293099
 30
0.0000000000000004
 10
2.241327441415524
 20
2.182876308249007
 30
0.0
  0
LINE
  5
95
330
2
100
AcDbEntity
  8
AM_VIS
100
AcDbLine
 10
2.079363443769246
 20
2.067262916298449
 30
0.0
 11
1.978304444359922
 21
2.008916475785443
 31
0.0
  0
LINE
  5
96
330
2
100
AcDbEntity
  8
AM_VIS
100
AcDbLine
 10
2.741863443769245
 20
0.9197792562840671
 30
0.0
 11
2.64080444435992
 21
0.8614328157710602
 31
0.0
  0
ARC
  5
97
330
2
100
AcDbEntity
  8
AM_VIS
100
AcDbCircle
 10
2.504436303876483
 20
1.116050140265597
 30
0.0
 40
0.2888360290401233
100
AcDbArc
 50
252.7843249424493
 51
298.1726453753765
  0
ARC
  5
98
330
2
100
AcDbEntity
  8
AM_VIS
100
AcDbCircle
 10
2.130624719998358
 20
1.763510056607309
 30
0.0
 40
0.2888352072452434
100
AcDbArc
 50
121.8272864521639
 51
167.215743230013
  0
LINE
  5
99
330
2
100
AcDbEntity
  8
AM_VIS
100
AcDbLine
 10
2.614766295402668
 20
0.8310603282999712
 30
0.0
 11
2.596637985476366
 21
0.8415267129158744
 31
0.0
  0
LINE
  5
9A
330
2
100
AcDbEntity
  8
AM_VIS
100
AcDbLine
 10
1.938982024155214
 20
1.980620251824674
 30
0.0
 11
1.938982024155214
 21
2.001553021056487
 31
0.0
  0
ELLIPSE
  5
9B
330
2
100
AcDbEntity
  8
AM_VIS
100
AcDbEllipse
 10
2.408549393726038
 20
1.49232940644319
 30
0.0
 11
-0.3312500000000297
 21
0.5737418300071738
 31
-0.0000000000000001
210
-0.0000000000000001
220
0.0000000000000001
230
0.9999999999999998
 40
0.5773502691896273
 41
4.925590616114786
 42
5.284585508051716
  0
ELLIPSE
  5
9C
330
2
100
AcDbEntity
  8
AM_VIS
100
AcDbEllipse
 10
2.408549393726038
 20
1.49232940644319
 30
0.0
 11
-0.3312500000000297
 21
0.5737418300071738
 31
-0.0000000000000001
210
-0.0000000000000001
220
0.0000000000000001
230
0.9999999999999998
 40
0.5773502691896273
 41
4.140192452717323
 42
4.499187344654264
  0
ELLIPSE
  5
9D
330
2
100
AcDbEntity
  8
AM_VIS
100
AcDbEllipse
 10
2.408549393726038
 20
1.49232940644319
 30
0.0
 11
-0.3312500000000297
 21
0.5737418300071738
 31
-0.0000000000000001
210
-0.0000000000000001
220
0.0000000000000001
230
0.9999999999999998
 40
0.5773502691896273
 41
3.354794289319875
 42
3.713789181256828
  0
ELLIPSE
  5
9E
330
2
100
AcDbEntity
  8
AM_VIS
100
AcDbEllipse
 10
2.408549393726038
 20
1.49232940644319
 30
0.0
 11
-0.3312500000000297
 21
0.5737418300071738
 31
-0.0000000000000001
210
-0.0000000000000001
220
0.0000000000000001
230
0.9999999999999998
 40
0.5773502691896273
 41
5.710988779512224
 42
6.069983671449166
  0
ELLIPSE
  5
9F
330
2
100
AcDbEntity
  8
AM_VIS
100
AcDbEllipse
 10
2.802045516016255
 20
2.038774824742882
 30
0.0
 11
-0.0100000000000009
 21
0.0173205080756883
 31
0.0
210
0.0
220
0.0
230
0.9999999999999998
 40
0.5773502691896275
 41
4.712388980384594
 42
5.497787143781978
  0
ELLIPSE
  5
A0
330
2
100
AcDbEntity
  8
AM_VIS
100
AcDbEllipse
 10
3.078533068900293
 20
1.559884335487336
 30
0.0
 11
-0.0100000000000009
 21
0.0173205080756883
 31
0.0
210
0.0
220
0.0
230
0.9999999999999998
 40
0.5773502691896275
 41
3.926990816987058
 42
4.712388980384632
  0
ELLIPSE
  5
A1
330
2
100
AcDbEntity
  8
AM_VIS
100
AcDbEllipse
 10
3.07853306890029
 20
1.108382052289547
 30
0.0
 11
-0.0100000000000009
 21
0.0173205080756883
 31
0.0
210
0.0
220
0.0
230
0.9999999999999998
 40
0.5773502691896275
 41
3.141592653589633
 42
3.926990816987082
  0
ELLIPSE
  5
A2
330
2
100
AcDbEntity
  8
AM_VIS
100
AcDbEllipse
 10
2.411033068900295
 20
2.264525966341778
 30
0.0
 11
-0.0100000000000009
 21
0.0173205080756883
 31
0.0
210
0.0
220
0.0
230
0.9999999999999998
 40
0.5773502691896275
 41
5.497787143781972
 42
6.283185307179355
  0
LINE
  5
A3
330
2
100
AcDbEntity
  8
AM_VIS
100
AcDbLine
 10
1.712828541686176
 20
0.8661583715440613
 30
0.0
 11
1.66379712297548
 21
0.9270431480389319
 31
0.0
  0
LINE
  5
A4
330
2
100
AcDbEntity
  8
AM_VIS
100
AcDbLine
 10
1.764088606505207
 20
0.8957533837660045
 30
0.0
 11
1.712828541686178
 21
0.8661583715440608
 31
0.0
  0
LINE
  5
A5
330
2
100
AcDbEntity
  8
AM_VIS
100
AcDbLine
 10
1.74818803118325
 20
0.9167038065217163
 30
0.0
 11
1.712828541686178
 21
0.8661583715440615
 31
0.0
  0
LINE
  5
A6
330
2
100
AcDbEntity
  8
AM_VIS
100
AcDbLine
 10
1.66379712297548
 20
0.9270431480389326
 30
0.0
 11
1.699156612472553
 21
0.9775885830165883
 31
0.0
  0
LINE
  5
A7
330
2
100
AcDbEntity
  8
AM_VIS
100
AcDbLine
 10
1.758788235583498
 20
0.9017294248249811
 30
0.0
 11
1.760108215709311
 21
0.9036163007547546
 31
0.0
  0
LINE
  5
A8
330
2
100
AcDbEntity
  8
AM_VIS
100
AcDbLine
 10
1.600406280891724
 20
1.67170179644654
 30
0.0
 11
1.621914024083928
 21
1.644994550937431
 31
0.0
  0
LINE
  5
A9
330
2
100
AcDbEntity
  8
AM_VIS
100
AcDbLine
 10
1.572194227098778
 20
1.631373427715544
 30
0.0
 11
1.613621675869273
 21
1.655291576415029
 31
0.0
  0
LINE
  5
AA
330
2
100
AcDbEntity
  8
AM_VIS
100
AcDbLine
 10
1.593701970290978
 20
1.604666182206439
 30
0.0
 11
1.572194227098774
 21
1.631373427715546
 31
0.0
  0
LINE
  5
AB
330
2
100
AcDbEntity
  8
AM_VIS
100
AcDbLine
 10
1.539223405340955
 20
1.357897951878117
 30
0.0
 11
1.548100949789809
 21
1.355535416666822
 31
0.0
  0
LINE
  5
AC
330
2
100
AcDbEntity
  8
AM_VIS
100
AcDbLine
 10
1.558947990598078
 20
1.284998008971089
 30
0.0
 11
1.553944919454293
 21
1.286329450543689
 31
0.0
  0
LINE
  5
AD
330
2
100
AcDbEntity
  8
AM_VIS
100
AcDbLine
 10
2.012110355849654
 20
0.7174024048630651
 30
0.0
 11
2.005893620432985
 21
0.7476250051702249
 31
0.0
  0
LINE
  5
AE
330
2
100
AcDbEntity
  8
AM_VIS
100
AcDbLine
 10
2.060272113453679
 20
0.7342605152144236
 30
0.0
 11
2.066729739059379
 21
0.7028668295363915
 31
0.0
  0
LINE
  5
AF
330
2
100
AcDbEntity
  8
AM_VIS
100
AcDbLine
 10
2.622722810363653
 20
0.9700284524502087
 30
0.0
 11
2.269169419770373
 21
0.765904307218282
 31
0.0
  0
LINE
  5
B0
330
2
100
AcDbEntity
  8
AM_VIS
100
AcDbLine
 10
2.26916941977038
 20
0.7659043072182792
 30
0.0
 11
2.247661676578175
 21
0.7926115527273866
 31
0.0
  0
LINE
  5
B1
330
2
100
AcDbEntity
  8
AM_VIS
100
AcDbLine
 10
2.297381473563322
 20
0.8062326759492737
 30
0.0
 11
2.650934864156601
 21
1.010356821181199
 31
0.0
  0
LINE
  5
B2
330
2
100
AcDbEntity
  8
AM_VIS
100
AcDbLine
 10
2.275873730371124
 20
0.8329399214583773
 30
0.0
 11
2.297381473563328
 21
0.8062326759492698
 31
0.0
  0
LINE
  5
B3
330
2
100
AcDbEntity
  8
AM_VIS
100
AcDbLine
 10
2.289089125348672
 20
0.8165297014268693
 30
0.0
 11
2.247661676578176
 21
0.7926115527273855
 31
0.0
  0
LINE
  5
B4
330
2
100
AcDbEntity
  8
AM_VIS
100
AcDbLine
 10
2.683905685914423
 20
1.283832297018626
 30
0.0
 11
2.330352295321146
 21
1.0797081517867
 31
0.0
  0
LINE
  5
B5
330
2
100
AcDbEntity
  8
AM_VIS
100
AcDbLine
 10
2.330352295321151
 20
1.079708151786699
 30
0.0
 11
2.306393378808401
 21
1.086084214921271
 31
0.0
  0
LINE
  5
B6
330
2
100
AcDbEntity
  8
AM_VIS
100
AcDbLine
 10
2.315630781207806
 20
1.151276653121129
 30
0.0
 11
2.669184171801083
 21
1.355400798353053
 31
0.0
  0
LINE
  5
B7
330
2
100
AcDbEntity
  8
AM_VIS
100
AcDbLine
 10
2.291671864695061
 20
1.1576527162557
 30
0.0
 11
2.31563078120781
 21
1.151276653121128
 31
0.0
  0
LINE
  5
B8
330
2
100
AcDbEntity
  8
AM_VIS
100
AcDbLine
 10
2.659239662620489
 20
1.289800111862731
 30
0.0
 11
2.306393378808401
 21
1.086084214921271
 31
0.0
  0
LINE
  5
B9
330
2
100
AcDbEntity
  8
AM_VIS
100
AcDbLine
 10
2.513372274382578
 20
1.67911604757689
 30
0.0
 11
2.159818883789303
 21
1.474991902344966
 31
0.0
  0
LINE
  5
BA
330
2
100
AcDbEntity
  8
AM_VIS
100
AcDbLine
 10
2.159818883789304
 20
1.47499190234497
 30
0.0
 11
2.147443602309413
 21
1.457301771795321
 31
0.0
  0
LINE
  5
BB
330
2
100
AcDbEntity
  8
AM_VIS
100
AcDbLine
 10
2.110787465078602
 20
1.535876678839839
 30
0.0
 11
2.464340855671879
 21
1.740000824071764
 31
0.0
  0
LINE
  5
BC
330
2
100
AcDbEntity
  8
AM_VIS
100
AcDbLine
 10
2.098412183598714
 20
1.518186548290191
 30
0.0
 11
2.110787465078608
 21
1.53587667883984
 31
0.0
  0
LINE
  5
BD
330
2
100
AcDbEntity
  8
AM_VIS
100
AcDbLine
 10
2.451258467410798
 20
1.721902445231653
 30
0.0
 11
2.098412183598711
 21
1.518186548290193
 31
0.0
  0
LINE
  5
BE
330
2
100
AcDbEntity
  8
AM_VIS
100
AcDbLine
 10
2.211018735405725
 20
1.924327844033673
 30
0.0
 11
1.857465344812449
 21
1.720203698801748
 31
0.0
  0
LINE
  5
BF
330
2
100
AcDbEntity
  8
AM_VIS
100
AcDbLine
 10
1.857465344812448
 20
1.720203698801754
 30
0.0
 11
1.863922970418148
 21
1.688810013123721
 31
0.0
  0
LINE
  5
C0
330
2
100
AcDbEntity
  8
AM_VIS
100
AcDbLine
 10
1.802845961602723
 20
1.734739274128425
 30
0.0
 11
2.156399352195998
 21
1.93886341936035
 31
0.0
  0
LINE
  5
C1
330
2
100
AcDbEntity
  8
AM_VIS
100
AcDbLine
 10
1.809303587208426
 20
1.703345588450395
 30
0.0
 11
1.802845961602724
 21
1.734739274128432
 31
0.0
  0
LINE
  5
C2
330
2
100
AcDbEntity
  8
AM_VIS
100
AcDbLine
 10
2.162149871020509
 20
1.907061485391853
 30
0.0
 11
1.809303587208425
 21
1.703345588450394
 31
0.0
  0
LINE
  5
C3
330
2
100
AcDbEntity
  8
AM_VIS
100
AcDbLine
 10
2.046128435891973
 20
0.7370427525328183
 30
0.0
 11
2.012110355849653
 21
0.7174024048630714
 31
0.0
  0
LINE
  5
C4
330
2
100
AcDbEntity
  8
AM_VIS
100
AcDbLine
 10
1.553944919454296
 20
1.28632945054369
 30
0.0
 11
1.558159325781733
 21
1.28876263917131
 31
0.0
  0
LINE
  5
C5
330
2
100
AcDbEntity
  8
AM_VIS
100
AcDbLine
 10
2.609507415386108
 20
0.9864386724817098
 30
0.0
 11
2.622722810363657
 21
0.9700284524502034
 31
0.0
  0
LINE
  5
C6
330
2
100
AcDbEntity
  8
AM_VIS
100
AcDbLine
 10
2.668504452718571
 20
1.287930947938619
 30
0.0
 11
2.683905685914425
 21
1.283832297018624
 31
0.0
  0
LINE
  5
C7
330
2
100
AcDbEntity
  8
AM_VIS
100
AcDbLine
 10
2.464340855671883
 20
1.740000824071769
 30
0.0
 11
2.456385796609227
 21
1.728629282052529
 31
0.0
  0
LINE
  5
C8
330
2
100
AcDbEntity
  8
AM_VIS
100
AcDbLine
 10
2.156399352195999
 20
1.938863419360356
 30
0.0
 11
2.160550432975966
 21
1.918682979491659
 31
0.0
  0
LINE
  5
C9
330
2
100
AcDbEntity
  8
AM_VIS
100
AcDbLine
 10
1.684787850331056
 20
1.65181575372463
 30
0.0
 11
1.649432511271728
 21
1.631403339201438
 31
0.0
  0
LINE
  5
CA
330
2
100
AcDbEntity
  8
AM_VIS
100
AcDbLine
 10
2.184787850331049
 20
0.7857903499401865
 30
0.0
 11
2.14943251127172
 21
0.7653779354169937
 31
0.0
  0
LINE
  5
CB
330
2
100
AcDbEntity
  8
AM_VIS
100
AcDbLine
 10
2.003341240924336
 20
1.91656167722146
 30
0.0
 11
1.64978785033106
 21
1.712437531989534
 31
0.0
  0
LINE
  5
CC
330
2
100
AcDbEntity
  8
AM_VIS
100
AcDbLine
 10
2.573341240924319
 20
0.9292927169072068
 30
0.0
 11
2.219787850331043
 21
0.7251685716752815
 31
0.0
  0
ELLIPSE
  5
CD
330
2
100
AcDbEntity
  8
AM_VIS
100
AcDbEllipse
 10
1.899432511271724
 20
1.198390637309215
 30
0.0
 11
-0.2499999999999935
 21
0.4330127018922239
 31
0.0000000000000001
210
0.0000000000000001
220
-0.0000000000000002
230
1.0
 40
0.5773502691896299
 41
1.914154801000879
 42
8.037168948113151
  0
ELLIPSE
  5
CE
330
2
100
AcDbEntity
  8
AM_VIS
100
AcDbEllipse
 10
1.934787850331051
 20
1.218803051832409
 30
0.0
 11
-0.2500000000000193
 21
0.433012701892209
 31
0.0
210
0.0
220
0.0
230
1.0
 40
0.5773502691896301
 41
3.141592653589628
 42
6.283185307179422
  0
ELLIPSE
  5
CF
330
2
100
AcDbEntity
  8
AM_VIS
100
AcDbEllipse
 10
1.934787850331051
 20
1.218803051832409
 30
0.0
 11
-0.284999999999989
 21
0.4936344801571288
 31
0.0
210
0.0
220
0.0
230
1.0
 40
0.5773502691896299
 41
0.3335060583536515
 42
0.9784378933884488
  0
ELLIPSE
  5
D0
330
2
100
AcDbEntity
  8
AM_VIS
100
AcDbEllipse
 10
1.934787850331051
 20
1.218803051832409
 30
0.0
 11
-0.284999999999989
 21
0.4936344801571288
 31
0.0
210
0.0
220
0.0
230
1.0
 40
0.5773502691896299
 41
5.831293202135793
 42
6.476225037170585
  0
ELLIPSE
  5
D1
330
2
100
AcDbEntity
  8
AM_VIS
100
AcDbEllipse
 10
1.934787850331051
 20
1.218803051832409
 30
0.0
 11
-0.284999999999989
 21
0.4936344801571288
 31
0.0
210
0.0
220
0.0
230
1.0
 40
0.5773502691896299
 41
5.04589503873834
 42
5.690826873773136
  0
ELLIPSE
  5
D2
330
2
100
AcDbEntity
  8
AM_VIS
100
AcDbEllipse
 10
1.934787850331051
 20
1.218803051832409
 30
0.0
 11
-0.284999999999989
 21
0.4936344801571288
 31
0.0
210
0.0
220
0.0
230
1.0
 40
0.5773502691896299
 41
4.260496875340901
 42
4.905428710375688
  0
ELLIPSE
  5
D3
330
2
100
AcDbEntity
  8
AM_VIS
100
AcDbEllipse
 10
1.934787850331051
 20
1.218803051832409
 30
0.0
 11
-0.284999999999989
 21
0.4936344801571288
 31
0.0
210
0.0
220
0.0
230
1.0
 40
0.5773502691896299
 41
3.475098711943444
 42
4.120030546978242
  0
ELLIPSE
  5
D4
330
2
100
AcDbEntity
  8
AM_VIS
100
AcDbEllipse
 10
1.934787850331051
 20
1.218803051832409
 30
0.0
 11
-0.284999999999989
 21
0.4936344801571288
 31
0.0
210
0.0
220
0.0
230
1.0
 40
0.5773502691896299
 41
2.689700548545999
 42
3.334632383580792
  0
ELLIPSE
  5
D5
330
2
100
AcDbEntity
  8
AM_VIS
100
AcDbEllipse
 10
1.934787850331065
 20
1.218803051832404
 30
0.0
 11
-0.2675000000000265
 21
0.4633235910246737
 31
0.0
210
0.0
220
0.0
230
1.0
 40
0.5773502691896299
 41
0.1884367058044152
 42
0.3381090825399386
  0
ELLIPSE
  5
D6
330
2
100
AcDbEntity
  8
AM_VIS
100
AcDbEllipse
 10
1.934787850331042
 20
1.218803051832417
 30
0.0
 11
-0.2675000000000235
 21
0.4633235910246685
 31
0.0
210
0.0
220
0.0
230
0.9999999999999996
 40
0.5773502691896301
 41
2.565360096212105
 42
2.694303572732285
  0
ELLIPSE
  5
D7
330
2
100
AcDbEntity
  8
AM_VIS
100
AcDbEllipse
 10
1.93478785033105
 20
1.218803051832406
 30
0.0
 11
-0.2675000000000205
 21
0.4633235910246633
 31
0.0
210
0.0
220
0.0
230
0.9999999999999998
 40
0.5773502691896299
 41
3.330029359394198
 42
3.47970173612972
  0
ELLIPSE
  5
D8
330
2
100
AcDbEntity
  8
AM_VIS
100
AcDbEllipse
 10
1.934787850331048
 20
1.218803051832399
 30
0.0
 11
-0.2675000000000235
 21
0.4633235910246685
 31
0.0
210
0.0
220
0.0
230
0.9999999999999996
 40
0.5773502691896301
 41
4.115427522791661
 42
4.265099899527181
  0
ELLIPSE
  5
D9
330
2
100
AcDbEntity
  8
AM_VIS
100
AcDbEllipse
 10
1.934787850331051
 20
1.218803051832396
 30
0.0
 11
-0.2675000000000265
 21
0.4633235910246737
 31
0.0
210
0.0
220
0.0
230
1.0
 40
0.5773502691896299
 41
4.900825686189098
 42
5.050498062924615
  0
ELLIPSE
  5
DA
330
2
100
AcDbEntity
  8
AM_VIS
100
AcDbEllipse
 10
1.934787850331063
 20
1.218803051832406
 30
0.0
 11
-0.2675000000000215
 21
0.4633235910246651
 31
0.0
210
0.0
220
0.0
230
0.9999999999999998
 40
0.5773502691896301
 41
5.686223849586559
 42
5.835896226322081
  0
ELLIPSE
  5
DB
330
2
100
AcDbEntity
  8
AM_VIS
100
AcDbEllipse
 10
1.934787850331051
 20
1.218803051832409
 30
0.0
 11
-0.284999999999989
 21
0.4936344801571288
 31
0.0
210
0.0
220
0.0
230
1.0
 40
0.5773502691896299
 41
1.904302385148548
 42
2.549234220183345
  0
ELLIPSE
  5
DC
330
2
100
AcDbEntity
  8
AM_VIS
100
AcDbEllipse
 10
1.934787850331051
 20
1.218803051832409
 30
0.0
 11
-0.284999999999989
 21
0.4936344801571288
 31
0.0
210
0.0
220
0.0
230
1.0
 40
0.5773502691896299
 41
1.703634081416168
 42
1.731429639085417
  0
ELLIPSE
  5
DD
330
2
100
AcDbEntity
  8
AM_VIS
100
AcDbEllipse
 10
1.934787850331051
 20
1.218803051832409
 30
0.0
 11
-0.284999999999989
 21
0.4936344801571288
 31
0.0
210
0.0
220
0.0
230
1.0
 40
0.5773502691896299
 41
1.118904221751106
 42
1.437958572173651
  0
ELLIPSE
  5
DE
330
2
100
AcDbEntity
  8
AM_VIS
100
AcDbEllipse
 10
2.288341240924328
 20
1.422927197064333
 30
0.0
 11
-0.284999999999989
 21
0.4936344801571288
 31
0.0
210
0.0
220
0.0
230
1.0
 40
0.5773502691896299
 41
3.141592653589801
 42
3.334632383580792
  0
ELLIPSE
  5
DF
330
2
100
AcDbEntity
  8
AM_VIS
100
AcDbEllipse
 10
2.288341240924328
 20
1.422927197064333
 30
0.0
 11
-0.284999999999989
 21
0.4936344801571288
 31
0.0
210
0.0
220
0.0
230
1.0
 40
0.5773502691896299
 41
3.475098711943444
 42
4.120030546978242
  0
ELLIPSE
  5
E0
330
2
100
AcDbEntity
  8
AM_VIS
100
AcDbEllipse
 10
2.288341240924328
 20
1.422927197064333
 30
0.0
 11
-0.284999999999989
 21
0.4936344801571288
 31
0.0
210
0.0
220
0.0
230
1.0
 40
0.5773502691896299
 41
4.260496875340901
 42
4.905428710375688
  0
ELLIPSE
  5
E1
330
2
100
AcDbEntity
  8
AM_VIS
100
AcDbEllipse
 10
2.288341240924328
 20
1.422927197064333
 30
0.0
 11
-0.284999999999989
 21
0.4936344801571288
 31
0.0
210
0.0
220
0.0
230
1.0
 40
0.5773502691896299
 41
5.045895038738346
 42
5.690826873773136
  0
ELLIPSE
  5
E2
330
2
100
AcDbEntity
  8
AM_VIS
100
AcDbEllipse
 10
2.288341240924328
 20
1.422927197064333
 30
0.0
 11
-0.284999999999989
 21
0.4936344801571288
 31
0.0
210
0.0
220
0.0
230
1.0
 40
0.5773502691896299
 41
5.831293202135793
 42
6.283185307179595
  0
LINE
  5
E3
330
2
100
AcDbEntity
  8
AM_VIS
100
AcDbLine
 10
11.47624959919183
 20
7.06060622671309
 30
0.0
 11
11.47624959919183
 21
7.422606226713091
 31
0.0
  0
LINE
  5
E4
330
2
100
AcDbEntity
  8
AM_VIS
100
AcDbLine
 10
11.17624959919183
 20
7.06060622671309
 30
0.0
 11
11.47624959919183
 21
7.06060622671309
 31
0.0
  0
LINE
  5
E5
330
2
100
AcDbEntity
  8
AM_VIS
100
AcDbLine
 10
11.17624959919183
 20
7.453606226713093
 30
0.0
 11
11.47624959919183
 21
7.453606226713092
 31
0.0
  0
LINE
  5
E6
330
2
100
AcDbEntity
  8
AM_VIS
100
AcDbLine
 10
11.17624959919183
 20
7.422606226713091
 30
0.0
 11
11.17624959919183
 21
7.416606226713092
 31
0.0
  0
LINE
  5
E7
330
2
100
AcDbEntity
  8
AM_VIS
100
AcDbLine
 10
11.17624959919183
 20
7.453606226713088
 30
0.0
 11
10.85924959919183
 21
7.45360622671309
 31
0.0
  0
LINE
  5
E8
330
2
100
AcDbEntity
  8
AM_VIS
100
AcDbLine
 10
11.17624959919182
 20
6.165606226713092
 30
0.0
 11
10.85924959919182
 21
6.165606226713092
 31
0.0
  0
LINE
  5
E9
330
2
100
AcDbEntity
  8
AM_VIS
100
AcDbLine
 10
11.17624959919183
 20
7.06060622671309
 30
0.0
 11
11.17624959919182
 21
6.202606226713091
 31
0.0
  0
LINE
  5
EA
330
2
100
AcDbEntity
  8
AM_VIS
100
AcDbLine
 10
11.47624959919183
 20
7.453606226713089
 30
0.0
 11
11.47624959919183
 21
7.422606226713091
 31
0.0
  0
LINE
  5
EB
330
2
100
AcDbEntity
  8
AM_VIS
100
AcDbLine
 10
11.17624959919183
 20
7.422606226713091
 30
0.0
 11
11.17624959919183
 21
7.453606226713092
 31
0.0
  0
LINE
  5
EC
330
2
100
AcDbEntity
  8
AM_VIS
100
AcDbLine
 10
11.17624959919182
 20
6.165606226713091
 30
0.0
 11
11.17624959919182
 21
6.202606226713092
 31
0.0
  0
LINE
  5
ED
330
2
100
AcDbEntity
  8
AM_VIS
100
AcDbLine
 10
11.47624959919183
 20
7.050606226713087
 30
0.0
 11
11.47624959919183
 21
7.06060622671309
 31
0.0
  0
LINE
  5
EE
330
2
100
AcDbEntity
  8
AM_VIS
100
AcDbLine
 10
11.17624959919183
 20
7.05060622671309
 30
0.0
 11
11.47624959919183
 21
7.050606226713087
 31
0.0
  0
LINE
  5
EF
330
2
100
AcDbEntity
  8
AM_VIS
100
AcDbLine
 10
11.47624959919182
 20
6.202606226713088
 30
0.0
 11
11.47624959919183
 21
7.050606226713087
 31
0.0
  0
LINE
  5
F0
330
2
100
AcDbEntity
  8
AM_VIS
100
AcDbLine
 10
11.17624959919182
 20
6.165606226713092
 30
0.0
 11
11.47624959919182
 21
6.165606226713089
 31
0.0
  0
LINE
  5
F1
330
2
100
AcDbEntity
  8
AM_VIS
100
AcDbLine
 10
11.17624959919182
 20
6.202606226713091
 30
0.0
 11
11.17624959919183
 21
7.05060622671309
 31
0.0
  0
LINE
  5
F2
330
2
100
AcDbEntity
  8
AM_VIS
100
AcDbLine
 10
11.47624959919182
 20
6.202606226713088
 30
0.0
 11
11.47624959919182
 21
6.165606226713089
 31
0.0
  0
LINE
  5
F3
330
2
100
AcDbEntity
  8
AM_VIS
100
AcDbLine
 10
11.17624959919182
 20
6.202606226713091
 30
0.0
 11
11.17624959919182
 21
6.165606226713092
 31
0.0
  0
LINE
  5
F4
330
2
100
AcDbEntity
  8
AM_VIS
100
AcDbLine
 10
9.447549599191823
 20
5.995715226713107
 30
0.0
 11
9.584949599191824
 21
5.995715226713106
 31
0.0
  0
LINE
  5
F5
330
2
100
AcDbEntity
  8
AM_VIS
100
AcDbLine
 10
9.447549599191836
 20
7.623497226713102
 30
0.0
 11
9.584949599191835
 21
7.623497226713102
 31
0.0
  0
LINE
  5
F6
330
2
100
AcDbEntity
  8
AM_VIS
100
AcDbLine
 10
9.185175006338873
 20
7.350127512847379
 30
0.0
 11
9.215825799791907
 21
6.262428348768994
 31
0.0
  0
LINE
  5
F7
330
2
100
AcDbEntity
  8
AM_VIS
100
AcDbLine
 10
9.260207410009636
 20
7.350127306787252
 30
0.0
 11
9.290255890039542
 21
6.262413969718884
 31
0.0
  0
LINE
  5
F8
330
2
100
AcDbEntity
  8
AM_VIS
100
AcDbLine
 10
9.134661606965014
 20
6.399127622334587
 30
0.0
 11
9.14193716024206
 21
6.262427246673934
 31
0.0
  0
LINE
  5
F9
330
2
100
AcDbEntity
  8
AM_VIS
100
AcDbLine
 10
9.213910010012064
 20
7.400719490497043
 30
0.0
 11
9.244900286622216
 21
6.211886138369227
 31
0.0
  0
LINE
  5
FA
330
2
100
AcDbEntity
  8
AM_VIS
100
AcDbLine
 10
9.242810709630992
 20
7.350125278983994
 30
0.0
 11
9.273782662598064
 21
6.261890044797023
 31
0.0
  0
LINE
  5
FB
330
2
100
AcDbEntity
  8
AM_VIS
100
AcDbLine
 10
9.316595020957262
 20
7.350105750060147
 30
0.0
 11
9.32285991344735
 21
7.220079849282792
 31
0.0
  0
LINE
  5
FC
330
2
100
AcDbEntity
  8
AM_VIS
100
AcDbLine
 10
9.288507727360931
 20
7.400709084104602
 30
0.0
 11
9.319543410747163
 21
6.212027737122092
 31
0.0
  0
LINE
  5
FD
330
2
100
AcDbEntity
  8
AM_VIS
100
AcDbLine
 10
9.138908963586892
 20
7.400718424455772
 30
0.0
 11
9.169309140917588
 21
6.212015751142154
 31
0.0
  0
LINE
  5
FE
330
2
100
AcDbEntity
  8
AM_VIS
100
AcDbLine
 10
9.167814263250919
 20
7.350124229667129
 30
0.0
 11
9.198146555658071
 21
6.262015050095754
 31
0.0
  0
LINE
  5
FF
330
2
100
AcDbEntity
  8
AM_VIS
100
AcDbLine
 10
9.447549599191834
 20
7.533343146713106
 30
0.0
 11
9.447549599191823
 21
6.085869306713105
 31
0.0
  0
LINE
  5
100
330
2
100
AcDbEntity
  8
AM_VIS
100
AcDbLine
 10
9.258093189962972
 20
7.350071709376193
 30
0.0
 11
9.286799420797967
 21
7.40066716859574
 31
0.0
  0
LINE
  5
101
330
2
100
AcDbEntity
  8
AM_VIS
100
AcDbLine
 10
9.2868055850198
 20
7.400665538154942
 30
0.0
 11
9.315834738553583
 21
7.350069984632893
 31
0.0
  0
LINE
  5
102
330
2
100
AcDbEntity
  8
AM_VIS
100
AcDbLine
 10
9.183093189962974
 20
7.350071709376195
 30
0.0
 11
9.211799420797966
 21
7.40066716859574
 31
0.0
  0
LINE
  5
103
330
2
100
AcDbEntity
  8
AM_VIS
100
AcDbLine
 10
9.211805585019801
 20
7.400665538154946
 30
0.0
 11
9.240834738553584
 21
7.350069984632896
 31
0.0
  0
LINE
  5
104
330
2
100
AcDbEntity
  8
AM_VIS
100
AcDbLine
 10
9.135049580758686
 20
7.397576798249678
 30
0.0
 11
9.136803930576594
 21
7.400664609907315
 31
0.0
  0
LINE
  5
105
330
2
100
AcDbEntity
  8
AM_VIS
100
AcDbLine
 10
9.136805585019796
 20
7.400665538154946
 30
0.0
 11
9.165834738553582
 21
7.350069984632896
 31
0.0
  0
LINE
  5
106
330
2
100
AcDbEntity
  8
AM_VIS
100
AcDbLine
 10
9.183300497276663
 20
7.357106968161077
 30
0.0
 11
9.208294113901372
 21
7.400665251026508
 31
0.0
  0
LINE
  5
107
330
2
100
AcDbEntity
  8
AM_VIS
100
AcDbLine
 10
9.208295267807097
 20
7.400664609907326
 30
0.0
 11
9.210049617624989
 21
7.397576798249723
 31
0.0
  0
LINE
  5
108
330
2
100
AcDbEntity
  8
AM_VIS
100
AcDbLine
 10
9.258300497276657
 20
7.357106968161073
 30
0.0
 11
9.283294113901368
 21
7.400665251026509
 31
0.0
  0
LINE
  5
109
330
2
100
AcDbEntity
  8
AM_VIS
100
AcDbLine
 10
9.283295267807091
 20
7.400664609907324
 30
0.0
 11
9.285049617624975
 21
7.397576798249724
 31
0.0
  0
LINE
  5
10A
330
2
100
AcDbEntity
  8
AM_VIS
100
AcDbLine
 10
9.584949599191832
 20
7.533343146713105
 30
0.0
 11
9.584949599191832
 21
7.413806226713102
 31
0.0
  0
LINE
  5
10B
330
2
100
AcDbEntity
  8
AM_VIS
100
AcDbLine
 10
9.584949599191826
 20
6.205406226713106
 30
0.0
 11
9.584949599191826
 21
6.085869306713102
 31
0.0
  0
LINE
  5
10C
330
2
100
AcDbEntity
  8
AM_VIS
100
AcDbLine
 10
9.829249599191832
 20
7.413806226713101
 30
0.0
 11
9.829249599191824
 21
6.205406226713103
 31
0.0
  0
LINE
  5
10D
330
2
100
AcDbEntity
  8
AM_VIS
100
AcDbLine
 10
9.584949599191826
 20
6.165406226713106
 30
0.0
 11
9.829249599191824
 21
6.165406226713105
 31
0.0
  0
LINE
  5
10E
330
2
100
AcDbEntity
  8
AM_VIS
100
AcDbLine
 10
9.584949599191832
 20
7.453806226713102
 30
0.0
 11
9.829249599191832
 21
7.453806226713099
 31
0.0
  0
LINE
  5
10F
330
2
100
AcDbEntity
  8
AM_VIS
100
AcDbLine
 10
9.276417093912671
 20
6.262106226713106
 30
0.0
 11
9.293456842556727
 21
6.262106226713106
 31
0.0
  0
LINE
  5
110
330
2
100
AcDbEntity
  8
AM_VIS
100
AcDbLine
 10
9.20141710907956
 20
6.262106226713108
 30
0.0
 11
9.218456842556742
 21
6.262106226713108
 31
0.0
  0
LINE
  5
111
330
2
100
AcDbEntity
  8
AM_VIS
100
AcDbLine
 10
9.13504959919183
 20
6.262106226713108
 30
0.0
 11
9.143456842556755
 21
6.262106226713108
 31
0.0
  0
LINE
  5
112
330
2
100
AcDbEntity
  8
AM_VIS
100
AcDbLine
 10
9.161797408929107
 20
7.357106226713106
 30
0.0
 11
9.187085153147961
 21
7.357106226713106
 31
0.0
  0
LINE
  5
113
330
2
100
AcDbEntity
  8
AM_VIS
100
AcDbLine
 10
9.236797408929096
 20
7.357106226713106
 30
0.0
 11
9.262085153147948
 21
7.357106226713106
 31
0.0
  0
LINE
  5
114
330
2
100
AcDbEntity
  8
AM_VIS
100
AcDbLine
 10
9.311797408929079
 20
7.357106226713105
 30
0.0
 11
9.322549599191836
 21
7.357106226713105
 31
0.0
  0
LINE
  5
115
330
2
100
AcDbEntity
  8
AM_VIS
100
AcDbLine
 10
9.218231757728934
 20
6.262496296123702
 30
0.0
 11
9.247136931021517
 21
6.212463719540131
 31
0.0
  0
LINE
  5
116
330
2
100
AcDbEntity
  8
AM_VIS
100
AcDbLine
 10
9.293231757728923
 20
6.262496296123702
 30
0.0
 11
9.322136931021502
 21
6.212463719540137
 31
0.0
  0
LINE
  5
117
330
2
100
AcDbEntity
  8
AM_VIS
100
AcDbLine
 10
9.143231757728948
 20
6.262496296123702
 30
0.0
 11
9.17213693102153
 21
6.212463719540131
 31
0.0
  0
LINE
  5
118
330
2
100
AcDbEntity
  8
AM_VIS
100
AcDbLine
 10
9.247962270646008
 20
6.212463717642918
 30
0.0
 11
9.276642147744531
 21
6.262106346927891
 31
0.0
  0
LINE
  5
119
330
2
100
AcDbEntity
  8
AM_VIS
100
AcDbLine
 10
9.172962270646019
 20
6.212463717642918
 30
0.0
 11
9.201642147744543
 21
6.262106346927891
 31
0.0
  0
LINE
  5
11A
330
2
100
AcDbEntity
  8
AM_VIS
100
AcDbLine
 10
8.684049599191826
 20
6.560705184564683
 30
0.0
 11
8.684049599191826
 21
6.502614439657503
 31
0.0
  0
LINE
  5
11B
330
2
100
AcDbEntity
  8
AM_VIS
100
AcDbLine
 10
8.684049599191832
 20
6.990329720460302
 30
0.0
 11
8.684049599191832
 21
6.918956762694191
 31
0.0
  0
LINE
  5
11C
330
2
100
AcDbEntity
  8
AM_VIS
100
AcDbLine
 10
8.684049599191832
 20
7.302838732342382
 30
0.0
 11
8.684049599191832
 21
7.282493177221811
 31
0.0
  0
LINE
  5
11D
330
2
100
AcDbEntity
  8
AM_VIS
100
AcDbLine
 10
9.447549599191834
 20
7.533343146713106
 30
0.0
 11
9.447549599191836
 21
7.623497226713105
 31
0.0
  0
LINE
  5
11E
330
2
100
AcDbEntity
  8
AM_VIS
100
AcDbLine
 10
9.447549599191823
 20
5.995715226713103
 30
0.0
 11
9.447549599191823
 21
6.085869306713105
 31
0.0
  0
LINE
  5
11F
330
2
100
AcDbEntity
  8
AM_VIS
100
AcDbLine
 10
9.584949599191832
 20
7.533343146713105
 30
0.0
 11
9.584949599191835
 21
7.623497226713105
 31
0.0
  0
LINE
  5
120
330
2
100
AcDbEntity
  8
AM_VIS
100
AcDbLine
 10
9.584949599191824
 20
5.995715226713103
 30
0.0
 11
9.584949599191824
 21
6.085869306713102
 31
0.0
  0
LINE
  5
121
330
2
100
AcDbEntity
  8
AM_VIS
100
AcDbLine
 10
9.829249599191824
 20
6.165406226713103
 30
0.0
 11
9.829249599191824
 21
6.205406226713103
 31
0.0
  0
LINE
  5
122
330
2
100
AcDbEntity
  8
AM_VIS
100
AcDbLine
 10
9.829249599191832
 20
7.413806226713101
 30
0.0
 11
9.829249599191832
 21
7.453806226713101
 31
0.0
  0
LINE
  5
123
330
2
100
AcDbEntity
  8
AM_VIS
100
AcDbLine
 10
9.829249599191824
 20
6.165406226713098
 30
0.0
 11
10.85924959919182
 21
6.165406226713092
 31
0.0
  0
LINE
  5
124
330
2
100
AcDbEntity
  8
AM_VIS
100
AcDbLine
 10
9.829249599191832
 20
7.413806226713101
 30
0.0
 11
9.829249599191824
 21
6.205406226713097
 31
0.0
  0
LINE
  5
125
330
2
100
AcDbEntity
  8
AM_VIS
100
AcDbLine
 10
10.85924959919182
 20
6.20540622671309
 30
0.0
 11
10.85924959919183
 21
7.413806226713091
 31
0.0
  0
LINE
  5
126
330
2
100
AcDbEntity
  8
AM_VIS
100
AcDbLine
 10
10.85924959919183
 20
7.453806226713093
 30
0.0
 11
9.829249599191832
 21
7.453806226713099
 31
0.0
  0
LINE
  5
127
330
2
100
AcDbEntity
  8
AM_VIS
100
AcDbLine
 10
9.829249599191824
 20
6.165406226713097
 30
0.0
 11
9.829249599191824
 21
6.205406226713097
 31
0.0
  0
LINE
  5
128
330
2
100
AcDbEntity
  8
AM_VIS
100
AcDbLine
 10
10.85924959919182
 20
6.20540622671309
 30
0.0
 11
10.85924959919182
 21
6.16540622671309
 31
0.0
  0
LINE
  5
129
330
2
100
AcDbEntity
  8
AM_VIS
100
AcDbLine
 10
9.829249599191832
 20
7.413806226713101
 30
0.0
 11
9.829249599191832
 21
7.453806226713101
 31
0.0
  0
LINE
  5
12A
330
2
100
AcDbEntity
  8
AM_VIS
100
AcDbLine
 10
10.85924959919183
 20
7.453806226713093
 30
0.0
 11
10.85924959919183
 21
7.413806226713093
 31
0.0
  0
LINE
  5
12B
330
2
100
AcDbEntity
  8
AM_VIS
100
AcDbLine
 10
10.46824959919183
 20
7.453806226713097
 30
0.0
 11
10.46824959919183
 21
7.520792460718191
 31
0.0
  0
LINE
  5
12C
330
2
100
AcDbEntity
  8
AM_VIS
100
AcDbLine
 10
10.43424959919183
 20
7.520792460718191
 30
0.0
 11
10.43424959919183
 21
7.453806226713097
 31
0.0
  0
LINE
  5
12D
330
2
100
AcDbEntity
  8
AM_VIS
100
AcDbLine
 10
10.46824959919183
 20
7.520792460718191
 30
0.0
 11
10.43424959919183
 21
7.520792460718191
 31
0.0
  0
LINE
  5
12E
330
2
100
AcDbEntity
  8
AM_VIS
100
AcDbLine
 10
10.46824959919183
 20
7.57556471646871
 30
0.0
 11
10.46824959919183
 21
7.64056471646871
 31
0.0
  0
LINE
  5
12F
330
2
100
AcDbEntity
  8
AM_VIS
100
AcDbLine
 10
10.43424959919184
 20
7.64056471646871
 30
0.0
 11
10.43424959919184
 21
7.57556471646871
 31
0.0
  0
LINE
  5
130
330
2
100
AcDbEntity
  8
AM_VIS
100
AcDbLine
 10
10.46824959919184
 20
7.70556471646871
 30
0.0
 11
10.43424959919184
 21
7.70556471646871
 31
0.0
  0
LINE
  5
131
330
2
100
AcDbEntity
  8
AM_VIS
100
AcDbLine
 10
10.46824959919183
 20
7.57556471646871
 30
0.0
 11
10.46824959919183
 21
7.520792460718191
 31
0.0
  0
LINE
  5
132
330
2
100
AcDbEntity
  8
AM_VIS
100
AcDbLine
 10
10.43424959919183
 20
7.520792460718191
 30
0.0
 11
10.43424959919183
 21
7.57556471646871
 31
0.0
  0
LINE
  5
133
330
2
100
AcDbEntity
  8
AM_VIS
100
AcDbLine
 10
10.46824959919184
 20
7.70556471646871
 30
0.0
 11
10.46824959919184
 21
7.64056471646871
 31
0.0
  0
LINE
  5
134
330
2
100
AcDbEntity
  8
AM_VIS
100
AcDbLine
 10
10.43424959919184
 20
7.64056471646871
 30
0.0
 11
10.43424959919184
 21
7.70556471646871
 31
0.0
  0
LINE
  5
135
330
2
100
AcDbEntity
  8
AM_VIS
100
AcDbLine
 10
9.322549599191827
 20
6.059606226713105
 30
0.0
 11
9.385049599191827
 21
6.059606226713105
 31
0.0
  0
LINE
  5
136
330
2
100
AcDbEntity
  8
AM_VIS
100
AcDbLine
 10
9.322549599191836
 20
7.559606226713103
 30
0.0
 11
9.385049599191836
 21
7.559606226713103
 31
0.0
  0
LINE
  5
137
330
2
100
AcDbEntity
  8
AM_VIS
100
AcDbLine
 10
9.385049599191827
 20
6.059606226713103
 30
0.0
 11
9.385049599191839
 21
7.559606226713103
 31
0.0
  0
LINE
  5
138
330
2
100
AcDbEntity
  8
AM_VIS
100
AcDbLine
 10
9.322549599191836
 20
7.559606226713103
 30
0.0
 11
9.322549599191827
 21
6.059606226713103
 31
0.0
  0
LINE
  5
139
330
2
100
AcDbEntity
  8
AM_VIS
100
AcDbLine
 10
9.385049599191827
 20
6.059606226713103
 30
0.0
 11
9.447549599191827
 21
6.059606226713103
 31
0.0
  0
LINE
  5
13A
330
2
100
AcDbEntity
  8
AM_VIS
100
AcDbLine
 10
9.385049599191836
 20
7.559606226713103
 30
0.0
 11
9.447549599191836
 21
7.559606226713103
 31
0.0
  0
LINE
  5
13B
330
2
100
AcDbEntity
  8
AM_VIS
100
AcDbLine
 10
9.385049599191836
 20
7.559606226713103
 30
0.0
 11
9.385049599191827
 21
6.059606226713103
 31
0.0
  0
LINE
  5
13C
330
2
100
AcDbEntity
  8
AM_VIS
100
AcDbLine
 10
9.13504959919183
 20
6.533118673829061
 30
0.0
 11
9.135049599191834
 21
7.086093779597147
 31
0.0
  0
LINE
  5
13D
330
2
100
AcDbEntity
  8
AM_VIS
100
AcDbLine
 10
9.135049599191836
 20
7.497106226713105
 30
0.0
 11
8.895049599191837
 21
7.497106226713107
 31
0.0
  0
LINE
  5
13E
330
2
100
AcDbEntity
  8
AM_VIS
100
AcDbLine
 10
9.135049599191834
 20
7.100235915220879
 30
0.0
 11
9.135049599191836
 21
7.491248362336838
 31
0.0
  0
LINE
  5
13F
330
2
100
AcDbEntity
  8
AM_VIS
100
AcDbLine
 10
8.855049599191836
 20
7.168336729523399
 30
0.0
 11
8.855049599191836
 21
7.077809508349687
 31
0.0
  0
LINE
  5
140
330
2
100
AcDbEntity
  8
AM_VIS
100
AcDbLine
 10
8.856039050749803
 20
7.16833617286463
 30
0.0
 11
8.856150580618445
 21
7.366578386133912
 31
0.0
  0
LINE
  5
141
330
2
100
AcDbEntity
  8
AM_VIS
100
AcDbLine
 10
8.855049599191836
 20
7.457106226713107
 30
0.0
 11
8.855049599191836
 21
7.366579005539397
 31
0.0
  0
SPLINE
  5
142
330
2
100
AcDbEntity
  8
AM_VIS
100
AcDbSpline
210
0.0
220
0.0
230
1.0
 70
     8
 71
     3
 72
     8
 73
     4
 74
     0
 42
0.0000000001
 43
0.0000000001
 40
0.1389000112756993
 40
0.1389000112756993
 40
0.1389000112756993
 40
0.1389000112756993
 40
0.1516522623428463
 40
0.1516522623428463
 40
0.1516522623428463
 40
0.1516522623428463
 10
8.88411913635838
 20
7.495583817363336
 30
0.0
 10
8.887812938639742
 20
7.494534506118236
 30
0.0
 10
8.891578876060016
 20
7.492983723902749
 30
0.0
 10
8.895049599191837
 20
7.491248362336839
 30
0.0
  0
SPLINE
  5
143
330
2
100
AcDbEntity
  8
AM_VIS
100
AcDbSpline
210
0.0
220
0.0
230
1.0
 70
     8
 71
     3
 72
     8
 73
     4
 74
     0
 42
0.0000000001
 43
0.0000000001
 40
0.0
 40
0.0
 40
0.0
 40
0.0
 40
0.0127522510681388
 40
0.0127522510681388
 40
0.0127522510681388
 40
0.0127522510681388
 10
8.895049599191834
 20
7.10023591522088
 30
0.0
 10
8.891578876059744
 20
7.098500553654838
 30
0.0
 10
8.887812938640017
 20
7.096280709683518
 30
0.0
 10
8.884119136358377
 20
7.093747448244452
 30
0.0
  0
LINE
  5
144
330
2
100
AcDbEntity
  8
AM_VIS
100
AcDbLine
 10
8.855049599191833
 20
6.669427769024353
 30
0.0
 11
8.855049599191833
 21
6.541402945076529
 31
0.0
  0
ARC
  5
145
330
2
100
AcDbEntity
  8
AM_VIS
100
AcDbCircle
 10
5.490639099978697
 20
6.809606226713527
 30
0.0
 40
3.367329506777656
100
AcDbArc
 50
357.6141462948953
 51
2.385853705103979
  0
LINE
  5
146
330
2
100
AcDbEntity
  8
AM_VIS
100
AcDbLine
 10
8.855049599191833
 20
7.077809508349687
 30
0.0
 11
8.855049599191833
 21
6.949784684401866
 31
0.0
  0
ELLIPSE
  5
147
330
2
100
AcDbEntity
  8
AM_VIS
100
AcDbEllipse
 10
8.895049599191834
 20
7.077809508349687
 30
0.0
 11
0.04
 21
-0.0000000000000003
 31
0.0
210
0.0
220
0.0
230
1.0
 40
0.4142135623730951
 41
1.847578351991456
 42
3.141592653589716
  0
LINE
  5
148
330
2
100
AcDbEntity
  8
AM_VIS
100
AcDbLine
 10
8.884130064455105
 20
7.093763039009079
 30
0.0
 11
8.895056831019907
 21
7.086104097014
 31
0.0
  0
LINE
  5
149
330
2
100
AcDbEntity
  8
AM_VIS
100
AcDbLine
 10
8.884130064455098
 20
6.525449414417133
 30
0.0
 11
8.895056831019902
 21
6.533108356412212
 31
0.0
  0
LINE
  5
14A
330
2
100
AcDbEntity
  8
AM_VIS
100
AcDbLine
 10
9.135049599191827
 20
6.127964091089374
 30
0.0
 11
9.13504959919183
 21
6.518976538205331
 31
0.0
  0
LINE
  5
14B
330
2
100
AcDbEntity
  8
AM_VIS
100
AcDbLine
 10
8.855049599191827
 20
6.252633447886824
 30
0.0
 11
8.855049599191827
 21
6.162106226713105
 31
0.0
  0
LINE
  5
14C
330
2
100
AcDbEntity
  8
AM_VIS
100
AcDbLine
 10
8.856039050749787
 20
6.450876280562265
 30
0.0
 11
8.856150580618445
 21
6.252634067292747
 31
0.0
  0
LINE
  5
14D
330
2
100
AcDbEntity
  8
AM_VIS
100
AcDbLine
 10
8.855049599191833
 20
6.541402945076528
 30
0.0
 11
8.855049599191833
 21
6.450875723902809
 31
0.0
  0
ELLIPSE
  5
14E
330
2
100
AcDbEntity
  8
AM_VIS
100
AcDbEllipse
 10
8.89504959919183
 20
6.541402945076529
 30
0.0
 11
0.04
 21
-0.0000000000000003
 31
0.0
210
0.0
220
0.0
230
1.0
 40
0.4142135623730956
 41
3.141592653589792
 42
4.435606955187978
  0
SPLINE
  5
14F
330
2
100
AcDbEntity
  8
AM_VIS
100
AcDbSpline
210
0.0
220
0.0
230
1.0
 70
     8
 71
     3
 72
     8
 73
     4
 74
     0
 42
0.0000000001
 43
0.0000000001
 40
0.1389000112756985
 40
0.1389000112756985
 40
0.1389000112756985
 40
0.1389000112756985
 40
0.1516522623428474
 40
0.1516522623428474
 40
0.1516522623428474
 40
0.1516522623428474
 10
8.88411913635837
 20
6.525465005181763
 30
0.0
 10
8.887812938639729
 20
6.522931743742942
 30
0.0
 10
8.891578876060011
 20
6.520711899771245
 30
0.0
 10
8.89504959919183
 20
6.518976538205336
 30
0.0
  0
SPLINE
  5
150
330
2
100
AcDbEntity
  8
AM_VIS
100
AcDbSpline
210
0.0
220
0.0
230
1.0
 70
     8
 71
     3
 72
     8
 73
     4
 74
     0
 42
0.0000000001
 43
0.0000000001
 40
0.0
 40
0.0
 40
0.0
 40
0.0
 40
0.0127522510681433
 40
0.0127522510681433
 40
0.0127522510681433
 40
0.0127522510681433
 10
8.89504959919183
 20
6.127964091089377
 30
0.0
 10
8.891578876059737
 20
6.126228729523328
 30
0.0
 10
8.887812938640008
 20
6.124677947307982
 30
0.0
 10
8.88411913635837
 20
6.123628636062883
 30
0.0
  0
LINE
  5
151
330
2
100
AcDbEntity
  8
AM_VIS
100
AcDbLine
 10
8.89504959919183
 20
6.122106226713106
 30
0.0
 11
9.135049599191827
 21
6.122106226713103
 31
0.0
  0
ARC
  5
152
330
2
100
AcDbEntity
  8
AM_VIS
100
AcDbCircle
 10
8.89504959919183
 20
6.162106226713106
 30
0.0
 40
0.04
100
AcDbArc
 50
179.9999999999995
 51
254.141558111144
  0
SPLINE
  5
153
330
2
100
AcDbEntity
  8
AM_VIS
100
AcDbSpline
210
0.0
220
0.0
230
1.0
 70
     8
 71
     3
 72
     8
 73
     4
 74
     0
 42
0.0000000001
 43
0.0000000001
 40
0.1389000112757004
 40
0.1389000112757004
 40
0.1389000112757004
 40
0.1389000112757004
 40
0.15165226234285
 40
0.15165226234285
 40
0.15165226234285
 40
0.15165226234285
 10
8.88411913635837
 20
6.123628636062883
 30
0.0
 10
8.887812938639729
 20
6.122579324817955
 30
0.0
 10
8.891578876060011
 20
6.122106226713107
 30
0.0
 10
8.89504959919183
 20
6.122106226713107
 30
0.0
  0
SPLINE
  5
154
330
2
100
AcDbEntity
  8
AM_VIS
100
AcDbSpline
210
0.0
220
0.0
230
1.0
 70
     8
 71
     3
 72
     8
 73
     4
 74
     0
 42
0.0000000001
 43
0.0000000001
 40
0.0
 40
0.0
 40
0.0
 40
0.0
 40
0.0127522510681397
 40
0.0127522510681397
 40
0.0127522510681397
 40
0.0127522510681397
 10
8.895049599191837
 20
7.497106226713107
 30
0.0
 10
8.89157887605975
 20
7.497106226713107
 30
0.0
 10
8.887812938640021
 20
7.496633128608428
 30
0.0
 10
8.88411913635838
 20
7.495583817363336
 30
0.0
  0
ARC
  5
155
330
2
100
AcDbEntity
  8
AM_VIS
100
AcDbCircle
 10
8.895049599191837
 20
7.457106226713107
 30
0.0
 40
0.04
100
AcDbArc
 50
105.8584418888489
 51
179.9999999999999
  0
LINE
  5
156
330
2
100
AcDbEntity
  8
AM_VIS
100
AcDbLine
 10
8.857968606756356
 20
7.472106226713107
 30
0.0
 11
8.715049599191837
 21
7.472106226713107
 31
0.0
  0
LINE
  5
157
330
2
100
AcDbEntity
  8
AM_VIS
100
AcDbLine
 10
8.857968606756351
 20
6.147106226713106
 30
0.0
 11
8.715049599191832
 21
6.147106226713107
 31
0.0
  0
LINE
  5
158
330
2
100
AcDbEntity
  8
AM_VIS
100
AcDbLine
 10
8.685049599191831
 20
6.177106226713108
 30
0.0
 11
8.68504959919184
 21
7.442106226713107
 31
0.0
  0
LINE
  5
159
330
2
100
AcDbEntity
  8
AM_VIS
100
AcDbLine
 10
9.135049599191836
 20
7.497106226713105
 30
0.0
 11
9.135049599191836
 21
7.491248362336838
 31
0.0
  0
LINE
  5
15A
330
2
100
AcDbEntity
  8
AM_VIS
100
AcDbLine
 10
9.135049599191834
 20
7.100235915220879
 30
0.0
 11
9.135049599191834
 21
7.086093779597147
 31
0.0
  0
LINE
  5
15B
330
2
100
AcDbEntity
  8
AM_VIS
100
AcDbLine
 10
9.13504959919183
 20
6.533118673829061
 30
0.0
 11
9.13504959919183
 21
6.518976538205331
 31
0.0
  0
LINE
  5
15C
330
2
100
AcDbEntity
  8
AM_VIS
100
AcDbLine
 10
9.135049599191827
 20
6.127964091089373
 30
0.0
 11
9.135049599191827
 21
6.122106226713103
 31
0.0
  0
ARC
  5
15D
330
2
100
AcDbEntity
  8
AM_VIS
100
AcDbCircle
 10
8.715049599191837
 20
7.442106226713107
 30
0.0
 40
0.03
100
AcDbArc
 50
89.99999999999962
 51
179.9999999999996
  0
ARC
  5
15E
330
2
100
AcDbEntity
  8
AM_VIS
100
AcDbCircle
 10
8.715049599191829
 20
6.177106226713108
 30
0.0
 40
0.03
100
AcDbArc
 50
180.0000000000005
 51
270.0000000000031
  0
LINE
  5
15F
330
2
100
AcDbEntity
  8
AM_VIS
100
AcDbLine
 10
8.185049599191829
 20
6.270757530816171
 30
0.0
 11
8.135049599191829
 21
6.270757530816172
 31
0.0
  0
LINE
  5
160
330
2
100
AcDbEntity
  8
AM_VIS
100
AcDbLine
 10
8.135049599191827
 20
6.309606226713113
 30
0.0
 11
8.135049599191827
 21
6.270757530816172
 31
0.0
  0
LINE
  5
161
330
2
100
AcDbEntity
  8
AM_VIS
100
AcDbLine
 10
8.185049599191826
 20
6.250193623815532
 30
0.0
 11
8.185049599191826
 21
6.271012988733285
 31
0.0
  0
LINE
  5
162
330
2
100
AcDbEntity
  8
AM_VIS
100
AcDbLine
 10
8.185049599191826
 20
6.271012988733288
 30
0.0
 11
8.685049599191826
 21
6.271012988733281
 31
0.0
  0
LINE
  5
163
330
2
100
AcDbEntity
  8
AM_VIS
100
AcDbLine
 10
8.685049599191826
 20
6.491364287241622
 30
0.0
 11
8.185049599191824
 21
6.491364287241627
 31
0.0
  0
LINE
  5
164
330
2
100
AcDbEntity
  8
AM_VIS
100
AcDbLine
 10
8.185049599191826
 20
6.491364287241624
 30
0.0
 11
8.185049599191826
 21
6.508865578148673
 31
0.0
  0
LINE
  5
165
330
2
100
AcDbEntity
  8
AM_VIS
100
AcDbLine
 10
8.185049599191826
 20
6.560705184564691
 30
0.0
 11
8.685049599191829
 21
6.560705184564683
 31
0.0
  0
LINE
  5
166
330
2
100
AcDbEntity
  8
AM_VIS
100
AcDbLine
 10
8.684049599191826
 20
6.508865578148665
 30
0.0
 11
8.185049599191826
 21
6.508865578148672
 31
0.0
  0
LINE
  5
167
330
2
100
AcDbEntity
  8
AM_VIS
100
AcDbLine
 10
8.685049599191833
 20
6.918956762694191
 30
0.0
 11
8.185049599191833
 21
6.918956762694196
 31
0.0
  0
LINE
  5
168
330
2
100
AcDbEntity
  8
AM_VIS
100
AcDbLine
 10
8.185049599191835
 20
6.996200235197843
 30
0.0
 11
8.685049599191835
 21
6.996200235197837
 31
0.0
  0
LINE
  5
169
330
2
100
AcDbEntity
  8
AM_VIS
100
AcDbLine
 10
8.185049599191835
 20
6.987067773485533
 30
0.0
 11
8.185049599191835
 21
6.996200235197846
 31
0.0
  0
LINE
  5
16A
330
2
100
AcDbEntity
  8
AM_VIS
100
AcDbLine
 10
8.684049599191832
 20
6.987067773485526
 30
0.0
 11
8.185049599191835
 21
6.987067773485532
 31
0.0
  0
LINE
  5
16B
330
2
100
AcDbEntity
  8
AM_VIS
100
AcDbLine
 10
8.685049599191836
 20
7.282493177221811
 30
0.0
 11
8.185049599191836
 21
7.282493177221818
 31
0.0
  0
LINE
  5
16C
330
2
100
AcDbEntity
  8
AM_VIS
100
AcDbLine
 10
8.185049599191836
 20
7.322391046318204
 30
0.0
 11
8.685049599191836
 21
7.322391046318196
 31
0.0
  0
LINE
  5
16D
330
2
100
AcDbEntity
  8
AM_VIS
100
AcDbLine
 10
8.185049599191836
 20
7.291974504199752
 30
0.0
 11
8.185049599191836
 21
7.322391046318206
 31
0.0
  0
LINE
  5
16E
330
2
100
AcDbEntity
  8
AM_VIS
100
AcDbLine
 10
8.684049599191832
 20
7.291974504199746
 30
0.0
 11
8.185049599191836
 21
7.291974504199752
 31
0.0
  0
LINE
  5
16F
330
2
100
AcDbEntity
  8
AM_VIS
100
AcDbLine
 10
8.685049599191826
 20
6.250193623815532
 30
0.0
 11
8.185049599191826
 21
6.250193623815537
 31
0.0
  0
LINE
  5
170
330
2
100
AcDbEntity
  8
AM_VIS
100
AcDbLine
 10
8.185049599191843
 20
7.309606226713113
 30
0.0
 11
8.135049599191841
 21
7.309606226713114
 31
0.0
  0
LINE
  5
171
330
2
100
AcDbEntity
  8
AM_VIS
100
AcDbLine
 10
8.185049599191826
 20
6.309606226713112
 30
0.0
 11
8.135049599191827
 21
6.309606226713113
 31
0.0
  0
LINE
  5
172
330
2
100
AcDbEntity
  8
AM_VIS
100
AcDbLine
 10
8.685049599191843
 20
7.379606226713101
 30
0.0
 11
8.185049599191843
 21
7.379606226713107
 31
0.0
  0
LINE
  5
173
330
2
100
AcDbEntity
  8
AM_VIS
100
AcDbLine
 10
8.685049599191826
 20
6.239606226713113
 30
0.0
 11
8.185049599191826
 21
6.239606226713119
 31
0.0
  0
LINE
  5
174
330
2
100
AcDbEntity
  8
AM_VIS
100
AcDbLine
 10
8.135049599191827
 20
6.309606226713113
 30
0.0
 11
8.135049599191837
 21
7.309606226713116
 31
0.0
  0
LINE
  5
175
330
2
100
AcDbEntity
  8
AM_VIS
100
AcDbLine
 10
8.18504959919184
 20
7.322391046318199
 30
0.0
 11
8.185049599191843
 21
7.379606226713107
 31
0.0
  0
LINE
  5
176
330
2
100
AcDbEntity
  8
AM_VIS
100
AcDbLine
 10
8.185049599191835
 20
6.996200235197846
 30
0.0
 11
8.18504959919184
 21
7.282493177221818
 31
0.0
  0
LINE
  5
177
330
2
100
AcDbEntity
  8
AM_VIS
100
AcDbLine
 10
8.185049599191826
 20
6.56070518456469
 30
0.0
 11
8.185049599191831
 21
6.918956762694196
 31
0.0
  0
LINE
  5
178
330
2
100
AcDbEntity
  8
AM_VIS
100
AcDbLine
 10
8.185049599191826
 20
6.271012988733288
 30
0.0
 11
8.185049599191826
 21
6.491364287241629
 31
0.0
  0
LINE
  5
179
330
2
100
AcDbEntity
  8
AM_VIS
100
AcDbLine
 10
8.185049599191826
 20
6.560705184564688
 30
0.0
 11
8.185049599191826
 21
6.508865578148672
 31
0.0
  0
LINE
  5
17A
330
2
100
AcDbEntity
  8
AM_VIS
100
AcDbLine
 10
8.185049599191835
 20
6.987067773485532
 30
0.0
 11
8.185049599191833
 21
6.918956762694199
 31
0.0
  0
LINE
  5
17B
330
2
100
AcDbEntity
  8
AM_VIS
100
AcDbLine
 10
8.185049599191836
 20
7.291974504199752
 30
0.0
 11
8.185049599191836
 21
7.282493177221822
 31
0.0
  0
LINE
  5
17C
330
2
100
AcDbEntity
  8
AM_VIS
100
AcDbLine
 10
8.185049599191826
 20
6.239606226713121
 30
0.0
 11
8.185049599191826
 21
6.250193623815537
 31
0.0
  0
LINE
  5
17D
330
2
100
AcDbEntity
  8
AM_VIS
100
AcDbLine
 10
13.79757226142956
 20
7.372926240888253
 30
0.0
 11
13.77709708571633
 21
7.396606226713113
 31
0.0
  0
LINE
  5
17E
330
2
100
AcDbEntity
  8
AM_VIS
100
AcDbLine
 10
13.77709708571633
 20
7.396606226713113
 30
0.0
 11
13.76996286845
 21
7.381006226713113
 31
0.0
  0
LINE
  5
17F
330
2
100
AcDbEntity
  8
AM_VIS
100
AcDbLine
 10
13.69569708571633
 20
7.381006226713115
 30
0.0
 11
13.68009708571633
 21
7.396606226713115
 31
0.0
  0
LINE
  5
180
330
2
100
AcDbEntity
  8
AM_VIS
100
AcDbLine
 10
13.77709708571633
 20
7.087606226713115
 30
0.0
 11
13.79757226142956
 21
7.111286212537976
 31
0.0
  0
LINE
  5
181
330
2
100
AcDbEntity
  8
AM_VIS
100
AcDbLine
 10
13.76996286845
 20
7.103206226713115
 30
0.0
 11
13.77709708571633
 21
7.087606226713115
 31
0.0
  0
LINE
  5
182
330
2
100
AcDbEntity
  8
AM_VIS
100
AcDbLine
 10
13.68009708571633
 20
7.087606226713115
 30
0.0
 11
13.69569708571633
 21
7.103206226713115
 31
0.0
  0
LINE
  5
183
330
2
100
AcDbEntity
  8
AM_VIS
100
AcDbLine
 10
13.89923130298266
 20
7.103206226713115
 30
0.0
 11
13.89209708571633
 21
7.087606226713115
 31
0.0
  0
LINE
  5
184
330
2
100
AcDbEntity
  8
AM_VIS
100
AcDbLine
 10
13.87162191000311
 20
7.111286212537974
 30
0.0
 11
13.89209708571633
 21
7.087606226713114
 31
0.0
  0
LINE
  5
185
330
2
100
AcDbEntity
  8
AM_VIS
100
AcDbLine
 10
13.98909708571633
 20
7.087606226713115
 30
0.0
 11
13.97349708571633
 21
7.103206226713115
 31
0.0
  0
LINE
  5
186
330
2
100
AcDbEntity
  8
AM_VIS
100
AcDbLine
 10
13.96541709989147
 20
7.279131050999888
 30
0.0
 11
13.98909708571633
 21
7.299606226713113
 31
0.0
  0
LINE
  5
187
330
2
100
AcDbEntity
  8
AM_VIS
100
AcDbLine
 10
13.98909708571633
 20
7.299606226713116
 30
0.0
 11
13.97349708571633
 21
7.306740443979442
 31
0.0
  0
LINE
  5
188
330
2
100
AcDbEntity
  8
AM_VIS
100
AcDbLine
 10
13.98909708571633
 20
7.396606226713115
 30
0.0
 11
13.97349708571633
 21
7.381006226713115
 31
0.0
  0
LINE
  5
189
330
2
100
AcDbEntity
  8
AM_VIS
100
AcDbLine
 10
13.68009708571633
 20
7.184606226713114
 30
0.0
 11
13.69569708571633
 21
7.177472009446786
 31
0.0
  0
LINE
  5
18A
330
2
100
AcDbEntity
  8
AM_VIS
100
AcDbLine
 10
13.70377707154119
 20
7.205081402426339
 30
0.0
 11
13.68009708571633
 21
7.184606226713112
 31
0.0
  0
LINE
  5
18B
330
2
100
AcDbEntity
  8
AM_VIS
100
AcDbLine
 10
13.98909708571633
 20
7.184606226713113
 30
0.0
 11
13.97349708571633
 21
7.177472009446786
 31
0.0
  0
LINE
  5
18C
330
2
100
AcDbEntity
  8
AM_VIS
100
AcDbLine
 10
13.98909708571633
 20
7.184606226713112
 30
0.0
 11
13.96541709989147
 21
7.205081402426338
 31
0.0
  0
LINE
  5
18D
330
2
100
AcDbEntity
  8
AM_VIS
100
AcDbLine
 10
13.89209708571633
 20
7.396606226713113
 30
0.0
 11
13.89923130298266
 21
7.381006226713113
 31
0.0
  0
LINE
  5
18E
330
2
100
AcDbEntity
  8
AM_VIS
100
AcDbLine
 10
13.89209708571633
 20
7.396606226713115
 30
0.0
 11
13.87162191000311
 21
7.372926240888253
 31
0.0
  0
LINE
  5
18F
330
2
100
AcDbEntity
  8
AM_VIS
100
AcDbLine
 10
13.68009708571633
 20
7.299606226713116
 30
0.0
 11
13.69569708571633
 21
7.306740443979442
 31
0.0
  0
LINE
  5
190
330
2
100
AcDbEntity
  8
AM_VIS
100
AcDbLine
 10
13.68009708571633
 20
7.299606226713116
 30
0.0
 11
13.70377707154119
 21
7.279131050999888
 31
0.0
  0
LINE
  5
191
330
2
100
AcDbEntity
  8
AM_VIS
100
AcDbLine
 10
13.77709708571633
 20
7.396606226713115
 30
0.0
 11
13.68009708571633
 21
7.396606226713115
 31
0.0
  0
LINE
  5
192
330
2
100
AcDbEntity
  8
AM_VIS
100
AcDbLine
 10
13.98909708571633
 20
7.396606226713115
 30
0.0
 11
13.89209708571633
 21
7.396606226713115
 31
0.0
  0
LINE
  5
193
330
2
100
AcDbEntity
  8
AM_VIS
100
AcDbLine
 10
13.98909708571633
 20
7.299606226713116
 30
0.0
 11
13.98909708571633
 21
7.396606226713115
 31
0.0
  0
LINE
  5
194
330
2
100
AcDbEntity
  8
AM_VIS
100
AcDbLine
 10
13.98909708571633
 20
7.087606226713115
 30
0.0
 11
13.98909708571633
 21
7.184606226713114
 31
0.0
  0
LINE
  5
195
330
2
100
AcDbEntity
  8
AM_VIS
100
AcDbLine
 10
13.68009708571633
 20
7.184606226713114
 30
0.0
 11
13.68009708571633
 21
7.087606226713115
 31
0.0
  0
LINE
  5
196
330
2
100
AcDbEntity
  8
AM_VIS
100
AcDbLine
 10
13.68009708571633
 20
7.396606226713115
 30
0.0
 11
13.68009708571633
 21
7.299606226713116
 31
0.0
  0
LINE
  5
197
330
2
100
AcDbEntity
  8
AM_VIS
100
AcDbLine
 10
13.68009708571633
 20
7.299606226713116
 30
0.0
 11
13.68009708571633
 21
7.18460622671311
 31
0.0
  0
LINE
  5
198
330
2
100
AcDbEntity
  8
AM_VIS
100
AcDbLine
 10
13.89209708571633
 20
7.087606226713115
 30
0.0
 11
13.98909708571633
 21
7.087606226713115
 31
0.0
  0
LINE
  5
199
330
2
100
AcDbEntity
  8
AM_VIS
100
AcDbLine
 10
13.68009708571633
 20
7.087606226713115
 30
0.0
 11
13.77709708571633
 21
7.087606226713115
 31
0.0
  0
LINE
  5
19A
330
2
100
AcDbEntity
  8
AM_VIS
100
AcDbLine
 10
13.77709708571633
 20
7.087606226713115
 30
0.0
 11
13.89209708571633
 21
7.087606226713115
 31
0.0
  0
LINE
  5
19B
330
2
100
AcDbEntity
  8
AM_VIS
100
AcDbLine
 10
13.98909708571633
 20
7.184606226713112
 30
0.0
 11
13.98909708571633
 21
7.299606226713112
 31
0.0
  0
LINE
  5
19C
330
2
100
AcDbEntity
  8
AM_VIS
100
AcDbLine
 10
13.89209708571633
 20
7.396606226713115
 30
0.0
 11
13.77709708571633
 21
7.396606226713115
 31
0.0
  0
CIRCLE
  5
19D
330
2
100
AcDbEntity
  8
AM_VIS
100
AcDbCircle
 10
13.83459708571633
 20
7.242106226713112
 30
0.0
 40
0.1359585000000001
  0
LINE
  5
19E
330
2
100
AcDbEntity
  8
AM_VIS
100
AcDbLine
 10
13.81783008571633
 20
7.225339226713114
 30
0.0
 11
13.81783008571633
 21
7.156248098903335
 31
0.0
  0
LINE
  5
19F
330
2
100
AcDbEntity
  8
AM_VIS
100
AcDbLine
 10
13.81783008571633
 20
7.32796435452289
 30
0.0
 11
13.81783008571633
 21
7.258873226713112
 31
0.0
  0
ARC
  5
1A0
330
2
100
AcDbEntity
  8
AM_VIS
100
AcDbCircle
 10
13.83459708571633
 20
7.242106226713112
 30
0.0
 40
0.087480000000001
100
AcDbArc
 50
168.9499350406696
 51
191.0500649593304
  0
ARC
  5
1A1
330
2
100
AcDbEntity
  8
AM_VIS
100
AcDbCircle
 10
13.83459708571633
 20
7.242106226713112
 30
0.0
 40
0.087480000000001
100
AcDbArc
 50
78.94993504066876
 51
101.0500649593301
  0
ARC
  5
1A2
330
2
100
AcDbEntity
  8
AM_VIS
100
AcDbCircle
 10
13.83459708571633
 20
7.242106226713112
 30
0.0
 40
0.087480000000001
100
AcDbArc
 50
348.9499350406696
 51
11.05006495933043
  0
ARC
  5
1A3
330
2
100
AcDbEntity
  8
AM_VIS
100
AcDbCircle
 10
13.83459708571633
 20
7.242106226713112
 30
0.0
 40
0.087480000000001
100
AcDbArc
 50
258.9499350406699
 51
281.0500649593304
  0
LINE
  5
1A4
330
2
100
AcDbEntity
  8
AM_VIS
100
AcDbLine
 10
13.85136408571633
 20
7.156248098903335
 30
0.0
 11
13.85136408571633
 21
7.225339226713114
 31
0.0
  0
LINE
  5
1A5
330
2
100
AcDbEntity
  8
AM_VIS
100
AcDbLine
 10
13.85136408571633
 20
7.258873226713112
 30
0.0
 11
13.85136408571633
 21
7.32796435452289
 31
0.0
  0
LINE
  5
1A6
330
2
100
AcDbEntity
  8
AM_VIS
100
AcDbLine
 10
13.92045521352611
 20
7.258873226713112
 30
0.0
 11
13.85136408571633
 21
7.258873226713112
 31
0.0
  0
LINE
  5
1A7
330
2
100
AcDbEntity
  8
AM_VIS
100
AcDbLine
 10
13.81783008571633
 20
7.258873226713112
 30
0.0
 11
13.74873895790656
 21
7.258873226713112
 31
0.0
  0
LINE
  5
1A8
330
2
100
AcDbEntity
  8
AM_VIS
100
AcDbLine
 10
13.85136408571633
 20
7.225339226713114
 30
0.0
 11
13.92045521352611
 21
7.225339226713114
 31
0.0
  0
LINE
  5
1A9
330
2
100
AcDbEntity
  8
AM_VIS
100
AcDbLine
 10
13.74873895790656
 20
7.225339226713114
 30
0.0
 11
13.81783008571633
 21
7.225339226713114
 31
0.0
  0
LINE
  5
1AA
330
2
100
AcDbEntity
  8
AM_VIS
100
AcDbLine
 10
14.18257226142956
 20
7.372926240888253
 30
0.0
 11
14.16209708571633
 21
7.396606226713113
 31
0.0
  0
LINE
  5
1AB
330
2
100
AcDbEntity
  8
AM_VIS
100
AcDbLine
 10
14.16209708571633
 20
7.396606226713113
 30
0.0
 11
14.15496286845
 21
7.381006226713113
 31
0.0
  0
LINE
  5
1AC
330
2
100
AcDbEntity
  8
AM_VIS
100
AcDbLine
 10
14.08069708571633
 20
7.381006226713115
 30
0.0
 11
14.06659708571633
 21
7.395106226713109
 31
0.0
  0
LINE
  5
1AD
330
2
100
AcDbEntity
  8
AM_VIS
100
AcDbLine
 10
14.16209708571633
 20
7.087606226713115
 30
0.0
 11
14.18257226142955
 21
7.111286212537976
 31
0.0
  0
LINE
  5
1AE
330
2
100
AcDbEntity
  8
AM_VIS
100
AcDbLine
 10
14.15496286845
 20
7.103206226713115
 30
0.0
 11
14.16209708571633
 21
7.087606226713115
 31
0.0
  0
LINE
  5
1AF
330
2
100
AcDbEntity
  8
AM_VIS
100
AcDbLine
 10
14.06659708571633
 20
7.089106226713115
 30
0.0
 11
14.08069708571633
 21
7.103206226713115
 31
0.0
  0
LINE
  5
1B0
330
2
100
AcDbEntity
  8
AM_VIS
100
AcDbLine
 10
14.28423130298266
 20
7.103206226713115
 30
0.0
 11
14.27709708571633
 21
7.087606226713115
 31
0.0
  0
LINE
  5
1B1
330
2
100
AcDbEntity
  8
AM_VIS
100
AcDbLine
 10
14.25662191000311
 20
7.111286212537974
 30
0.0
 11
14.27709708571633
 21
7.087606226713114
 31
0.0
  0
LINE
  5
1B2
330
2
100
AcDbEntity
  8
AM_VIS
100
AcDbLine
 10
14.37409708571633
 20
7.087606226713115
 30
0.0
 11
14.35849708571633
 21
7.103206226713115
 31
0.0
  0
LINE
  5
1B3
330
2
100
AcDbEntity
  8
AM_VIS
100
AcDbLine
 10
14.35041709989147
 20
7.279131050999888
 30
0.0
 11
14.37409708571633
 21
7.299606226713113
 31
0.0
  0
LINE
  5
1B4
330
2
100
AcDbEntity
  8
AM_VIS
100
AcDbLine
 10
14.37409708571633
 20
7.299606226713116
 30
0.0
 11
14.35849708571633
 21
7.306740443979442
 31
0.0
  0
LINE
  5
1B5
330
2
100
AcDbEntity
  8
AM_VIS
100
AcDbLine
 10
14.37409708571633
 20
7.396606226713115
 30
0.0
 11
14.35849708571633
 21
7.381006226713115
 31
0.0
  0
LINE
  5
1B6
330
2
100
AcDbEntity
  8
AM_VIS
100
AcDbLine
 10
14.06659708571633
 20
7.183920244283659
 30
0.0
 11
14.08069708571633
 21
7.177472009446786
 31
0.0
  0
LINE
  5
1B7
330
2
100
AcDbEntity
  8
AM_VIS
100
AcDbLine
 10
14.08877707154119
 20
7.205081402426339
 30
0.0
 11
14.06659708571633
 21
7.185903219194316
 31
0.0
  0
LINE
  5
1B8
330
2
100
AcDbEntity
  8
AM_VIS
100
AcDbLine
 10
14.37409708571633
 20
7.184606226713113
 30
0.0
 11
14.35849708571633
 21
7.177472009446786
 31
0.0
  0
LINE
  5
1B9
330
2
100
AcDbEntity
  8
AM_VIS
100
AcDbLine
 10
14.37409708571633
 20
7.184606226713112
 30
0.0
 11
14.35041709989147
 21
7.205081402426338
 31
0.0
  0
LINE
  5
1BA
330
2
100
AcDbEntity
  8
AM_VIS
100
AcDbLine
 10
14.27709708571633
 20
7.396606226713113
 30
0.0
 11
14.28423130298266
 21
7.381006226713113
 31
0.0
  0
LINE
  5
1BB
330
2
100
AcDbEntity
  8
AM_VIS
100
AcDbLine
 10
14.27709708571633
 20
7.396606226713115
 30
0.0
 11
14.2566219100031
 21
7.372926240888253
 31
0.0
  0
LINE
  5
1BC
330
2
100
AcDbEntity
  8
AM_VIS
100
AcDbLine
 10
14.06659708571633
 20
7.300292209142571
 30
0.0
 11
14.08069708571633
 21
7.306740443979442
 31
0.0
  0
LINE
  5
1BD
330
2
100
AcDbEntity
  8
AM_VIS
100
AcDbLine
 10
14.06659708571633
 20
7.29830923423191
 30
0.0
 11
14.08877707154119
 21
7.279131050999888
 31
0.0
  0
LINE
  5
1BE
330
2
100
AcDbEntity
  8
AM_VIS
100
AcDbLine
 10
14.16209708571633
 20
7.396606226713115
 30
0.0
 11
14.06659708571633
 21
7.396606226713115
 31
0.0
  0
LINE
  5
1BF
330
2
100
AcDbEntity
  8
AM_VIS
100
AcDbLine
 10
14.37409708571633
 20
7.396606226713115
 30
0.0
 11
14.27709708571633
 21
7.396606226713115
 31
0.0
  0
LINE
  5
1C0
330
2
100
AcDbEntity
  8
AM_VIS
100
AcDbLine
 10
14.37409708571633
 20
7.299606226713116
 30
0.0
 11
14.37409708571633
 21
7.396606226713115
 31
0.0
  0
LINE
  5
1C1
330
2
100
AcDbEntity
  8
AM_VIS
100
AcDbLine
 10
14.37409708571633
 20
7.087606226713115
 30
0.0
 11
14.37409708571633
 21
7.184606226713114
 31
0.0
  0
LINE
  5
1C2
330
2
100
AcDbEntity
  8
AM_VIS
100
AcDbLine
 10
14.27709708571633
 20
7.087606226713115
 30
0.0
 11
14.37409708571633
 21
7.087606226713115
 31
0.0
  0
LINE
  5
1C3
330
2
100
AcDbEntity
  8
AM_VIS
100
AcDbLine
 10
14.06659708571633
 20
7.087606226713115
 30
0.0
 11
14.16209708571633
 21
7.087606226713115
 31
0.0
  0
LINE
  5
1C4
330
2
100
AcDbEntity
  8
AM_VIS
100
AcDbLine
 10
14.16209708571633
 20
7.087606226713115
 30
0.0
 11
14.27709708571633
 21
7.087606226713115
 31
0.0
  0
LINE
  5
1C5
330
2
100
AcDbEntity
  8
AM_VIS
100
AcDbLine
 10
14.37409708571633
 20
7.184606226713112
 30
0.0
 11
14.37409708571633
 21
7.299606226713112
 31
0.0
  0
LINE
  5
1C6
330
2
100
AcDbEntity
  8
AM_VIS
100
AcDbLine
 10
14.27709708571633
 20
7.396606226713115
 30
0.0
 11
14.16209708571633
 21
7.396606226713115
 31
0.0
  0
CIRCLE
  5
1C7
330
2
100
AcDbEntity
  8
AM_VIS
100
AcDbCircle
 10
14.21959708571633
 20
7.242106226713112
 30
0.0
 40
0.1359585000000001
  0
LINE
  5
1C8
330
2
100
AcDbEntity
  8
AM_VIS
100
AcDbLine
 10
14.20283008571633
 20
7.225339226713114
 30
0.0
 11
14.20283008571633
 21
7.156248098903335
 31
0.0
  0
LINE
  5
1C9
330
2
100
AcDbEntity
  8
AM_VIS
100
AcDbLine
 10
14.20283008571633
 20
7.32796435452289
 30
0.0
 11
14.20283008571633
 21
7.258873226713112
 31
0.0
  0
ARC
  5
1CA
330
2
100
AcDbEntity
  8
AM_VIS
100
AcDbCircle
 10
14.21959708571633
 20
7.242106226713112
 30
0.0
 40
0.087480000000001
100
AcDbArc
 50
168.9499350406696
 51
191.0500649593304
  0
ARC
  5
1CB
330
2
100
AcDbEntity
  8
AM_VIS
100
AcDbCircle
 10
14.21959708571633
 20
7.242106226713112
 30
0.0
 40
0.087480000000001
100
AcDbArc
 50
78.94993504066876
 51
101.0500649593301
  0
ARC
  5
1CC
330
2
100
AcDbEntity
  8
AM_VIS
100
AcDbCircle
 10
14.21959708571633
 20
7.242106226713112
 30
0.0
 40
0.087480000000001
100
AcDbArc
 50
348.9499350406696
 51
11.05006495933043
  0
ARC
  5
1CD
330
2
100
AcDbEntity
  8
AM_VIS
100
AcDbCircle
 10
14.21959708571633
 20
7.242106226713112
 30
0.0
 40
0.087480000000001
100
AcDbArc
 50
258.9499350406699
 51
281.0500649593304
  0
LINE
  5
1CE
330
2
100
AcDbEntity
  8
AM_VIS
100
AcDbLine
 10
14.23636408571633
 20
7.156248098903335
 30
0.0
 11
14.23636408571633
 21
7.225339226713114
 31
0.0
  0
LINE
  5
1CF
330
2
100
AcDbEntity
  8
AM_VIS
100
AcDbLine
 10
14.23636408571633
 20
7.258873226713112
 30
0.0
 11
14.23636408571633
 21
7.32796435452289
 31
0.0
  0
LINE
  5
1D0
330
2
100
AcDbEntity
  8
AM_VIS
100
AcDbLine
 10
14.30545521352611
 20
7.258873226713112
 30
0.0
 11
14.23636408571633
 21
7.258873226713112
 31
0.0
  0
LINE
  5
1D1
330
2
100
AcDbEntity
  8
AM_VIS
100
AcDbLine
 10
14.20283008571633
 20
7.258873226713112
 30
0.0
 11
14.13373895790655
 21
7.258873226713112
 31
0.0
  0
LINE
  5
1D2
330
2
100
AcDbEntity
  8
AM_VIS
100
AcDbLine
 10
14.23636408571633
 20
7.225339226713114
 30
0.0
 11
14.30545521352611
 21
7.225339226713114
 31
0.0
  0
LINE
  5
1D3
330
2
100
AcDbEntity
  8
AM_VIS
100
AcDbLine
 10
14.13373895790655
 20
7.225339226713114
 30
0.0
 11
14.20283008571633
 21
7.225339226713114
 31
0.0
  0
LINE
  5
1D4
330
2
100
AcDbEntity
  8
AM_VIS
100
AcDbLine
 10
14.56757226142956
 20
7.372926240888253
 30
0.0
 11
14.54709708571633
 21
7.396606226713113
 31
0.0
  0
LINE
  5
1D5
330
2
100
AcDbEntity
  8
AM_VIS
100
AcDbLine
 10
14.54709708571633
 20
7.396606226713113
 30
0.0
 11
14.53996286845
 21
7.381006226713113
 31
0.0
  0
LINE
  5
1D6
330
2
100
AcDbEntity
  8
AM_VIS
100
AcDbLine
 10
14.46569708571633
 20
7.381006226713115
 30
0.0
 11
14.45159708571633
 21
7.395106226713109
 31
0.0
  0
LINE
  5
1D7
330
2
100
AcDbEntity
  8
AM_VIS
100
AcDbLine
 10
14.54709708571633
 20
7.087606226713115
 30
0.0
 11
14.56757226142955
 21
7.111286212537976
 31
0.0
  0
LINE
  5
1D8
330
2
100
AcDbEntity
  8
AM_VIS
100
AcDbLine
 10
14.53996286845
 20
7.103206226713115
 30
0.0
 11
14.54709708571633
 21
7.087606226713115
 31
0.0
  0
LINE
  5
1D9
330
2
100
AcDbEntity
  8
AM_VIS
100
AcDbLine
 10
14.45159708571633
 20
7.089106226713115
 30
0.0
 11
14.46569708571633
 21
7.103206226713115
 31
0.0
  0
LINE
  5
1DA
330
2
100
AcDbEntity
  8
AM_VIS
100
AcDbLine
 10
14.66923130298266
 20
7.103206226713115
 30
0.0
 11
14.66209708571633
 21
7.087606226713115
 31
0.0
  0
LINE
  5
1DB
330
2
100
AcDbEntity
  8
AM_VIS
100
AcDbLine
 10
14.64162191000311
 20
7.111286212537974
 30
0.0
 11
14.66209708571633
 21
7.087606226713114
 31
0.0
  0
LINE
  5
1DC
330
2
100
AcDbEntity
  8
AM_VIS
100
AcDbLine
 10
14.75909708571633
 20
7.087606226713115
 30
0.0
 11
14.74349708571633
 21
7.103206226713115
 31
0.0
  0
LINE
  5
1DD
330
2
100
AcDbEntity
  8
AM_VIS
100
AcDbLine
 10
14.73541709989147
 20
7.279131050999888
 30
0.0
 11
14.75909708571633
 21
7.299606226713113
 31
0.0
  0
LINE
  5
1DE
330
2
100
AcDbEntity
  8
AM_VIS
100
AcDbLine
 10
14.75909708571633
 20
7.299606226713116
 30
0.0
 11
14.74349708571633
 21
7.306740443979442
 31
0.0
  0
LINE
  5
1DF
330
2
100
AcDbEntity
  8
AM_VIS
100
AcDbLine
 10
14.75909708571633
 20
7.396606226713115
 30
0.0
 11
14.74349708571633
 21
7.381006226713115
 31
0.0
  0
LINE
  5
1E0
330
2
100
AcDbEntity
  8
AM_VIS
100
AcDbLine
 10
14.45159708571633
 20
7.183920244283659
 30
0.0
 11
14.46569708571633
 21
7.177472009446786
 31
0.0
  0
LINE
  5
1E1
330
2
100
AcDbEntity
  8
AM_VIS
100
AcDbLine
 10
14.47377707154119
 20
7.205081402426339
 30
0.0
 11
14.45159708571633
 21
7.185903219194315
 31
0.0
  0
LINE
  5
1E2
330
2
100
AcDbEntity
  8
AM_VIS
100
AcDbLine
 10
14.75909708571633
 20
7.184606226713113
 30
0.0
 11
14.74349708571633
 21
7.177472009446786
 31
0.0
  0
LINE
  5
1E3
330
2
100
AcDbEntity
  8
AM_VIS
100
AcDbLine
 10
14.75909708571633
 20
7.184606226713112
 30
0.0
 11
14.73541709989147
 21
7.205081402426338
 31
0.0
  0
LINE
  5
1E4
330
2
100
AcDbEntity
  8
AM_VIS
100
AcDbLine
 10
14.66209708571633
 20
7.396606226713113
 30
0.0
 11
14.66923130298266
 21
7.381006226713113
 31
0.0
  0
LINE
  5
1E5
330
2
100
AcDbEntity
  8
AM_VIS
100
AcDbLine
 10
14.66209708571633
 20
7.396606226713115
 30
0.0
 11
14.6416219100031
 21
7.372926240888253
 31
0.0
  0
LINE
  5
1E6
330
2
100
AcDbEntity
  8
AM_VIS
100
AcDbLine
 10
14.45159708571633
 20
7.300292209142571
 30
0.0
 11
14.46569708571633
 21
7.306740443979442
 31
0.0
  0
LINE
  5
1E7
330
2
100
AcDbEntity
  8
AM_VIS
100
AcDbLine
 10
14.45159708571633
 20
7.29830923423191
 30
0.0
 11
14.47377707154119
 21
7.279131050999888
 31
0.0
  0
LINE
  5
1E8
330
2
100
AcDbEntity
  8
AM_VIS
100
AcDbLine
 10
14.54709708571633
 20
7.396606226713115
 30
0.0
 11
14.45159708571633
 21
7.396606226713115
 31
0.0
  0
LINE
  5
1E9
330
2
100
AcDbEntity
  8
AM_VIS
100
AcDbLine
 10
14.75909708571633
 20
7.396606226713115
 30
0.0
 11
14.66209708571633
 21
7.396606226713115
 31
0.0
  0
LINE
  5
1EA
330
2
100
AcDbEntity
  8
AM_VIS
100
AcDbLine
 10
14.75909708571633
 20
7.299606226713116
 30
0.0
 11
14.75909708571633
 21
7.396606226713115
 31
0.0
  0
LINE
  5
1EB
330
2
100
AcDbEntity
  8
AM_VIS
100
AcDbLine
 10
14.75909708571633
 20
7.087606226713115
 30
0.0
 11
14.75909708571633
 21
7.184606226713114
 31
0.0
  0
LINE
  5
1EC
330
2
100
AcDbEntity
  8
AM_VIS
100
AcDbLine
 10
14.66209708571633
 20
7.087606226713115
 30
0.0
 11
14.75909708571633
 21
7.087606226713115
 31
0.0
  0
LINE
  5
1ED
330
2
100
AcDbEntity
  8
AM_VIS
100
AcDbLine
 10
14.45159708571633
 20
7.087606226713115
 30
0.0
 11
14.54709708571633
 21
7.087606226713115
 31
0.0
  0
LINE
  5
1EE
330
2
100
AcDbEntity
  8
AM_VIS
100
AcDbLine
 10
14.54709708571633
 20
7.087606226713115
 30
0.0
 11
14.66209708571633
 21
7.087606226713115
 31
0.0
  0
LINE
  5
1EF
330
2
100
AcDbEntity
  8
AM_VIS
100
AcDbLine
 10
14.75909708571633
 20
7.184606226713112
 30
0.0
 11
14.75909708571633
 21
7.299606226713112
 31
0.0
  0
LINE
  5
1F0
330
2
100
AcDbEntity
  8
AM_VIS
100
AcDbLine
 10
14.66209708571633
 20
7.396606226713115
 30
0.0
 11
14.54709708571633
 21
7.396606226713115
 31
0.0
  0
CIRCLE
  5
1F1
330
2
100
AcDbEntity
  8
AM_VIS
100
AcDbCircle
 10
14.60459708571633
 20
7.242106226713112
 30
0.0
 40
0.1359585000000001
  0
LINE
  5
1F2
330
2
100
AcDbEntity
  8
AM_VIS
100
AcDbLine
 10
14.58783008571633
 20
7.225339226713114
 30
0.0
 11
14.58783008571633
 21
7.156248098903335
 31
0.0
  0
LINE
  5
1F3
330
2
100
AcDbEntity
  8
AM_VIS
100
AcDbLine
 10
14.58783008571633
 20
7.32796435452289
 30
0.0
 11
14.58783008571633
 21
7.258873226713112
 31
0.0
  0
ARC
  5
1F4
330
2
100
AcDbEntity
  8
AM_VIS
100
AcDbCircle
 10
14.60459708571633
 20
7.242106226713112
 30
0.0
 40
0.087480000000001
100
AcDbArc
 50
168.9499350406696
 51
191.0500649593304
  0
ARC
  5
1F5
330
2
100
AcDbEntity
  8
AM_VIS
100
AcDbCircle
 10
14.60459708571633
 20
7.242106226713112
 30
0.0
 40
0.087480000000001
100
AcDbArc
 50
78.94993504066876
 51
101.0500649593301
  0
ARC
  5
1F6
330
2
100
AcDbEntity
  8
AM_VIS
100
AcDbCircle
 10
14.60459708571633
 20
7.242106226713112
 30
0.0
 40
0.087480000000001
100
AcDbArc
 50
348.9499350406696
 51
11.05006495933043
  0
ARC
  5
1F7
330
2
100
AcDbEntity
  8
AM_VIS
100
AcDbCircle
 10
14.60459708571633
 20
7.242106226713112
 30
0.0
 40
0.087480000000001
100
AcDbArc
 50
258.9499350406699
 51
281.0500649593304
  0
LINE
  5
1F8
330
2
100
AcDbEntity
  8
AM_VIS
100
AcDbLine
 10
14.62136408571633
 20
7.156248098903335
 30
0.0
 11
14.62136408571633
 21
7.225339226713114
 31
0.0
  0
LINE
  5
1F9
330
2
100
AcDbEntity
  8
AM_VIS
100
AcDbLine
 10
14.62136408571633
 20
7.258873226713112
 30
0.0
 11
14.62136408571633
 21
7.32796435452289
 31
0.0
  0
LINE
  5
1FA
330
2
100
AcDbEntity
  8
AM_VIS
100
AcDbLine
 10
14.69045521352611
 20
7.258873226713112
 30
0.0
 11
14.62136408571633
 21
7.258873226713112
 31
0.0
  0
LINE
  5
1FB
330
2
100
AcDbEntity
  8
AM_VIS
100
AcDbLine
 10
14.58783008571633
 20
7.258873226713112
 30
0.0
 11
14.51873895790656
 21
7.258873226713112
 31
0.0
  0
LINE
  5
1FC
330
2
100
AcDbEntity
  8
AM_VIS
100
AcDbLine
 10
14.62136408571633
 20
7.225339226713114
 30
0.0
 11
14.69045521352611
 21
7.225339226713114
 31
0.0
  0
LINE
  5
1FD
330
2
100
AcDbEntity
  8
AM_VIS
100
AcDbLine
 10
14.51873895790656
 20
7.225339226713114
 30
0.0
 11
14.58783008571633
 21
7.225339226713114
 31
0.0
  0
CIRCLE
  5
1FE
330
2
100
AcDbEntity
  8
AM_VIS
100
AcDbCircle
 10
14.98959708571634
 20
7.273606226713112
 30
0.0
 40
0.1100000000000003
  0
LINE
  5
1FF
330
2
100
AcDbEntity
  8
AM_VIS
100
AcDbLine
 10
15.03959708571634
 20
7.248606226713111
 30
0.0
 11
15.03959708571634
 21
7.298606226713111
 31
0.0
  0
LINE
  5
200
330
2
100
AcDbEntity
  8
AM_VIS
100
AcDbLine
 10
15.01459708571634
 20
7.248606226713111
 30
0.0
 11
15.03959708571634
 21
7.248606226713111
 31
0.0
  0
LINE
  5
201
330
2
100
AcDbEntity
  8
AM_VIS
100
AcDbLine
 10
15.03959708571634
 20
7.298606226713111
 30
0.0
 11
15.01459708571634
 21
7.298606226713111
 31
0.0
  0
LINE
  5
202
330
2
100
AcDbEntity
  8
AM_VIS
100
AcDbLine
 10
14.96459708571634
 20
7.223606226713112
 30
0.0
 11
15.01459708571634
 21
7.223606226713112
 31
0.0
  0
LINE
  5
203
330
2
100
AcDbEntity
  8
AM_VIS
100
AcDbLine
 10
15.01459708571634
 20
7.298606226713111
 30
0.0
 11
15.01459708571634
 21
7.323606226713113
 31
0.0
  0
LINE
  5
204
330
2
100
AcDbEntity
  8
AM_VIS
100
AcDbLine
 10
15.01459708571634
 20
7.223606226713112
 30
0.0
 11
15.01459708571634
 21
7.248606226713111
 31
0.0
  0
LINE
  5
205
330
2
100
AcDbEntity
  8
AM_VIS
100
AcDbLine
 10
15.01459708571634
 20
7.323606226713113
 30
0.0
 11
14.96459708571634
 21
7.323606226713113
 31
0.0
  0
LINE
  5
206
330
2
100
AcDbEntity
  8
AM_VIS
100
AcDbLine
 10
14.96459708571634
 20
7.323606226713113
 30
0.0
 11
14.96459708571634
 21
7.298606226713111
 31
0.0
  0
LINE
  5
207
330
2
100
AcDbEntity
  8
AM_VIS
100
AcDbLine
 10
14.96459708571634
 20
7.298606226713111
 30
0.0
 11
14.93959708571634
 21
7.298606226713111
 31
0.0
  0
LINE
  5
208
330
2
100
AcDbEntity
  8
AM_VIS
100
AcDbLine
 10
14.93959708571634
 20
7.298606226713111
 30
0.0
 11
14.93959708571634
 21
7.248606226713111
 31
0.0
  0
LINE
  5
209
330
2
100
AcDbEntity
  8
AM_VIS
100
AcDbLine
 10
14.93959708571634
 20
7.248606226713111
 30
0.0
 11
14.96459708571634
 21
7.248606226713111
 31
0.0
  0
LINE
  5
20A
330
2
100
AcDbEntity
  8
AM_VIS
100
AcDbLine
 10
14.96459708571634
 20
7.248606226713111
 30
0.0
 11
14.96459708571634
 21
7.223606226713112
 31
0.0
  0
CIRCLE
  5
20B
330
2
100
AcDbEntity
  8
AM_VIS
100
AcDbCircle
 10
13.78559708571634
 20
6.345606226713115
 30
0.0
 40
0.1100000000000003
  0
LINE
  5
20C
330
2
100
AcDbEntity
  8
AM_VIS
100
AcDbLine
 10
13.83559708571634
 20
6.320606226713112
 30
0.0
 11
13.83559708571634
 21
6.370606226713113
 31
0.0
  0
LINE
  5
20D
330
2
100
AcDbEntity
  8
AM_VIS
100
AcDbLine
 10
13.81059708571634
 20
6.320606226713112
 30
0.0
 11
13.83559708571634
 21
6.320606226713112
 31
0.0
  0
LINE
  5
20E
330
2
100
AcDbEntity
  8
AM_VIS
100
AcDbLine
 10
13.83559708571634
 20
6.370606226713112
 30
0.0
 11
13.81059708571634
 21
6.370606226713112
 31
0.0
  0
LINE
  5
20F
330
2
100
AcDbEntity
  8
AM_VIS
100
AcDbLine
 10
13.76059708571634
 20
6.295606226713113
 30
0.0
 11
13.81059708571634
 21
6.295606226713113
 31
0.0
  0
LINE
  5
210
330
2
100
AcDbEntity
  8
AM_VIS
100
AcDbLine
 10
13.81059708571634
 20
6.370606226713112
 30
0.0
 11
13.81059708571634
 21
6.395606226713114
 31
0.0
  0
LINE
  5
211
330
2
100
AcDbEntity
  8
AM_VIS
100
AcDbLine
 10
13.81059708571634
 20
6.295606226713112
 30
0.0
 11
13.81059708571634
 21
6.320606226713112
 31
0.0
  0
LINE
  5
212
330
2
100
AcDbEntity
  8
AM_VIS
100
AcDbLine
 10
13.81059708571634
 20
6.395606226713114
 30
0.0
 11
13.76059708571634
 21
6.395606226713114
 31
0.0
  0
LINE
  5
213
330
2
100
AcDbEntity
  8
AM_VIS
100
AcDbLine
 10
13.76059708571634
 20
6.395606226713114
 30
0.0
 11
13.76059708571634
 21
6.370606226713112
 31
0.0
  0
LINE
  5
214
330
2
100
AcDbEntity
  8
AM_VIS
100
AcDbLine
 10
13.76059708571634
 20
6.370606226713112
 30
0.0
 11
13.73559708571634
 21
6.370606226713112
 31
0.0
  0
LINE
  5
215
330
2
100
AcDbEntity
  8
AM_VIS
100
AcDbLine
 10
13.73559708571634
 20
6.370606226713112
 30
0.0
 11
13.73559708571634
 21
6.320606226713112
 31
0.0
  0
LINE
  5
216
330
2
100
AcDbEntity
  8
AM_VIS
100
AcDbLine
 10
13.73559708571634
 20
6.320606226713112
 30
0.0
 11
13.76059708571634
 21
6.320606226713112
 31
0.0
  0
LINE
  5
217
330
2
100
AcDbEntity
  8
AM_VIS
100
AcDbLine
 10
13.76059708571634
 20
6.320606226713112
 30
0.0
 11
13.76059708571634
 21
6.295606226713112
 31
0.0
  0
LINE
  5
218
330
2
100
AcDbEntity
  8
AM_VIS
100
AcDbLine
 10
14.38759708571633
 20
7.060606226713111
 30
0.0
 11
14.38759708571633
 21
7.422606226713107
 31
0.0
  0
LINE
  5
219
330
2
100
AcDbEntity
  8
AM_VIS
100
AcDbLine
 10
14.45159708571633
 20
7.060606226713111
 30
0.0
 11
14.38759708571633
 21
7.060606226713111
 31
0.0
  0
LINE
  5
21A
330
2
100
AcDbEntity
  8
AM_VIS
100
AcDbLine
 10
14.45159708571633
 20
7.422606226713111
 30
0.0
 11
14.45159708571633
 21
7.060606226713112
 31
0.0
  0
LINE
  5
21B
330
2
100
AcDbEntity
  8
AM_VIS
100
AcDbLine
 10
14.41859708571633
 20
7.45360622671311
 30
0.0
 11
14.42059708571633
 21
7.453606226713112
 31
0.0
  0
LINE
  5
21C
330
2
100
AcDbEntity
  8
AM_VIS
100
AcDbLine
 10
14.03359708571633
 20
7.453606226713112
 30
0.0
 11
14.03559708571633
 21
7.453606226713112
 31
0.0
  0
LINE
  5
21D
330
2
100
AcDbEntity
  8
AM_VIS
100
AcDbLine
 10
14.00259708571633
 20
7.060606226713111
 30
0.0
 11
14.00259708571633
 21
7.422606226713112
 31
0.0
  0
LINE
  5
21E
330
2
100
AcDbEntity
  8
AM_VIS
100
AcDbLine
 10
14.06659708571633
 20
7.060606226713111
 30
0.0
 11
14.00259708571633
 21
7.060606226713111
 31
0.0
  0
LINE
  5
21F
330
2
100
AcDbEntity
  8
AM_VIS
100
AcDbLine
 10
14.06659708571633
 20
7.422606226713112
 30
0.0
 11
14.06659708571633
 21
7.060606226713112
 31
0.0
  0
LINE
  5
220
330
2
100
AcDbEntity
  8
AM_VIS
100
AcDbLine
 10
13.60559708571633
 20
7.060606226713111
 30
0.0
 11
13.60559708571633
 21
7.422606226713112
 31
0.0
  0
LINE
  5
221
330
2
100
AcDbEntity
  8
AM_VIS
100
AcDbLine
 10
13.66959708571633
 20
7.060606226713111
 30
0.0
 11
13.60559708571633
 21
7.060606226713111
 31
0.0
  0
LINE
  5
222
330
2
100
AcDbEntity
  8
AM_VIS
100
AcDbLine
 10
13.66959708571634
 20
7.422606226713112
 30
0.0
 11
13.66959708571633
 21
7.060606226713111
 31
0.0
  0
LINE
  5
223
330
2
100
AcDbEntity
  8
AM_VIS
100
AcDbLine
 10
13.63659708571633
 20
7.453606226713112
 30
0.0
 11
13.63859708571633
 21
7.453606226713112
 31
0.0
  0
LINE
  5
224
330
2
100
AcDbEntity
  8
AM_VIS
100
AcDbLine
 10
14.03359708571633
 20
7.453606226713107
 30
0.0
 11
13.64259708571633
 21
7.453606226713107
 31
0.0
  0
LINE
  5
225
330
2
100
AcDbEntity
  8
AM_VIS
100
AcDbLine
 10
13.98909708571633
 20
7.393606226713111
 30
0.0
 11
14.00259708571633
 21
7.393606226713111
 31
0.0
  0
LINE
  5
226
330
2
100
AcDbEntity
  8
AM_VIS
100
AcDbLine
 10
13.68159708571633
 20
7.050606226713107
 30
0.0
 11
13.68159708571633
 21
7.087606226713114
 31
0.0
  0
LINE
  5
227
330
2
100
AcDbEntity
  8
AM_VIS
100
AcDbLine
 10
14.00259708571633
 20
7.060606226713107
 30
0.0
 11
14.00259708571633
 21
7.050606226713107
 31
0.0
  0
LINE
  5
228
330
2
100
AcDbEntity
  8
AM_VIS
100
AcDbLine
 10
14.06659708571633
 20
7.050606226713107
 30
0.0
 11
14.06659708571633
 21
7.060606226713107
 31
0.0
  0
LINE
  5
229
330
2
100
AcDbEntity
  8
AM_VIS
100
AcDbLine
 10
14.38759708571633
 20
7.060606226713107
 30
0.0
 11
14.38759708571633
 21
7.050606226713107
 31
0.0
  0
LINE
  5
22A
330
2
100
AcDbEntity
  8
AM_VIS
100
AcDbLine
 10
14.45159708571633
 20
7.050606226713107
 30
0.0
 11
14.45159708571633
 21
7.060606226713107
 31
0.0
  0
LINE
  5
22B
330
2
100
AcDbEntity
  8
AM_VIS
100
AcDbLine
 10
14.77259708571633
 20
7.393606226713111
 30
0.0
 11
14.77259708571633
 21
7.050606226713109
 31
0.0
  0
LINE
  5
22C
330
2
100
AcDbEntity
  8
AM_VIS
100
AcDbLine
 10
14.75909708571633
 20
7.393606226713111
 30
0.0
 11
14.77259708571633
 21
7.393606226713111
 31
0.0
  0
LINE
  5
22D
330
2
100
AcDbEntity
  8
AM_VIS
100
AcDbLine
 10
14.86659708571633
 20
7.45360622671311
 30
0.0
 11
14.42059708571633
 21
7.453606226713107
 31
0.0
  0
LINE
  5
22E
330
2
100
AcDbEntity
  8
AM_VIS
100
AcDbLine
 10
13.60559708571633
 20
7.060606226713107
 30
0.0
 11
13.60559708571633
 21
7.050606226713107
 31
0.0
  0
LINE
  5
22F
330
2
100
AcDbEntity
  8
AM_VIS
100
AcDbLine
 10
14.37409708571633
 20
7.393606226713111
 30
0.0
 11
14.38759708571633
 21
7.393606226713111
 31
0.0
  0
LINE
  5
230
330
2
100
AcDbEntity
  8
AM_VIS
100
AcDbLine
 10
14.41859708571633
 20
7.453606226713107
 30
0.0
 11
14.03559708571633
 21
7.453606226713107
 31
0.0
  0
ARC
  5
231
330
2
100
AcDbEntity
  8
AM_VIS
100
AcDbCircle
 10
14.42059708571633
 20
7.422606226713112
 30
0.0
 40
0.0310000000000005
100
AcDbArc
 50
359.9999999999968
 51
90.00000000000328
  0
ARC
  5
232
330
2
100
AcDbEntity
  8
AM_VIS
100
AcDbCircle
 10
14.41859708571633
 20
7.422606226713107
 30
0.0
 40
0.0310000000000004
100
AcDbArc
 50
90.0
 51
180.0
  0
ARC
  5
233
330
2
100
AcDbEntity
  8
AM_VIS
100
AcDbCircle
 10
14.03359708571633
 20
7.422606226713111
 30
0.0
 40
0.0310000000000009
100
AcDbArc
 50
90.00000000000328
 51
179.9999999999966
  0
ARC
  5
234
330
2
100
AcDbEntity
  8
AM_VIS
100
AcDbCircle
 10
14.03559708571633
 20
7.422606226713112
 30
0.0
 40
0.0310000000000006
100
AcDbArc
 50
0.0
 51
90.0
  0
ARC
  5
235
330
2
100
AcDbEntity
  8
AM_VIS
100
AcDbCircle
 10
13.63659708571633
 20
7.422606226713111
 30
0.0
 40
0.0310000000000009
100
AcDbArc
 50
90.00000000000328
 51
179.9999999999966
  0
ARC
  5
236
330
2
100
AcDbEntity
  8
AM_VIS
100
AcDbCircle
 10
13.63859708571633
 20
7.422606226713112
 30
0.0
 40
0.0310000000000006
100
AcDbArc
 50
0.0
 51
90.0
  0
ARC
  5
237
330
2
100
AcDbEntity
  8
AM_VIS
100
AcDbCircle
 10
13.64259708571633
 20
7.416606226713107
 30
0.0
 40
0.0369999999999976
100
AcDbArc
 50
89.99999999999728
 51
93.23581070381285
  0
LINE
  5
238
330
2
100
AcDbEntity
  8
AM_VIS
100
AcDbLine
 10
14.45159708571633
 20
7.050606226713107
 30
0.0
 11
14.45159708571633
 21
7.060606226713111
 31
0.0
  0
LINE
  5
239
330
2
100
AcDbEntity
  8
AM_VIS
100
AcDbLine
 10
14.75759708571633
 20
7.087606226713115
 30
0.0
 11
14.75759708571633
 21
7.050606226713109
 31
0.0
  0
LINE
  5
23A
330
2
100
AcDbEntity
  8
AM_VIS
100
AcDbLine
 10
15.16959708571633
 20
7.41660622671311
 30
0.0
 11
15.16959708571633
 21
6.202606226713111
 31
0.0
  0
LINE
  5
23B
330
2
100
AcDbEntity
  8
AM_VIS
100
AcDbLine
 10
14.86659708571633
 20
7.453606226713112
 30
0.0
 11
15.13259708571633
 21
7.453606226713107
 31
0.0
  0
LINE
  5
23C
330
2
100
AcDbEntity
  8
AM_VIS
100
AcDbLine
 10
14.84659708571634
 20
7.050606226713107
 30
0.0
 11
14.84659708571634
 21
7.433606226713111
 31
0.0
  0
LINE
  5
23D
330
2
100
AcDbEntity
  8
AM_VIS
100
AcDbLine
 10
13.60559708571634
 20
7.050606226713107
 30
0.0
 11
14.84659708571634
 21
7.050606226713107
 31
0.0
  0
LINE
  5
23E
330
2
100
AcDbEntity
  8
AM_VIS
100
AcDbLine
 10
13.60559708571634
 20
6.202606226713111
 30
0.0
 11
13.60559708571634
 21
7.050606226713109
 31
0.0
  0
LINE
  5
23F
330
2
100
AcDbEntity
  8
AM_VIS
100
AcDbLine
 10
15.13259708571633
 20
6.165606226713111
 30
0.0
 11
13.64259708571634
 21
6.165606226713111
 31
0.0
  0
ARC
  5
240
330
2
100
AcDbEntity
  8
AM_VIS
100
AcDbCircle
 10
15.13259708571633
 20
6.202606226713109
 30
0.0
 40
0.0369999999999995
100
AcDbArc
 50
270.0
 51
0.0
  0
ARC
  5
241
330
2
100
AcDbEntity
  8
AM_VIS
100
AcDbCircle
 10
15.13259708571633
 20
7.416606226713107
 30
0.0
 40
0.0369999999999986
100
AcDbArc
 50
0.000000000001374
 51
90.0
  0
ARC
  5
242
330
2
100
AcDbEntity
  8
AM_VIS
100
AcDbCircle
 10
14.86659708571633
 20
7.433606226713114
 30
0.0
 40
0.0199999999999982
100
AcDbArc
 50
90.00000000001016
 51
180.000000000005
  0
ARC
  5
243
330
2
100
AcDbEntity
  8
AM_VIS
100
AcDbCircle
 10
13.64259708571634
 20
6.202606226713111
 30
0.0
 40
0.036999999999999
100
AcDbArc
 50
180.0
 51
270.0
  0
CIRCLE
  5
244
330
2
100
AcDbEntity
  8
AM_VIS
100
AcDbCircle
 10
14.98959708571634
 20
7.27360622671311
 30
0.0
 40
0.125
  0
CIRCLE
  5
245
330
2
100
AcDbEntity
  8
AM_VIS
100
AcDbCircle
 10
13.78559708571634
 20
6.345606226713111
 30
0.0
 40
0.125
  0
LINE
  5
246
330
2
100
AcDbEntity
  8
AM_VIS
100
AcDbLine
 10
13.68159708571633
 20
7.050606226713107
 30
0.0
 11
13.68159708571633
 21
7.087606226713114
 31
0.0
  0
LINE
  5
247
330
2
100
AcDbEntity
  8
AM_VIS
100
AcDbLine
 10
13.98759708571633
 20
7.087606226713115
 30
0.0
 11
13.98759708571633
 21
7.050606226713109
 31
0.0
  0
LINE
  5
248
330
2
100
AcDbEntity
  8
AM_VIS
100
AcDbLine
 10
14.06659708571633
 20
7.050606226713107
 30
0.0
 11
14.06659708571633
 21
7.060606226713111
 31
0.0
  0
LINE
  5
249
330
2
100
AcDbEntity
  8
AM_VIS
100
AcDbLine
 10
14.37259708571633
 20
7.087606226713115
 30
0.0
 11
14.37259708571633
 21
7.050606226713109
 31
0.0
  0
LINE
  5
24A
330
2
100
AcDbEntity
  8
AM_VIS
100
AcDbLine
 10
13.59690924571633
 20
7.533343146713103
 30
0.0
 11
13.59690924571633
 21
7.413806226713099
 31
0.0
  0
LINE
  5
24B
330
2
100
AcDbEntity
  8
AM_VIS
100
AcDbLine
 10
13.92002128571633
 20
7.623497226713102
 30
0.0
 11
13.68706332571633
 21
7.623497226713102
 31
0.0
  0
LINE
  5
24C
330
2
100
AcDbEntity
  8
AM_VIS
100
AcDbLine
 10
13.94002128571633
 20
7.453806226713099
 30
0.0
 11
13.94002128571633
 21
7.603497226713103
 31
0.0
  0
LINE
  5
24D
330
2
100
AcDbEntity
  8
AM_VIS
100
AcDbLine
 10
14.30429258011633
 20
7.603497226713103
 30
0.0
 11
14.30429258011633
 21
7.453806226713099
 31
0.0
  0
LINE
  5
24E
330
2
100
AcDbEntity
  8
AM_VIS
100
AcDbLine
 10
14.46221375131633
 20
7.453806226713099
 30
0.0
 11
14.46221375131633
 21
7.603497226713103
 31
0.0
  0
LINE
  5
24F
330
2
100
AcDbEntity
  8
AM_VIS
100
AcDbLine
 10
14.82648504571633
 20
7.603497226713103
 30
0.0
 11
14.82648504571633
 21
7.453806226713099
 31
0.0
  0
LINE
  5
250
330
2
100
AcDbEntity
  8
AM_VIS
100
AcDbLine
 10
15.07944300571633
 20
7.623497226713099
 30
0.0
 11
14.84648504571634
 21
7.623497226713099
 31
0.0
  0
LINE
  5
251
330
2
100
AcDbEntity
  8
AM_VIS
100
AcDbLine
 10
15.16959708571633
 20
7.41660622671311
 30
0.0
 11
15.16959708571633
 21
7.533343146713103
 31
0.0
  0
LINE
  5
252
330
2
100
AcDbEntity
  8
AM_VIS
100
AcDbLine
 10
15.16959708571633
 20
6.085869306713099
 30
0.0
 11
15.16959708571633
 21
6.202606226713108
 31
0.0
  0
LINE
  5
253
330
2
100
AcDbEntity
  8
AM_VIS
100
AcDbLine
 10
14.84648504571633
 20
5.995715226713103
 30
0.0
 11
15.07944300571633
 21
5.995715226713103
 31
0.0
  0
LINE
  5
254
330
2
100
AcDbEntity
  8
AM_VIS
100
AcDbLine
 10
14.82648504571633
 20
6.165406226713103
 30
0.0
 11
14.82648504571633
 21
6.015715226713102
 31
0.0
  0
LINE
  5
255
330
2
100
AcDbEntity
  8
AM_VIS
100
AcDbLine
 10
14.46221375131633
 20
6.015715226713102
 30
0.0
 11
14.46221375131633
 21
6.165406226713103
 31
0.0
  0
LINE
  5
256
330
2
100
AcDbEntity
  8
AM_VIS
100
AcDbLine
 10
14.32429258011633
 20
5.995715226713103
 30
0.0
 11
14.44221375131633
 21
5.995715226713103
 31
0.0
  0
LINE
  5
257
330
2
100
AcDbEntity
  8
AM_VIS
100
AcDbLine
 10
14.30429258011633
 20
6.165406226713103
 30
0.0
 11
14.30429258011633
 21
6.015715226713102
 31
0.0
  0
LINE
  5
258
330
2
100
AcDbEntity
  8
AM_VIS
100
AcDbLine
 10
13.94002128571633
 20
6.015715226713102
 30
0.0
 11
13.94002128571633
 21
6.165406226713103
 31
0.0
  0
LINE
  5
259
330
2
100
AcDbEntity
  8
AM_VIS
100
AcDbLine
 10
13.68706332571633
 20
5.995715226713103
 30
0.0
 11
13.92002128571633
 21
5.995715226713103
 31
0.0
  0
LINE
  5
25A
330
2
100
AcDbEntity
  8
AM_VIS
100
AcDbLine
 10
13.59690924571633
 20
6.205406226713103
 30
0.0
 11
13.59690924571633
 21
6.085869306713101
 31
0.0
  0
ARC
  5
25B
330
2
100
AcDbEntity
  8
AM_VIS
100
AcDbCircle
 10
13.68706332571633
 20
7.533343146713103
 30
0.0
 40
0.09015408
100
AcDbArc
 50
90.0
 51
180.0
  0
ARC
  5
25C
330
2
100
AcDbEntity
  8
AM_VIS
100
AcDbCircle
 10
13.92002128571633
 20
7.603497226713103
 30
0.0
 40
0.02
100
AcDbArc
 50
0.0
 51
90.0
  0
ARC
  5
25D
330
2
100
AcDbEntity
  8
AM_VIS
100
AcDbCircle
 10
14.32429258011633
 20
7.603497226713103
 30
0.0
 40
0.02
100
AcDbArc
 50
107.5760076532051
 51
180.0
  0
ARC
  5
25E
330
2
100
AcDbEntity
  8
AM_VIS
100
AcDbCircle
 10
14.44221375131633
 20
7.603497226713103
 30
0.0
 40
0.02
100
AcDbArc
 50
0.0
 51
72.42399234679545
  0
ARC
  5
25F
330
2
100
AcDbEntity
  8
AM_VIS
100
AcDbCircle
 10
14.84648504571634
 20
7.603497226713099
 30
0.0
 40
0.02
100
AcDbArc
 50
90.0
 51
179.9999999999898
  0
ARC
  5
260
330
2
100
AcDbEntity
  8
AM_VIS
100
AcDbCircle
 10
15.07944300571633
 20
7.533343146713103
 30
0.0
 40
0.09015408
100
AcDbArc
 50
0.0
 51
90.0
  0
ARC
  5
261
330
2
100
AcDbEntity
  8
AM_VIS
100
AcDbCircle
 10
15.07944300571633
 20
6.085869306713099
 30
0.0
 40
0.09015408
100
AcDbArc
 50
270.0
 51
0.0
  0
ARC
  5
262
330
2
100
AcDbEntity
  8
AM_VIS
100
AcDbCircle
 10
14.84648504571633
 20
6.015715226713102
 30
0.0
 40
0.02
100
AcDbArc
 50
180.0
 51
270.0
  0
ARC
  5
263
330
2
100
AcDbEntity
  8
AM_VIS
100
AcDbCircle
 10
14.44221375131633
 20
6.015715226713098
 30
0.0
 40
0.02
100
AcDbArc
 50
269.9999999999898
 51
0.0000000000101778
  0
ARC
  5
264
330
2
100
AcDbEntity
  8
AM_VIS
100
AcDbCircle
 10
14.32429258011633
 20
6.015715226713102
 30
0.0
 40
0.02
100
AcDbArc
 50
180.0
 51
269.9999999999898
  0
ARC
  5
265
330
2
100
AcDbEntity
  8
AM_VIS
100
AcDbCircle
 10
13.92002128571633
 20
6.015715226713102
 30
0.0
 40
0.02
100
AcDbArc
 50
269.9999999999898
 51
0.0
  0
ARC
  5
266
330
2
100
AcDbEntity
  8
AM_VIS
100
AcDbCircle
 10
13.68706332571633
 20
6.085869306713101
 30
0.0
 40
0.09015408
100
AcDbArc
 50
180.0
 51
270.0
  0
LINE
  5
267
330
2
100
AcDbEntity
  8
AM_VIS
100
AcDbLine
 10
14.76959708571633
 20
6.165406226713106
 30
0.0
 11
14.76959708571633
 21
6.165606226713109
 31
0.0
  0
LINE
  5
268
330
2
100
AcDbEntity
  8
AM_VIS
100
AcDbLine
 10
14.74959708571633
 20
7.45360622671311
 30
0.0
 11
14.74959708571633
 21
7.453806226713107
 31
0.0
  0
LINE
  5
269
330
2
100
AcDbEntity
  8
AM_VIS
100
AcDbLine
 10
15.12959708571633
 20
6.165406226713106
 30
0.0
 11
14.76959708571633
 21
6.165406226713106
 31
0.0
  0
LINE
  5
26A
330
2
100
AcDbEntity
  8
AM_VIS
100
AcDbLine
 10
14.74959708571633
 20
7.453806226713107
 30
0.0
 11
15.12959708571633
 21
7.453806226713107
 31
0.0
  0
LINE
  5
26B
330
2
100
AcDbEntity
  8
AM_VIS
100
AcDbLine
 10
13.63690924571633
 20
7.453806226713107
 30
0.0
 11
13.99690924571633
 21
7.453806226713107
 31
0.0
  0
LINE
  5
26C
330
2
100
AcDbEntity
  8
AM_VIS
100
AcDbLine
 10
13.99690924571633
 20
7.453806226713107
 30
0.0
 11
13.99690924571633
 21
7.453606226713111
 31
0.0
  0
LINE
  5
26D
330
2
100
AcDbEntity
  8
AM_VIS
100
AcDbLine
 10
14.01690924571633
 20
6.165606226713109
 30
0.0
 11
14.01690924571633
 21
6.165406226713106
 31
0.0
  0
LINE
  5
26E
330
2
100
AcDbEntity
  8
AM_VIS
100
AcDbLine
 10
14.01690924571633
 20
6.165406226713106
 30
0.0
 11
13.63690924571633
 21
6.165406226713106
 31
0.0
  0
LINE
  5
26F
330
2
100
AcDbEntity
  8
AM_VIS
100
AcDbLine
 10
13.59690924571633
 20
6.205406226713106
 30
0.0
 11
13.59690924571633
 21
7.413806226713107
 31
0.0
  0
LINE
  5
270
330
2
100
AcDbEntity
  8
AM_VIS
100
AcDbLine
 10
13.99690924571633
 20
7.453806226713101
 30
0.0
 11
14.17325316571633
 21
7.453806226713101
 31
0.0
  0
LINE
  5
271
330
2
100
AcDbEntity
  8
AM_VIS
100
AcDbLine
 10
14.24325316571633
 20
7.453806226713099
 30
0.0
 11
14.34825316571633
 21
7.453806226713099
 31
0.0
  0
LINE
  5
272
330
2
100
AcDbEntity
  8
AM_VIS
100
AcDbLine
 10
14.41825316571633
 20
7.453806226713099
 30
0.0
 11
14.52325316571633
 21
7.453806226713099
 31
0.0
  0
LINE
  5
273
330
2
100
AcDbEntity
  8
AM_VIS
100
AcDbLine
 10
14.59325316571633
 20
7.453806226713099
 30
0.0
 11
14.74959708571633
 21
7.453806226713099
 31
0.0
  0
LINE
  5
274
330
2
100
AcDbEntity
  8
AM_VIS
100
AcDbLine
 10
14.76959708571633
 20
6.165406226713099
 30
0.0
 11
14.01690924571633
 21
6.165406226713099
 31
0.0
  0
ARC
  5
275
330
2
100
AcDbEntity
  8
AM_VIS
100
AcDbCircle
 10
15.12959708571633
 20
7.413806226713107
 30
0.0
 40
0.04
100
AcDbArc
 50
84.00525252337272
 51
90.0
  0
ARC
  5
276
330
2
100
AcDbEntity
  8
AM_VIS
100
AcDbCircle
 10
15.12959708571633
 20
6.205406226713107
 30
0.0
 40
0.04
100
AcDbArc
 50
270.0
 51
275.9947474766934
  0
ARC
  5
277
330
2
100
AcDbEntity
  8
AM_VIS
100
AcDbCircle
 10
13.63690924571633
 20
6.205406226713106
 30
0.0
 40
0.04
100
AcDbArc
 50
180.0
 51
270.0
  0
ARC
  5
278
330
2
100
AcDbEntity
  8
AM_VIS
100
AcDbCircle
 10
13.63690924571633
 20
7.413806226713107
 30
0.0
 40
0.04
100
AcDbArc
 50
90.0
 51
180.0
  0
LINE
  5
279
330
2
100
AcDbEntity
  8
AM_VIS
100
AcDbLine
 10
14.24325316571633
 20
7.520792460718201
 30
0.0
 11
14.24325316571633
 21
7.453606226713107
 31
0.0
  0
LINE
  5
27A
330
2
100
AcDbEntity
  8
AM_VIS
100
AcDbLine
 10
14.17325316571633
 20
7.45360622671311
 30
0.0
 11
14.17325316571633
 21
7.520792460718201
 31
0.0
  0
LINE
  5
27B
330
2
100
AcDbEntity
  8
AM_VIS
100
AcDbLine
 10
14.14325316571633
 20
7.575564716468718
 30
0.0
 11
14.14325316571633
 21
7.640564716468719
 31
0.0
  0
LINE
  5
27C
330
2
100
AcDbEntity
  8
AM_VIS
100
AcDbLine
 10
14.27325316571633
 20
7.640564716468719
 30
0.0
 11
14.27325316571633
 21
7.575564716468718
 31
0.0
  0
LINE
  5
27D
330
2
100
AcDbEntity
  8
AM_VIS
100
AcDbLine
 10
14.59325316571633
 20
7.520792460718201
 30
0.0
 11
14.59325316571633
 21
7.45360622671311
 31
0.0
  0
LINE
  5
27E
330
2
100
AcDbEntity
  8
AM_VIS
100
AcDbLine
 10
14.52325316571633
 20
7.45360622671311
 30
0.0
 11
14.52325316571633
 21
7.520792460718201
 31
0.0
  0
LINE
  5
27F
330
2
100
AcDbEntity
  8
AM_VIS
100
AcDbLine
 10
14.49325316571633
 20
7.575564716468718
 30
0.0
 11
14.49325316571633
 21
7.640564716468719
 31
0.0
  0
LINE
  5
280
330
2
100
AcDbEntity
  8
AM_VIS
100
AcDbLine
 10
14.62325316571633
 20
7.640564716468719
 30
0.0
 11
14.62325316571633
 21
7.575564716468718
 31
0.0
  0
LINE
  5
281
330
2
100
AcDbEntity
  8
AM_VIS
100
AcDbLine
 10
14.41825316571633
 20
7.520792460718201
 30
0.0
 11
14.41825316571633
 21
7.453606226713107
 31
0.0
  0
LINE
  5
282
330
2
100
AcDbEntity
  8
AM_VIS
100
AcDbLine
 10
14.34825316571633
 20
7.453606226713107
 30
0.0
 11
14.34825316571633
 21
7.520792460718201
 31
0.0
  0
LINE
  5
283
330
2
100
AcDbEntity
  8
AM_VIS
100
AcDbLine
 10
14.31825316571633
 20
7.575564716468718
 30
0.0
 11
14.31825316571633
 21
7.640564716468719
 31
0.0
  0
LINE
  5
284
330
2
100
AcDbEntity
  8
AM_VIS
100
AcDbLine
 10
14.44825316571633
 20
7.640564716468719
 30
0.0
 11
14.44825316571633
 21
7.575564716468718
 31
0.0
  0
ARC
  5
285
330
2
100
AcDbEntity
  8
AM_VIS
100
AcDbCircle
 10
14.20825316571633
 20
7.575564716468718
 30
0.0
 40
0.0650000000000004
100
AcDbArc
 50
302.5789703928039
 51
0.0
  0
ARC
  5
286
330
2
100
AcDbEntity
  8
AM_VIS
100
AcDbCircle
 10
14.20825316571633
 20
7.575564716468718
 30
0.0
 40
0.0650000000000003
100
AcDbArc
 50
180.0
 51
237.4210296071961
  0
ARC
  5
287
330
2
100
AcDbEntity
  8
AM_VIS
100
AcDbCircle
 10
14.20825316571633
 20
7.640564716468719
 30
0.0
 40
0.0650000000000004
100
AcDbArc
 50
0.0
 51
180.0
  0
ARC
  5
288
330
2
100
AcDbEntity
  8
AM_VIS
100
AcDbCircle
 10
14.55825316571633
 20
7.575564716468718
 30
0.0
 40
0.0650000000000004
100
AcDbArc
 50
302.5789703928039
 51
0.0
  0
ARC
  5
289
330
2
100
AcDbEntity
  8
AM_VIS
100
AcDbCircle
 10
14.55825316571633
 20
7.575564716468718
 30
0.0
 40
0.0650000000000003
100
AcDbArc
 50
180.0
 51
237.4210296071961
  0
ARC
  5
28A
330
2
100
AcDbEntity
  8
AM_VIS
100
AcDbCircle
 10
14.55825316571633
 20
7.640564716468719
 30
0.0
 40
0.0650000000000004
100
AcDbArc
 50
0.0
 51
180.0
  0
ARC
  5
28B
330
2
100
AcDbEntity
  8
AM_VIS
100
AcDbCircle
 10
14.38325316571633
 20
7.575564716468718
 30
0.0
 40
0.0650000000000004
100
AcDbArc
 50
302.5789703928027
 51
0.0
  0
ARC
  5
28C
330
2
100
AcDbEntity
  8
AM_VIS
100
AcDbCircle
 10
14.38325316571633
 20
7.575564716468718
 30
0.0
 40
0.0650000000000003
100
AcDbArc
 50
180.0
 51
237.4210296071961
  0
ARC
  5
28D
330
2
100
AcDbEntity
  8
AM_VIS
100
AcDbCircle
 10
14.38325316571633
 20
7.640564716468719
 30
0.0
 40
0.0650000000000004
100
AcDbArc
 50
0.0
 51
180.0
  0
ARC
  5
28E
330
2
100
AcDbEntity
  8
AM_VIS
100
AcDbCircle
 10
14.38325316571633
 20
6.809606226713098
 30
0.0
 40
0.75
100
AcDbArc
 50
276.0433437790279
 51
300.802972242953
  0
ARC
  5
28F
330
2
100
AcDbEntity
  8
AM_VIS
100
AcDbCircle
 10
14.38325316571633
 20
6.809606226713098
 30
0.0
 40
0.75
100
AcDbArc
 50
59.19702775704831
 51
73.07507289562869
  0
ARC
  5
290
330
2
100
AcDbEntity
  8
AM_VIS
100
AcDbCircle
 10
14.38325316571633
 20
6.809606226713098
 30
0.0
 40
0.75
100
AcDbArc
 50
81.18576186650463
 51
83.95665622097203
  0
ARC
  5
291
330
2
100
AcDbEntity
  8
AM_VIS
100
AcDbCircle
 10
14.38325316571633
 20
6.809606226713098
 30
0.0
 40
0.75
100
AcDbArc
 50
96.04334377902794
 51
98.81423813349503
  0
ARC
  5
292
330
2
100
AcDbEntity
  8
AM_VIS
100
AcDbCircle
 10
14.38325316571633
 20
6.809606226713098
 30
0.0
 40
0.75
100
AcDbArc
 50
106.9249271043711
 51
120.8029722429521
  0
ARC
  5
293
330
2
100
AcDbEntity
  8
AM_VIS
100
AcDbCircle
 10
14.38325316571633
 20
6.809606226713098
 30
0.0
 40
0.75
100
AcDbArc
 50
239.1970277570464
 51
263.9566562209719
  0
INSERT
  5
294
330
2
100
AcDbEntity
  8
0
 62
     2
100
AcDbBlockReference
  2
*U0
 10
-0.1576893569536608
 20
-0.5127720402207139
 30
0.0
  0
INSERT
  5
299
330
2
100
AcDbEntity
  8
0
 62
     2
100
AcDbBlockReference
  2
*U1
 10
-0.1576893569536608
 20
-0.5127720402207139
 30
0.0
  0
INSERT
  5
29E
330
2
100
AcDbEntity
  8
0
 62
     2
100
AcDbBlockReference
  2
*U2
 10
-0.1576893569536608
 20
-0.5127720402207139
 30
0.0
  0
INSERT
  5
2A3
330
2
100
AcDbEntity
  8
0
 62
     2
100
AcDbBlockReference
  2
*U3
 10
-0.1576893569536608
 20
-0.5127720402207139
 30
0.0
  0
INSERT
  5
2A8
330
2
100
AcDbEntity
  8
0
 62
     2
100
AcDbBlockReference
  2
*U4
 10
-0.5381518469037446
 20
13.60219041107164
 30
0.0
  0
INSERT
  5
2AD
330
2
100
AcDbEntity
  8
0
 62
     2
100
AcDbBlockReference
  2
*U5
 10
-0.5381518469037446
 20
13.60219041107164
 30
0.0
  0
INSERT
  5
2B2
330
2
100
AcDbEntity
  8
0
 62
     2
100
AcDbBlockReference
  2
*U6
 10
-0.5381518469037446
 20
13.60219041107164
 30
0.0
  0
INSERT
  5
2B7
330
2
100
AcDbEntity
  8
0
 62
     2
100
AcDbBlockReference
  2
*U7
 10
-0.5381518469037446
 20
13.60219041107164
 30
0.0
  0
MTEXT
  5
2BC
330
2
100
AcDbEntity
  8
PHANTOM
 62
     7
100
AcDbMText
 10
23.16599445338432
 20
15.39032229254688
 30
0.0
 40
0.18
 41
0.0
 71
     4
 72
     5
  1

 73
     1
 44
1.0
1001
ACAD
1000
MTEXTBEGIN
1070
    73
1070
     1
1070
    44
1040
1.0
1070
    74
1070
     0
1000
MTEXTEND
  0
MTEXT
  5
2BF
330
2
100
AcDbEntity
  8
CENTER
 62
     7
100
AcDbMText
 10
14.50289205973629
 20
4.707569031786912
 30
0.0
 40
0.18
 41
0.0
 71
     4
 72
     5
  1

 73
     1
 44
1.0
1001
ACAD
1000
MTEXTBEGIN
1070
    73
1070
     1
1070
    44
1040
1.0
1070
    74
1070
     0
1000
MTEXTEND
  0
MTEXT
  5
2C1
330
2
100
AcDbEntity
  8
PHANTOM
 62
     7
100
AcDbMText
 10
31.32694300153645
 20
12.01700874910375
 30
0.0
 40
0.18
 41
0.0
 71
     6
 72
     5
  1

 73
     1
 44
1.0
1001
ACAD
1000
MTEXTBEGIN
1070
    73
1070
     1
1070
    44
1040
1.0
1070
    74
1070
     0
1000
MTEXTEND
  0
MTEXT
  5
2C2
330
2
100
AcDbEntity
  8
PHANTOM
 62
     7
100
AcDbMText
 10
33.54578470832823
 20
17.32471301506899
 30
0.0
 40
0.18
 41
0.0
 71
     4
 72
     5
  1

 73
     1
 44
1.0
1001
ACAD
1000
MTEXTBEGIN
1070
    73
1070
     1
1070
    44
1040
1.0
1070
    74
1070
     0
1000
MTEXTEND
  0
MTEXT
  5
2C3
330
2
100
AcDbEntity
  8
PHANTOM
 62
     7
100
AcDbMText
 10
33.96149074958217
 20
16.9345384940226
 30
0.0
 40
0.18
 41
0.0
 71
     4
 72
     5
  1

 73
     1
 44
1.0
1001
ACAD
1000
MTEXTBEGIN
1070
    73
1070
     1
1070
    44
1040
1.0
1070
    74
1070
     0
1000
MTEXTEND
  0
LINE
  5
2C4
330
2
100
AcDbEntity
  8
10
100
AcDbLine
 10
16.80440485196386
 20
10.33320293194752
 30
0.0
 11
16.80440485196385
 21
10.08320293194752
 31
0.0
  0
LINE
  5
2C6
330
2
100
AcDbEntity
  8
10
100
AcDbLine
 10
-0.1955951480361406
 20
-0.6667970680524819
 30
0.0
 11
0.0544048519638594
 21
-0.6667970680524822
 31
0.0
  0
LINE
  5
2C7
330
2
100
AcDbEntity
  8
10
100
AcDbLine
 10
-0.1955951480361406
 20
10.33320293194752
 30
0.0
 11
0.0544048519638594
 21
10.33320293194752
 31
0.0
  0
LINE
  5
2C8
330
2
100
AcDbEntity
  8
10
100
AcDbLine
 10
-0.1955951480361406
 20
10.33320293194752
 30
0.0
 11
-0.1955951480361371
 21
10.08320293194752
 31
0.0
  0
LINE
  5
2C9
330
2
100
AcDbEntity
  8
10
100
AcDbLine
 10
16.80440485196385
 20
-0.4167970680524801
 30
0.0
 11
16.80440485196386
 21
-0.6667970680524796
 31
0.0
  0
LINE
  5
2CA
330
2
100
AcDbEntity
  8
10
100
AcDbLine
 10
16.55440485196385
 20
-0.6667970680524796
 30
0.0
 11
16.80440485196386
 21
-0.6667970680524796
 31
0.0
  0
LINE
  5
2CB
330
2
100
AcDbEntity
  8
10
100
AcDbLine
 10
16.55440485196385
 20
10.33320293194752
 30
0.0
 11
16.80440485196387
 21
10.33320293194752
 31
0.0
  0
LINE
  5
2CC
330
2
100
AcDbEntity
  8
10
100
AcDbLine
 10
-0.1955951480361371
 20
-0.4167970680524819
 30
0.0
 11
-0.1955951480361406
 21
-0.6667970680524819
 31
0.0
  0
LINE
  5
2CD
330
2
100
AcDbEntity
  8
10
100
AcDbLine
 10
7.608311125986057
 20
0.0397463356221484
 30
0.0
 11
12.35440487598604
 21
0.0397463356221484
 31
0.0
  0
TEXT
  5
2CE
330
2
100
AcDbEntity
  8
10
 62
     7
100
AcDbText
 10
7.731248459167714
 20
-0.3491974582942876
 30
0.0
 40
0.094921875
  1
REV
100
AcDbText
  0
TEXT
  5
2CF
330
2
100
AcDbEntity
  8
10
 62
     7
100
AcDbText
 10
9.219737767222428
 20
-0.3443600550005477
 30
0.0
 40
0.094921875
  1
DESCRIPTION
100
AcDbText
  0
TEXT
  5
2D0
330
2
100
AcDbEntity
  8
10
 62
     7
100
AcDbText
 10
11.34227250179475
 20
-0.3472865988181488
 30
0.0
 40
0.094921875
  1
DATE
100
AcDbText
  0
TEXT
  5
2D1
330
2
100
AcDbEntity
  8
10
 62
     7
100
AcDbText
 10
12.05633869953669
 20
-0.3424490566394343
 30
0.0
 40
0.094921875
  1
BY
100
AcDbText
  0
LINE
  5
2D2
330
2
100
AcDbEntity
  8
10
100
AcDbLine
 10
7.608311125986057
 20
-0.1580075706278516
 30
0.0
 11
12.35440487598604
 21
-0.1580075706278516
 31
0.0
  0
LINE
  5
2D3
330
2
100
AcDbEntity
  8
10
100
AcDbLine
 10
8.082920500986054
 20
0.0397463356221484
 30
0.0
 11
8.082920500986022
 21
-0.416797068052501
 31
0.0
  0
LINE
  5
2D4
330
2
100
AcDbEntity
  8
10
100
AcDbLine
 10
11.87979550098605
 20
0.0397463356221484
 30
0.0
 11
11.87979550098605
 21
-0.416797068052501
 31
0.0
  0
LINE
  5
2D5
330
2
100
AcDbEntity
  8
10
100
AcDbLine
 10
11.16788143848606
 20
0.0397463356221484
 30
0.0
 11
11.1678814384861
 21
-0.416797068052501
 31
0.0
  0
TEXT
  5
2D6
330
2
100
AcDbEntity
  8
10
 62
     7
100
AcDbText
 10
7.724795650247532
 20
-0.1191883590752663
 30
0.0
 40
0.094921875
  1
XXX
100
AcDbText
  0
TEXT
  5
2D7
330
2
100
AcDbEntity
  8
10
 62
     7
100
AcDbText
 10
9.213284958302248
 20
-0.1143509557815245
 30
0.0
 40
0.094921875
  1
XXXXXXXXXXX
100
AcDbText
  0
TEXT
  5
2D8
330
2
100
AcDbEntity
  8
10
 62
     7
100
AcDbText
 10
11.33581969287457
 20
-0.1172774995991257
 30
0.0
 40
0.094921875
  1
XXXX
100
AcDbText
  0
TEXT
  5
2D9
330
2
100
AcDbEntity
  8
10
 62
     7
100
AcDbText
 10
11.99980580965911
 20
-0.1124399574204129
 30
0.0
 40
0.094921875
  1
XXX
100
AcDbText
  0
LINE
  5
2DA
330
2
100
AcDbEntity
  8
10
100
AcDbLine
 10
0.0544048519638594
 20
-0.4167970680524813
 30
0.0
 11
16.55440485196385
 21
-0.4167970680524915
 31
0.0
  0
LINE
  5
2DB
330
2
100
AcDbEntity
  8
10
100
AcDbLine
 10
7.608311125986043
 20
0.0397463356221484
 30
0.0
 11
7.608311125986025
 21
-0.416797068052501
 31
0.0
  0
LINE
  5
2DC
330
2
100
AcDbEntity
  8
10
100
AcDbLine
 10
12.35440488802565
 20
1.059765431947499
 30
0.0
 11
12.35440485196385
 21
-0.4167970680524915
 31
0.0
  0
CIRCLE
  5
2DD
330
2
100
AcDbEntity
  8
10
 62
     1
100
AcDbCircle
 10
0.0544048519638558
 20
-0.4167970680524819
 30
0.0
 40
0.1415883773737505
  0
LINE
  5
2DE
330
2
100
AcDbEntity
  8
10
100
AcDbLine
 10
0.0544048519638665
 20
10.08320293194752
 30
0.0
 11
16.55440485196385
 21
10.08320293194752
 31
0.0
  0
LINE
  5
2DF
330
2
100
AcDbEntity
  8
10
100
AcDbLine
 10
0.0544048519638665
 20
10.08320293194752
 30
0.0
 11
0.0544048519638594
 21
-0.416797068052481
 31
0.0
  0
LINE
  5
2E0
330
2
100
AcDbEntity
  8
10
100
AcDbLine
 10
7.608311112954107
 20
0.830761694140337
 30
0.0
 11
12.3544048629541
 21
0.830761694140337
 31
0.0
  0
TEXT
  5
2E1
330
2
100
AcDbEntity
  8
10
 62
     7
100
AcDbText
 10
7.724795637215584
 20
0.8695809056929233
 30
0.0
 40
0.094921875
  1
XXX
100
AcDbText
  0
LINE
  5
2E2
330
2
100
AcDbEntity
  8
10
100
AcDbLine
 10
7.608311112954098
 20
1.059765431947499
 30
0.0
 11
7.608311112954084
 21
0.830761694140337
 31
0.0
  0
LINE
  5
2E3
330
2
100
AcDbEntity
  8
10
100
AcDbLine
 10
8.082920487954107
 20
1.059765431947499
 30
0.0
 11
8.082920487954092
 21
0.830761694140337
 31
0.0
  0
TEXT
  5
2E4
330
2
100
AcDbEntity
  8
10
 62
     7
100
AcDbText
 10
9.2132849452703
 20
0.8744183089866655
 30
0.0
 40
0.094921875
  1
XXXXXXXXXXX
100
AcDbText
  0
LINE
  5
2E5
330
2
100
AcDbEntity
  8
10
100
AcDbLine
 10
11.16788142545412
 20
1.059765431947499
 30
0.0
 11
11.16788142545413
 21
0.830761694140337
 31
0.0
  0
LINE
  5
2E6
330
2
100
AcDbEntity
  8
10
100
AcDbLine
 10
11.8797954879541
 20
1.059765431947499
 30
0.0
 11
11.8797954879541
 21
0.830761694140337
 31
0.0
  0
TEXT
  5
2E7
330
2
100
AcDbEntity
  8
10
 62
     7
100
AcDbText
 10
11.33581967984262
 20
0.8714917651690633
 30
0.0
 40
0.094921875
  1
XXXX
100
AcDbText
  0
TEXT
  5
2E8
330
2
100
AcDbEntity
  8
10
 62
     7
100
AcDbText
 10
11.99980579662716
 20
0.8763293073477761
 30
0.0
 40
0.094921875
  1
XXX
100
AcDbText
  0
LINE
  5
2E9
330
2
100
AcDbEntity
  8
10
100
AcDbLine
 10
7.608311112954107
 20
0.6330078411866982
 30
0.0
 11
12.3544048629541
 21
0.6330078411866982
 31
0.0
  0
LINE
  5
2EA
330
2
100
AcDbEntity
  8
10
100
AcDbLine
 10
7.608311112954107
 20
0.8307617474366979
 30
0.0
 11
12.3544048629541
 21
0.8307617474366979
 31
0.0
  0
TEXT
  5
2EB
330
2
100
AcDbEntity
  8
10
 62
     7
100
AcDbText
 10
7.724795637215584
 20
0.6718270527392845
 30
0.0
 40
0.094921875
  1
XXX
100
AcDbText
  0
LINE
  5
2EC
330
2
100
AcDbEntity
  8
10
100
AcDbLine
 10
7.608311112954098
 20
0.8307617474366978
 30
0.0
 11
7.608311112954084
 21
0.6330078411866982
 31
0.0
  0
LINE
  5
2ED
330
2
100
AcDbEntity
  8
10
100
AcDbLine
 10
8.082920487954105
 20
0.8307617474366978
 30
0.0
 11
8.082920487954092
 21
0.6330078411866982
 31
0.0
  0
TEXT
  5
2EE
330
2
100
AcDbEntity
  8
10
 62
     7
100
AcDbText
 10
9.2132849452703
 20
0.6766644560330266
 30
0.0
 40
0.094921875
  1
XXXXXXXXXXX
100
AcDbText
  0
LINE
  5
2EF
330
2
100
AcDbEntity
  8
10
100
AcDbLine
 10
11.16788142545412
 20
0.8307617474366979
 30
0.0
 11
11.16788142545413
 21
0.6330078411866982
 31
0.0
  0
LINE
  5
2F0
330
2
100
AcDbEntity
  8
10
100
AcDbLine
 10
11.8797954879541
 20
0.8307617474366979
 30
0.0
 11
11.8797954879541
 21
0.6330078411866982
 31
0.0
  0
TEXT
  5
2F1
330
2
100
AcDbEntity
  8
10
 62
     7
100
AcDbText
 10
11.33581967984262
 20
0.6737379122154246
 30
0.0
 40
0.094921875
  1
XXXX
100
AcDbText
  0
TEXT
  5
2F2
330
2
100
AcDbEntity
  8
10
 62
     7
100
AcDbText
 10
11.99980579662716
 20
0.6785754543941374
 30
0.0
 40
0.094921875
  1
XXX
100
AcDbText
  0
LINE
  5
2F3
330
2
100
AcDbEntity
  8
10
100
AcDbLine
 10
7.60831111947008
 20
0.2375001352794257
 30
0.0
 11
12.35440486947007
 21
0.2375001352794257
 31
0.0
  0
LINE
  5
2F4
330
2
100
AcDbEntity
  8
10
100
AcDbLine
 10
7.60831111947008
 20
0.4352540415294257
 30
0.0
 11
12.35440486947007
 21
0.4352540415294257
 31
0.0
  0
TEXT
  5
2F5
330
2
100
AcDbEntity
  8
10
 62
     7
100
AcDbText
 10
7.724795643731557
 20
0.276319346832012
 30
0.0
 40
0.094921875
  1
XXX
100
AcDbText
  0
LINE
  5
2F6
330
2
100
AcDbEntity
  8
10
100
AcDbLine
 10
7.608311119470068
 20
0.4352540415294254
 30
0.0
 11
7.608311119470057
 21
0.2375001352794257
 31
0.0
  0
LINE
  5
2F7
330
2
100
AcDbEntity
  8
10
100
AcDbLine
 10
8.082920494470076
 20
0.4352540415294254
 30
0.0
 11
8.082920494470062
 21
0.2375001352794257
 31
0.0
  0
TEXT
  5
2F8
330
2
100
AcDbEntity
  8
10
 62
     7
100
AcDbText
 10
9.213284951786274
 20
0.2811567501257541
 30
0.0
 40
0.094921875
  1
XXXXXXXXXXX
100
AcDbText
  0
LINE
  5
2F9
330
2
100
AcDbEntity
  8
10
100
AcDbLine
 10
11.16788143197009
 20
0.4352540415294257
 30
0.0
 11
11.1678814319701
 21
0.2375001352794257
 31
0.0
  0
LINE
  5
2FA
330
2
100
AcDbEntity
  8
10
100
AcDbLine
 10
11.87979549447007
 20
0.4352540415294257
 30
0.0
 11
11.87979549447007
 21
0.2375001352794257
 31
0.0
  0
TEXT
  5
2FB
330
2
100
AcDbEntity
  8
10
 62
     7
100
AcDbText
 10
11.33581968635859
 20
0.2782302063081521
 30
0.0
 40
0.094921875
  1
XXXX
100
AcDbText
  0
TEXT
  5
2FC
330
2
100
AcDbEntity
  8
10
 62
     7
100
AcDbText
 10
11.99980580314313
 20
0.2830677484868649
 30
0.0
 40
0.094921875
  1
XXX
100
AcDbText
  0
LINE
  5
2FD
330
2
100
AcDbEntity
  8
10
100
AcDbLine
 10
7.60831111947008
 20
0.435253988233063
 30
0.0
 11
12.35440486947007
 21
0.435253988233063
 31
0.0
  0
LINE
  5
2FE
330
2
100
AcDbEntity
  8
10
100
AcDbLine
 10
7.60831111947008
 20
0.633007894483063
 30
0.0
 11
12.35440486947007
 21
0.633007894483063
 31
0.0
  0
TEXT
  5
2FF
330
2
100
AcDbEntity
  8
10
 62
     7
100
AcDbText
 10
7.724795643731557
 20
0.4740731997856491
 30
0.0
 40
0.094921875
  1
XXX
100
AcDbText
  0
LINE
  5
300
330
2
100
AcDbEntity
  8
10
100
AcDbLine
 10
7.608311119470068
 20
0.6330078944830624
 30
0.0
 11
7.608311119470057
 21
0.435253988233063
 31
0.0
  0
LINE
  5
301
330
2
100
AcDbEntity
  8
10
100
AcDbLine
 10
8.082920494470076
 20
0.6330078944830624
 30
0.0
 11
8.082920494470062
 21
0.435253988233063
 31
0.0
  0
TEXT
  5
302
330
2
100
AcDbEntity
  8
10
 62
     7
100
AcDbText
 10
9.213284951786274
 20
0.4789106030793914
 30
0.0
 40
0.094921875
  1
XXXXXXXXXXX
100
AcDbText
  0
LINE
  5
303
330
2
100
AcDbEntity
  8
10
100
AcDbLine
 10
11.16788143197009
 20
0.633007894483063
 30
0.0
 11
11.1678814319701
 21
0.435253988233063
 31
0.0
  0
LINE
  5
304
330
2
100
AcDbEntity
  8
10
100
AcDbLine
 10
11.87979549447007
 20
0.633007894483063
 30
0.0
 11
11.87979549447007
 21
0.435253988233063
 31
0.0
  0
TEXT
  5
305
330
2
100
AcDbEntity
  8
10
 62
     7
100
AcDbText
 10
11.33581968635859
 20
0.4759840592617893
 30
0.0
 40
0.094921875
  1
XXXX
100
AcDbText
  0
TEXT
  5
306
330
2
100
AcDbEntity
  8
10
 62
     7
100
AcDbText
 10
11.99980580314313
 20
0.480821601440502
 30
0.0
 40
0.094921875
  1
XXX
100
AcDbText
  0
LINE
  5
307
330
2
100
AcDbEntity
  8
10
100
AcDbLine
 10
7.60831111947008
 20
0.0397462823257864
 30
0.0
 11
12.35440486947007
 21
0.0397462823257868
 31
0.0
  0
LINE
  5
308
330
2
100
AcDbEntity
  8
10
100
AcDbLine
 10
7.60831111947008
 20
0.2375001885757868
 30
0.0
 11
12.35440486947007
 21
0.2375001885757868
 31
0.0
  0
TEXT
  5
309
330
2
100
AcDbEntity
  8
10
 62
     7
100
AcDbText
 10
7.724795643731557
 20
0.0785654938783731
 30
0.0
 40
0.094921875
  1
XXX
100
AcDbText
  0
LINE
  5
30A
330
2
100
AcDbEntity
  8
10
100
AcDbLine
 10
7.608311119470068
 20
0.2375001885757864
 30
0.0
 11
7.608311119470057
 21
0.0397462823257864
 31
0.0
  0
LINE
  5
30B
330
2
100
AcDbEntity
  8
10
100
AcDbLine
 10
8.082920494470076
 20
0.2375001885757864
 30
0.0
 11
8.082920494470062
 21
0.0397462823257864
 31
0.0
  0
TEXT
  5
30C
330
2
100
AcDbEntity
  8
10
 62
     7
100
AcDbText
 10
9.213284951786274
 20
0.0834028971721153
 30
0.0
 40
0.094921875
  1
XXXXXXXXXXX
100
AcDbText
  0
LINE
  5
30D
330
2
100
AcDbEntity
  8
10
100
AcDbLine
 10
11.16788143197009
 20
0.2375001885757868
 30
0.0
 11
11.1678814319701
 21
0.0397462823257864
 31
0.0
  0
LINE
  5
30E
330
2
100
AcDbEntity
  8
10
100
AcDbLine
 10
11.87979549447007
 20
0.2375001885757868
 30
0.0
 11
11.87979549447007
 21
0.0397462823257868
 31
0.0
  0
TEXT
  5
30F
330
2
100
AcDbEntity
  8
10
 62
     7
100
AcDbText
 10
11.33581968635859
 20
0.0804763533545132
 30
0.0
 40
0.094921875
  1
XXXX
100
AcDbText
  0
TEXT
  5
310
330
2
100
AcDbEntity
  8
10
 62
     7
100
AcDbText
 10
11.99980580314313
 20
0.0853138955332265
 30
0.0
 40
0.094921875
  1
XXX
100
AcDbText
  0
LINE
  5
311
330
2
100
AcDbEntity
  8
10
100
AcDbLine
 10
7.608311112954098
 20
1.059765431947499
 30
0.0
 11
12.35440488802565
 21
1.059765431947499
 31
0.0
  0
LINE
  5
312
330
2
100
AcDbEntity
  8
10
100
AcDbLine
 10
16.55440485196385
 20
10.08320293194752
 30
0.0
 11
16.55440485196385
 21
-0.4167970680524915
 31
0.0
  0
DIMENSION
  5
313
330
2
100
AcDbEntity
  8
DIMENSION
 62
     7
100
AcDbDimension
  2
*D8
 10
9.322549599191827
 20
4.787550751478955
 30
0.0
 11
10.47790674204897
 21
4.787550751478955
 31
0.0
 70
   128
  1
PANEL THK\P(<>SHOWN)
 71
     5
 42
0.1875
  3
Standard
100
AcDbAlignedDimension
 13
9.135049599191827
 23
5.230300899516731
 33
0.0
 14
9.322549599191827
 24
5.148246401338912
 34
0.0
100
AcDbRotatedDimension
  0
HATCH
  5
323
330
2
100
AcDbEntity
  8
DIMENSION
 62
   254
100
AcDbHatch
 10
0.0
 20
0.0
 30
0.0
210
0.0
220
0.0
230
1.0
  2
ANSI31
 70
     0
 71
     1
 91
        2
 92
        5
 93
        4
 72
     1
 10
9.135049599191827
 20
7.397745097962647
 11
9.322549599191827
 21
7.397745097962647
 72
     1
 10
9.322549599191827
 20
7.397745097962647
 11
9.322549599191827
 21
8.736264314768877
 72
     4
 94
        3
 73
     0
 74
     0
 95
       10
 96
        6
 40
0.0
 40
0.0
 40
0.0
 40
0.0
 40
0.0680277605031337
 40
0.1821364994795501
 40
0.3441781608166933
 40
0.3441781608166933
 40
0.3441781608166933
 40
0.3441781608166933
 10
9.322549599191827
 20
8.736264314768877
 10
9.297349145510702
 20
8.733404535753027
 10
9.229877831082163
 20
8.725747806568055
 10
9.256257883751722
 20
8.524356948249412
 10
9.179871935141779
 20
8.653200808024307
 10
9.135049599191827
 20
8.728804801599212
 72
     1
 10
9.135049599191827
 20
8.728804801599215
 11
9.135049599191827
 21
7.397745097962647
 97
        4
330
329
330
325
330
328
330
324
 92
        5
 93
        4
 72
     4
 94
        3
 73
     0
 74
     0
 95
       10
 96
        6
 40
0.0
 40
0.0
 40
0.0
 40
0.0
 40
0.1352588446482911
 40
0.2420629755396169
 40
0.3560785049824482
 40
0.3560785049824482
 40
0.3560785049824482
 40
0.3560785049824482
 10
9.135049599191827
 20
5.230300899516731
 10
9.170930102334494
 20
5.289227449295916
 10
9.235142844777755
 20
5.394684035258358
 10
9.227441202747886
 20
5.208963664019543
 10
9.290164012174411
 20
5.168921381335674
 10
9.322549599191827
 20
5.148246401338912
 72
     1
 10
9.322549599191827
 20
5.14824640133891
 11
9.322549599191827
 21
6.210245097962647
 72
     1
 10
9.322549599191827
 20
6.210245097962647
 11
9.135049599191827
 21
6.210245097962647
 72
     1
 10
9.135049599191827
 20
6.210245097962647
 11
9.135049599191827
 21
5.23030089951673
 97
        4
330
327
330
325
330
326
330
324
 75
     0
 76
     1
 52
0.0
 41
0.5
 77
     0
 78
     1
 53
45.0
 43
-0.0878771692124314
 44
0.0294678406466851
 45
-0.0441941738241592
 46
0.0441941738241592
 79
     0
 47
0.005943493732423
 98
        2
 10
9.218106473779892
 20
7.868545379649471
 10
9.224050502747832
 20
5.853700985427837
  0
LINE
  5
324
102
{ACAD_REACTORS
330
323
102
}
330
2
100
AcDbEntity
  8
DIMENSION
 62
   254
100
AcDbLine
 10
9.322549599191827
 20
5.148246401338912
 30
0.0
 11
9.322549599191827
 21
8.736264314768877
 31
0.0
  0
LINE
  5
325
102
{ACAD_REACTORS
330
323
102
}
330
2
100
AcDbEntity
  8
DIMENSION
 62
   254
100
AcDbLine
 10
9.135049599191827
 20
5.230300899516731
 30
0.0
 11
9.135049599191827
 21
8.728804801599212
 31
0.0
  0
SPLINE
  5
326
102
{ACAD_REACTORS
330
323
102
}
330
2
100
AcDbEntity
  8
DIMENSION
 62
   254
100
AcDbSpline
210
0.0
220
0.0
230
1.0
 70
     8
 71
     3
 72
    10
 73
     6
 74
     4
 42
0.0000000001
 43
0.0000000001
 44
0.0000000001
 40
0.0
 40
0.0
 40
0.0
 40
0.0
 40
0.1352588446482897
 40
0.2420629755396142
 40
0.3560785049824449
 40
0.3560785049824449
 40
0.3560785049824449
 40
0.3560785049824449
 10
9.135049599191827
 20
5.230300899516731
 30
0.0
 10
9.170930102334496
 20
5.289227449295916
 30
0.0
 10
9.235142844777753
 20
5.394684035258356
 30
0.0
 10
9.22744120274789
 20
5.208963664019543
 30
0.0
 10
9.290164012174416
 20
5.168921381335676
 30
0.0
 10
9.322549599191827
 20
5.148246401338912
 30
0.0
 11
9.135049599191827
 21
5.230300899516731
 31
0.0
 11
9.22100725547544
 21
5.334733827187167
 31
0.0
 11
9.243387737901713
 21
5.230300899516731
 31
0.0
 11
9.322549599191827
 21
5.148246401338912
 31
0.0
  0
LINE
  5
327
102
{ACAD_REACTORS
330
323
102
}
330
2
100
AcDbEntity
  8
DIMENSION
 62
   254
100
AcDbLine
 10
9.135049599191827
 20
6.210245097962647
 30
0.0
 11
9.322549599191827
 21
6.210245097962647
 31
0.0
  0
LINE
  5
328
102
{ACAD_REACTORS
330
323
102
}
330
2
100
AcDbEntity
  8
DIMENSION
 62
   254
100
AcDbLine
 10
9.135049599191827
 20
7.397745097962647
 30
0.0
 11
9.322549599191827
 21
7.397745097962647
 31
0.0
  0
SPLINE
  5
329
102
{ACAD_REACTORS
330
323
102
}
330
2
100
AcDbEntity
  8
DIMENSION
 62
   254
100
AcDbSpline
210
0.0
220
0.0
230
1.0
 70
     8
 71
     3
 72
    10
 73
     6
 74
     4
 42
0.0000000001
 43
0.0000000001
 44
0.0000000001
 40
0.0
 40
0.0
 40
0.0
 40
0.0
 40
0.1620416613371419
 40
0.2761504003135578
 40
0.3441781608166932
 40
0.3441781608166932
 40
0.3441781608166932
 40
0.3441781608166932
 10
9.135049599191827
 20
8.728804801599212
 30
0.0
 10
9.179871935141781
 20
8.653200808024305
 30
0.0
 10
9.256257883751722
 20
8.524356948249408
 30
0.0
 10
9.229877831082163
 20
8.725747806568056
 30
0.0
 10
9.297349145510704
 20
8.733404535753024
 30
0.0
 10
9.322549599191827
 20
8.736264314768877
 30
0.0
 11
9.135049599191827
 21
8.728804801599212
 31
0.0
 11
9.235927550705481
 21
8.601993371091904
 31
0.0
 11
9.258308033131743
 21
8.713885811932005
 31
0.0
 11
9.322549599191827
 21
8.736264314768877
 31
0.0
  0
MTEXT
  5
32A
330
2
100
AcDbEntity
  8
DIMENSION
 62
     7
100
AcDbMText
 10
0.2078855203792287
 20
9.917502159569572
 30
0.0
 40
0.1
 41
5.471330070705511
 71
     1
 72
     5
  1
{\LNOTES:\P\P}1) MOUNTING HOLE IN PANEL - %%C1-3/16 (30MM)\P\P2) MOUNTING HOLE SPACING (FOR STANDARD LEGEND PLATES) - HORIZONTIAL & VERTICAL DISTANCE - 2.250 CENTER TO CENTER
 73
     1
 44
1.0
1001
ACAD
1000
MTEXTBEGIN
1070
    73
1070
     1
1070
    44
1040
1.0
1070
    74
1070
     0
1000
MTEXTEND
  0
DIMENSION
  5
32B
330
2
100
AcDbEntity
  8
DIMENSION
 62
     7
100
AcDbDimension
  2
*D9
 10
2.859878092376353
 20
8.31601799197444
 30
0.0
 11
3.646222012376353
 21
8.31601799197444
 31
0.0
 71
     5
 42
1.572687839999999
  3
Standard
100
AcDbAlignedDimension
 13
4.432565932376355
 23
7.533343146713106
 33
0.0
 14
2.859878092376353
 24
7.533343146713105
 34
0.0
100
AcDbRotatedDimension
  0
DIMENSION
  5
339
330
2
100
AcDbEntity
  8
DIMENSION
 62
     7
100
AcDbDimension
  2
*D10
 10
2.045146032157917
 20
5.995715226713103
 30
0.0
 11
2.045146032157916
 21
6.860659489134348
 31
0.0
 70
   128
 71
     5
 42
1.627782
  3
Standard
100
AcDbAlignedDimension
 13
2.950032172376351
 23
7.623497226713105
 33
0.0
 14
2.950032172376353
 24
5.995715226713103
 34
0.0
 50
90.0
100
AcDbRotatedDimension
  0
DIMENSION
  5
347
330
2
100
AcDbEntity
  8
DIMENSION
 62
     7
100
AcDbDimension
  2
*D11
 10
9.322549599191827
 20
9.234793306786706
 30
0.0
 11
10.32172692390602
 21
9.234793306786706
 31
0.0
 70
   128
 71
     5
 42
2.153699999999995
  3
Standard
100
AcDbAlignedDimension
 13
11.47624959919182
 23
7.453606226713103
 33
0.0
 14
9.322549599191827
 24
8.736264314768877
 34
0.0
100
AcDbRotatedDimension
  0
DIMENSION
  5
355
330
2
100
AcDbEntity
  8
DIMENSION
 62
     7
100
AcDbDimension
  2
*D12
 10
8.135049599191821
 20
9.256290615613265
 30
0.0
 11
8.646784618461012
 21
9.256290615613265
 31
0.0
 70
   128
 71
     5
 42
1.000000000000002
  3
Standard
100
AcDbAlignedDimension
 13
9.135049599191827
 23
8.728804801599212
 33
0.0
 14
8.135049599191821
 24
7.309606226713103
 34
0.0
100
AcDbRotatedDimension
  0
MTEXT
  5
363
330
2
100
AcDbEntity
  8
DIMENSION
 62
     7
100
AcDbMText
 10
1.368461783373655
 20
3.593724921196222
 30
0.0
 40
0.125
 41
0.0
 71
     2
 72
     1
  1
CLAMP RING
 73
     1
 44
1.0
1001
ACAD
1000
MTEXTBEGIN
1070
    73
1070
     1
1070
    44
1040
1.0
1070
    74
1070
     0
1000
MTEXTEND
  0
LEADER
  5
364
330
2
100
AcDbEntity
  8
DIMENSION
 62
     7
100
AcDbLeader
  3
Standard
 72
     1
 73
     0
 40
0.125
 41
1.13690476190476
 76
     4
 10
1.882115226434378
 20
1.822934129432573
 30
0.0
 10
1.49869826676579
 20
2.431346448075828
 30
0.0
 10
1.256978889672337
 20
2.222986070610815
 30
0.0
 10
0.7090608811350309
 20
2.315036319711161
 30
0.0
  0
MTEXT
  5
365
102
{ACAD_REACTORS
330
364
102
}
330
2
100
AcDbEntity
  8
14-20-HEXNUT
100
AcDbMText
 10
0.4082667985635952
 20
2.384025537224474
 30
0.0
 40
0.125
 41
0.0
 71
     2
 72
     1
  1
KNOB
 73
     1
 44
1.0
1001
ACAD
1000
MTEXTBEGIN
1070
    73
1070
     1
1070
    44
1040
1.0
1070
    74
1070
     0
1000
MTEXTEND
  0
LEADER
  5
367
330
2
100
AcDbEntity
  8
DIMENSION
 62
     7
100
AcDbLeader
  3
Standard
 72
     1
 73
     0
 74
     0
 40
0.125
 41
0.8035714285714281
 76
     4
 10
3.243308674790359
 20
1.493962052018569
 30
0.0
 10
3.736850623704027
 20
0.4643572735431471
 30
0.0
 10
3.858178390499978
 20
0.7180202171879806
 30
0.0
 10
4.06774450795948
 20
0.7180202171879806
 30
0.0
  0
MTEXT
  5
368
330
2
100
AcDbEntity
  8
DIMENSION
 62
     7
100
AcDbMText
 10
4.218646214553908
 20
0.771974953378436
 30
0.0
 40
0.125
 41
0.0
 71
     4
 72
     1
  1
GASKETS
 73
     1
 44
1.0
1001
ACAD
1000
MTEXTBEGIN
1070
    73
1070
     1
1070
    44
1040
1.0
1070
    74
1070
     0
1000
MTEXTEND
  0
MTEXT
  5
369
102
{ACAD_REACTORS
330
36B
102
}
330
2
100
AcDbEntity
  8
DIMENSION
 62
     7
100
AcDbMText
 10
4.035636707267623
 20
3.668732189261144
 30
0.0
 40
0.125
 41
0.0
 71
     4
 72
     1
  1
HOUSING
 73
     1
 44
1.0
1001
ACAD
1000
MTEXTBEGIN
1070
    73
1070
     1
1070
    44
1040
1.0
1070
    74
1070
     0
1000
MTEXTEND
  0
LEADER
  5
36A
330
2
100
AcDbEntity
  8
DIMENSION
 62
     7
100
AcDbLeader
  3
Standard
 72
     1
 76
     4
 10
2.47572170480265
 20
2.171527417317821
 30
0.0
 10
1.937775070307067
 20
3.271775740399281
 30
0.0
 10
1.864418739844004
 20
2.90502631159617
 30
0.0
 10
1.534315094435376
 20
3.381800543369723
 30
0.0
  0
LEADER
  5
36B
330
2
100
AcDbEntity
  8
DIMENSION
 62
     7
100
AcDbLeader
  3
Standard
 72
     1
 73
     0
 74
     0
 40
0.125
 41
0.7797619047619046
 76
     4
 10
3.250759483043109
 20
2.830541608813926
 30
0.0
 10
3.625772602002157
 20
3.944452791340519
 30
0.0
 10
3.7581301477881
 20
3.668732189261144
 30
0.0
 10
3.945636707267622
 20
3.668732189261144
 30
0.0
340
369
  0
LEADER
  5
36C
330
2
100
AcDbEntity
  8
DIMENSION
 62
     7
100
AcDbLeader
  3
Standard
 72
     1
 73
     0
 74
     0
 40
0.125
 41
0.8035714285714281
 76
     4
 10
4.551586648435583
 20
2.147360292179929
 30
0.0
 10
5.033622814380108
 20
1.840120248530013
 30
0.0
 10
5.166456364145203
 20
1.371418457349339
 30
0.0
 10
5.376022481604706
 20
1.371418457349339
 30
0.0
  0
MTEXT
  5
36D
330
2
100
AcDbEntity
  8
DIMENSION
 62
     7
100
AcDbMText
 10
5.925669465209405
 20
1.522817924179842
 30
0.0
 40
0.125
 41
0.0
 71
     2
 72
     1
  1
TERMINAL \PBLOCK
 73
     1
 44
1.0
1001
ACAD
1000
MTEXTBEGIN
1070
    73
1070
     1
1070
    44
1040
1.0
1070
    74
1070
     0
1000
MTEXTEND
  0
LINE
  5
36E
330
2
100
AcDbEntity
  8
10
100
AcDbLine
 10
7.608311076892292
 20
-0.4167970680524915
 30
0.0
 11
12.35440485196385
 21
-0.4167970680524915
 31
0.0
  0
MTEXT
  5
36F
330
2
100
AcDbEntity
  8
10
 62
     7
100
AcDbMText
 10
12.98343611574139
 20
1.13969024147342
 30
0.0
 40
0.055
 41
0.0
 71
     2
 72
     5
  1
{\fArial|b0|i0|c0|p34;\LTOLERANCE:\P\P\l  .XX +/- 0.02\P .XXX +/- 0.005\P.XXXX +/- 0.001\PANGLES +/- 0.5 DEG\P\PUNLESS OTHERWISE \PSPECIFIED}
 73
     1
 44
1.0
1001
ACAD
1000
MTEXTBEGIN
1070
    73
1070
     1
1070
    44
1040
1.0
1070
    74
1070
     0
1000
MTEXTEND
  0
MTEXT
  5
370
102
{ACAD_XDICTIONARY
360
8CE
102
}
330
2
100
AcDbEntity
  8
10
 62
     7
100
AcDbMText
 10
13.83073846248614
 20
0.5760396010696374
 30
0.0
 40
0.06
 41
2.47377405023723
 71
     1
 72
     5
  1
{\fArial|b0|i0|c0|p34;P.O. BOX 496        BEAVER, PA 15009         \C256;www.c3controls.com}
 73
     1
 44
1.0
1001
ACAD
1000
MTEXTBEGIN
1070
    73
1070
     1
1070
    44
1040
1.0
1070
    74
1070
     0
1000
MTEXTEND
  0
LINE
  5
371
330
2
100
AcDbEntity
  8
0
100
AcDbLine
 10
13.55440485196385
 20
0.483202931947509
 30
0.0
 11
16.55440485196385
 21
0.483202931947509
 31
0.0
  0
MTEXT
  5
372
330
2
100
AcDbEntity
  8
0
100
AcDbMText
 10
12.96231432669897
 20
-0.057992751162808
 30
0.0
 40
0.06
 41
1.192090525264875
 71
     5
 72
     5
  1
{\fArial|b0|i0|c0|p34;\C7;This drawing is the property of \C5;c3\C7;controls.  The drawing may not be copied, used or disclosed, for any purpose except as authorized in writing by \C5;c3\C7;controls.}
  7
ADESK1
 73
     1
 44
1.0
1001
ACAD
1000
MTEXTBEGIN
1070
    73
1070
     1
1070
    44
1040
1.0
1070
    74
1070
     0
1000
MTEXTEND
  0
LINE
  5
374
330
2
100
AcDbEntity
  8
0
100
AcDbLine
 10
16.55440485196385
 20
-0.1167970680524908
 30
0.0
 11
13.55440485196385
 21
-0.1167970680524908
 31
0.0
  0
LINE
  5
375
330
2
100
AcDbEntity
  8
0
100
AcDbLine
 10
12.35440485196385
 20
-0.4167970680524915
 30
0.0
 11
16.55440485196385
 21
-0.4167970680524915
 31
0.0
  0
MTEXT
  5
376
330
2
100
AcDbEntity
  8
0
100
AcDbMText
 10
13.58421655054477
 20
0.4561109650912158
 30
0.0
 40
0.054
 41
0.5195326864819805
 71
     1
 72
     5
  1
{\fArial|b0|i0|c0|p34;\LDescription\l:}
  7
ADESK1
 73
     1
 44
1.0
1001
ACAD
1000
MTEXTBEGIN
1070
    73
1070
     1
1070
    44
1040
1.0
1070
    74
1070
     0
1000
MTEXTEND
  0
LINE
  5
377
330
2
100
AcDbEntity
  8
0
100
AcDbLine
 10
15.05440485196385
 20
-0.4167970680524915
 30
0.0
 11
13.55440485196385
 21
-0.4167970680524915
 31
0.0
  0
MTEXT
  5
378
330
2
100
AcDbEntity
  8
0
100
AcDbMText
 10
13.58344143768133
 20
-0.3079598403552088
 30
0.0
 40
0.055
 41
0.2305161642942522
 71
     1
 72
     5
  1
{\fArial|b0|i0|c0|p34;\LDate\l:}
  7
ADESK1
 73
     1
 44
1.0
1001
ACAD
1000
MTEXTBEGIN
1070
    73
1070
     1
1070
    44
1040
1.0
1070
    74
1070
     0
1000
MTEXTEND
  0
LINE
  5
379
330
2
100
AcDbEntity
  8
0
100
AcDbLine
 10
13.55440485196385
 20
-0.1167970680524908
 30
0.0
 11
13.55440485196385
 21
0.0332029319475096
 31
0.0
  0
MTEXT
  5
37A
330
2
100
AcDbEntity
  8
0
100
AcDbMText
 10
13.57901844506102
 20
-0.1579994990506668
 30
0.0
 40
0.054
 41
0.4498542249200398
 71
     1
 72
     5
  1
{\fArial|b0|i0|c0|p34;\LDrawn By\l:}
  7
ADESK1
 73
     1
 44
1.0
1001
ACAD
1000
MTEXTBEGIN
1070
    73
1070
     1
1070
    44
1040
1.0
1070
    74
1070
     0
1000
MTEXTEND
  0
LINE
  5
37B
330
2
100
AcDbEntity
  8
0
100
AcDbLine
 10
12.35440485196385
 20
0.3332029319475085
 30
0.0
 11
13.55440485196385
 21
0.3332029319475085
 31
0.0
  0
MTEXT
  5
37C
330
2
100
AcDbEntity
  8
0
100
AcDbMText
 10
14.47258541849501
 20
-0.3076552822846024
 30
0.0
 40
0.055
 41
0.1982186059385043
 71
     1
 72
     5
  1
{\fArial|b0|i0|c0|p34;\LScale\l:}
  7
ADESK1
 73
     1
 44
1.0
1001
ACAD
1000
MTEXTBEGIN
1070
    73
1070
     1
1070
    44
1040
1.0
1070
    74
1070
     0
1000
MTEXTEND
  0
MTEXT
  5
37D
330
2
100
AcDbEntity
  8
0
100
AcDbMText
 10
15.08154954657893
 20
-0.1471361660500863
 30
0.0
 40
0.055
 41
0.7823141308883294
 71
     1
 72
     5
  1
{\fArial|b0|i0|c0|p34;\LDrawing Number\l:}
  7
ADESK1
 73
     1
 44
1.0
1001
ACAD
1000
MTEXTBEGIN
1070
    73
1070
     1
1070
    44
1040
1.0
1070
    74
1070
     0
1000
MTEXTEND
  0
LINE
  5
37E
330
2
100
AcDbEntity
  8
0
100
AcDbLine
 10
12.35440485196385
 20
1.158202931947507
 30
0.0
 11
12.35440485196385
 21
-0.4167970680524915
 31
0.0
  0
LINE
  5
37F
330
2
100
AcDbEntity
  8
0
100
AcDbLine
 10
12.35440485196385
 20
1.158202931947507
 30
0.0
 11
16.55440485196385
 21
1.158202931947512
 31
0.0
  0
LINE
  5
380
330
2
100
AcDbEntity
  8
0
100
AcDbLine
 10
16.55440485196385
 20
1.158202931947512
 30
0.0
 11
16.55440485196385
 21
-0.4167970680524915
 31
0.0
  0
LINE
  5
381
330
2
100
AcDbEntity
  8
0
100
AcDbLine
 10
13.55440485196385
 20
1.158202931947507
 30
0.0
 11
13.55440485196385
 21
-0.4167970680524915
 31
0.0
  0
LINE
  5
382
330
2
100
AcDbEntity
  8
0
100
AcDbLine
 10
15.05440485196385
 20
-0.1167970680524908
 30
0.0
 11
15.05440485196385
 21
-0.4167970680524915
 31
0.0
  0
LINE
  5
383
330
2
100
AcDbEntity
  8
0
100
AcDbLine
 10
13.55440485196385
 20
-0.2667970680524911
 30
0.0
 11
15.05440485196385
 21
-0.2667970680524911
 31
0.0
  0
MTEXT
  5
384
330
2
100
AcDbEntity
  8
0
100
AcDbMText
 10
13.95874684039489
 20
-0.1587087874234472
 30
0.0
 40
0.07
 41
1.095658011568954
 71
     1
 72
     5
  1
{\fArial|b0|i0|c0|p34;RCG}
  7
ADESK1
 73
     1
 44
1.0
1001
ACAD
1000
MTEXTBEGIN
1070
    73
1070
     1
1070
    44
1040
1.0
1070
    74
1070
     0
1000
MTEXTEND
  0
MTEXT
  5
385
330
2
100
AcDbEntity
  8
0
100
AcDbMText
 10
13.79300331473688
 20
-0.3089756162039903
 30
0.0
 40
0.07
 41
0.446961885484393
 71
     1
 72
     5
  1
{\fArial|b0|i0|c0|p34;10-05-2001}
  7
ADESK1
 73
     1
 44
1.0
1001
ACAD
1000
MTEXTBEGIN
1070
    73
1070
     1
1070
    44
1040
1.0
1070
    74
1070
     0
1000
MTEXTEND
  0
MTEXT
  5
386
330
2
100
AcDbEntity
  8
0
100
AcDbMText
 10
13.60053594329605
 20
0.3240767595829803
 30
0.0
 40
0.075
 41
2.953868908667801
 71
     1
 72
     5
  1
{\fArial|b0|i0|c0|p34;30MM PRODUCT LINE POTENTIOMETER WITH TERMINAL BLOCK ATTACHMENT DATA SHEET}
  7
ADESK1
 73
     1
 44
1.0
1001
ACAD
1000
MTEXTBEGIN
1070
    73
1070
     1
1070
    44
1040
1.0
1070
    74
1070
     0
1000
MTEXTEND
  0
MTEXT
  5
387
330
2
100
AcDbEntity
  8
0
100
AcDbMText
 10
15.80187619608246
 20
-0.319596591753565
 30
0.0
 40
0.15
 41
0.8962278364401129
 71
     5
 72
     5
  1
{\fArial|b0|i0|c0|p34;WC100089}
  7
ADESK1
 73
     1
 44
1.0
1001
ACAD
1000
MTEXTBEGIN
1070
    73
1070
     1
1070
    44
1040
1.0
1070
    74
1070
     0
1000
MTEXTEND
  0
MTEXT
  5
388
330
2
100
AcDbEntity
  8
0
100
AcDbMText
 10
14.87491191276481
 20
-0.3434871517573912
 30
0.0
 40
0.07
 41
0.2236162507127097
 71
     5
 72
     5
  1
{\fArial|b0|i0|c0|p34;1:1}
  7
ADESK1
 73
     1
 44
1.0
1001
ACAD
1000
MTEXTBEGIN
1070
    73
1070
     1
1070
    44
1040
1.0
1070
    74
1070
     0
1000
MTEXTEND
  0
LINE
  5
389
330
2
100
AcDbEntity
  8
0
100
AcDbLine
 10
14.45440485196385
 20
-0.2667970680524911
 30
0.0
 11
14.45440485196385
 21
-0.4167970680524915
 31
0.0
  0
LINE
  5
38A
330
2
100
AcDbEntity
  8
0
100
AcDbLine
 10
13.55440485196385
 20
1.158202931947507
 30
0.0
 11
16.55440485196385
 21
1.158202931947512
 31
0.0
  0
IMAGE
  5
38B
330
2
100
AcDbEntity
  8
0
 92
      140
310
8C00000001000000840000000600000005000000065E5A4F43C92B40F8E51283C30FE43F0000000000000000065E5A4F43C92B40B3F06655A487F13F000000000000000059AC3A4C39373040B3F06655A487F13F000000000000000059AC3A4C39373040F8E51283C30FE43F0000000000000000065E5A4F43C92B40F8E512
310
83C30FE43F0000000000000000
100
AcDbRasterImage
 90
        0
 10
13.8930916593372
 20
0.6269242820773675
 30
0.0
 11
0.0104153649562928
 21
0.0
 31
0.0
 12
0.0
 22
0.0104153649562928
 32
0.0
 13
223.0
 23
45.0
340
38C
 70
     7
280
     0
281
    50
282
    50
283
     0
360
38E
 71
     1
 91
        2
 14
-0.5
 24
-0.5
 14
222.5
 24
44.5
  0
MTEXT
  5
38F
330
2
100
AcDbEntity
  8
0
100
AcDbMText
 10
13.84069052626487
 20
6.94467006538279
 30
0.0
 40
0.1875
 41
0.3163549234205476
 71
     5
 72
     5
  1
{\fArial|b0|i0|c0|p34;\C256;1}
 73
     1
 44
1.0
1001
ACAD
1000
MTEXTBEGIN
1070
    73
1070
     1
1070
    44
1040
1.0
1070
    74
1070
     0
1000
MTEXTEND
  0
MTEXT
  5
390
330
2
100
AcDbEntity
  8
0
100
AcDbMText
 10
15.89334354609809
 20
5.782631819818742
 30
0.0
 40
0.1875
 41
0.3163549234205476
 71
     5
 72
     5
  1
{\fArial|b0|i0|c0|p34;2}
 73
     1
 44
1.0
1001
ACAD
1000
MTEXTBEGIN
1070
    73
1070
     1
1070
    44
1040
1.0
1070
    74
1070
     0
1000
MTEXTEND
  0
MTEXT
  5
391
330
2
100
AcDbEntity
  8
0
100
AcDbMText
 10
14.61069052626487
 20
6.94967006538279
 30
0.0
 40
0.1875
 41
0.3163549234205476
 71
     5
 72
     5
  1
{\fArial|b0|i0|c0|p34;3}
 73
     1
 44
1.0
1001
ACAD
1000
MTEXTBEGIN
1070
    73
1070
     1
1070
    44
1040
1.0
1070
    74
1070
     0
1000
MTEXTEND
  0
LINE
  5
392
330
2
100
AcDbEntity
  8
0
100
AcDbLine
 10
12.53826729859889
 20
4.873681949522222
 30
0.0
 11
12.78826729859889
 21
4.873681949522222
 31
0.0
  0
LINE
  5
393
330
2
100
AcDbEntity
  8
0
100
AcDbLine
 10
12.78826729859889
 20
4.873681949522222
 30
0.0
 11
12.91326729859889
 21
5.123681949522222
 31
0.0
  0
LINE
  5
394
330
2
100
AcDbEntity
  8
0
100
AcDbLine
 10
12.91326729859889
 20
5.123681949522222
 30
0.0
 11
13.03826729859889
 21
4.623681949522222
 31
0.0
  0
LINE
  5
395
330
2
100
AcDbEntity
  8
0
100
AcDbLine
 10
13.03826729859889
 20
4.623681949522222
 30
0.0
 11
13.16326729859889
 21
5.123681949522222
 31
0.0
  0
LINE
  5
396
330
2
100
AcDbEntity
  8
0
100
AcDbLine
 10
13.16326729859889
 20
5.123681949522222
 30
0.0
 11
13.28826729859889
 21
4.623681949522222
 31
0.0
  0
LINE
  5
397
330
2
100
AcDbEntity
  8
0
100
AcDbLine
 10
13.28826729859889
 20
4.623681949522222
 30
0.0
 11
13.41326729859889
 21
5.123681949522222
 31
0.0
  0
LINE
  5
398
330
2
100
AcDbEntity
  8
0
100
AcDbLine
 10
13.41326729859889
 20
5.123681949522222
 30
0.0
 11
13.53826729859889
 21
4.623681949522222
 31
0.0
  0
LINE
  5
399
330
2
100
AcDbEntity
  8
0
100
AcDbLine
 10
13.53826729859889
 20
4.623681949522222
 30
0.0
 11
13.66326729859889
 21
5.123681949522222
 31
0.0
  0
LINE
  5
39A
330
2
100
AcDbEntity
  8
0
100
AcDbLine
 10
13.66326729859889
 20
5.123681949522222
 30
0.0
 11
13.78826729859889
 21
4.623681949522222
 31
0.0
  0
LINE
  5
39B
330
2
100
AcDbEntity
  8
0
100
AcDbLine
 10
13.78826729859889
 20
4.623681949522222
 30
0.0
 11
13.91326729859889
 21
5.123681949522222
 31
0.0
  0
LINE
  5
39C
330
2
100
AcDbEntity
  8
0
100
AcDbLine
 10
13.91326729859889
 20
5.123681949522222
 30
0.0
 11
14.03826729859889
 21
4.623681949522222
 31
0.0
  0
LINE
  5
39D
330
2
100
AcDbEntity
  8
0
100
AcDbLine
 10
14.03826729859889
 20
4.623681949522222
 30
0.0
 11
14.16326729859889
 21
5.123681949522222
 31
0.0
  0
LINE
  5
39E
330
2
100
AcDbEntity
  8
0
100
AcDbLine
 10
14.16326729859889
 20
5.123681949522222
 30
0.0
 11
14.28826729859889
 21
4.623681949522222
 31
0.0
  0
LINE
  5
39F
330
2
100
AcDbEntity
  8
0
100
AcDbLine
 10
14.28826729859889
 20
4.623681949522222
 30
0.0
 11
14.41326729859889
 21
5.123681949522222
 31
0.0
  0
LINE
  5
3A0
330
2
100
AcDbEntity
  8
0
100
AcDbLine
 10
14.41326729859889
 20
5.123681949522222
 30
0.0
 11
14.53826729859889
 21
4.623681949522222
 31
0.0
  0
LINE
  5
3A1
330
2
100
AcDbEntity
  8
0
100
AcDbLine
 10
14.53826729859889
 20
4.623681949522222
 30
0.0
 11
14.66326729859889
 21
5.123681949522222
 31
0.0
  0
LINE
  5
3A2
330
2
100
AcDbEntity
  8
0
100
AcDbLine
 10
14.66326729859889
 20
5.123681949522222
 30
0.0
 11
14.78826729859889
 21
4.623681949522222
 31
0.0
  0
LINE
  5
3A3
330
2
100
AcDbEntity
  8
0
100
AcDbLine
 10
14.78826729859889
 20
4.623681949522222
 30
0.0
 11
14.91326729859889
 21
5.123681949522222
 31
0.0
  0
LINE
  5
3A4
330
2
100
AcDbEntity
  8
0
100
AcDbLine
 10
14.91326729859889
 20
5.123681949522222
 30
0.0
 11
15.03826729859889
 21
4.623681949522222
 31
0.0
  0
LINE
  5
3A5
330
2
100
AcDbEntity
  8
0
100
AcDbLine
 10
15.03826729859889
 20
4.623681949522222
 30
0.0
 11
15.16326729859889
 21
5.123681949522222
 31
0.0
  0
LINE
  5
3A6
330
2
100
AcDbEntity
  8
0
100
AcDbLine
 10
15.16326729859889
 20
5.123681949522222
 30
0.0
 11
15.28826729859889
 21
4.623681949522222
 31
0.0
  0
LINE
  5
3A7
330
2
100
AcDbEntity
  8
0
100
AcDbLine
 10
15.28826729859889
 20
4.623681949522222
 30
0.0
 11
15.41326729859889
 21
5.123681949522222
 31
0.0
  0
LINE
  5
3A8
330
2
100
AcDbEntity
  8
0
100
AcDbLine
 10
15.41326729859889
 20
5.123681949522222
 30
0.0
 11
15.53826729859889
 21
4.623681949522222
 31
0.0
  0
LINE
  5
3A9
330
2
100
AcDbEntity
  8
0
100
AcDbLine
 10
15.53826729859889
 20
4.623681949522222
 30
0.0
 11
15.66326729859889
 21
5.123681949522222
 31
0.0
  0
LINE
  5
3AA
330
2
100
AcDbEntity
  8
0
100
AcDbLine
 10
15.66326729859889
 20
5.123681949522222
 30
0.0
 11
15.78826729859889
 21
4.623681949522222
 31
0.0
  0
LINE
  5
3AB
330
2
100
AcDbEntity
  8
0
100
AcDbLine
 10
15.78826729859889
 20
4.623681949522222
 30
0.0
 11
15.91326729859889
 21
5.123681949522222
 31
0.0
  0
LINE
  5
3AC
330
2
100
AcDbEntity
  8
0
100
AcDbLine
 10
16.28826729859889
 20
4.873681949522222
 30
0.0
 11
16.03826729859889
 21
4.873681949522222
 31
0.0
  0
LINE
  5
3AD
330
2
100
AcDbEntity
  8
0
100
AcDbLine
 10
16.03826729859889
 20
4.873681949522222
 30
0.0
 11
15.91326729859889
 21
5.123681949522222
 31
0.0
  0
CIRCLE
  5
3AE
330
2
100
AcDbEntity
  8
0
100
AcDbCircle
 10
12.53826729859889
 20
4.873681949522222
 30
0.0
 40
0.0625
  0
CIRCLE
  5
3AF
330
2
100
AcDbEntity
  8
0
100
AcDbCircle
 10
16.28826729859889
 20
4.873681949522222
 30
0.0
 40
0.0625
  0
HATCH
  5
3B0
330
2
100
AcDbEntity
  8
0
100
AcDbHatch
 10
0.0
 20
0.0
 30
0.0
210
0.0
220
0.0
230
1.0
  2
SOLID
 70
     1
 71
     0
 91
        2
 92
        7
 72
     1
 73
     1
 93
        2
 10
12.60076729859889
 20
4.873681949522222
 42
1.0
 10
12.47576729859889
 20
4.873681949522222
 42
1.0
 97
        0
 92
        7
 72
     1
 73
     1
 93
        2
 10
16.35076729859889
 20
4.873681949522222
 42
1.0
 10
16.22576729859889
 20
4.873681949522222
 42
1.0
 97
        0
 75
     0
 76
     1
 47
0.004847388811527
 98
        2
 10
12.54110814396491
 20
4.845264566133798
 10
16.3035749723358
 20
4.840417195510106
  0
MTEXT
  5
3B1
330
2
100
AcDbEntity
  8
0
100
AcDbMText
 10
12.52522202525606
 20
5.180426726275136
 30
0.0
 40
0.1875
 41
0.3163549234205476
 71
     5
 72
     5
  1
{\fArial|b0|i0|c0|p34;\C256;1}
 73
     1
 44
1.0
1001
ACAD
1000
MTEXTBEGIN
1070
    73
1070
     1
1070
    44
1040
1.0
1070
    74
1070
     0
1000
MTEXTEND
  0
MTEXT
  5
3B2
330
2
100
AcDbEntity
  8
0
100
AcDbMText
 10
16.28440169820562
 20
5.137788149530471
 30
0.0
 40
0.1875
 41
0.3163549234205476
 71
     5
 72
     5
  1
{\fArial|b0|i0|c0|p34;3}
 73
     1
 44
1.0
1001
ACAD
1000
MTEXTBEGIN
1070
    73
1070
     1
1070
    44
1040
1.0
1070
    74
1070
     0
1000
MTEXTEND
  0
MTEXT
  5
3B3
330
2
100
AcDbEntity
  8
0
100
AcDbMText
 10
16.28070197454712
 20
4.534617357307126
 30
0.0
 40
0.1875
 41
0.3163549234205476
 71
     5
 72
     5
  1
{\fArial|b0|i0|c0|p34;0}
 73
     1
 44
1.0
1001
ACAD
1000
MTEXTBEGIN
1070
    73
1070
     1
1070
    44
1040
1.0
1070
    74
1070
     0
1000
MTEXTEND
  0
MTEXT
  5
3B4
330
2
100
AcDbEntity
  8
0
100
AcDbMText
 10
12.52522202525606
 20
4.578131900847253
 30
0.0
 40
0.1875
 41
0.3163549234205476
 71
     5
 72
     5
  1
{\fArial|b0|i0|c0|p34;\U+2126}
 73
     1
 44
1.0
1001
ACAD
1000
MTEXTBEGIN
1070
    73
1070
     1
1070
    44
1040
1.0
1070
    74
1070
     0
1000
MTEXTEND
  0
LEADER
  5
3B5
330
2
100
AcDbEntity
  8
0
100
AcDbLeader
  3
Standard
 76
     2
 10
15.6718987581707
 20
4.534617357307126
 30
0.0
 10
16.07776756908831
 20
4.534617357307126
 30
0.0
1001
ACAD
1000
DSTYLE
1002
{
1070
   147
1040
0.09
1070
    77
1070
     0
1002
}
  0
SOLID
  5
3B6
330
2
100
AcDbEntity
  8
0
370
    30
100
AcDbTrace
 10
15.93492283074249
 20
5.316168588024368
 30
0.0
 11
15.91408949740916
 21
5.191168588024368
 31
0.0
 12
15.89325616407582
 22
5.316168588024368
 32
0.0
 13
15.89325616407582
 23
5.316168588024368
 33
0.0
1001
ACAD
1000
DSTYLE
1002
{
1070
   147
1040
0.09
1070
    77
1070
     0
1002
}
  0
LWPOLYLINE
  5
3B7
330
2
100
AcDbEntity
  8
0
370
    30
100
AcDbPolyline
 90
        2
 70
     0
 43
0.0
 10
15.91408949740916
 20
5.316168588024368
 10
15.91408949740916
 20
5.602505968810362
1001
ACAD
1000
DSTYLE
1002
{
1070
   147
1040
0.09
1070
    77
1070
     0
1002
}
  0
CIRCLE
  5
3B8
330
2
100
AcDbEntity
  8
0
100
AcDbCircle
 10
15.91408949740916
 20
5.602505968810362
 30
0.0
 40
0.0625
  0
HATCH
  5
3B9
330
2
100
AcDbEntity
  8
0
100
AcDbHatch
 10
0.0
 20
0.0
 30
0.0
210
0.0
220
0.0
230
1.0
  2
SOLID
 70
     1
 71
     0
 91
        1
 92
        7
 72
     1
 73
     1
 93
        2
 10
15.97658949740916
 20
5.602505968810362
 42
1.0
 10
15.85158949740916
 20
5.602505968810362
 42
1.0
 97
        0
 75
     0
 76
     1
 47
0.0035641382793842
 98
        1
 10
15.96690873178884
 20
5.593510640274231
  0
MTEXT
  5
3BA
330
2
100
AcDbEntity
  8
0
100
AcDbMText
 10
14.22569052626486
 20
6.94467006538279
 30
0.0
 40
0.1875
 41
0.3163549234205476
 71
     5
 72
     5
  1
{\fArial|b0|i0|c0|p34;2}
 73
     1
 44
1.0
1001
ACAD
1000
MTEXTBEGIN
1070
    73
1070
     1
1070
    44
1040
1.0
1070
    74
1070
     0
1000
MTEXTEND
  0
TEXT
  5
3BB
330
2
100
AcDbEntity
  8
DIMENSION
 62
     7
100
AcDbText
 10
7.651115270061701
 20
2.204941381211636
 30
0.0
 40
0.125
  1
REMOVE ONE ADDITIONAL GASKET
100
AcDbText
  0
TEXT
  5
3BC
330
2
100
AcDbEntity
  8
DIMENSION
 62
     7
100
AcDbText
 10
7.651115270061701
 20
2.038274714544971
 30
0.0
 40
0.125
  1
WHEN USING A LEGEND PLATE
100
AcDbText
  0
TEXT
  5
3BD
330
2
100
AcDbEntity
  8
DIMENSION
 62
     7
100
AcDbText
 10
7.651115270061701
 20
3.134789181283538
 30
0.0
 40
0.125
  1
1/16"                      4
100
AcDbText
  0
TEXT
  5
3BE
330
2
100
AcDbEntity
  8
DIMENSION
 62
     7
100
AcDbText
 10
7.651115270061701
 20
2.900562397867362
 30
0.0
 40
0.125
  1
1/8"                       3
100
AcDbText
  0
TEXT
  5
3BF
330
2
100
AcDbEntity
  8
DIMENSION
 62
     7
100
AcDbText
 10
7.651115270061701
 20
2.70494138121164
 30
0.0
 40
0.125
  1
3/16"                      2
100
AcDbText
  0
TEXT
  5
3C0
330
2
100
AcDbEntity
  8
DIMENSION
 62
     7
100
AcDbText
 10
7.651115270061701
 20
2.470714597795465
 30
0.0
 40
0.125
  1
1/4"                       1
100
AcDbText
  0
TEXT
  5
3C1
330
2
100
AcDbEntity
  8
DIMENSION
 62
     7
100
AcDbText
 10
7.651115270061701
 20
3.756824200270748
 30
0.0
 40
0.125
  1
TABLE 1- MOUNTING GASKETS
100
AcDbText
  0
LINE
  5
3C2
330
2
100
AcDbEntity
  8
DIMENSION
 62
     7
100
AcDbLine
 10
7.55428460330595
 20
3.367964801256868
 30
0.0
 11
11.0641286624824
 21
3.367964801256868
 31
0.0
  0
TEXT
  5
3C3
330
2
100
AcDbEntity
  8
DIMENSION
 62
     7
100
AcDbText
 10
7.651115270061701
 20
3.423490866937419
 30
0.0
 40
0.125
  1
PANEL THICKNESS           GASKETS*
100
AcDbText
  0
TEXT
  5
3C4
330
2
100
AcDbEntity
  8
DIMENSION
 62
     7
100
AcDbText
 10
7.478786417034211
 20
2.197442494316915
 30
0.0
 40
0.125
  1
*
100
AcDbText
  0
ARC
  5
3C5
330
2
100
AcDbEntity
  8
0
100
AcDbCircle
 10
13.01699381952365
 20
3.167842114091428
 30
0.0
 40
1.0
100
AcDbArc
 50
290.0
 51
249.9999999999999
  0
SOLID
  5
3C6
330
2
100
AcDbEntity
  8
0
370
    30
100
AcDbTrace
 10
13.81372691218185
 20
2.452159712165886
 30
0.0
 11
13.35901396284944
 21
2.228149493305548
 31
0.0
 12
13.71649587096593
 22
2.58752552174071
 32
0.0
 13
13.71649587096593
 23
2.58752552174071
 33
0.0
1001
ACAD
1000
DSTYLE
1002
{
1070
   147
1040
0.09
1070
    77
1070
     0
1002
}
  0
MTEXT
  5
3C7
330
2
100
AcDbEntity
  8
0
100
AcDbMText
 10
13.01699381952365
 20
3.167842114091428
 30
0.0
 40
0.125
 41
1.589631670667911
 71
     5
 72
     5
  1
{\fArial|b0|i0|c0|p34;CLOCKWISE KNOB ROTATION AS SEEN FROM THE FRONT OF THE PANEL}
 73
     1
 44
1.0
1001
ACAD
1000
MTEXTBEGIN
1070
    73
1070
     1
1070
    44
1040
1.0
1070
    74
1070
     0
1000
MTEXTEND
  0
MTEXT
  5
3C8
330
2
100
AcDbEntity
  8
0
100
AcDbMText
 10
14.34092109266664
 20
4.083673520568531
 30
0.0
 40
0.125
 41
2.046511057869679
 71
     1
 72
     5
  3
{\fArial|b0|i0|c0|p34;2 IS THE COMMON \P\P1 \fArial|b0|i0|c0|p32;\U+2192\fArial|b0|i0|c0|p34; 2 IS DECREASING RESISTANCE (\U+2193 \U+2126)\P\P3 \fArial|b0|i0|c0|p32;\U+2192 2 IS INCREASING RESISTANCE (\U+2191\fMS Shell Dlg|b0|i0|c0|p32;\H0.6522x; \H1
  1
.533x;\U+2126)}
 73
     1
 44
1.0
1001
ACAD
1000
MTEXTBEGIN
1070
    73
1070
     1
1070
    44
1040
1.0
1070
    74
1070
     0
1000
MTEXTEND
  0
LINE
  5
3C9
330
2
100
AcDbEntity
  8
AM_VIS
100
AcDbLine
 10
3.567261426776353
 20
7.55543812863317
 30
0.0
 11
3.567261426776353
 21
7.603497226713107
 31
0.0
  0
LINE
  5
3CA
330
2
100
AcDbEntity
  8
AM_VIS
100
AcDbLine
 10
3.587261426776353
 20
7.623497226713106
 30
0.0
 11
3.705182597976353
 21
7.623497226713106
 31
0.0
  0
LINE
  5
3CB
330
2
100
AcDbEntity
  8
AM_VIS
100
AcDbLine
 10
3.725182597976356
 20
7.603497226713106
 30
0.0
 11
3.725182597976356
 21
7.55543812863317
 31
0.0
  0
LINE
  5
3CC
330
2
100
AcDbEntity
  8
AM_VIS
100
AcDbLine
 10
4.044060410626661
 20
7.445392833113103
 30
0.0
 11
4.087453892376359
 21
7.445392833113103
 31
0.0
  0
LINE
  5
3CD
330
2
100
AcDbEntity
  8
AM_VIS
100
AcDbLine
 10
4.089453892376356
 20
7.447392833113104
 30
0.0
 11
4.089453892376356
 21
7.603497226713107
 31
0.0
  0
LINE
  5
3CE
330
2
100
AcDbEntity
  8
AM_VIS
100
AcDbLine
 10
4.109453892376357
 20
7.623497226713108
 30
0.0
 11
4.34241185237635
 21
7.623497226713108
 31
0.0
  0
LINE
  5
3CF
330
2
100
AcDbEntity
  8
AM_VIS
100
AcDbLine
 10
4.432565932376355
 20
7.533343146713106
 30
0.0
 11
4.432565932376355
 21
6.085869306713105
 31
0.0
  0
LINE
  5
3D0
330
2
100
AcDbEntity
  8
AM_VIS
100
AcDbLine
 10
4.342411852376353
 20
5.995715226713106
 30
0.0
 11
4.109453892376357
 21
5.995715226713106
 31
0.0
  0
LINE
  5
3D1
330
2
100
AcDbEntity
  8
AM_VIS
100
AcDbLine
 10
4.089453892376357
 20
6.015715226713107
 30
0.0
 11
4.089453892376357
 21
6.171819620313106
 31
0.0
  0
LINE
  5
3D2
330
2
100
AcDbEntity
  8
AM_VIS
100
AcDbLine
 10
4.087453892376359
 20
6.173819620313103
 30
0.0
 11
4.044060410626666
 21
6.173819620313103
 31
0.0
  0
LINE
  5
3D3
330
2
100
AcDbEntity
  8
AM_VIS
100
AcDbLine
 10
3.725182597976356
 20
6.063774324793034
 30
0.0
 11
3.725182597976356
 21
6.015715226713106
 31
0.0
  0
LINE
  5
3D4
330
2
100
AcDbEntity
  8
AM_VIS
100
AcDbLine
 10
3.705182597976356
 20
5.995715226713106
 30
0.0
 11
3.587261426776356
 21
5.995715226713106
 31
0.0
  0
LINE
  5
3D5
330
2
100
AcDbEntity
  8
AM_VIS
100
AcDbLine
 10
3.567261426776353
 20
6.015715226713106
 30
0.0
 11
3.567261426776353
 21
6.063774324793034
 31
0.0
  0
LINE
  5
3D6
330
2
100
AcDbEntity
  8
AM_VIS
100
AcDbLine
 10
3.248383614126042
 20
6.173819620313103
 30
0.0
 11
3.204990132376352
 21
6.173819620313103
 31
0.0
  0
LINE
  5
3D7
330
2
100
AcDbEntity
  8
AM_VIS
100
AcDbLine
 10
3.202990132376348
 20
6.171819620313105
 30
0.0
 11
3.202990132376348
 21
6.015715226713106
 31
0.0
  0
LINE
  5
3D8
330
2
100
AcDbEntity
  8
AM_VIS
100
AcDbLine
 10
3.182990132376353
 20
5.995715226713106
 30
0.0
 11
2.950032172376353
 21
5.995715226713106
 31
0.0
  0
LINE
  5
3D9
330
2
100
AcDbEntity
  8
AM_VIS
100
AcDbLine
 10
2.859878092376355
 20
6.085869306713102
 30
0.0
 11
2.859878092376355
 21
7.533343146713105
 31
0.0
  0
LINE
  5
3DA
330
2
100
AcDbEntity
  8
AM_VIS
100
AcDbLine
 10
2.950032172376353
 20
7.623497226713102
 30
0.0
 11
3.182990132376348
 21
7.623497226713102
 31
0.0
  0
LINE
  5
3DB
330
2
100
AcDbEntity
  8
AM_VIS
100
AcDbLine
 10
3.202990132376348
 20
7.603497226713106
 30
0.0
 11
3.202990132376348
 21
7.447392833113108
 31
0.0
  0
LINE
  5
3DC
330
2
100
AcDbEntity
  8
AM_VIS
100
AcDbLine
 10
3.204990132376348
 20
7.445392833113107
 30
0.0
 11
3.248383614126055
 21
7.445392833113107
 31
0.0
  0
LINE
  5
3DD
330
2
100
AcDbEntity
  8
AM_VIS
100
AcDbLine
 10
4.030287579695268
 20
7.453806226713101
 30
0.0
 11
4.089453892376357
 21
7.453806226713101
 31
0.0
  0
LINE
  5
3DE
330
2
100
AcDbEntity
  8
AM_VIS
100
AcDbLine
 10
4.089453892376361
 20
6.165406226713106
 30
0.0
 11
4.030287579695278
 21
6.165406226713106
 31
0.0
  0
LINE
  5
3DF
330
2
100
AcDbEntity
  8
AM_VIS
100
AcDbLine
 10
3.262156445057431
 20
6.165406226713106
 30
0.0
 11
3.202990132376348
 21
6.165406226713106
 31
0.0
  0
LINE
  5
3E0
330
2
100
AcDbEntity
  8
AM_VIS
100
AcDbLine
 10
3.202990132376348
 20
7.453806226713101
 30
0.0
 11
3.262156445057442
 21
7.453806226713101
 31
0.0
  0
ARC
  5
3E1
330
2
100
AcDbEntity
  8
AM_VIS
100
AcDbCircle
 10
3.646222012376353
 20
6.80960622671311
 30
0.0
 40
0.5475
100
AcDbArc
 50
280.8946997909482
 51
289.2741516015889
  0
ARC
  5
3E2
330
2
100
AcDbEntity
  8
AM_VIS
100
AcDbCircle
 10
3.646222012376353
 20
6.80960622671311
 30
0.0
 40
0.5475
100
AcDbArc
 50
325.8946997909482
 51
334.2741516015883
  0
ARC
  5
3E3
330
2
100
AcDbEntity
  8
AM_VIS
100
AcDbCircle
 10
3.646222012376353
 20
6.80960622671311
 30
0.0
 40
0.5475
100
AcDbArc
 50
10.89469979094758
 51
19.27415160158822
  0
ARC
  5
3E4
330
2
100
AcDbEntity
  8
AM_VIS
100
AcDbCircle
 10
3.646222012376353
 20
6.80960622671311
 30
0.0
 40
0.5475
100
AcDbArc
 50
55.89469979094747
 51
64.27415160158786
  0
ARC
  5
3E5
330
2
100
AcDbEntity
  8
AM_VIS
100
AcDbCircle
 10
3.646222012376353
 20
6.80960622671311
 30
0.0
 40
0.5475
100
AcDbArc
 50
100.8946997909478
 51
109.2741516015879
  0
ARC
  5
3E6
330
2
100
AcDbEntity
  8
AM_VIS
100
AcDbCircle
 10
3.646222012376353
 20
6.80960622671311
 30
0.0
 40
0.5475
100
AcDbArc
 50
145.8946997909479
 51
154.2741516015885
  0
ARC
  5
3E7
330
2
100
AcDbEntity
  8
AM_VIS
100
AcDbCircle
 10
3.646222012376353
 20
6.80960622671311
 30
0.0
 40
0.5475
100
AcDbArc
 50
190.8946997909481
 51
199.2741516015889
  0
ARC
  5
3E8
330
2
100
AcDbEntity
  8
AM_VIS
100
AcDbCircle
 10
3.587261426776353
 20
7.603497226713106
 30
0.0
 40
0.02
100
AcDbArc
 50
90.0
 51
180.0
  0
ARC
  5
3E9
330
2
100
AcDbEntity
  8
AM_VIS
100
AcDbCircle
 10
3.705182597976353
 20
7.603497226713106
 30
0.0
 40
0.02
100
AcDbArc
 50
0.0
 51
90.0
  0
ARC
  5
3EA
330
2
100
AcDbEntity
  8
AM_VIS
100
AcDbCircle
 10
4.087453892376357
 20
7.447392833113104
 30
0.0
 40
0.002
100
AcDbArc
 50
270.0
 51
0.0
  0
ARC
  5
3EB
330
2
100
AcDbEntity
  8
AM_VIS
100
AcDbCircle
 10
4.109453892376357
 20
7.603497226713107
 30
0.0
 40
0.02
100
AcDbArc
 50
90.0
 51
180.0
  0
ARC
  5
3EC
330
2
100
AcDbEntity
  8
AM_VIS
100
AcDbCircle
 10
4.34241185237635
 20
7.533343146713106
 30
0.0
 40
0.09015408
100
AcDbArc
 50
0.0
 51
90.0
  0
ARC
  5
3ED
330
2
100
AcDbEntity
  8
AM_VIS
100
AcDbCircle
 10
4.342411852376353
 20
6.085869306713105
 30
0.0
 40
0.09015408
100
AcDbArc
 50
270.0
 51
0.0
  0
ARC
  5
3EE
330
2
100
AcDbEntity
  8
AM_VIS
100
AcDbCircle
 10
4.109453892376353
 20
6.015715226713106
 30
0.0
 40
0.02
100
AcDbArc
 50
180.0
 51
270.0000000000102
  0
ARC
  5
3EF
330
2
100
AcDbEntity
  8
AM_VIS
100
AcDbCircle
 10
4.087453892376359
 20
6.171819620313106
 30
0.0
 40
0.002
100
AcDbArc
 50
0.0
 51
90.0
  0
ARC
  5
3F0
330
2
100
AcDbEntity
  8
AM_VIS
100
AcDbCircle
 10
3.705182597976353
 20
6.015715226713106
 30
0.0
 40
0.02
100
AcDbArc
 50
270.0000000000102
 51
0.0
  0
ARC
  5
3F1
330
2
100
AcDbEntity
  8
AM_VIS
100
AcDbCircle
 10
3.587261426776353
 20
6.015715226713102
 30
0.0
 40
0.02
100
AcDbArc
 50
179.9999999999898
 51
270.0000000000102
  0
ARC
  5
3F2
330
2
100
AcDbEntity
  8
AM_VIS
100
AcDbCircle
 10
3.204990132376352
 20
6.171819620313105
 30
0.0
 40
0.002
100
AcDbArc
 50
90.0
 51
180.0
  0
ARC
  5
3F3
330
2
100
AcDbEntity
  8
AM_VIS
100
AcDbCircle
 10
3.182990132376353
 20
6.015715226713106
 30
0.0
 40
0.02
100
AcDbArc
 50
270.0
 51
0.0
  0
ARC
  5
3F4
330
2
100
AcDbEntity
  8
AM_VIS
100
AcDbCircle
 10
2.950032172376353
 20
6.085869306713102
 30
0.0
 40
0.09015408
100
AcDbArc
 50
180.0
 51
270.0
  0
ARC
  5
3F5
330
2
100
AcDbEntity
  8
AM_VIS
100
AcDbCircle
 10
2.950032172376353
 20
7.533343146713105
 30
0.0
 40
0.09015408
100
AcDbArc
 50
90.0
 51
180.0
  0
ARC
  5
3F6
330
2
100
AcDbEntity
  8
AM_VIS
100
AcDbCircle
 10
3.182990132376348
 20
7.603497226713103
 30
0.0
 40
0.02
100
AcDbArc
 50
0.0000000000101778
 51
90.0
  0
ARC
  5
3F7
330
2
100
AcDbEntity
  8
AM_VIS
100
AcDbCircle
 10
3.204990132376348
 20
7.447392833113108
 30
0.0
 40
0.002
100
AcDbArc
 50
180.0
 51
270.0
  0
LINE
  5
3F8
330
2
100
AcDbEntity
  8
AM_VIS
100
AcDbLine
 10
3.886222012376356
 20
7.64056471646871
 30
0.0
 11
3.886222012376356
 21
7.57556471646871
 31
0.0
  0
LINE
  5
3F9
330
2
100
AcDbEntity
  8
AM_VIS
100
AcDbLine
 10
3.756222012376356
 20
7.57556471646871
 30
0.0
 11
3.756222012376356
 21
7.64056471646871
 31
0.0
  0
LINE
  5
3FA
330
2
100
AcDbEntity
  8
AM_VIS
100
AcDbLine
 10
3.536222012376357
 20
7.64056471646871
 30
0.0
 11
3.536222012376357
 21
7.57556471646871
 31
0.0
  0
LINE
  5
3FB
330
2
100
AcDbEntity
  8
AM_VIS
100
AcDbLine
 10
3.406222012376356
 20
7.57556471646871
 30
0.0
 11
3.406222012376356
 21
7.64056471646871
 31
0.0
  0
LINE
  5
3FC
330
2
100
AcDbEntity
  8
AM_VIS
100
AcDbLine
 10
3.711222012376357
 20
7.64056471646871
 30
0.0
 11
3.711222012376357
 21
7.622563570717781
 31
0.0
  0
LINE
  5
3FD
330
2
100
AcDbEntity
  8
AM_VIS
100
AcDbLine
 10
3.581222012376358
 20
7.622563570717781
 30
0.0
 11
3.581222012376358
 21
7.640564716468713
 31
0.0
  0
ARC
  5
3FE
330
2
100
AcDbEntity
  8
AM_VIS
100
AcDbCircle
 10
3.821222012376357
 20
7.57556471646871
 30
0.0
 40
0.0650000000000004
100
AcDbArc
 50
180.0000000000001
 51
202.4440213403755
  0
ARC
  5
3FF
330
2
100
AcDbEntity
  8
AM_VIS
100
AcDbCircle
 10
3.821222012376357
 20
7.57556471646871
 30
0.0
 40
0.0650000000000003
100
AcDbArc
 50
311.8168134217583
 51
0.0
  0
ARC
  5
400
330
2
100
AcDbEntity
  8
AM_VIS
100
AcDbCircle
 10
3.821222012376357
 20
7.64056471646871
 30
0.0
 40
0.0650000000000004
100
AcDbArc
 50
0.0
 51
180.0
  0
ARC
  5
401
330
2
100
AcDbEntity
  8
AM_VIS
100
AcDbCircle
 10
3.471222012376357
 20
7.57556471646871
 30
0.0
 40
0.0650000000000004
100
AcDbArc
 50
180.0
 51
228.1831865782428
  0
ARC
  5
402
330
2
100
AcDbEntity
  8
AM_VIS
100
AcDbCircle
 10
3.471222012376357
 20
7.57556471646871
 30
0.0
 40
0.0650000000000003
100
AcDbArc
 50
337.5559786596239
 51
0.0
  0
ARC
  5
403
330
2
100
AcDbEntity
  8
AM_VIS
100
AcDbCircle
 10
3.471222012376357
 20
7.64056471646871
 30
0.0
 40
0.0650000000000004
100
AcDbArc
 50
0.0
 51
180.0
  0
ARC
  5
404
330
2
100
AcDbEntity
  8
AM_VIS
100
AcDbCircle
 10
3.646222012376356
 20
7.64056471646871
 30
0.0
 40
0.0650000000000004
100
AcDbArc
 50
0.0
 51
180.0
  0
CIRCLE
  5
405
330
2
100
AcDbEntity
  8
AM_VIS
100
AcDbCircle
 10
3.646222012376353
 20
6.809606226713103
 30
0.0
 40
0.75
  0
SPLINE
  5
406
330
2
100
AcDbEntity
  8
AM_VIS
100
AcDbSpline
210
0.0
220
0.0
230
1.0
 70
     8
 71
     3
 72
     8
 73
     4
 74
     0
 42
0.0000000001
 43
0.0000000001
 40
0.1389000112756993
 40
0.1389000112756993
 40
0.1389000112756993
 40
0.1389000112756993
 40
0.1516522623428463
 40
0.1516522623428463
 40
0.1516522623428463
 40
0.1516522623428463
 10
3.930363233907696
 20
7.495583817363336
 30
0.0
 10
3.932896495346517
 20
7.494534506118236
 30
0.0
 10
3.935116339318216
 20
7.492983723902749
 30
0.0
 10
3.936851700884126
 20
7.491248362336839
 30
0.0
  0
LINE
  5
407
330
2
100
AcDbEntity
  8
AM_VIS
100
AcDbLine
 10
4.327864148000083
 20
7.10023591522088
 30
0.0
 11
3.936851700884125
 21
7.491248362336839
 31
0.0
  0
SPLINE
  5
408
330
2
100
AcDbEntity
  8
AM_VIS
100
AcDbSpline
210
0.0
220
0.0
230
1.0
 70
     8
 71
     3
 72
     8
 73
     4
 74
     0
 42
0.0000000001
 43
0.0000000001
 40
0.0
 40
0.0
 40
0.0
 40
0.0
 40
0.0127522510681388
 40
0.0127522510681388
 40
0.0127522510681388
 40
0.0127522510681388
 10
4.327864148000083
 20
7.10023591522088
 30
0.0
 10
4.329599509566127
 20
7.098500553654838
 30
0.0
 10
4.331150291781478
 20
7.096280709683518
 30
0.0
 10
4.332199603026578
 20
7.093747448244452
 30
0.0
  0
LINE
  5
409
330
2
100
AcDbEntity
  8
AM_VIS
100
AcDbLine
 10
4.332199603026578
 20
7.09374744824445
 30
0.0
 11
4.293722012376353
 21
7.077809508349687
 31
0.0
  0
SPLINE
  5
40A
330
2
100
AcDbEntity
  8
AM_VIS
100
AcDbSpline
210
0.0
220
0.0
230
1.0
 70
     8
 71
     3
 72
     8
 73
     4
 74
     0
 42
0.0000000001
 43
0.0000000001
 40
0.1389000112756999
 40
0.1389000112756999
 40
0.1389000112756999
 40
0.1389000112756999
 40
0.1516522623428479
 40
0.1516522623428479
 40
0.1516522623428479
 40
0.1516522623428479
 10
4.332199603026578
 20
7.093747448244452
 30
0.0
 10
4.333248914271504
 20
7.091214186805558
 30
0.0
 10
4.333722012376354
 20
7.088547951459283
 30
0.0
 10
4.333722012376354
 20
7.086093779597148
 30
0.0
  0
LINE
  5
40B
330
2
100
AcDbEntity
  8
AM_VIS
100
AcDbLine
 10
4.333722012376354
 20
6.533118673829065
 30
0.0
 11
4.333722012376354
 21
7.086093779597148
 31
0.0
  0
SPLINE
  5
40C
330
2
100
AcDbEntity
  8
AM_VIS
100
AcDbSpline
210
0.0
220
0.0
230
1.0
 70
     8
 71
     3
 72
     8
 73
     4
 74
     0
 42
0.0000000001
 43
0.0000000001
 40
0.0
 40
0.0
 40
0.0
 40
0.0
 40
0.0127522510681419
 40
0.0127522510681419
 40
0.0127522510681419
 40
0.0127522510681419
 10
4.333722012376354
 20
6.533118673829065
 30
-0.0000000000000004
 10
4.333722012376354
 20
6.530664501966747
 30
-0.0000000000000004
 10
4.333248914271676
 20
6.527998266620837
 30
-0.0000000000000004
 10
4.332199603026578
 20
6.525465005181763
 30
-0.0000000000000004
  0
LINE
  5
40D
330
2
100
AcDbEntity
  8
AM_VIS
100
AcDbLine
 10
4.332199603026579
 20
6.525465005181766
 30
0.0
 11
4.293722012376353
 21
6.541402945076529
 31
0.0
  0
SPLINE
  5
40E
330
2
100
AcDbEntity
  8
AM_VIS
100
AcDbSpline
210
0.0
220
0.0
230
1.0
 70
     8
 71
     3
 72
     8
 73
     4
 74
     0
 42
0.0000000001
 43
0.0000000001
 40
0.1389000112756985
 40
0.1389000112756985
 40
0.1389000112756985
 40
0.1389000112756985
 40
0.1516522623428474
 40
0.1516522623428474
 40
0.1516522623428474
 40
0.1516522623428474
 10
4.332199603026578
 20
6.525465005181763
 30
-0.0000000000000004
 10
4.331150291781485
 20
6.522931743742942
 30
-0.0000000000000004
 10
4.329599509565993
 20
6.520711899771245
 30
-0.0000000000000004
 10
4.327864148000083
 20
6.518976538205336
 30
-0.0000000000000004
  0
LINE
  5
40F
330
2
100
AcDbEntity
  8
AM_VIS
100
AcDbLine
 10
3.936851700884123
 20
6.127964091089377
 30
0.0
 11
4.327864148000083
 21
6.518976538205334
 31
0.0
  0
SPLINE
  5
410
330
2
100
AcDbEntity
  8
AM_VIS
100
AcDbSpline
210
0.0
220
0.0
230
1.0
 70
     8
 71
     3
 72
     8
 73
     4
 74
     0
 42
0.0000000001
 43
0.0000000001
 40
0.0
 40
0.0
 40
0.0
 40
0.0
 40
0.0127522510681433
 40
0.0127522510681433
 40
0.0127522510681433
 40
0.0127522510681433
 10
3.936851700884123
 20
6.127964091089377
 30
0.0
 10
3.935116339318078
 20
6.126228729523328
 30
0.0
 10
3.932896495346759
 20
6.124677947307982
 30
0.0
 10
3.930363233907693
 20
6.123628636062883
 30
0.0
  0
LINE
  5
411
330
2
100
AcDbEntity
  8
AM_VIS
100
AcDbLine
 10
3.930363233907693
 20
6.123628636062879
 30
0.0
 11
3.91442529401293
 21
6.162106226713106
 31
0.0
  0
SPLINE
  5
412
330
2
100
AcDbEntity
  8
AM_VIS
100
AcDbSpline
210
0.0
220
0.0
230
1.0
 70
     8
 71
     3
 72
     8
 73
     4
 74
     0
 42
0.0000000001
 43
0.0000000001
 40
0.1389000112757004
 40
0.1389000112757004
 40
0.1389000112757004
 40
0.1389000112757004
 40
0.15165226234285
 40
0.15165226234285
 40
0.15165226234285
 40
0.15165226234285
 10
3.930363233907693
 20
6.123628636062883
 30
0.0
 10
3.927829972468801
 20
6.122579324817955
 30
0.0
 10
3.925163737122523
 20
6.122106226713107
 30
0.0
 10
3.922709565260393
 20
6.122106226713107
 30
0.0
  0
LINE
  5
413
330
2
100
AcDbEntity
  8
AM_VIS
100
AcDbLine
 10
3.36973445949231
 20
6.122106226713106
 30
0.0
 11
3.922709565260393
 21
6.122106226713106
 31
0.0
  0
SPLINE
  5
414
330
2
100
AcDbEntity
  8
AM_VIS
100
AcDbSpline
210
0.0
220
0.0
230
1.0
 70
     8
 71
     3
 72
     8
 73
     4
 74
     0
 42
0.0000000001
 43
0.0000000001
 40
0.0
 40
0.0
 40
0.0
 40
0.0
 40
0.0127522510681436
 40
0.0127522510681436
 40
0.0127522510681436
 40
0.0127522510681436
 10
3.36973445949231
 20
6.122106226713107
 30
0.0
 10
3.367280287629988
 20
6.122106226713107
 30
0.0
 10
3.364614052284076
 20
6.122579324817787
 30
0.0
 10
3.362080790845006
 20
6.123628636062883
 30
0.0
  0
LINE
  5
415
330
2
100
AcDbEntity
  8
AM_VIS
100
AcDbLine
 10
3.362080790845009
 20
6.12362863606288
 30
0.0
 11
3.378018730739773
 21
6.162106226713106
 31
0.0
  0
SPLINE
  5
416
330
2
100
AcDbEntity
  8
AM_VIS
100
AcDbSpline
210
0.0
220
0.0
230
1.0
 70
     8
 71
     3
 72
     8
 73
     4
 74
     0
 42
0.0000000001
 43
0.0000000001
 40
0.1389000112757003
 40
0.1389000112757003
 40
0.1389000112757003
 40
0.1389000112757003
 40
0.1516522623428478
 40
0.1516522623428478
 40
0.1516522623428478
 40
0.1516522623428478
 10
3.362080790845006
 20
6.123628636062883
 30
0.0
 10
3.359547529406185
 20
6.124677947307978
 30
0.0
 10
3.357327685434488
 20
6.126228729523467
 30
0.0
 10
3.355592323868578
 20
6.127964091089377
 30
0.0
  0
LINE
  5
417
330
2
100
AcDbEntity
  8
AM_VIS
100
AcDbLine
 10
2.964579876752622
 20
6.518976538205337
 30
0.0
 11
3.35559232386858
 21
6.127964091089377
 31
0.0
  0
SPLINE
  5
418
330
2
100
AcDbEntity
  8
AM_VIS
100
AcDbSpline
210
0.0
220
0.0
230
1.0
 70
     8
 71
     3
 72
     8
 73
     4
 74
     0
 42
0.0000000001
 43
0.0000000001
 40
0.0
 40
0.0
 40
0.0
 40
0.0
 40
0.0127522510681413
 40
0.0127522510681413
 40
0.0127522510681413
 40
0.0127522510681413
 10
2.96457987675262
 20
6.518976538205334
 30
-0.0000000000000004
 10
2.962844515186576
 20
6.52071189977138
 30
-0.0000000000000004
 10
2.961293732971228
 20
6.522931743742697
 30
-0.0000000000000004
 10
2.960244421726126
 20
6.525465005181767
 30
-0.0000000000000004
  0
LINE
  5
419
330
2
100
AcDbEntity
  8
AM_VIS
100
AcDbLine
 10
2.960244421726126
 20
6.525465005181766
 30
0.0
 11
2.998722012376353
 21
6.541402945076529
 31
0.0
  0
SPLINE
  5
41A
330
2
100
AcDbEntity
  8
AM_VIS
100
AcDbSpline
210
-0.0000000000011296
220
-0.0000000000002696
230
1.0
 70
     8
 71
     3
 72
     8
 73
     4
 74
     0
 42
0.0000000001
 43
0.0000000001
 40
0.1389000112756969
 40
0.1389000112756969
 40
0.1389000112756969
 40
0.1389000112756969
 40
0.1516522623428479
 40
0.1516522623428479
 40
0.1516522623428479
 40
0.1516522623428479
 10
2.960244421726126
 20
6.525465005181767
 30
-0.0000000000000004
 10
2.959195110481198
 20
6.527998266620659
 30
0.0
 10
2.958722012376353
 20
6.530664501966932
 30
0.0
 10
2.958722012376353
 20
6.533118673829068
 30
0.0
  0
LINE
  5
41B
330
2
100
AcDbEntity
  8
AM_VIS
100
AcDbLine
 10
2.958722012376353
 20
7.086093779597152
 30
0.0
 11
2.958722012376353
 21
6.533118673829068
 31
0.0
  0
SPLINE
  5
41C
330
2
100
AcDbEntity
  8
AM_VIS
100
AcDbSpline
210
0.0
220
0.0
230
1.0
 70
     8
 71
     3
 72
     8
 73
     4
 74
     0
 42
0.0000000001
 43
0.0000000001
 40
0.0
 40
0.0
 40
0.0
 40
0.0
 40
0.0127522510681423
 40
0.0127522510681423
 40
0.0127522510681423
 40
0.0127522510681423
 10
2.958722012376353
 20
7.086093779597152
 30
0.0
 10
2.958722012376353
 20
7.088547951459469
 30
0.0
 10
2.959195110481028
 20
7.091214186805382
 30
0.0
 10
2.960244421726125
 20
7.093747448244452
 30
0.0
  0
LINE
  5
41D
330
2
100
AcDbEntity
  8
AM_VIS
100
AcDbLine
 10
2.960244421726126
 20
7.09374744824445
 30
0.0
 11
2.998722012376353
 21
7.077809508349687
 31
0.0
  0
SPLINE
  5
41E
330
2
100
AcDbEntity
  8
AM_VIS
100
AcDbSpline
210
0.0
220
0.0
230
1.0
 70
     8
 71
     3
 72
     8
 73
     4
 74
     0
 42
0.0000000001
 43
0.0000000001
 40
0.138942137350579
 40
0.138942137350579
 40
0.138942137350579
 40
0.138942137350579
 40
0.1516522623428477
 40
0.1516522623428477
 40
0.1516522623428477
 40
0.1516522623428477
 10
2.960244421726125
 20
7.093747448244452
 30
0.0
 10
2.961292866286049
 20
7.096278617320409
 30
0.0
 10
2.962850247819396
 20
7.098506286287657
 30
0.0
 10
2.96457987675262
 20
7.100235915220879
 30
0.0
  0
LINE
  5
41F
330
2
100
AcDbEntity
  8
AM_VIS
100
AcDbLine
 10
3.35559232386858
 20
7.491248362336838
 30
0.0
 11
2.964579876752623
 21
7.100235915220879
 31
0.0
  0
LINE
  5
420
330
2
100
AcDbEntity
  8
AM_VIS
100
AcDbLine
 10
3.922709565260392
 20
7.497106226713107
 30
0.0
 11
3.369734459492311
 21
7.497106226713107
 31
0.0
  0
SPLINE
  5
421
330
2
100
AcDbEntity
  8
AM_VIS
100
AcDbSpline
210
0.0
220
0.0
230
1.0
 70
     8
 71
     3
 72
     8
 73
     4
 74
     0
 42
0.0000000001
 43
0.0000000001
 40
0.0
 40
0.0
 40
0.0
 40
0.0
 40
0.0127522510681397
 40
0.0127522510681397
 40
0.0127522510681397
 40
0.0127522510681397
 10
3.922709565260392
 20
7.497106226713107
 30
0.0
 10
3.925163737122715
 20
7.497106226713107
 30
0.0
 10
3.927829972468627
 20
7.496633128608428
 30
0.0
 10
3.930363233907696
 20
7.495583817363336
 30
0.0
  0
LINE
  5
422
330
2
100
AcDbEntity
  8
AM_VIS
100
AcDbLine
 10
3.930363233907693
 20
7.495583817363335
 30
0.0
 11
3.91442529401293
 21
7.457106226713107
 31
0.0
  0
LINE
  5
423
330
2
100
AcDbEntity
  8
AM_VIS
100
AcDbLine
 10
3.362080790845008
 20
7.495583817363333
 30
0.0
 11
3.378018730739771
 21
7.457106226713107
 31
0.0
  0
SPLINE
  5
424
330
2
100
AcDbEntity
  8
AM_VIS
100
AcDbSpline
210
0.0
220
0.0
230
1.0
 70
     8
 71
     3
 72
     8
 73
     4
 74
     0
 42
0.0000000001
 43
0.0000000001
 40
0.0
 40
0.0
 40
0.0
 40
0.0
 40
0.0127522510681407
 40
0.0127522510681407
 40
0.0127522510681407
 40
0.0127522510681407
 10
3.35559232386858
 20
7.491248362336839
 30
0.0
 10
3.357327685434625
 20
7.492983723902883
 30
0.0
 10
3.359547529405943
 20
7.49453450611823
 30
0.0
 10
3.362080790845009
 20
7.495583817363336
 30
0.0
  0
SPLINE
  5
425
330
2
100
AcDbEntity
  8
AM_VIS
100
AcDbSpline
210
0.0
220
0.0
230
1.0
 70
     8
 71
     3
 72
     8
 73
     4
 74
     0
 42
0.0000000001
 43
0.0000000001
 40
0.1389000112756996
 40
0.1389000112756996
 40
0.1389000112756996
 40
0.1389000112756996
 40
0.1516522623428471
 40
0.1516522623428471
 40
0.1516522623428471
 40
0.1516522623428471
 10
3.362080790845009
 20
7.495583817363336
 30
0.0
 10
3.364614052283901
 20
7.496633128608261
 30
0.0
 10
3.367280287630181
 20
7.49710622671311
 30
0.0
 10
3.369734459492311
 20
7.497106226713106
 30
0.0
  0
CIRCLE
  5
426
330
2
100
AcDbEntity
  8
AM_VIS
100
AcDbCircle
 10
3.646222012376353
 20
6.809606226713107
 30
0.0
 40
0.6625
  0
LINE
  5
427
330
2
100
AcDbEntity
  8
AM_VIS
100
AcDbLine
 10
3.382324147795823
 20
6.270757530816172
 30
0.0
 11
3.312983250472761
 21
6.310655399912556
 31
0.0
  0
LINE
  5
428
330
2
100
AcDbEntity
  8
AM_VIS
100
AcDbLine
 10
3.432330017401171
 20
6.357665727879985
 30
0.0
 11
3.382324147795823
 21
6.270757530816172
 31
0.0
  0
LINE
  5
429
330
2
100
AcDbEntity
  8
AM_VIS
100
AcDbLine
 10
3.312983250472761
 20
6.310655399912556
 30
0.0
 11
3.362989120078109
 21
6.39756359697637
 31
0.0
  0
LINE
  5
42A
330
2
100
AcDbEntity
  8
AM_VIS
100
AcDbLine
 10
3.173335061867647
 20
7.127848166184603
 30
0.0
 11
3.203751603986101
 21
7.110346875277555
 31
0.0
  0
LINE
  5
42B
330
2
100
AcDbEntity
  8
AM_VIS
100
AcDbLine
 10
3.163853734889713
 20
7.041005977954488
 30
0.0
 11
3.133437192771261
 21
7.058507268861537
 31
0.0
  0
LINE
  5
42C
330
2
100
AcDbEntity
  8
AM_VIS
100
AcDbLine
 10
3.086809409478771
 20
6.700255690732028
 30
0.0
 11
3.120692434150863
 21
6.709388152444341
 31
0.0
  0
LINE
  5
42D
330
2
100
AcDbEntity
  8
AM_VIS
100
AcDbLine
 10
3.141511799068618
 20
6.632144679940693
 30
0.0
 11
3.107628774396522
 21
6.623012218228383
 31
0.0
  0
LINE
  5
42E
330
2
100
AcDbEntity
  8
AM_VIS
100
AcDbLine
 10
3.755572548357438
 20
6.250193623815532
 30
0.0
 11
3.746440086645126
 21
6.284076648487626
 31
0.0
  0
LINE
  5
42F
330
2
100
AcDbEntity
  8
AM_VIS
100
AcDbLine
 10
3.823683559148774
 20
6.304896013405379
 30
0.0
 11
3.832816020861083
 21
6.271012988733285
 31
0.0
  0
LINE
  5
430
330
2
100
AcDbEntity
  8
AM_VIS
100
AcDbLine
 10
4.11910896288506
 20
6.491364287241624
 30
0.0
 11
4.088692420766607
 21
6.508865578148673
 31
0.0
  0
LINE
  5
431
330
2
100
AcDbEntity
  8
AM_VIS
100
AcDbLine
 10
4.128590289862991
 20
6.578206475471736
 30
0.0
 11
4.159006831981445
 21
6.560705184564686
 31
0.0
  0
LINE
  5
432
330
2
100
AcDbEntity
  8
AM_VIS
100
AcDbLine
 10
4.205634615273938
 20
6.918956762694199
 30
0.0
 11
4.171751590601843
 21
6.909824300981887
 31
0.0
  0
LINE
  5
433
330
2
100
AcDbEntity
  8
AM_VIS
100
AcDbLine
 10
4.150932225684091
 20
6.987067773485533
 30
0.0
 11
4.184815250356185
 21
6.996200235197846
 31
0.0
  0
LINE
  5
434
330
2
100
AcDbEntity
  8
AM_VIS
100
AcDbLine
 10
3.964463951847845
 20
7.282493177221823
 30
0.0
 11
3.946962660940798
 21
7.252076635103369
 31
0.0
  0
LINE
  5
435
330
2
100
AcDbEntity
  8
AM_VIS
100
AcDbLine
 10
3.877621763617732
 20
7.291974504199752
 30
0.0
 11
3.895123054524781
 21
7.322391046318206
 31
0.0
  0
LINE
  5
436
330
2
100
AcDbEntity
  8
AM_VIS
100
AcDbLine
 10
3.536871476395267
 20
7.369018829610697
 30
0.0
 11
3.546003938107578
 21
7.335135804938602
 31
0.0
  0
LINE
  5
437
330
2
100
AcDbEntity
  8
AM_VIS
100
AcDbLine
 10
3.468760465603936
 20
7.314316440020852
 30
0.0
 11
3.459628003891622
 21
7.34819946469295
 31
0.0
  0
ARC
  5
438
330
2
100
AcDbEntity
  8
AM_VIS
100
AcDbCircle
 10
3.646222012376353
 20
6.809606226713114
 30
0.0
 40
0.5000000000000007
100
AcDbArc
 50
244.6729914320539
 51
235.4958599604824
  0
ARC
  5
439
330
2
100
AcDbEntity
  8
AM_VIS
100
AcDbCircle
 10
3.646222012376353
 20
6.809606226713114
 30
0.0
 40
0.5699999999999934
100
AcDbArc
 50
154.1084895857075
 51
191.0603618068288
  0
ARC
  5
43A
330
2
100
AcDbEntity
  8
AM_VIS
100
AcDbCircle
 10
3.646222012376353
 20
6.809606226713114
 30
0.0
 40
0.5699999999999934
100
AcDbArc
 50
109.1084895857077
 51
146.0603618068287
  0
ARC
  5
43B
330
2
100
AcDbEntity
  8
AM_VIS
100
AcDbCircle
 10
3.646222012376353
 20
6.809606226713114
 30
0.0
 40
0.5699999999999934
100
AcDbArc
 50
64.10848958570745
 51
101.0603618068288
  0
ARC
  5
43C
330
2
100
AcDbEntity
  8
AM_VIS
100
AcDbCircle
 10
3.646222012376353
 20
6.809606226713114
 30
0.0
 40
0.5699999999999934
100
AcDbArc
 50
19.10848958570796
 51
56.06036180682878
  0
ARC
  5
43D
330
2
100
AcDbEntity
  8
AM_VIS
100
AcDbCircle
 10
3.646222012376353
 20
6.809606226713114
 30
0.0
 40
0.5699999999999934
100
AcDbArc
 50
334.1084895857075
 51
11.06036180682878
  0
ARC
  5
43E
330
2
100
AcDbEntity
  8
AM_VIS
100
AcDbCircle
 10
3.646222012376353
 20
6.809606226713114
 30
0.0
 40
0.5699999999999934
100
AcDbArc
 50
289.1084895857077
 51
326.0603618068288
  0
ARC
  5
43F
330
2
100
AcDbEntity
  8
AM_VIS
100
AcDbCircle
 10
3.64622201237637
 20
6.809606226713117
 30
0.0
 40
0.5350000000000124
100
AcDbArc
 50
145.7966279479506
 51
154.3722234445882
  0
ARC
  5
440
330
2
100
AcDbEntity
  8
AM_VIS
100
AcDbCircle
 10
3.646222012376358
 20
6.809606226713127
 30
0.0
 40
0.5350000000000065
100
AcDbArc
 50
190.7966279479509
 51
199.3722234445883
  0
ARC
  5
441
330
2
100
AcDbEntity
  8
AM_VIS
100
AcDbCircle
 10
3.64622201237634
 20
6.809606226713117
 30
0.0
 40
0.5350000000000065
100
AcDbArc
 50
280.7966279479506
 51
289.3722234445883
  0
ARC
  5
442
330
2
100
AcDbEntity
  8
AM_VIS
100
AcDbCircle
 10
3.64622201237635
 20
6.809606226713107
 30
0.0
 40
0.5350000000000005
100
AcDbArc
 50
325.7966279479502
 51
334.3722234445877
  0
ARC
  5
443
330
2
100
AcDbEntity
  8
AM_VIS
100
AcDbCircle
 10
3.64622201237635
 20
6.809606226713102
 30
0.0
 40
0.5350000000000065
100
AcDbArc
 50
10.79662794795087
 51
19.37222344458833
  0
ARC
  5
444
330
2
100
AcDbEntity
  8
AM_VIS
100
AcDbCircle
 10
3.646222012376353
 20
6.809606226713098
 30
0.0
 40
0.5350000000000124
100
AcDbArc
 50
55.79662794795034
 51
64.37222344458747
  0
ARC
  5
445
330
2
100
AcDbEntity
  8
AM_VIS
100
AcDbCircle
 10
3.646222012376368
 20
6.809606226713117
 30
0.0
 40
0.5350000000000024
100
AcDbArc
 50
100.7966279479511
 51
109.3722234445886
  0
ARC
  5
446
330
2
100
AcDbEntity
  8
AM_VIS
100
AcDbCircle
 10
3.646222012376353
 20
6.809606226713114
 30
0.0
 40
0.5699999999999934
100
AcDbArc
 50
244.1084895857075
 51
281.0603618068288
  0
ARC
  5
447
330
2
100
AcDbEntity
  8
AM_VIS
100
AcDbCircle
 10
3.646222012376353
 20
6.809606226713114
 30
0.0
 40
0.5699999999999934
100
AcDbArc
 50
199.1084895857079
 51
236.0603618068287
  0
ARC
  5
448
330
2
100
AcDbEntity
  8
AM_VIS
100
AcDbCircle
 10
4.455817013772821
 20
2.607511825272869
 30
0.0
 40
0.1242016782473188
100
AcDbArc
 50
31.55533160464131
 51
90.23800794476366
  0
ARC
  5
449
330
2
100
AcDbEntity
  8
AM_VIS
100
AcDbCircle
 10
4.385052203746877
 20
2.538622793688791
 30
0.0
 40
0.2216159999999996
100
AcDbArc
 50
35.92933841909704
 51
37.16678070440546
  0
ARC
  5
44A
330
2
100
AcDbEntity
  8
AM_VIS
100
AcDbCircle
 10
4.183746818455914
 20
2.765168187219631
 30
0.0
 40
0.1237217154334961
100
AcDbArc
 50
31.81310557437651
 51
90.3157679575632
  0
ARC
  5
44B
330
2
100
AcDbEntity
  8
AM_VIS
100
AcDbCircle
 10
3.911510707699097
 20
2.922343779048218
 30
0.0
 40
0.1237217154334982
100
AcDbArc
 50
31.81310557437724
 51
90.31576795756331
  0
LINE
  5
44C
330
2
100
AcDbEntity
  8
AM_VIS
100
AcDbLine
 10
4.258946073283293
 20
2.861817404100484
 30
0.0
 11
4.258946073283293
 21
3.064715627429658
 31
0.0
  0
LINE
  5
44D
330
2
100
AcDbEntity
  8
AM_VIS
100
AcDbLine
 10
4.237025763066509
 20
3.102682718442796
 30
0.0
 11
4.235611549504136
 21
3.103499215023726
 31
0.0
  0
LINE
  5
44E
330
2
100
AcDbEntity
  8
AM_VIS
100
AcDbLine
 10
4.509261873823331
 20
2.945507126614213
 30
0.0
 11
4.507847660260956
 21
2.946323623195142
 31
0.0
  0
LINE
  5
44F
330
2
100
AcDbEntity
  8
AM_VIS
100
AcDbLine
 10
4.531182184040112
 20
2.704641812271897
 30
0.0
 11
4.531182184040113
 21
2.907540035601073
 31
0.0
  0
LINE
  5
450
330
2
100
AcDbEntity
  8
AM_VIS
100
AcDbLine
 10
4.811903576171169
 20
2.44989370199108
 30
0.0
 11
4.811903576171173
 21
2.745465464286918
 31
0.0
  0
LINE
  5
451
330
2
100
AcDbEntity
  8
AM_VIS
100
AcDbLine
 10
4.599771541815203
 20
2.327419214851923
 30
0.0
 11
4.811903576171169
 21
2.44989370199108
 31
0.0
  0
LINE
  5
452
330
2
100
AcDbEntity
  8
AM_VIS
100
AcDbLine
 10
4.789983265954389
 20
2.783432555300059
 30
0.0
 11
4.788569052392015
 21
2.784249051880986
 31
0.0
  0
LINE
  5
453
330
2
100
AcDbEntity
  8
AM_VIS
100
AcDbLine
 10
4.576437018036051
 20
2.66177456474183
 30
0.0
 11
4.577851231598424
 21
2.660958068160901
 31
0.0
  0
LINE
  5
454
330
2
100
AcDbEntity
  8
AM_VIS
100
AcDbLine
 10
4.599771541815208
 20
2.62299097714776
 30
0.0
 11
4.599771541815208
 21
2.618091997662193
 31
0.0
  0
LINE
  5
455
330
2
100
AcDbEntity
  8
AM_VIS
100
AcDbLine
 10
3.566688534501663
 20
2.985923707370138
 30
0.0
 11
4.098777788926078
 21
2.678721833095291
 31
0.0
  0
LINE
  5
456
330
2
100
AcDbEntity
  8
AM_VIS
100
AcDbLine
 10
4.297129839467366
 20
2.823032639475052
 30
0.0
 11
4.573608590911304
 21
2.66340755790368
 31
0.0
  0
LINE
  5
457
330
2
100
AcDbEntity
  8
AM_VIS
100
AcDbLine
 10
3.520019486943352
 20
3.271697510694841
 30
0.0
 11
4.023479515148172
 21
2.981024727884569
 31
0.0
  0
LINE
  5
458
330
2
100
AcDbEntity
  8
AM_VIS
100
AcDbLine
 10
4.599771541815203
 20
2.327419214851923
 30
0.0
 11
4.599771541815201
 21
1.62686514841593
 31
0.0
  0
LINE
  5
459
330
2
100
AcDbEntity
  8
AM_VIS
100
AcDbLine
 10
4.024893728710544
 20
2.980208231303641
 30
0.0
 11
4.295715625904991
 21
2.823849136055982
 31
0.0
  0
LINE
  5
45A
330
2
100
AcDbEntity
  8
AM_VIS
100
AcDbLine
 10
4.01439982536495
 20
2.986266889225069
 30
0.0
 11
4.220111549504133
 21
3.105034608532287
 31
0.0
  0
LINE
  5
45B
330
2
100
AcDbEntity
  8
AM_VIS
100
AcDbLine
 10
4.286635936121773
 20
2.829091297396482
 30
0.0
 11
4.492347660260954
 21
2.947859016703698
 31
0.0
  0
LINE
  5
45C
330
2
100
AcDbEntity
  8
AM_VIS
100
AcDbLine
 10
4.567357328252829
 20
2.667016726082326
 30
0.0
 11
4.773069052392014
 21
2.785784445389546
 31
0.0
  0
LINE
  5
45D
330
2
100
AcDbEntity
  8
AM_VIS
100
AcDbLine
 10
3.501519486943352
 20
3.273530077140538
 30
0.0
 11
3.277366637307216
 21
3.144115369063495
 31
0.0
  0
LINE
  5
45E
330
2
100
AcDbEntity
  8
AM_VIS
100
AcDbLine
 10
4.592108590911298
 20
1.60992739522307
 30
0.0
 11
4.38067697281391
 21
1.487857293599348
 31
0.0
  0
ELLIPSE
  5
45F
330
2
100
AcDbEntity
  8
AM_VIS
100
AcDbEllipse
 10
4.235611549504135
 20
3.078187821014968
 30
0.0
 11
-0.0155000000000017
 21
0.0268467875173173
 31
0.0
210
0.0
220
0.0
230
0.9999999999999998
 40
0.5773502691896279
 41
5.497787143781913
 42
6.283185307179421
  0
ELLIPSE
  5
460
330
2
100
AcDbEntity
  8
AM_VIS
100
AcDbEllipse
 10
4.237025763066508
 20
3.077371324434037
 30
0.0
 11
-0.0155000000000016
 21
0.0268467875173172
 31
0.0
210
0.0
220
0.0
230
1.0
 40
0.5773502691896279
 41
3.926990816987073
 42
5.497787143781969
  0
ELLIPSE
  5
461
330
2
100
AcDbEntity
  8
AM_VIS
100
AcDbEllipse
 10
4.509261873823327
 20
2.920195732605451
 30
0.0
 11
-0.0155000000000018
 21
0.0268467875173176
 31
0.0
210
0.0
220
0.0
230
1.0
 40
0.577350269189628
 41
3.926990816987156
 42
5.497787143781938
  0
ELLIPSE
  5
462
330
2
100
AcDbEntity
  8
AM_VIS
100
AcDbEllipse
 10
4.507847660260956
 20
2.921012229186381
 30
0.0
 11
-0.0155000000000017
 21
0.0268467875173173
 31
0.0
210
0.0
220
0.0
230
0.9999999999999998
 40
0.5773502691896279
 41
5.497787143781965
 42
6.283185307179422
  0
ELLIPSE
  5
463
330
2
100
AcDbEntity
  8
AM_VIS
100
AcDbEllipse
 10
4.789983265954387
 20
2.758121161291298
 30
0.0
 11
-0.0155000000000018
 21
0.0268467875173176
 31
0.0
210
0.0
220
0.0
230
1.0
 40
0.577350269189628
 41
3.926990816987153
 42
5.497787143781933
  0
ELLIPSE
  5
464
330
2
100
AcDbEntity
  8
AM_VIS
100
AcDbEllipse
 10
4.788569052392015
 20
2.758937657872226
 30
0.0
 11
-0.0155000000000017
 21
0.0268467875173173
 31
0.0
210
0.0
220
0.0
230
0.9999999999999998
 40
0.5773502691896279
 41
5.497787143781965
 42
6.283185307179417
  0
ELLIPSE
  5
465
330
2
100
AcDbEntity
  8
AM_VIS
100
AcDbEllipse
 10
4.576437018036049
 20
2.636463170733069
 30
0.0
 11
-0.0155000000000001
 21
0.0268467875173182
 31
0.0
210
0.0
220
0.0
230
0.9999999999999998
 40
0.577350269189628
 41
5.497787143782137
 42
5.559488067377025
  0
ELLIPSE
  5
466
330
2
100
AcDbEntity
  8
AM_VIS
100
AcDbEllipse
 10
4.577851231598422
 20
2.635646674152141
 30
0.0
 11
-0.0155000000000002
 21
0.0268467875173185
 31
0.0
210
0.0
220
0.0
230
1.0
 40
0.5773502691896279
 41
3.9269908169873
 42
5.497787143782081
  0
ELLIPSE
  5
467
330
2
100
AcDbEntity
  8
AM_VIS
100
AcDbEllipse
 10
4.573608590911306
 20
2.633197184409355
 30
0.0
 11
-0.0184999999999985
 21
0.0320429399400223
 31
0.0
210
0.0
220
0.0
230
1.0
 40
0.5773502691896279
 41
3.926990816987314
 42
5.441311593029353
  0
ELLIPSE
  5
468
330
2
100
AcDbEntity
  8
AM_VIS
100
AcDbEllipse
 10
3.295866637307216
 20
3.112072429123471
 30
0.0
 11
-0.0184999999999999
 21
0.0320429399400247
 31
0.0
210
0.0
220
0.0
230
1.0
 40
0.5773502691896279
 41
5.52961661659312
 42
6.527772730925978
  0
ELLIPSE
  5
469
330
2
100
AcDbEntity
  8
AM_VIS
100
AcDbEllipse
 10
4.573608590911306
 20
2.633197184409355
 30
0.0
 11
-0.0184999999999985
 21
0.0320429399400223
 31
0.0
210
0.0
220
0.0
230
1.0
 40
0.5773502691896279
 41
5.441311593029353
 42
5.49778714378221
  0
ELLIPSE
  5
46A
330
2
100
AcDbEntity
  8
AM_VIS
100
AcDbEllipse
 10
3.520019486943352
 20
3.241487137200513
 30
0.0
 11
-0.0184999999999999
 21
0.0320429399400247
 31
0.0
210
0.0
220
0.0
230
1.0
 40
0.5773502691896279
 41
5.497787143782127
 42
6.28318530717958
  0
ELLIPSE
  5
46B
330
2
100
AcDbEntity
  8
AM_VIS
100
AcDbEllipse
 10
4.573608590911296
 20
1.641970335163094
 30
0.0
 11
-0.0184999999999999
 21
0.0320429399400247
 31
0.0
210
0.0
220
0.0
230
1.0
 40
0.5773502691896279
 41
3.141592653589798
 42
3.926990816987243
  0
LINE
  5
46C
330
2
100
AcDbEntity
  8
AM_VIS
100
AcDbLine
 10
3.920241925094938
 20
3.285577952570609
 30
0.0
 11
3.732151521299315
 21
3.394171997833995
 31
0.0
  0
LINE
  5
46D
330
2
100
AcDbEntity
  8
AM_VIS
100
AcDbLine
 10
3.934384060718665
 20
3.045530915008841
 30
0.0
 11
3.934384060718665
 21
3.261083055142779
 31
0.0
  0
LINE
  5
46E
330
2
100
AcDbEntity
  8
AM_VIS
100
AcDbLine
 10
4.811903576171165
 20
2.441728736181801
 30
0.0
 11
4.804832508359303
 21
2.44581121908644
 31
0.0
  0
LINE
  5
46F
330
2
100
AcDbEntity
  8
AM_VIS
100
AcDbLine
 10
4.599771541815202
 20
2.319254249042645
 30
0.0
 11
4.811903576171165
 21
2.441728736181801
 31
0.0
  0
LINE
  5
470
330
2
100
AcDbEntity
  8
AM_VIS
100
AcDbLine
 10
4.811903576171163
 20
1.749339635555089
 30
0.0
 11
4.811903576171165
 21
2.441728736181801
 31
0.0
  0
LINE
  5
471
330
2
100
AcDbEntity
  8
AM_VIS
100
AcDbLine
 10
3.708109890738973
 20
3.163103465431452
 30
0.0
 11
3.520019486943349
 21
3.271697510694838
 31
0.0
  0
LINE
  5
472
330
2
100
AcDbEntity
  8
AM_VIS
100
AcDbLine
 10
4.599771541815199
 20
1.626865148415931
 30
0.0
 11
4.599771541815202
 21
2.319254249042645
 31
0.0
  0
LINE
  5
473
330
2
100
AcDbEntity
  8
AM_VIS
100
AcDbLine
 10
3.501519486943351
 20
3.273530077140536
 30
0.0
 11
3.713651521299316
 21
3.396004564279694
 31
0.0
  0
LINE
  5
474
330
2
100
AcDbEntity
  8
AM_VIS
100
AcDbLine
 10
4.592108590911296
 20
1.609927395223071
 30
0.0
 11
4.804240625267262
 21
1.732401882362228
 31
0.0
  0
ELLIPSE
  5
475
330
2
100
AcDbEntity
  8
AM_VIS
100
AcDbEllipse
 10
3.732151521299315
 20
3.363961624339669
 30
0.0
 11
-0.018500000000001
 21
0.0320429399400221
 31
0.0
210
0.0
220
0.0
230
1.0
 40
0.577350269189628
 41
5.497787143781978
 42
6.283185307179433
  0
ELLIPSE
  5
476
330
2
100
AcDbEntity
  8
AM_VIS
100
AcDbEllipse
 10
3.920241925094935
 20
3.269248020952058
 30
0.0
 11
-0.01
 21
0.0173205080756867
 31
0.0
210
0.0
220
0.0
230
1.0
 40
0.577350269189628
 41
3.926990816986981
 42
5.497787143781788
  0
ELLIPSE
  5
477
330
2
100
AcDbEntity
  8
AM_VIS
100
AcDbEllipse
 10
4.785740625267261
 20
1.764444822302252
 30
0.0
 11
-0.0185000000000012
 21
0.0320429399400224
 31
0.0
210
0.0
220
0.0
230
1.0
 40
0.577350269189628
 41
3.141592653589607
 42
3.926990816987054
  0
ELLIPSE
  5
478
330
2
100
AcDbEntity
  8
AM_VIS
100
AcDbEllipse
 10
3.520019486943349
 20
3.241487137200512
 30
0.0
 11
-0.018500000000001
 21
0.0320429399400221
 31
0.0
210
0.0
220
0.0
230
1.0
 40
0.577350269189628
 41
5.497787143781978
 42
6.283185307179347
  0
ELLIPSE
  5
479
330
2
100
AcDbEntity
  8
AM_VIS
100
AcDbEllipse
 10
4.573608590911296
 20
1.641970335163095
 30
0.0
 11
-0.0185000000000012
 21
0.0320429399400224
 31
0.0
210
0.0
220
0.0
230
1.0
 40
0.577350269189628
 41
3.141592653589649
 42
3.926990816987057
  0
ARC
  5
47A
330
2
100
AcDbEntity
  8
AM_VIS
100
AcDbCircle
 10
2.182268348347368
 20
1.343285070877
 30
0.0
 40
0.9219154536233144
100
AcDbArc
 50
16.3917529014954
 51
43.60824709850398
  0
ARC
  5
47B
330
2
100
AcDbEntity
  8
AM_VIS
100
AcDbCircle
 10
2.51587542089006
 20
1.852740428360386
 30
0.0
 40
0.3585644808946719
100
AcDbArc
 50
68.12111914992944
 51
87.40047439708064
  0
ARC
  5
47C
330
2
100
AcDbEntity
  8
AM_VIS
100
AcDbCircle
 10
2.555276367057804
 20
1.393005879145196
 30
0.0
 40
0.5401366555452693
100
AcDbArc
 50
354.2287257399762
 51
5.771274260021601
  0
ARC
  5
47D
330
2
100
AcDbEntity
  8
AM_VIS
100
AcDbCircle
 10
2.092130567650008
 20
1.290805447552771
 30
0.0
 40
1.017404114971367
100
AcDbArc
 50
19.49026541183733
 51
40.50973458816222
  0
SPLINE
  5
47E
330
2
100
AcDbEntity
  8
AM_VIS
100
AcDbSpline
210
0.0000000000000008
220
0.0000000000000004
230
1.0
 70
     8
 71
     3
 72
    35
 73
    31
 74
     0
 42
0.0000000001
 43
0.0000000001
 40
1.030198138823497
 40
1.030198138823497
 40
1.030198138823497
 40
1.030198138823497
 40
1.055532501202357
 40
1.055532501202357
 40
1.055532501202357
 40
1.407376668269811
 40
1.407376668269811
 40
1.407376668269811
 40
1.759220835337263
 40
1.759220835337263
 40
1.759220835337263
 40
2.111065002404715
 40
2.111065002404715
 40
2.111065002404715
 40
2.286987085938441
 40
2.286987085938441
 40
2.286987085938441
 40
2.462909169472168
 40
2.462909169472168
 40
2.462909169472168
 40
2.638831253005895
 40
2.638831253005895
 40
2.638831253005895
 40
2.814753336539622
 40
2.814753336539622
 40
2.814753336539622
 40
2.990675420073348
 40
2.990675420073348
 40
2.990675420073348
 40
2.994620591417643
 40
2.994620591417643
 40
2.994620591417643
 40
2.994620591417643
 10
3.092675204524019
 20
1.217945857628405
 30
0.0
 10
3.094439771792411
 20
1.220377465895071
 30
0.0
 10
3.096166319562919
 20
1.22285723172203
 30
0.0
 10
3.097853171658608
 20
1.225385959236432
 30
-0.0000000000000004
 10
3.121280209675121
 20
1.260504981090623
 30
0.0
 10
3.137038459837831
 20
1.30504946836054
 30
0.0
 10
3.144110155837761
 20
1.356277773146585
 30
0.0
 10
3.151181851837686
 20
1.407506077932628
 30
0.0000000000000004
 10
3.149562899742923
 20
1.465391894683899
 30
0.0
 10
3.139291525744158
 20
1.526382838325782
 30
0.0000000000000004
 10
3.129020151745391
 20
1.587373781967661
 30
0.0
 10
3.110101069256546
 20
1.651438589180149
 30
0.0
 10
3.083623813399917
 20
1.714649384778889
 30
0.0
 10
3.070385185471603
 20
1.746254782578259
 30
0.0
 10
3.055273072174475
 20
1.777643760865753
 30
0.0000000000000004
 10
3.038512618493183
 20
1.808328440348338
 30
0.0000000000000004
 10
3.021752164811888
 20
1.839013119830926
 30
0.0
 10
3.003343889292653
 20
1.868992513166883
 30
0.0000000000000004
 10
2.983563707005902
 20
1.897800452600441
 30
0.0
 10
2.96378352471915
 20
1.926608392034001
 30
0.0
 10
2.942632050480444
 20
1.954243950054155
 30
0.0
 10
2.920427452266738
 20
1.980277060502082
 30
-0.0000000000000004
 10
2.898222854053037
 20
2.006310170950013
 30
0.0
 10
2.874965823970601
 20
2.030739994776621
 30
-0.0000000000000004
 10
2.851006961425293
 20
2.053185843065175
 30
0.0
 10
2.827048098879989
 20
2.075631691353728
 30
0.0
 10
2.802388151904256
 20
2.096092839417514
 30
-0.0000000000000004
 10
2.777399328734535
 20
2.114249727008628
 30
-0.0000000000000004
 10
2.776838937525444
 20
2.114656907455715
 30
0.0000000000000004
 10
2.776278381540739
 20
2.115062931888024
 30
0.0
 10
2.775717665056372
 20
2.115467797095928
 30
0.0
  0
LINE
  5
47F
330
2
100
AcDbEntity
  8
AM_VIS
100
AcDbLine
 10
2.77167659605485
 20
2.375421240492812
 30
0.0
 11
2.77167659605485
 21
2.414661329757549
 31
0.0
  0
LINE
  5
480
330
2
100
AcDbEntity
  8
AM_VIS
100
AcDbLine
 10
2.785818731678579
 20
2.422826295566826
 30
0.0
 11
2.869201591479558
 21
2.37468517901493
 31
0.0
  0
LINE
  5
481
330
2
100
AcDbEntity
  8
AM_VIS
100
AcDbLine
 10
2.883343727103293
 20
2.350190281587098
 30
0.0
 11
2.883343727103293
 21
2.310950192322359
 31
0.0
  0
LINE
  5
482
330
2
100
AcDbEntity
  8
AM_VIS
100
AcDbLine
 10
3.108824390798254
 20
2.090917262901701
 30
0.0
 11
3.139508216002761
 21
2.073201948160111
 31
0.0
  0
LINE
  5
483
330
2
100
AcDbEntity
  8
AM_VIS
100
AcDbLine
 10
3.140922429565133
 20
2.074018444741038
 30
0.0
 11
3.140922429565134
 21
2.201477148383238
 31
0.0
  0
LINE
  5
484
330
2
100
AcDbEntity
  8
AM_VIS
100
AcDbLine
 10
3.155064565188864
 20
2.209642114192515
 30
0.0
 11
3.319790718436243
 21
2.114537425272569
 31
0.0
  0
LINE
  5
485
330
2
100
AcDbEntity
  8
AM_VIS
100
AcDbLine
 10
3.383539279755881
 20
2.004121678157539
 30
0.0
 11
3.383539279755874
 21
0.8222642368152087
 31
0.0
  0
LINE
  5
486
330
2
100
AcDbEntity
  8
AM_VIS
100
AcDbLine
 10
3.31979071843624
 20
0.7854589877768682
 30
0.0
 11
3.155064565188857
 21
0.8805636766968161
 31
0.0
  0
LINE
  5
487
330
2
100
AcDbEntity
  8
AM_VIS
100
AcDbLine
 10
3.140922429565128
 20
0.9050585741246479
 30
0.0
 11
3.140922429565128
 21
1.032517277766844
 31
0.0
  0
LINE
  5
488
330
2
100
AcDbEntity
  8
AM_VIS
100
AcDbLine
 10
3.139508216002756
 20
1.034966767509625
 30
0.0
 11
3.127941140806043
 21
1.041645021488184
 31
0.0
  0
LINE
  5
489
330
2
100
AcDbEntity
  8
AM_VIS
100
AcDbLine
 10
2.271481043402259
 20
2.241996542260371
 30
0.0
 11
2.27148104340226
 21
2.646168800270845
 31
0.0
  0
LINE
  5
48A
330
2
100
AcDbEntity
  8
AM_VIS
100
AcDbLine
 10
2.335229604721893
 20
2.682974049309188
 30
0.0
 11
2.499955757969276
 21
2.58786936038924
 31
0.0
  0
LINE
  5
48B
330
2
100
AcDbEntity
  8
AM_VIS
100
AcDbLine
 10
2.514097893593005
 20
2.563374462961411
 30
0.0
 11
2.514097893593004
 21
2.435915759319214
 31
0.0
  0
LINE
  5
48C
330
2
100
AcDbEntity
  8
AM_VIS
100
AcDbLine
 10
2.515512107155376
 20
2.433466269576432
 30
0.0
 11
2.546195932359888
 21
2.415750954834841
 31
0.0
  0
LINE
  5
48D
330
2
100
AcDbEntity
  8
AM_VIS
100
AcDbLine
 10
2.80099365728457
 20
2.096345701619209
 30
0.0
 11
2.80099365728457
 21
2.130060897300006
 31
0.0
  0
LINE
  5
48E
330
2
100
AcDbEntity
  8
AM_VIS
100
AcDbLine
 10
2.761553969478053
 20
2.078482279526796
 30
0.0
 11
2.775716498023852
 21
2.115468243785634
 31
0.0
  0
LINE
  5
48F
330
2
100
AcDbEntity
  8
AM_VIS
100
AcDbLine
 10
2.711921919684727
 20
2.180211066277129
 30
0.0
 11
2.677249970576924
 21
2.160193207126411
 31
0.0
  0
LINE
  5
490
330
2
100
AcDbEntity
  8
AM_VIS
100
AcDbLine
 10
2.677249970576926
 20
2.201504348131181
 30
0.0
 11
2.677249970576926
 21
2.160193207126409
 31
0.0
  0
LINE
  5
491
330
2
100
AcDbEntity
  8
AM_VIS
100
AcDbLine
 10
2.669791138633216
 20
2.155886848495871
 30
0.0
 11
2.648638475289769
 21
2.143674352620454
 31
0.0
  0
LINE
  5
492
330
2
100
AcDbEntity
  8
AM_VIS
100
AcDbLine
 10
2.636136152460538
 20
2.150892487139114
 30
0.0
 11
2.649492599930064
 21
2.18547896355133
 31
0.0
  0
LINE
  5
493
330
2
100
AcDbEntity
  8
AM_VIS
100
AcDbLine
 10
2.649496972888276
 20
2.18548158391844
 30
0.0
 11
2.669795388611789
 21
2.155889763755268
 31
0.0
  0
LINE
  5
494
330
2
100
AcDbEntity
  8
AM_VIS
100
AcDbLine
 10
3.480695751490913
 20
2.060214993267273
 30
0.0
 11
3.480695751490912
 21
1.962613506792639
 31
0.0
  0
LINE
  5
495
330
2
100
AcDbEntity
  8
AM_VIS
100
AcDbLine
 10
3.252221036923896
 20
2.265735429302249
 30
0.0
 11
3.416947190171275
 21
2.170630740382303
 31
0.0
  0
LINE
  5
496
330
2
100
AcDbEntity
  8
AM_VIS
100
AcDbLine
 10
2.980500198838323
 20
2.406283596696832
 30
0.0
 11
2.980500198838323
 21
2.284061407001175
 31
0.0
  0
LINE
  5
497
330
2
100
AcDbEntity
  8
AM_VIS
100
AcDbLine
 10
2.882975203413613
 20
2.478919610676561
 30
0.0
 11
2.96635806321459
 21
2.430778494124663
 31
0.0
  0
LINE
  5
498
330
2
100
AcDbEntity
  8
AM_VIS
100
AcDbLine
 10
2.611254365328037
 20
2.619467778071145
 30
0.0
 11
2.611254365328036
 21
2.497245588375489
 31
0.0
  0
LINE
  5
499
330
2
100
AcDbEntity
  8
AM_VIS
100
AcDbLine
 10
2.432386076456924
 20
2.73906736441892
 30
0.0
 11
2.597112229704306
 21
2.643962675498973
 31
0.0
  0
LINE
  5
49A
330
2
100
AcDbEntity
  8
AM_VIS
100
AcDbLine
 10
3.480695751490908
 20
0.9759590383995748
 30
0.0
 11
3.480695751490906
 21
0.8783575519249421
 31
0.0
  0
LINE
  5
49B
330
2
100
AcDbEntity
  8
AM_VIS
100
AcDbLine
 10
3.653441938134785
 20
2.062348564152959
 30
0.0
 11
3.65344193813478
 21
1.075694095759894
 31
0.0
  0
LINE
  5
49C
330
2
100
AcDbEntity
  8
AM_VIS
100
AcDbLine
 10
2.569667973028626
 20
2.72072561788482
 30
0.0
 11
3.625157666887325
 21
2.111338359008621
 31
0.0
  0
LINE
  5
49D
330
2
100
AcDbEntity
  8
AM_VIS
100
AcDbLine
 10
2.981914412400698
 20
2.276375403311849
 30
0.0
 11
3.140922429565133
 21
2.184572081798654
 31
0.0
  0
LINE
  5
49E
330
2
100
AcDbEntity
  8
AM_VIS
100
AcDbLine
 10
2.980500198838323
 20
2.284061407001175
 30
0.0
 11
2.980500198838323
 21
2.278824893054635
 31
0.0
  0
LINE
  5
49F
330
2
100
AcDbEntity
  8
AM_VIS
100
AcDbLine
 10
2.980500198838323
 20
2.284061407001175
 30
0.0
 11
3.140922429565133
 21
2.19144158890705
 31
0.0
  0
LINE
  5
4A0
330
2
100
AcDbEntity
  8
AM_VIS
100
AcDbLine
 10
2.612668578890409
 20
2.489559584686166
 30
0.0
 11
2.77167659605485
 21
2.397756263172968
 31
0.0
  0
LINE
  5
4A1
330
2
100
AcDbEntity
  8
AM_VIS
100
AcDbLine
 10
2.611254365328036
 20
2.497245588375489
 30
0.0
 11
2.611254365328036
 21
2.492009074428949
 31
0.0
  0
LINE
  5
4A2
330
2
100
AcDbEntity
  8
AM_VIS
100
AcDbLine
 10
2.611254365328036
 20
2.497245588375489
 30
0.0
 11
2.77167659605485
 21
2.404625770281362
 31
0.0
  0
LINE
  5
4A3
330
2
100
AcDbEntity
  8
AM_VIS
100
AcDbLine
 10
3.462024230171271
 20
0.8370870774284703
 30
0.0
 11
3.364867758436239
 21
0.7809937623187368
 31
0.0
  0
LINE
  5
4A4
330
2
100
AcDbEntity
  8
AM_VIS
100
AcDbLine
 10
3.242221036923896
 20
2.266726005759384
 30
0.0
 11
3.145064565188865
 21
2.210632690649649
 31
0.0
  0
LINE
  5
4A5
330
2
100
AcDbEntity
  8
AM_VIS
100
AcDbLine
 10
2.872975203413611
 20
2.479910187133695
 30
0.0
 11
2.775818731678581
 21
2.423816872023961
 31
0.0
  0
LINE
  5
4A6
330
2
100
AcDbEntity
  8
AM_VIS
100
AcDbLine
 10
2.387309036456924
 20
2.743532589877053
 30
0.0
 11
2.290152564721894
 21
2.687439274767319
 31
0.0
  0
LINE
  5
4A7
330
2
100
AcDbEntity
  8
AM_VIS
100
AcDbLine
 10
2.549667973028626
 20
2.722706770799089
 30
0.0
 11
2.505195714438539
 21
2.697030700330633
 31
0.0
  0
LINE
  5
4A8
330
2
100
AcDbEntity
  8
AM_VIS
100
AcDbLine
 10
3.645157666887319
 20
1.057383011227071
 30
0.0
 11
3.480695751490906
 21
0.962430880101513
 31
0.0
  0
ELLIPSE
  5
4A9
330
2
100
AcDbEntity
  8
AM_VIS
100
AcDbEllipse
 10
2.287634134143136
 20
1.422518948773871
 30
0.0
 11
-0.2737500000000244
 21
0.4741489085719662
 31
0.0
210
0.0
220
0.0
230
0.9999999999999998
 40
0.5773502691896275
 41
4.117139199355448
 42
4.240450438715622
  0
ELLIPSE
  5
4AA
330
2
100
AcDbEntity
  8
AM_VIS
100
AcDbEllipse
 10
2.287634134143136
 20
1.422518948773871
 30
0.0
 11
-0.2737500000000244
 21
0.4741489085719662
 31
0.0
210
0.0
220
0.0
230
0.9999999999999998
 40
0.5773502691896275
 41
4.913468286124957
 42
5.048786386360773
  0
ELLIPSE
  5
4AB
330
2
100
AcDbEntity
  8
AM_VIS
100
AcDbEllipse
 10
2.287634134143136
 20
1.422518948773871
 30
0.0
 11
-0.2737500000000244
 21
0.4741489085719662
 31
0.0
210
0.0
220
0.0
230
0.9999999999999998
 40
0.5773502691896275
 41
5.754994881575859
 42
5.834184549758222
  0
ELLIPSE
  5
4AC
330
2
100
AcDbEntity
  8
AM_VIS
100
AcDbEllipse
 10
2.739121813930749
 20
1.683185482235044
 30
0.0
 11
-0.2737499999999962
 21
0.4741489085719824
 31
0.0
210
0.0
220
0.0
230
0.9999999999999998
 40
0.5773502691896275
 41
5.658292767339021
 42
5.694844771563642
  0
ELLIPSE
  5
4AD
330
2
100
AcDbEntity
  8
AM_VIS
100
AcDbEllipse
 10
2.739121813930749
 20
1.683185482235044
 30
0.0
 11
-0.2987500000000269
 21
0.5174501787611867
 31
0.0
210
0.0
220
0.0
230
1.0
 40
0.5773502691896276
 41
5.644759205954231
 42
6.077134595856702
  0
ELLIPSE
  5
4AE
330
2
100
AcDbEntity
  8
AM_VIS
100
AcDbEllipse
 10
2.739121813930749
 20
1.683185482235044
 30
0.0
 11
-0.2987500000000269
 21
0.5174501787611867
 31
0.0
210
0.0
220
0.0
230
1.0
 40
0.5773502691896276
 41
3.347643364912352
 42
5.350815081609723
  0
ELLIPSE
  5
4AF
330
2
100
AcDbEntity
  8
AM_VIS
100
AcDbEllipse
 10
2.785818731678579
 20
2.406496363948273
 30
0.0
 11
-0.0099999999999999
 21
0.0173205080756889
 31
0.0
210
0.0
220
0.0
230
1.0
 40
0.5773502691896276
 41
5.497787143782145
 42
7.06858347057704
  0
ELLIPSE
  5
4B0
330
2
100
AcDbEntity
  8
AM_VIS
100
AcDbEllipse
 10
2.869201591479558
 20
2.358355247396377
 30
0.0
 11
-0.0099999999999999
 21
0.0173205080756889
 31
0.0
210
0.0
220
0.0
230
1.0
 40
0.5773502691896276
 41
3.926990816987251
 42
5.497787143782145
  0
ARC
  5
4B1
330
2
100
AcDbEntity
  8
AM_VIS
100
AcDbCircle
 10
3.139508216002761
 20
2.074834941321966
 30
0.0
 40
0.0016329931618555
100
AcDbArc
 50
239.9999999999983
 51
329.9999999999983
  0
ELLIPSE
  5
4B2
330
2
100
AcDbEntity
  8
AM_VIS
100
AcDbEllipse
 10
3.155064565188864
 20
2.19331218257396
 30
0.0
 11
-0.0099999999999999
 21
0.0173205080756889
 31
0.0
210
0.0
220
0.0
230
1.0
 40
0.5773502691896276
 41
5.497787143782128
 42
7.068583470577022
  0
ELLIPSE
  5
4B3
330
2
100
AcDbEntity
  8
AM_VIS
100
AcDbEllipse
 10
3.319790718436243
 20
2.040926927195882
 30
0.0
 11
-0.0450770399999994
 21
0.078075723534815
 31
0.0
210
0.0
220
0.0
230
1.0
 40
0.5773502691896276
 41
3.926990816987246
 42
5.497787143782143
  0
ELLIPSE
  5
4B4
330
2
100
AcDbEntity
  8
AM_VIS
100
AcDbEllipse
 10
3.31979071843624
 20
0.8590694858535513
 30
0.0
 11
-0.0450770399999994
 21
0.078075723534815
 31
0.0
210
0.0
220
0.0
230
1.0
 40
0.5773502691896276
 41
2.35619449019235
 42
3.926990816987246
  0
ELLIPSE
  5
4B5
330
2
100
AcDbEntity
  8
AM_VIS
100
AcDbEllipse
 10
3.155064565188856
 20
0.8968936083153719
 30
0.0
 11
-0.0099999999999999
 21
0.0173205080756889
 31
0.0
210
0.0
220
0.0
230
1.0
 40
0.5773502691896276
 41
0.7853981633974611
 42
2.356194490192535
  0
ARC
  5
4B6
330
2
100
AcDbEntity
  8
AM_VIS
100
AcDbCircle
 10
3.139508216002756
 20
1.03333377434777
 30
0.0
 40
0.0016329931618555
100
AcDbArc
 50
329.9999999999997
 51
59.99999999999968
  0
ELLIPSE
  5
4B7
330
2
100
AcDbEntity
  8
AM_VIS
100
AcDbEllipse
 10
2.335229604721893
 20
2.609363551232503
 30
0.0
 11
-0.0450770399999994
 21
0.078075723534815
 31
0.0
210
0.0
220
0.0
230
1.0
 40
0.5773502691896276
 41
5.497787143782143
 42
7.068583470577039
  0
ELLIPSE
  5
4B8
330
2
100
AcDbEntity
  8
AM_VIS
100
AcDbEllipse
 10
2.499955757969274
 20
2.571539428770685
 30
0.0
 11
-0.0099999999999999
 21
0.0173205080756889
 31
0.0
210
0.0
220
0.0
230
1.0
 40
0.5773502691896276
 41
3.926990816987426
 42
5.497787143782145
  0
ARC
  5
4B9
330
2
100
AcDbEntity
  8
AM_VIS
100
AcDbCircle
 10
2.515512107155376
 20
2.435099262738288
 30
0.0
 40
0.0016329931618555
100
AcDbArc
 50
149.9999999999969
 51
239.9999999999969
  0
ELLIPSE
  5
4BA
330
2
100
AcDbEntity
  8
AM_VIS
100
AcDbEllipse
 10
3.416947190171275
 20
2.097020242305617
 30
0.0
 11
-0.0450770399999994
 21
0.078075723534815
 31
0.0
210
0.0
220
0.0
230
1.0
 40
0.5773502691896276
 41
3.926990816987243
 42
5.497787143782138
  0
ELLIPSE
  5
4BB
330
2
100
AcDbEntity
  8
AM_VIS
100
AcDbEllipse
 10
3.252221036923897
 20
2.249405497683695
 30
0.0
 11
-0.0099999999999999
 21
0.0173205080756889
 31
0.0
210
0.0
220
0.0
230
1.0
 40
0.5773502691896276
 41
5.49778714378215
 42
6.283185307179602
  0
ELLIPSE
  5
4BC
330
2
100
AcDbEntity
  8
AM_VIS
100
AcDbEllipse
 10
2.96635806321459
 20
2.414448562506109
 30
0.0
 11
-0.0099999999999999
 21
0.0173205080756889
 31
0.0
210
0.0
220
0.0
230
1.0
 40
0.5773502691896276
 41
3.926990816987231
 42
5.497787143782129
  0
ELLIPSE
  5
4BD
330
2
100
AcDbEntity
  8
AM_VIS
100
AcDbEllipse
 10
2.882975203413611
 20
2.462589679058006
 30
0.0
 11
-0.0099999999999999
 21
0.0173205080756889
 31
0.0
210
0.0
220
0.0
230
1.0
 40
0.5773502691896276
 41
5.497787143782145
 42
6.283185307179598
  0
ELLIPSE
  5
4BE
330
2
100
AcDbEntity
  8
AM_VIS
100
AcDbEllipse
 10
2.597112229704306
 20
2.627632743880418
 30
0.0
 11
-0.0099999999999999
 21
0.0173205080756889
 31
0.0
210
0.0
220
0.0
230
1.0
 40
0.5773502691896276
 41
3.926990816987431
 42
5.497787143782152
  0
ELLIPSE
  5
4BF
330
2
100
AcDbEntity
  8
AM_VIS
100
AcDbEllipse
 10
2.432386076456924
 20
2.665456866342238
 30
0.0
 11
-0.0450770399999994
 21
0.078075723534815
 31
0.0
210
0.0
220
0.0
230
1.0
 40
0.5773502691896276
 41
5.497787143782143
 42
6.283185307179595
  0
ELLIPSE
  5
4C0
330
2
100
AcDbEntity
  8
AM_VIS
100
AcDbEllipse
 10
3.416947190171272
 20
0.9151628009632851
 30
0.0
 11
-0.0450770399999994
 21
0.078075723534815
 31
0.0
210
0.0
220
0.0
230
1.0
 40
0.5773502691896276
 41
3.141592653589802
 42
3.926990816987246
  0
ELLIPSE
  5
4C1
330
2
100
AcDbEntity
  8
AM_VIS
100
AcDbEllipse
 10
2.569667973028626
 20
2.688065754647712
 30
0.0
 11
-0.0199999999999997
 21
0.0346410161513777
 31
0.0
210
0.0
220
0.0
230
1.0
 40
0.5773502691896276
 41
5.497787143782136
 42
6.283185307179588
  0
ELLIPSE
  5
4C2
330
2
100
AcDbEntity
  8
AM_VIS
100
AcDbEllipse
 10
3.625157666887319
 20
1.092024027378448
 30
0.0
 11
-0.0199999999999997
 21
0.0346410161513777
 31
0.0
210
0.0
220
0.0
230
1.0
 40
0.5773502691896276
 41
3.141592653589798
 42
3.92699081698724
  0
ELLIPSE
  5
4C3
330
2
100
AcDbEntity
  8
AM_VIS
100
AcDbEllipse
 10
3.625157666887325
 20
2.078678495771513
 30
0.0
 11
-0.0199999999999997
 21
0.0346410161513777
 31
0.0
210
0.0
220
0.0
230
1.0
 40
0.5773502691896276
 41
3.926990816987249
 42
5.497787143782145
  0
ARC
  5
4C4
330
2
100
AcDbEntity
  8
AM_VIS
100
AcDbCircle
 10
2.981914412400698
 20
2.278008396473707
 30
0.0
 40
0.0016329931618555
100
AcDbArc
 50
150.0000000000079
 51
240.0000000000079
  0
ARC
  5
4C5
330
2
100
AcDbEntity
  8
AM_VIS
100
AcDbCircle
 10
2.612668578890409
 20
2.491192577848021
 30
0.0
 40
0.0016329931618555
100
AcDbArc
 50
149.9999999999969
 51
239.9999999999969
  0
LINE
  5
4C6
330
2
100
AcDbEntity
  8
AM_VIS
100
AcDbLine
 10
3.566688534501661
 20
2.868430368423126
 30
0.0
 11
3.566688534501662
 21
2.986087006686323
 31
0.0
  0
LINE
  5
4C7
330
2
100
AcDbEntity
  8
AM_VIS
100
AcDbLine
 10
3.06464271985921
 20
2.55742630169927
 30
0.0
 11
3.19218241458939
 21
2.631061378784101
 31
0.0
  0
LINE
  5
4C8
330
2
100
AcDbEntity
  8
AM_VIS
100
AcDbLine
 10
3.450259103770066
 20
2.780062024754129
 30
0.0
 11
3.479250481798713
 21
2.796800204663146
 31
0.0
  0
LINE
  5
4C9
330
2
100
AcDbEntity
  8
AM_VIS
100
AcDbLine
 10
3.566688534501662
 20
2.986087006686325
 30
0.0
 11
3.297987957650774
 21
3.141221357062593
 31
0.0
  0
LINE
  5
4CA
330
2
100
AcDbEntity
  8
AM_VIS
100
AcDbLine
 10
2.944434567057498
 20
2.62682851107813
 30
0.0
 11
3.355506795091066
 21
2.864161172589685
 31
0.0
  0
LINE
  5
4CB
330
2
100
AcDbEntity
  8
AM_VIS
100
AcDbLine
 10
3.456348711890033
 20
2.922382280399165
 30
0.0
 11
3.566688534501662
 21
2.986087006686323
 31
0.0
  0
LINE
  5
4CC
330
2
100
AcDbEntity
  8
AM_VIS
100
AcDbLine
 10
3.476665242838151
 20
2.319544987145191
 30
0.0
 11
4.098919210282314
 21
2.678803482753384
 31
0.0
  0
LINE
  5
4CD
330
2
100
AcDbEntity
  8
AM_VIS
100
AcDbLine
 10
2.569667973028627
 20
2.72072561788482
 30
0.0
 11
3.625157666887323
 21
2.111338359008623
 31
0.0
  0
LINE
  5
4CE
330
2
100
AcDbEntity
  8
AM_VIS
100
AcDbLine
 10
3.653441938134785
 20
2.062348564152959
 30
0.0
 11
3.65344193813478
 21
1.075694095759889
 31
0.0
  0
LINE
  5
4CF
330
2
100
AcDbEntity
  8
AM_VIS
100
AcDbLine
 10
4.353477651509471
 20
2.531834098186394
 30
0.0
 11
4.098919210282314
 21
2.678803482753384
 31
0.0
  0
LINE
  5
4D0
330
2
100
AcDbEntity
  8
AM_VIS
100
AcDbLine
 10
4.381761922756926
 20
1.496189834937661
 30
0.0
 11
4.381761922756933
 21
2.482844303330731
 31
0.0
  0
LINE
  5
4D1
330
2
100
AcDbEntity
  8
AM_VIS
100
AcDbLine
 10
3.098866688068636
 20
2.537667084440816
 30
0.0
 11
3.192182414589388
 21
2.591542944267195
 31
0.0
  0
LINE
  5
4D2
330
2
100
AcDbEntity
  8
AM_VIS
100
AcDbLine
 10
3.476665242838151
 20
2.31954498714519
 30
0.0
 11
2.944434567057498
 21
2.626828511078128
 31
0.0
  0
LINE
  5
4D3
330
2
100
AcDbEntity
  8
AM_VIS
100
AcDbLine
 10
2.549667973028627
 20
2.722706770799089
 30
0.0
 11
3.277987957650774
 21
3.143202509976861
 31
0.0
  0
LINE
  5
4D4
330
2
100
AcDbEntity
  8
AM_VIS
100
AcDbLine
 10
3.645157666887319
 20
1.057383011227067
 30
0.0
 11
4.373477651509466
 21
1.477878750404839
 31
0.0
  0
ELLIPSE
  5
4D5
330
2
100
AcDbEntity
  8
AM_VIS
100
AcDbEllipse
 10
3.297987957650774
 20
3.108561493825482
 30
0.0
 11
-0.0200000000000018
 21
0.0346410161513765
 31
0.0
210
0.0
220
0.0
230
1.0
 40
0.5773502691896275
 41
5.497787143781978
 42
6.283185307179411
  0
ELLIPSE
  5
4D6
330
2
100
AcDbEntity
  8
AM_VIS
100
AcDbEllipse
 10
2.569667973028627
 20
2.68806575464771
 30
0.0
 11
-0.0199999999999997
 21
0.0346410161513777
 31
0.0
210
0.0
220
0.0
230
1.0
 40
0.5773502691896275
 41
5.497787143782138
 42
6.283185307179634
  0
ELLIPSE
  5
4D7
330
2
100
AcDbEntity
  8
AM_VIS
100
AcDbEllipse
 10
3.625157666887319
 20
1.092024027378444
 30
0.0
 11
-0.0199999999999997
 21
0.0346410161513777
 31
0.0
210
0.0
220
0.0
230
1.0
 40
0.5773502691896275
 41
3.141592653589893
 42
3.92699081698724
  0
ELLIPSE
  5
4D8
330
2
100
AcDbEntity
  8
AM_VIS
100
AcDbEllipse
 10
4.353477651509465
 20
1.512519766556215
 30
0.0
 11
-0.0200000000000018
 21
0.0346410161513765
 31
0.0
210
0.0
220
0.0
230
1.0
 40
0.5773502691896275
 41
3.141592653589642
 42
3.926990816987077
  0
ELLIPSE
  5
4D9
330
2
100
AcDbEntity
  8
AM_VIS
100
AcDbEllipse
 10
3.625157666887325
 20
2.078678495771513
 30
0.0
 11
-0.0199999999999997
 21
0.0346410161513777
 31
0.0
210
0.0
220
0.0
230
1.0
 40
0.5773502691896275
 41
3.926990816987249
 42
5.497787143782145
  0
ELLIPSE
  5
4DA
330
2
100
AcDbEntity
  8
AM_VIS
100
AcDbEllipse
 10
4.353477651509471
 20
2.499174234949284
 30
0.0
 11
-0.0200000000000018
 21
0.0346410161513765
 31
0.0
210
0.0
220
0.0
230
0.9999999999999998
 40
0.5773502691896275
 41
3.926990816987078
 42
5.497787143781974
  0
LINE
  5
4DB
330
2
100
AcDbEntity
  8
AM_VIS
100
AcDbLine
 10
3.19218241458939
 20
2.666441048876805
 30
0.0
 11
3.376719998526663
 21
2.772983872638591
 31
0.0
  0
LINE
  5
4DC
330
2
100
AcDbEntity
  8
AM_VIS
100
AcDbLine
 10
3.839905597190223
 20
2.52926190351089
 30
0.0
 11
3.697746477185356
 21
2.611337509713461
 31
0.0
  0
LINE
  5
4DD
330
2
100
AcDbEntity
  8
AM_VIS
100
AcDbLine
 10
3.624207371941955
 20
2.653795331921703
 30
0.0
 11
3.574002790477709
 21
2.682780960544636
 31
0.0
  0
LINE
  5
4DE
330
2
100
AcDbEntity
  8
AM_VIS
100
AcDbLine
 10
3.50046368523431
 20
2.725238782752878
 30
0.0
 11
3.450259103770064
 21
2.754224411375812
 31
0.0
  0
LINE
  5
4DF
330
2
100
AcDbEntity
  8
AM_VIS
100
AcDbLine
 10
3.480311141970493
 20
2.33384352269015
 30
0.0
 11
3.487382209782357
 21
2.337926005594789
 31
0.0
  0
ENDSEC
  0
SECTION
  2
OBJECTS
  0
DICTIONARY
  5
8
330
0
100
AcDbDictionary
281
     1
  3
ACAD_COLOR
350
2C
  3
ACAD_GROUP
350
28
  3
ACAD_IMAGE_DICT
350
38D
  3
ACAD_IMAGE_VARS
350
4E4
  3
ACAD_LAYOUT
350
C
  3
ACAD_MATERIAL
350
2B
  3
ACAD_MLINESTYLE
350
29
  3
ACAD_PLOTSETTINGS
350
2A
  3
ACAD_PLOTSTYLENAME
350
7
  3
ACAD_TABLESTYLE
350
2D
  3
ACDBHEADERROUNDTRIPXREC
350
8CA
  3
AcDbVariableDictionary
350
4E6
  3
AcmDictionary
350
872
  3
AMG
350
78F
  3
AMGSNAPSETTINGS
350
8B5
  3
DWGPROPS
350
8C9
  3
MAPISURF_MODULE
350
840
  0
DICTIONARY
  5
17
330
16
100
AcDbDictionary
280
     1
281
     1
  3
ACAD_LAYERSTATES
360
18
  0
DICTIONARY
  5
3
330
2
100
AcDbDictionary
280
     1
281
     1
  3
ACAD_INDEX
360
8BD
  0
DICTIONARY
  5
E
330
D
100
AcDbDictionary
280
     1
281
     1
  3
ACAD_SORTENTS
360
4E0
  0
DICTIONARY
  5
8CE
330
370
100
AcDbDictionary
280
     1
281
     1
  3
ACAD_MTEXT_RT
360
8CF
  0
IMAGEDEF_REACTOR
  5
38E
330
38B
100
AcDbRasterImageDefReactor
 90
        2
330
38B
  0
DICTIONARY
  5
2C
102
{ACAD_REACTORS
330
8
102
}
330
8
100
AcDbDictionary
281
     1
  0
DICTIONARY
  5
28
102
{ACAD_REACTORS
330
8
102
}
330
8
100
AcDbDictionary
281
     1
  0
DICTIONARY
  5
38D
102
{ACAD_REACTORS
330
8
102
}
330
8
100
AcDbDictionary
281
     1
  3
c3 logo 05
350
38C
  0
RASTERVARIABLES
  5
4E4
102
{ACAD_REACTORS
330
8
102
}
330
8
100
AcDbRasterVariables
 90
        0
 70
     1
 71
     1
 72
     5
  0
DICTIONARY
  5
C
102
{ACAD_REACTORS
330
8
102
}
330
8
100
AcDbDictionary
281
     1
  3
Layout1
350
12
  3
Model
350
B
  0
DICTIONARY
  5
2B
102
{ACAD_REACTORS
330
8
102
}
330
8
100
AcDbDictionary
281
     1
  0
DICTIONARY
  5
29
102
{ACAD_REACTORS
330
8
102
}
330
8
100
AcDbDictionary
281
     1
  3
Standard
350
2E
  0
DICTIONARY
  5
2A
102
{ACAD_REACTORS
330
8
102
}
330
8
100
AcDbDictionary
281
     1
  0
ACDBDICTIONARYWDFLT
  5
7
102
{ACAD_REACTORS
330
8
102
}
330
8
100
AcDbDictionary
281
     1
  3
Normal
350
6
100
AcDbDictionaryWithDefault
340
6
  0
DICTIONARY
  5
2D
102
{ACAD_REACTORS
330
8
102
}
330
8
100
AcDbDictionary
281
     1
  3
Standard
350
2F
  0
DICTIONARY
  5
8CA
102
{ACAD_REACTORS
330
8
102
}
330
8
100
AcDbDictionary
281
     1
  0
DICTIONARY
  5
4E6
102
{ACAD_REACTORS
330
8
102
}
330
8
100
AcDbDictionary
281
     1
  3
CTABLESTYLE
350
4E7
  3
DIMASSOC
350
4E9
  3
HIDETEXT
350
4E8
  3
INDEXCTL
350
8C7
  3
PROJECTNAME
350
4EA
  0
DICTIONARY
  5
872
102
{ACAD_REACTORS
330
8
102
}
330
8
100
AcDbDictionary
281
     1
  3
AcmStdDictionary
350
882
  3
AMDTSECTSYM_ARROWCOLOR
350
8A0
  0
DICTIONARY
  5
78F
102
{ACAD_REACTORS
330
8
102
}
330
8
100
AcDbDictionary
281
     1
  3
AcMgSettings
350
790
  0
DICTIONARY
  5
8B5
102
{ACAD_REACTORS
330
8
102
}
330
8
100
AcDbDictionary
281
     1
  3
DIMENSION
350
8BA
  3
FEA
350
8B9
  3
HATCH (1)
350
8B6
  3
HATCH (2)
350
8B7
  3
SIMPLE WELD
350
8BB
  3
SYMBOLS
350
8B8
  0
XRECORD
  5
8C9
102
{ACAD_REACTORS
330
8
102
}
330
8
100
AcDbXrecord
280
     1
  1
DWGPROPS COOKIE
  2

  3

  4

  6

  7

  8

  9

300
AmdtFileType=84
301
=
302
=
303
=
304
=
305
=
306
=
307
=
308
=
309
=
 40
0.8727173958333333
 41
2451767.623554144
 42
2454293.720765949
  1

 90
        1
  0
DICTIONARY
  5
18
102
{ACAD_REACTORS
330
17
102
}
330
17
100
AcDbDictionary
281
     1
  0
DICTIONARY
  5
8BD
102
{ACAD_REACTORS
330
3
102
}
330
3
100
AcDbDictionary
281
     1
  3
*A1
350
8BE
  0
SORTENTSTABLE
  5
4E0
102
{ACAD_REACTORS
330
E
102
}
330
E
100
AcDbSortentsTable
330
D
  0
XRECORD
  5
8CF
102
{ACAD_REACTORS
330
8CE
102
}
330
8CE
100
AcDbXrecord
280
     1
 40
303599.0
  1
{\fArial|b0|i0|c0|p34;P.O. BOX 496^IBEAVER, PA 15009^I\C256;www.c3controls.com}
  0
IMAGEDEF
  5
38C
102
{ACAD_REACTORS
330
38D
330
38E
102
}
330
38D
100
AcDbRasterImageDef
 90
        0
  1
K:\Archive- EngrDwgs\Borders\Title Blocks\c3 logo Size A.bmp
 10
223.0
 20
45.0
 11
0.264550269889837
 21
0.264550269889837
280
     1
281
     2
  0
LAYOUT
  5
12
102
{ACAD_XDICTIONARY
360
13
102
}
102
{ACAD_REACTORS
330
C
102
}
330
C
100
AcDbPlotSettings
  1

  2
\\SBSSERVER\HP DesignJet 750C (D/A1) Color
  4
User142
  6

 40
18.82774925231933
 41
6.805085182189941
 42
18.74307250976562
 43
6.805084228515625
 44
279.3999938964844
 45
431.7999877929686
 46
-18.79923960070686
 47
-6.817844830430915
 48
0.0
 49
0.0
140
0.0
141
0.0
142
1.0
143
1.0
 70
   692
 72
     0
 73
     1
 74
     1
  7

 75
    16
147
1.0
148
4.987646615832666
149
16.94266665743277
100
AcDbLayout
  1
Layout1
 70
     1
 71
     1
 10
-0.1958616540912353
 20
-0.6681565476002067
 11
16.80413786531698
 21
10.3318432121039
 12
0.0
 22
0.0
 32
0.0
 14
-0.1961470455140741
 24
-0.6674552712129689
 34
-0.460014037014933
 15
16.80513795887893
 25
10.33384287778471
 35
0.0000140391569747
146
0.0
 13
0.0
 23
0.0
 33
0.0
 16
1.0
 26
0.0
 36
0.0
 17
0.0
 27
1.0
 37
0.0
 76
     0
330
D
1001
ACAD_PSEXT
1000
\\SBSSERVER\HP DesignJet 750C (D/A1) Color
1000
HP DesignJet 750C (D/A1) Color
1000
Engineering
1000

1070
     0
  0
LAYOUT
  5
B
102
{ACAD_XDICTIONARY
360
8CB
102
}
102
{ACAD_REACTORS
330
C
102
}
330
C
100
AcDbPlotSettings
  1

  2
\\COMPUTER24\KATHY'S NEC
  4

  6

 40
0.0
 41
0.0
 42
0.0
 43
0.0
 44
0.0
 45
0.0
 46
0.0
 47
0.0
 48
0.0
 49
0.0
140
0.0
141
0.0
142
1.0
143
1.0
 70
  1712
 72
     0
 73
     0
 74
     0
  7

 75
     0
147
1.0
148
0.0
149
0.0
100
AcDbLayout
  1
Model
 70
     1
 71
     0
 10
0.0
 20
0.0
 11
12.0
 21
9.0
 12
0.0
 22
0.0
 32
0.0
 14
0.0
 24
0.0
 34
0.0
 15
0.0
 25
0.0
 35
0.0
146
0.0
 13
0.0
 23
0.0
 33
0.0
 16
1.0
 26
0.0
 36
0.0
 17
0.0
 27
1.0
 37
0.0
 76
     0
330
2
  0
MLINESTYLE
  5
2E
102
{ACAD_REACTORS
330
29
102
}
330
29
100
AcDbMlineStyle
  2
STANDARD
 70
     0
  3

 62
   256
 51
90.0
 52
90.0
 71
     2
 49
0.5
 62
   256
  6
BYLAYER
 49
-0.5
 62
   256
  6
BYLAYER
  0
ACDBPLACEHOLDER
  5
6
102
{ACAD_REACTORS
330
7
102
}
330
7
  0
TABLESTYLE
  5
2F
102
{ACAD_REACTORS
330
2D
102
}
330
2D
100
AcDbTableStyle
  3
Standard
 70
     0
 71
     0
 40
0.06
 41
0.06
280
     0
281
     0
  7
Standard
140
0.18
170
     2
 62
     0
 63
     7
283
     0
274
    -2
284
     1
 64
     0
275
    -2
285
     1
 65
     0
276
    -2
286
     1
 66
     0
277
    -2
287
     1
 67
     0
278
    -2
288
     1
 68
     0
279
    -2
289
     1
 69
     0
  7
Standard
140
0.25
170
     5
 62
     0
 63
     7
283
     0
274
    -2
284
     1
 64
     0
275
    -2
285
     1
 65
     0
276
    -2
286
     1
 66
     0
277
    -2
287
     1
 67
     0
278
    -2
288
     1
 68
     0
279
    -2
289
     1
 69
     0
  7
Standard
140
0.18
170
     5
 62
     0
 63
     7
283
     0
274
    -2
284
     1
 64
     0
275
    -2
285
     1
 65
     0
276
    -2
286
     1
 66
     0
277
    -2
287
     1
 67
     0
278
    -2
288
     1
 68
     0
279
    -2
289
     1
 69
     0
  0
DICTIONARYVAR
  5
4E7
102
{ACAD_REACTORS
330
4E6
102
}
330
4E6
100
DictionaryVariables
280
     0
  1
STANDARD
  0
DICTIONARYVAR
  5
4E9
102
{ACAD_REACTORS
330
4E6
102
}
330
4E6
100
DictionaryVariables
280
     0
  1
1
  0
DICTIONARYVAR
  5
4E8
102
{ACAD_REACTORS
330
4E6
102
}
330
4E6
100
DictionaryVariables
280
     0
  1
1
  0
DICTIONARYVAR
  5
8C7
102
{ACAD_REACTORS
330
4E6
102
}
330
4E6
100
DictionaryVariables
280
     0
  1
1
  0
DICTIONARYVAR
  5
4EA
102
{ACAD_REACTORS
330
4E6
102
}
330
4E6
100
DictionaryVariables
280
     0
  1

  0
DICTIONARY
  5
882
102
{ACAD_REACTORS
330
872
102
}
330
872
100
AcDbDictionary
281
     1
  0
XRECORD
  5
8A0
102
{ACAD_REACTORS
330
872
102
}
330
872
100
AcDbXrecord
280
     1
 90
-1023410169
  0
DICTIONARY
  5
790
102
{ACAD_REACTORS
330
78F
102
}
330
78F
100
AcDbDictionary
281
     1
  3
DWGSETTINGS
350
791
  3
TRANSSETTINGS
350
795
  0
ACAMGFILTERDAT
  5
8BA
102
{ACAD_REACTORS
330
8B5
102
}
330
8B5
100
AcAmgFilterDat
 70
    15
  1
DIMENSION,AMDT_*_DIM
  2
*
  3
*
  4
*
  5
*
290
     1
  0
ACAMGFILTERDAT
  5
8B9
102
{ACAD_REACTORS
330
8B5
102
}
330
8B5
100
AcAmgFilterDat
 70
    15
  1
*
  2
AM_FEA-AM_*
  3
*
  4
*
  5
*
290
     1
  0
ACAMGFILTERDAT
  5
8B6
102
{ACAD_REACTORS
330
8B5
102
}
330
8B5
100
AcAmgFilterDat
 70
    15
  1
HATCH
  2
*
  3
*
  4
*
  5
*
290
     1
  0
ACAMGFILTERDAT
  5
8B7
102
{ACAD_REACTORS
330
8B5
102
}
330
8B5
100
AcAmgFilterDat
 70
    15
  1
LINE
  2
8,8N,*-8,*-8N,AM_8,AM_8N,*-AM_8,*-AM_8N
  3
*
  4
*
  5
INSERT,STDPART2D
290
     1
  0
ACAMGFILTERDAT
  5
8BB
102
{ACAD_REACTORS
330
8B5
102
}
330
8B5
100
AcAmgFilterDat
 70
    15
  1
ARC
  2
AM_5
  3
*
  4
2
  5
INSERT
290
     0
  0
ACAMGFILTERDAT
  5
8B8
102
{ACAD_REACTORS
330
8B5
102
}
330
8B5
100
AcAmgFilterDat
 70
    15
  1
ACMFCFRAME,ACMDATUMTARGET,ACMDATUMID,ACMWELDSYM,ACMSURFSYM,ACMFEATID,ACMPARTREF,ACMBALLOON,AMDTEDGESYM,AMGSCREWCALCTABLE
  2
*
  3
*
  4
*
  5
*
290
     1
  0
LAYER_INDEX
  5
8BE
102
{ACAD_REACTORS
330
8BD
102
}
330
8BD
100
AcDbIndex
 40
2454293.720765949
100
AcDbLayerIndex
  8
0
360
8BF
 90
       82
  8
AM_VIS
360
8C0
 90
      890
  8
CENTER
360
8C1
 90
        1
  8
PHANTOM
360
8C2
 90
        4
  8
10
360
8C3
 90
       81
  8
DIMENSION
360
8C4
 90
       32
  8
Defpoints
360
8C5
 90
        0
  8
14-20-HEXNUT
360
8C6
 90
        1
  0
DICTIONARY
  5
13
330
12
100
AcDbDictionary
280
     1
281
     1
  3
ACAD_XREC_ROUNDTRIP
360
8CD
  3
ADSK_XREC_LAYOUTTHUMBNAIL
360
14
  0
DICTIONARY
  5
8CB
330
B
100
AcDbDictionary
280
     1
281
     1
  3
ACAD_XREC_ROUNDTRIP
360
8CC
  0
IDBUFFER
  5
8BF
330
0
100
AcDbIdBuffer
330
39D
330
39E
330
39F
330
3A0
330
3A1
330
3A2
330
3A3
330
3A4
330
3A5
330
3A6
330
3A7
330
3A8
330
3A9
330
3AA
330
3AB
330
3AC
330
3AD
330
3AE
330
3AF
330
3B0
330
3B1
330
3B2
330
3B3
330
3B4
330
3B5
330
3B6
330
3B7
330
3B8
330
3B9
330
3BA
330
3C5
330
3C6
330
3C7
330
3C8
330
294
330
299
330
29E
330
2A3
330
2A8
330
2AD
330
2B2
330
2B7
330
371
330
372
330
374
330
375
330
376
330
377
330
378
330
379
330
37A
330
37B
330
37C
330
37D
330
37E
330
37F
330
380
330
381
330
382
330
383
330
384
330
385
330
386
330
387
330
388
330
389
330
38A
330
38B
330
38F
330
390
330
391
330
392
330
393
330
394
330
395
330
396
330
397
330
398
330
399
330
39A
330
39B
330
39C
  0
IDBUFFER
  5
8C0
330
0
100
AcDbIdBuffer
330
221
330
222
330
223
330
224
330
225
330
226
330
227
330
228
330
229
330
22A
330
22B
330
22C
330
22D
330
22E
330
22F
330
230
330
231
330
232
330
233
330
234
330
235
330
236
330
237
330
238
330
239
330
23A
330
23B
330
23C
330
23D
330
23E
330
23F
330
240
330
241
330
242
330
243
330
244
330
245
330
246
330
247
330
248
330
249
330
24A
330
24B
330
24C
330
24D
330
24E
330
24F
330
250
330
251
330
252
330
253
330
254
330
255
330
256
330
257
330
258
330
259
330
25A
330
25B
330
25C
330
25D
330
25E
330
25F
330
260
330
261
330
262
330
263
330
264
330
265
330
266
330
267
330
268
330
269
330
26A
330
26B
330
26C
330
26D
330
26E
330
26F
330
270
330
271
330
272
330
273
330
274
330
275
330
276
330
277
330
278
330
279
330
27A
330
27B
330
27C
330
27D
330
27E
330
27F
330
280
330
281
330
282
330
283
330
284
330
285
330
286
330
287
330
288
330
289
330
28A
330
28B
330
28C
330
28D
330
28E
330
28F
330
290
330
291
330
292
330
293
330
3C9
330
3CA
330
3CB
330
3CC
330
3CD
330
3CE
330
3CF
330
3D0
330
3D1
330
3D2
330
3D3
330
3D4
330
3D5
330
3D6
330
3D7
330
3D8
330
3D9
330
3DA
330
3DB
330
3DC
330
3DD
330
3DE
330
3DF
330
3E0
330
3E1
330
3E2
330
3E3
330
3E4
330
3E5
330
3E6
330
3E7
330
3E8
330
3E9
330
3EA
330
3EB
330
3EC
330
3ED
330
3EE
330
3EF
330
3F0
330
3F1
330
3F2
330
3F3
330
3F4
330
3F5
330
3F6
330
3F7
330
3F8
330
3F9
330
3FA
330
3FB
330
3FC
330
3FD
330
3FE
330
3FF
330
400
330
401
330
402
330
403
330
404
330
405
330
406
330
407
330
408
330
409
330
40A
330
40B
330
40C
330
40D
330
40E
330
40F
330
410
330
411
330
412
330
413
330
414
330
415
330
416
330
417
330
418
330
419
330
41A
330
41B
330
41C
330
41D
330
41E
330
41F
330
420
330
421
330
422
330
423
330
424
330
425
330
426
330
427
330
428
330
429
330
42A
330
42B
330
42C
330
42D
330
42E
330
42F
330
430
330
431
330
432
330
433
330
434
330
435
330
436
330
437
330
438
330
439
330
43A
330
43B
330
43C
330
43D
330
43E
330
43F
330
440
330
441
330
442
330
443
330
444
330
445
330
446
330
447
330
448
330
449
330
44A
330
44B
330
44C
330
44D
330
44E
330
44F
330
450
330
451
330
452
330
453
330
454
330
455
330
456
330
457
330
458
330
459
330
45A
330
45B
330
45C
330
45D
330
45E
330
45F
330
460
330
461
330
462
330
463
330
464
330
465
330
466
330
467
330
468
330
469
330
46A
330
46B
330
46C
330
46D
330
46E
330
46F
330
470
330
471
330
472
330
473
330
474
330
475
330
476
330
477
330
478
330
479
330
47A
330
47B
330
47C
330
47D
330
47E
330
47F
330
480
330
481
330
482
330
483
330
484
330
485
330
486
330
487
330
488
330
489
330
48A
330
48B
330
48C
330
48D
330
48E
330
48F
330
490
330
491
330
492
330
493
330
494
330
495
330
496
330
497
330
498
330
499
330
49A
330
49B
330
49C
330
49D
330
49E
330
49F
330
4A0
330
4A1
330
4A2
330
4A3
330
4A4
330
4A5
330
4A6
330
4A7
330
4A8
330
4A9
330
4AA
330
4AB
330
4AC
330
4AD
330
4AE
330
4AF
330
4B0
330
4B1
330
4B2
330
4B3
330
4B4
330
4B5
330
4B6
330
4B7
330
4B8
330
4B9
330
4BA
330
4BB
330
4BC
330
4BD
330
4BE
330
4BF
330
4C0
330
4C1
330
4C2
330
4C3
330
4C4
330
4C5
330
4C6
330
4C7
330
4C8
330
4C9
330
4CA
330
4CB
330
4CC
330
4CD
330
4CE
330
4CF
330
4D0
330
4D1
330
4D2
330
4D3
330
4D4
330
4D5
330
4D6
330
4D7
330
4D8
330
4D9
330
4DA
330
4DB
330
4DC
330
4DD
330
4DE
330
4DF
330
30
330
32
330
33
330
34
330
35
330
36
330
37
330
38
330
39
330
3A
330
3B
330
3C
330
3D
330
3E
330
3F
330
40
330
41
330
42
330
43
330
44
330
45
330
46
330
47
330
48
330
49
330
4A
330
4B
330
4C
330
4D
330
4E
330
4F
330
50
330
51
330
52
330
53
330
54
330
55
330
56
330
57
330
58
330
59
330
5A
330
5B
330
5C
330
5D
330
5E
330
5F
330
60
330
61
330
62
330
63
330
64
330
65
330
66
330
67
330
68
330
69
330
6A
330
6B
330
6C
330
6D
330
6E
330
6F
330
70
330
71
330
72
330
73
330
74
330
75
330
76
330
77
330
78
330
79
330
7A
330
7B
330
7C
330
7D
330
7E
330
7F
330
80
330
81
330
82
330
83
330
84
330
85
330
86
330
87
330
88
330
89
330
8A
330
8B
330
8C
330
8D
330
8E
330
8F
330
90
330
91
330
92
330
93
330
94
330
95
330
96
330
97
330
98
330
99
330
9A
330
9B
330
9C
330
9D
330
9E
330
9F
330
A0
330
A1
330
A2
330
A3
330
A4
330
A5
330
A6
330
A7
330
A8
330
A9
330
AA
330
AB
330
AC
330
AD
330
AE
330
AF
330
B0
330
B1
330
B2
330
B3
330
B4
330
B5
330
B6
330
B7
330
B8
330
B9
330
BA
330
BB
330
BC
330
BD
330
BE
330
BF
330
C0
330
C1
330
C2
330
C3
330
C4
330
C5
330
C6
330
C7
330
C8
330
C9
330
CA
330
CB
330
CC
330
CD
330
CE
330
CF
330
D0
330
D1
330
D2
330
D3
330
D4
330
D5
330
D6
330
D7
330
D8
330
D9
330
DA
330
DB
330
DC
330
DD
330
DE
330
DF
330
E0
330
E1
330
E2
330
E3
330
E4
330
E5
330
E6
330
E7
330
E8
330
E9
330
EA
330
EB
330
EC
330
ED
330
EE
330
EF
330
F0
330
F1
330
F2
330
F3
330
F4
330
F5
330
F6
330
F7
330
F8
330
F9
330
FA
330
FB
330
FC
330
FD
330
FE
330
FF
330
100
330
101
330
102
330
103
330
104
330
105
330
106
330
107
330
108
330
109
330
10A
330
10B
330
10C
330
10D
330
10E
330
10F
330
110
330
111
330
112
330
113
330
114
330
115
330
116
330
117
330
118
330
119
330
11A
330
11B
330
11C
330
11D
330
11E
330
11F
330
120
330
121
330
122
330
123
330
124
330
125
330
126
330
127
330
128
330
129
330
12A
330
12B
330
12C
330
12D
330
12E
330
12F
330
130
330
131
330
132
330
133
330
134
330
135
330
136
330
137
330
138
330
139
330
13A
330
13B
330
13C
330
13D
330
13E
330
13F
330
140
330
141
330
142
330
143
330
144
330
145
330
146
330
147
330
148
330
149
330
14A
330
14B
330
14C
330
14D
330
14E
330
14F
330
150
330
151
330
152
330
153
330
154
330
155
330
156
330
157
330
158
330
159
330
15A
330
15B
330
15C
330
15D
330
15E
330
15F
330
160
330
161
330
162
330
163
330
164
330
165
330
166
330
167
330
168
330
169
330
16A
330
16B
330
16C
330
16D
330
16E
330
16F
330
170
330
171
330
172
330
173
330
174
330
175
330
176
330
177
330
178
330
179
330
17A
330
17B
330
17C
330
17D
330
17E
330
17F
330
180
330
181
330
182
330
183
330
184
330
185
330
186
330
187
330
188
330
189
330
18A
330
18B
330
18C
330
18D
330
18E
330
18F
330
190
330
191
330
192
330
193
330
194
330
195
330
196
330
197
330
198
330
199
330
19A
330
19B
330
19C
330
19D
330
19E
330
19F
330
1A0
330
1A1
330
1A2
330
1A3
330
1A4
330
1A5
330
1A6
330
1A7
330
1A8
330
1A9
330
1AA
330
1AB
330
1AC
330
1AD
330
1AE
330
1AF
330
1B0
330
1B1
330
1B2
330
1B3
330
1B4
330
1B5
330
1B6
330
1B7
330
1B8
330
1B9
330
1BA
330
1BB
330
1BC
330
1BD
330
1BE
330
1BF
330
1C0
330
1C1
330
1C2
330
1C3
330
1C4
330
1C5
330
1C6
330
1C7
330
1C8
330
1C9
330
1CA
330
1CB
330
1CC
330
1CD
330
1CE
330
1CF
330
1D0
330
1D1
330
1D2
330
1D3
330
1D4
330
1D5
330
1D6
330
1D7
330
1D8
330
1D9
330
1DA
330
1DB
330
1DC
330
1DD
330
1DE
330
1DF
330
1E0
330
1E1
330
1E2
330
1E3
330
1E4
330
1E5
330
1E6
330
1E7
330
1E8
330
1E9
330
1EA
330
1EB
330
1EC
330
1ED
330
1EE
330
1EF
330
1F0
330
1F1
330
1F2
330
1F3
330
1F4
330
1F5
330
1F6
330
1F7
330
1F8
330
1F9
330
1FA
330
1FB
330
1FC
330
1FD
330
1FE
330
1FF
330
200
330
201
330
202
330
203
330
204
330
205
330
206
330
207
330
208
330
209
330
20A
330
20B
330
20C
330
20D
330
20E
330
20F
330
210
330
211
330
212
330
213
330
214
330
215
330
216
330
217
330
218
330
219
330
21A
330
21B
330
21C
330
21D
330
21E
330
21F
330
220
  0
IDBUFFER
  5
8C1
330
0
100
AcDbIdBuffer
330
2BF
  0
IDBUFFER
  5
8C2
330
0
100
AcDbIdBuffer
330
2BC
330
2C1
330
2C2
330
2C3
  0
IDBUFFER
  5
8C3
330
0
100
AcDbIdBuffer
330
2F5
330
2F6
330
2F7
330
2F8
330
2F9
330
2FA
330
2FB
330
2FC
330
2FD
330
2FE
330
2FF
330
300
330
301
330
302
330
303
330
304
330
305
330
306
330
307
330
308
330
309
330
30A
330
30B
330
30C
330
30D
330
30E
330
30F
330
310
330
311
330
312
330
36E
330
36F
330
370
330
2C4
330
2C6
330
2C7
330
2C8
330
2C9
330
2CA
330
2CB
330
2CC
330
2CD
330
2CE
330
2CF
330
2D0
330
2D1
330
2D2
330
2D3
330
2D4
330
2D5
330
2D6
330
2D7
330
2D8
330
2D9
330
2DA
330
2DB
330
2DC
330
2DD
330
2DE
330
2DF
330
2E0
330
2E1
330
2E2
330
2E3
330
2E4
330
2E5
330
2E6
330
2E7
330
2E8
330
2E9
330
2EA
330
2EB
330
2EC
330
2ED
330
2EE
330
2EF
330
2F0
330
2F1
330
2F2
330
2F3
330
2F4
  0
IDBUFFER
  5
8C4
330
0
100
AcDbIdBuffer
330
368
330
369
330
36A
330
36B
330
36C
330
36D
330
3BB
330
3BC
330
3BD
330
3BE
330
3BF
330
3C0
330
3C1
330
3C2
330
3C3
330
3C4
330
313
330
323
330
324
330
325
330
326
330
327
330
328
330
329
330
32A
330
32B
330
339
330
347
330
355
330
363
330
364
330
367
  0
IDBUFFER
  5
8C5
330
0
100
AcDbIdBuffer
  0
IDBUFFER
  5
8C6
330
0
100
AcDbIdBuffer
330
365
  0
XRECORD
  5
8CD
102
{ACAD_REACTORS
330
13
102
}
330
13
100
AcDbXrecord
280
     1
102
SHADEPLOT
 70
     0
102
SHADEPLOTRESLEVEL
 70
     2
102
SHADEPLOTCUSTOMDPI
 70
   300
  0
XRECORD
  5
14
102
{ACAD_REACTORS
330
13
102
}
330
13
100
AcDbXrecord
280
     1
310
28000000B40000007400000001000800000000009051000000000000000000000001000000000000FFFFFF0000000000FFFFFF000000000000000000000000000000000000000000000000000000000000000000330000006600000099000000CC000000FF00000000330000333300006633000099330000CC330000FF3300
310
0000660000336600006666000099660000CC660000FF66000000990000339900006699000099990000CC990000FF99000000CC000033CC000066CC000099CC0000CCCC0000FFCC000000FF000033FF000066FF000099FF0000CCFF0000FFFF000000003300330033006600330099003300CC003300FF003300003333003333
310
33006633330099333300CC333300FF33330000663300336633006666330099663300CC663300FF66330000993300339933006699330099993300CC993300FF99330000CC330033CC330066CC330099CC3300CCCC3300FFCC330000FF330033FF330066FF330099FF3300CCFF3300FFFF330000006600330066006600660099
310
006600CC006600FF00660000336600333366006633660099336600CC336600FF33660000666600336666006666660099666600CC666600FF66660000996600339966006699660099996600CC996600FF99660000CC660033CC660066CC660099CC6600CCCC6600FFCC660000FF660033FF660066FF660099FF6600CCFF6600
310
FFFF660000009900330099006600990099009900CC009900FF00990000339900333399006633990099339900CC339900FF33990000669900336699006666990099669900CC669900FF66990000999900339999006699990099999900CC999900FF99990000CC990033CC990066CC990099CC9900CCCC9900FFCC990000FF99
310
0033FF990066FF990099FF9900CCFF9900FFFF99000000CC003300CC006600CC009900CC00CC00CC00FF00CC000033CC003333CC006633CC009933CC00CC33CC00FF33CC000066CC003366CC006666CC009966CC00CC66CC00FF66CC000099CC003399CC006699CC009999CC00CC99CC00FF99CC0000CCCC0033CCCC0066CC
310
CC0099CCCC00CCCCCC00FFCCCC0000FFCC0033FFCC0066FFCC0099FFCC00CCFFCC00FFFFCC000000FF003300FF006600FF009900FF00CC00FF00FF00FF000033FF003333FF006633FF009933FF00CC33FF00FF33FF000066FF003366FF006666FF009966FF00CC66FF00FF66FF000099FF003399FF006699FF009999FF00CC
310
99FF00FF99FF0000CCFF0033CCFF0066CCFF0099CCFF00CCCCFF00FFCCFF0000FFFF0033FFFF0066FFFF0099FFFF00CCFFFF00FFFFFF00000000000D0D0D001A1A1A00282828003535350043434300505050005D5D5D006B6B6B00787878008686860093939300A1A1A100AEAEAE00BBBBBB00C9C9C900D6D6D600E4E4E400
310
F1F1F100FFFFFF0000000000000000000000000000000000000000000000000000000000000000000000000000000000EFEFE2E2E2E2E2E2E2E2E2E2E2E2E2E2E2E2E2E2E2E2E2E2E2E2E2E2E2E2E2E2E2E2E2E2E2E2E2E2E2E2E2E2E2E2E2E2E2E2E2E2E2E2E2E2E2E2E2E2E2E2E2E2E2E2E2E2E2E2E2E2E2E2E2E2E2E2E2
310
E2E2E2E2E2E2E2E2E2E2E2E2E2E2E2E2E2E2E2E2E2E2E2E2E2E2E2E2E2E2E2E2E2E2E2E2E2E2E2E2E2E2E2E2E2E2E2E2E2E2E2E2E2E2E2E2E2E2E2E2E2E2E2E2E2E2E2E2E2E2E2E2E2E2E2E2E2E2E2E2E2E2E2E2E2E2E2E2E2E2E2E2E2E2E2E2E2E2E2E2EFE2E2E2E2E2E2E2E2E2E2E2E2E2E2E2E2E2E2E2E2E2E2E2E2E2E2
310
E2E2E2E2E2E2E2E2E2E2E2E2E2E2E2E2E2E2E2E2E2E2E2E2E2E2E2E2E2E2E2E2E2E2E2E2E2E2E2E2E2E2E2E2E2E2E2E2E2E2E2E2E2E2E2E2E2E2E2E2E2E2E2E2E2E2E2E2E2E2E2E2E2E2E2E2E2E2E2E2E2E2E2E2E2E2E2E2E2E2E2E2E2E2E2E2E2E2E2E2E2E2E2E2E2E2E2E2E2E2E2E2E2E2E2E2E2E2E2E2E2E2E2E2E2E2E2
310
E2E2E2E2E2E2E2E2E2E2E2E2E2E2E2E2E2E2E2E2E2E2E2E2E2E2EFE2F5BEBEBEF5F5F5F5F5F5F5F5F5F5F5F5F5F5F5F5F5F5F5F5F5F5F5F5F5F5F5F5F5F5F5F5F5F5F5F5F5F5F5F5F5F5F5F5F5F5F5F5F5F5F5F5F5F5F5F5F5F5F5F5F5F5F5F5F5F5F5F5F5F5F5F5F5F5F5F5F5F5F5F5F5F5F5F5F5F5F5F5F5F5F5F5F5F5F5
310
F5F5F5F5F5F5F5F5F5F5F5F5F5F5F5F5F5F5F5F5F5F5F5F5F5F5F5F5F5F5F5F5F5F5F5F5F5F5F5F5F5F5F5F5F5F5F5F5F5F5F5F5F5F5F5F5F5F5F5F5F5F5F5F5F5F5F5F5F5F5F5F5F5F5F5F5F5F5E2EFE2F5BEE2BEBEE2E2E2E2E2E2E2E2E2E2E2E2E2E2E2E2E2E2E2E2E2E2E2E2E2E2E2E2E2E2E2E2E2E2E2E2E2E2E2E2E2
310
E2E2E2E2E2E2E2E2E2E2E2E2E2E2E2E2E2E2E2E2E2E2E2E2E2E2E2E2E2E2E2E2E2E2E2E2E2E2E2E2E2E2E2E2E2E2E2E2E2E2E2E2E2E2E2E2E2E2E2E2E2E2E2E2E2E2E2E2E2E2E2E2E2E2E2E2E2E2E2E2E2E2E2E2E2E2E2E2E2E2E2E2E2E2E2E2E2E2E2E2E2E2E2E2E2E2E2E2E2E2E2E2E2E2E2E2E2E2E2E2E2E2E2E2E2E2E2
310
E2E2F5F5E2EFE2F5BEE2BEF5F5F5F5F5F5F5F5F5F5F5F5F5F5F5F5F5F5F5F5F5F5F5F5F5F5F5F5F5F5F5F5F5F5F5F5F5F5F5F5F5F5F5F5F5F5F5F5F5F5F5F5F5F5F5F5F5F5F5F5F5F5F5F5F5F5F5F5F5F5F5F5F5F5F5F5F5E2E2E2E2F5E2F5F5F5F5F5F5F5F5F5F5F5E2E2E2E2E2E2E2E2E2E2F5F5F5F5F5F5F5F5F5F5E2F5
310
E2E2E2E2F5E2F5E2E2F5E2F5F5F5E20FE2E2E2F5F5F5F5E2E2E2E2E2E2E2F5F5E2E2E2F5E2F5E2F5F5E2E2E2E2E2E2E2E2E2E2F5F5F5E2F5F5E2EFE2F5BEE2BEF5F5F5F5F5F5F5F5F5F5F5F5F5F5F5F5F5F5F5F5F5F5F5F5F5F5F5F5F5F5F5F5F5F5F5F5F5F5F5F5F5F5F5F5F5F5F5F5F5F5F5F5F5F5F5F5F5F5F5F5F5F5F5
310
F5F5F5F5F5F5F5F5F5F5F5F5F5F5E2E2E2E2E2E2F5F5F5F5F5F5F5F5F5F5F5E2E2E2E2E2E2E2E2E2E2F5F5F5F5F5F5F5F5F5F5E2F5E2E2E2E2F5E2F5E2E2E2E2E2E2E2E2E2E2E2E2E2E2E2E2E2E2E2E2E2E2E2E2E2E2E2E2E2E2E2E2E2E2E2E2E2E2E2E2E2E2E2E2F5F5F5E2F5F5E2EFE2F5F5E2F5F5F5F5F5F5F5F5F5F5F5
310
F5F5F5F5F5F5F5F5F5F5F5F5F5F5F5F5F5F5F5F5F5F5F5F5F5F5F5F5F5F5F5F5F5F5F5F5F5F5F5F5F5F5F5F5F5F5F5F5F5F5F5F5F5F5F5F5F5F5F5F5F5F5F5F5F5F5F5E2E2E2E2E2E2E2E2E2E2E2E2E2E2E2E2E2E2E2E2E2E2E2E2E2E2E2E2E2E2E2E2E2E2E2E2E2E2E2E2E2E2E2E2E2E2E2E2E2E2E2E2E2E2E2E2E2E2E2E2
310
E2F5E2E2E2E2E2E2E2E2E2E2E2E2E2E2E2E2E2E2E2E2E2E2E2E2E2E2E2E2E2E2E2E2F5F5E2EFE2F5F5E2F5F5F5F5F5F5F5F5F5F5F5F5F5F5F5F5F5F5F5F5F5F5F5F5F5F5F5F5F5F5F5F5F5F5F5F5F5F5F5F5F5F5F5F5F5F5F5F5F5F5F5F5F5F5F5F5F5F5F5F5F5F5F5F5F5F5F5F5F5F5F5F5F5F5F5F5F5F5E2E2E2E2E2E2F5
310
F5F5F5F5F5F5F5F5F5E2E2E2E2E2E2E2E2E2E2E2E2F5F5F5F5F5F5F5F5F5E2F5E2E2E2E2F5E2F5E2E2E2E2F5E2E2E2E2E2E2E2E2E2F5F5E2F5F5F5F5F5F5F5F5F5F5F5F5F5F5F5F5F5F5F5F5F5F5F5F5F5F5F5F5F5F5E2F5F5E2EFE2F5F5E2E2E2E2E2E2E2E2F5F5F5F5F5F5F5F5F5E2E2E2E2E2E2E2E2E2E2E2E2E2E2E2E2
310
F5F5F5F5F5F5F5F5F5E2E2E2E2E2E2E2E2E2E2E2E2E2E2E2E2F5F5F5F5F5F5F5F5E2E2E2E2E2E2E2E2E2E2E2E2E2E2E2E2E2E2E2E2E2E2E2E2E2E2E2E2E2E2E2E2E2E2E2E2E2E2E2E2E2E2E2E2E2E2E2E2E2E2E2E2E2E2E2E2E2E2E2E2E2E2E20FE2E2E2E2E2E2E2E2E2E2E2E2E2E2E2E2E2E2E2E2E2E2E2E2E2E2F5F5F5F5
310
F5F5F5F5F5E2E2E2E2E2E2E2E2F5F5E2EFE2F5F5E2F5F5F5F5F5F5F5F5F5F5F5F5F5F5F5F5F5F5F5F5F5F5F5F5F5F5F5F5F5F5F5F5F5F5F5F5F5F5F5F5F5F5F5F5F5F5F5F5F5F5F5F5F5F5F5F5F5F5F5F5F5F5F5F5F5F5F5F5F5F5F5F5F5F5F5F5F5F5E2E2E2E2E2E2F5F5F5F5F5F5F5F5F5F5E2E2E2E2E2E2E2E2E2E2E2E2
310
F5F5F5F5F5F5F5F5F5E2F5E2E2E2E2F5E2F5E2E2E2E2E2E2E2E2E2E2E2E2E2E2E2E2E2E2E2E2E2E2E2E2E2E2E2E2E2E2E2E2E2E2E2F5F5F5F5F5F5F5F5F5F5F5F5E2F5F5E2EFE2F5F5E2F5F5F5F5F5F5F5F5F5F5F5F5F5F5F5F5F5F5F5F5F5F5F5F5F5F5F5F5F5F5F5F5F5F5F5F5F5F5F5F5F5F5F5F5F5F5F5F5F5F5F5F5F5
310
F5F5F5F5F5F5F5F5F5F5F5F5F5F5F5F5F5F5F5F5F5F5F5F5F5E2E2E2E2E2E2E2E2E2E2E2E2E2E2E2E2E2E2E2E2E2E2E2E2E2E2E2E2E2E2E2E2E2E2E2E2E2E2E2E2E2E2E2E2E2E2E2E2E2E2F5F5F5F5F5F5F5F5F5F5F5F5E2E2E2E2E2E2E2E2E2E2E2E2E2E2E2E2E2E2E2E2E2E2E2E2E2E2E2E2E2E2E2E2F5F5E2EFE2F5F5E2
310
F5F5F5F5F5F5F5F5F5F5F5F5F5F5F5F5F5F5F5F5F5F5F5F5F5F5F5F5F5F5F5F5F5F5F5F5F5F5F5F5F5F5F5F5F5F5F5F5F5F5F5F5F5F5F5F5F5F5F5F5F5F5F5F5F5F5F5F5F5F5F5F5F5F5F5F5F5F5E2E2E2E2E2E2F5F5F5F5F5F5F5F5F5F5E2E2E2E2E2E2E2E2E2E2E2E2F5F5F5F5F5F5F5F5F5E2F5E2E2E2E2F5E2F5E2E2E2
310
E2E2E2E2E2E2E2E2E2E2E2E2E2E2F5F5F5E2F5F5F5F5F5F5F5F5F5F5F5F5F5F5F5F5F5F5F5F5F5F5F5F5F5F5E2F5F5E2EFE2F5F5E2F5F5F5F5F5F5F5F5F5F5F5F5F5F5F5F5F5F5F5F5F5F5F5F5F5F5F5F5F5F5F5F5F5F5F5F5F5E2F5F5F5F5F5F5F5F5F5F5F5F5F5F5F5F5F5F5F5F5F5F5F5F5F5F5F5F5F5F5F5F5F5F5F5F5
310
F5F5F5F5E2E2E2E2E2E2E2E2E2E2E2E2E2E2E2E2E2E2E2E2E2E2E2E2E2E2E2E2E2E2E2E2E2E2E2E2E2E2E2E2E2E2E2E2E2E2E2E2E2E2F5F5E2E2E2E2E2E2E2E2F5F5E2E2E2E2E2F5F5F5F5F5F5F5F5F5F5F5F5F5F5F5F5F5F5F5F5F5F5F5F5F5F5E2F5F5E2EFE2F5F5E2F5F5F5F5F5F5F5F5F5F5F5F5F5F5F5F5F5F5F5F5F5
310
F5F5F5F5F5F5F5F5F5F5F5F5F5F5F5E2E2F5F5F5F5F5F5F5F5F5F5F5F5F5F5F5F5F5F5F5F5F5F5F5F5F5F5F5F5F5F5F5F5F5F5F5F5F5F5F5F5E2E2E2E2E2E2F5F5F5F5F5F5F5F5F5F5E2E2E2E2E2E2E2E2E2E2E2E2F5F5F5F5F5F5F5F5F5E2F5E2E2E2E2F5E2F5E2E2E2E2F5F5F5F5F5F5F5F5F5F5F5F5E2E2E2E2E2E2E2E2
310
E2E2E2E2E2E2E2E2E2E2E2E2E2E2E2E2E2E2E2E2E2E2E2E2F5F5E2EFE2F5F5E2F5F5F5F5F5F5F5F5F5F5F5F5F5F5F5F5F5F5F5F5F5F5F5F5F5F5F5F5F5F5F5F5F5F5F5F5E2F5E2F5F5F5F5F5F5F5F5F5F5F5F5F5F5F5F5F5F5F5F5F5F5F5F5F5F5F5F5F5F5F5F5F5F5F5F5F5F5F5E2E2E2E2E2E2E2E2E2E2E2E2E2E2E2E2E2
310
E2E2E2E2E2E2E2E2E2E2E2E2E2E2E2E2E2E2E2E2E2E2E2E2E2E2E2E2E2E2E2E2E2F5F5E2E2E2E2E2E2E2E2F5F5E2F5F5E2E2E2E2E2E2E2E2E2E2E2E2E2E2E2E2E2E2E2E2E2E2E2E2E2F5F5F5E2F5F5E2EFE2F5F5E2F5F5F5F5F5F5F5F5F5F5F5F5F5F5F5F5F5F5F5E2E2E2E2F5F5F5F5F5F5F5F5F5F5F5F5F5E2F5E2E2E2E2
310
F5E2E2E2E2E2E2E2E2E2F5F5F5F5F5F5F5F5F5F5F5F5F5F5F5F5F5F5F5F5F5F5F5F5F5F5E2E2E2E2E2E2F5F5F5F5F5F5F5F5F5F5E2E2E2E2E2E2E2E2E2E2E2E2F5F5F5F5F5F5F5F5F5E2F5E2E2E2E2F5E2F5E2E2E2E2F5F5F5E2E2E2E2E2E2F5F5F5E2F5F5E20000000000000000000000000000000000000000000000E2F5
310
F5F5E2F5F5E2EFE2F5F5E2F5F5F5F5F5F5F5F5F5F5F5F5F5F5F5F5F5F5E2E2F5E2E2E2E2E2E2F5F5F5F5F5F5E2E2E2F5F5F5F5F5F5E2E2E2E2E2E2E2E2E2E2F5F5F5F5F5F5F5F5F5F5F5F5F5F5F5F5F5F5F5F5F5F5F5F5F5F5E2E2E2E2E2E2E2E2E2E2E2E2E2E2E2E2E2E2E2E2E2E2E2E2E2E2E2E2E2E2E2E2E2E2E2E2E2E2
310
E2E2E2E2E2E2E2E2E2E2E2E2F5F5F5E2E2E2E2E2E2F5F5F5E2F5F5E23EBCDBF2F30000EEE7000000E7E9010000DA00E601F301E2F5F5F5E2F5F5E2EFE2F5F5E2F5F5F5F5F5F5F5F5F5F5F5F5F5F5F5F5E2E2F5F5F5F5E2E2E2E2E2E2E2F5F5E2E2F5E2E2F5F5F5F5F5F5F5F5F5F5F5F5F5F5F5F5F5F5F5F5F5F5F5F5F5F5F5
310
F5F5F5F5F5F5F5F5F5F5F5F5F5F5F5E2E2E2E2E2E2F5F5F5F5F5F5F5F5F5F5E2E2E2E2E2E2E2E2E2E2E2E2F5F5F5F5F5F5F5F5F5E2F5E2E2E2E2F5E2F5E2E2E2E2F5F5F5E2E2E2E2E2F5F5F5F5E2F5F5E23D68003D4400E90101E400E701E4E901010101E701E9F0E2F5F5F5E2F5F5E2EFE2F5F5E2F5F5F5F5F5F5F5F5F5F5
310
F5F5F5F5F5F5E2F5F5F5F5F5E2E2F5E2E2F5E2E2E2E2F5F5E2E2F5F5F5F5F5F5F5F5F5F5F5F5F5F5F5F5F5F5F5F5F5F5F5F5F5F5F5F5F5F5F5F5F5F5F5F5F5F5F5F5F5F5E2E2E2E2E2E2F5F5F5F5F5F5F5F5F5F5E2E2E2E2E2E2E2E2E2E2E2E2F5F5F5F5F5F5F5F5F5E2F5E2E2E2E2F5E2F5E2E2E2E2F5F5F5F5F5F5F5F5F5
310
F5F5F5E2F5F5E20000003E3D0000000000000000000000000000EC000000E2F5F5F5E2F5F5E2EFE2F5F5E2F5F5F5F5F5F5F5F5F5F5F5F5F5F5F5E2E2F5F5F5F5F5E2E2F5F5E2F5E2F5E2E2E2F5E2F5E2F5F5F5F5F5F5F5F5F5F5F5F5F5F5F5F5F5F5F5F5F5F5F5F5F5F5F5F5F5F5F5F5F5F5F5F5F5F5F5F5F5E2E2E2E2E2E2
310
E2E2E2E2E2E2E2E2E2E2E2E2E2E2E2E2E2E2E2E2E2E2E2E2E2E2E2E2E2E2E2E2E2E2E2E2E2E2E2E2E2E2E2E2F5F5F5E2E2E2E2E2E2F5F5F5E2F5F5E2E2E2E2E2E2E2E2E2E2E2E2E2E2E2E2E2E2E2E2E2E2E2E2E2F5F5F5E2F5F5E2EFE2F5F5E2F5F5F5F5F5F5F5F5F5F5F5F5F5F5F5E2E2F5F5F5F5F5E2E2E2E2E2F5E2F5F5
310
E2E2E2E2F5E2E2E2F5F5F5F5F5F5F5F5F5F5F5F5F5F5F5F5F5F5E2E2E2E2E2E2E2F5F5F5F5F5F5F5F5F5F5F5F5F5F5F5F5F5F5F5F5F5F5F5F5F5F5F5F5F5F5F5F5F5F5F5F5F5F5F5F5F5F5F5F5F5F5F5F5F5F5F5F5F5F5F5F5F5F5F5F5F5F5F5E2E2E2E2E2E2E2E2E2E2E2E2E2E2E2E2E2E2E2E2E2E2E2E2E2E2E2E2E2E2E2
310
E2E2E2E2E2E2E2E2E2E2E2E2E2E2F5F5E2EFE2F5F5E2F5F5F5F5F5F5F5F5F5F5F5F5F5F5F5E2F5F5F5F5F5E2E2F5E2E2E2F5E2F5F5E2E2E2E2F5E2F5F5E2E2F5F5F5F5F5F5F5F5F5F5F5F5F5F5F5F5E2E2E2E2E2E2E2F5F5F5F5F5F5F5F5F5F5F5F5F5F5F5F5F5F5F5F5F5F5F5F5F5F5F5F5F5F5F5F5F5F5F5F5F5F5F5F5F5
310
F5F5F5F5F5F5F5F5F5F5F5F5F5F5F5F5F5F5F5F5F5F5F5F5F5F5F5F5F5F5F5F5F5F5F5F5F5F5F5F5F5F5F5F5F5F5F5F5F5F5F5F5F5F5F5F5F5F5F5F5F5F5F5F5F5F5E2F5F5E2EFE2F5F5E2F5F5F5F5F5F5F5F5F5F5F5F5F5F5F5E2F5F5F5F5F5E2E2F5F5F5E2F5E2F5F5E2E2E2E2F5E2F5F5F5F5E2E2F5F5F5F5F5F5F5F5F5
310
E2E2E2F5E2E2E2E2E2E2E2E2E2E2F5F5F5F5F5F5F5F5F5F5F5F5F5F5F5F5F5F5F5F5F5F5F5F5F5F5F5F5F5F5F5F5F5F5F5F5F5F5F5F5F5F5F5F5F5F5F5F5F5F5F5F5F5F5F5F5F5F5F5F5F5F5F5F5F5F5F5F5F5F5F5F5F5F5F5F5F5F5F5F5F5F5F5F5F5F5F5F5F5F5F5F5F5F5F5F5F5F5F5F5F5F5F5F5F5E2F5F5E2EFE2F5F5
310
E2F5F5F5F5F5F5F5F5F5F5F5F5F5F5F5E2F5F5F5F5E2E2F5F5F5F5E2F5E2E2F5E2E2E2E2F5E2F5F5F5F5F5F5E2E2F5F5F5F5F5F5F5E2F5F5F5E2E2E2E2E2E2E2E2E2F5F5F5F5F5F5F5F5F5F5F5F5F5F5F5F5F5F5F5F5F5F5F5F5F5F5F5F5F5F5F5F5F5F5F5F5F5F5F5F5F5F5F5F5F5F5F5F5F5F5F5F5F5F5F5F5F5F5F5F5F5
310
F5F5F5F5F5F5F5F5F5F5F5F5F5F5F5F5F5F5F5F5F5F5F5F5F5F5F5F5F5F5F5F5F5F5F5F5F5F5F5F5F5F5F5F5F5E2F5F5E2EFE2F5F5E2F5F5F5F5F5F5F5F5F5F5F5F5F5F5F5E2E2F5F5E2F5E2E2E2F5F5E2F5E2F5E2E2E2E2E2F5E2F5F5F5F5F5F5F5E2E2E2F5F5F5F5E2F5F5F5F5E2E2E2E2E2E2E2E2E2F5F5F5F5F5F5F5F5
310
F5F5F5F5F5F5F5F5F5F5F5F5F5F5F5F5F5F5F5F5F5F5F5F5F5F5F5F5F5F5F5F5F5F5F5F5F5F5F5F5F5F5F5F5F5F5F5F5F5F5F5F5F5F5F5F5F5F5F5F5F5F5F5F5F5F5F5F5F5F5F5F5F5F5F5F5F5F5F5F5F5F5F5F5F5F5F5F5F5F5F5F5F5F5F5F5F5F5E2F5F5E2EFE2F5F5E2F5F5F5F5F5F5F5F5F5F5F5F5F5F5F5E2E2E2E2E2
310
E2F5E2E2E2E2F5E2F5F5E2E2E2E2E2F5E2F5F5F5F5F5F5F5E2F5E2E2F5F5F5E2F5F5F5F5F5F5F5F5F5F5F5F5F5F5F5F5F5F5F5F5F5F5F5F5F5F5F5F5F5F5F5F5F5F5F5F5F5F5F5F5F5F5F5F5F5F5F5F5F5F5F5F5F5F5F5F5F5F5F5F5F5F5F5F5F5F5F5F5F5F5F5F5F5F5F5F5F5F5F5F5F5F5F5F5F5F5F5F5F5F5F5F5F5F5F5
310
F5F5F5F5F5F5F5F5F5F5F5F5F5F5F5F5F5F5F5F5F5F5F5F5E2F5F5E2EFE2F5F5E2F5F5F5F5F5F5F5F5F5F5F5F5F5F5F5F5E2E2E2E2E2F5F5F5E2F5E2F5F5E2E2E2E2E2E2F5E2F5F5F5F5F5F5F5E2F5E2F5E2F5F5E2F5F5F5F5F5F5F5F5F5F5F5F5F5F5F5F5F5F5F5F5F5F5F5F5F5F5F5F5F5F5F5F5F5F5F5F5F5F5F5F5F5F5
310
F5F5F5F5F5F5F5F5F5F5F5F5F5F5F5F5F5F5F5F5F5F5F5F5F5F5F5F5F5F5F5F5F5F5F5F5F5F5F5F5F5F5F5F5F5F5F5F5F5F5F5F5F5F5F5F5F5F5F5F5F5F5F5F5F5F5F5F5F5F5F5F5F5F5F5F5F5E2F5F5E2EFE2F5F5E2F5F5F5F5F5F5F5F5F5F5F5F5F5F5F5F5F5F5E2E2E2E2F5E2F5F5E2F5F5E2E2E2E2E2E2F5E2F5F5F5F5
310
F5F5F5E2F5E2F5E2F5F5E2F5F5F5F5F5F5F5F5F5F5F5F5F5F5F5F5F5F5F5F5F5F5F5F5F5F5F5F5F5F5F5F5F5F5F5F5F5F5F5F5F5F5F5F5F5F5F5F5F5F5F5F5F5F5F5F5F5F5F5F5F5F5F5F5F5F5F5F5F5F5F5F5F5F5F5F5F5F5F5F5F5F5F5F5F5F5F5F5F5F5F5F5F5F5F5F5F5F5F5F5F5F5F5F5F5F5F5F5F5F5F5F5F5F5F5F5
310
F5F5F5E2F5F5E2EFE2F5F5E2F5F5F5F5F5F5F5F5F5F5F5F5F5F5F5F5F5E2E2E2E2E2E2F5F5E2E2F5E2E2E2E2E2F5E2E2E2F5F5F5F5F5F5F5E2F5E2F5E2E2E2F5F5F5F5F5F5F5F5F5F5F5F5F5F5F5F5F5F5F5F5F5F5F5F5F5F5F5F5F5F5F5F5F5F5F5F5F5F5F5F5F5F5F5F5F5F5F5F5F5F5F5F5F5F5F5F5F5F5F5F5F5F5F5F5
310
F5F5F5F5F5F5F5F5F5F5F5F5F5F5F5F5F5F5F5F5F5F5F5F5F5F5F5F5F5F5F5F5F5F5F5F5F5F5F5F5F5F5F5F5F5F5F5F5F5F5F5F5F5F5F5F5E2F5F5E2EFE2F5F5E2F5F5F5F5F5F5F5F5F5F5F5F5F5F5F5F5F5E2F5E2E2E2E2E2E2F5F5E2E2E2E2E2F5E2F5E2E2F5F5F5F5F5F5F5E2F5E2E2E2F5F5F5F5F5F5F5F5F5F5F5F5F5
310
F5F5F5F5F5F5F5F5F5F5F5F5F5F5F5F5F5E2E2E2E2E2F5E2E2E2E2E2E2F5E2E2E2E2E2E2E2E2E2E2F5E2E2E2E2E2E2F5F5F5F5F5F5F5F5F5F5F5F5F5F5F5F5F5F5F5F5F5F5F5F5F5F5F5F5F5F5F5F5F5F5F5F5F5F5F5F5F5F5F5F5F5F5F5F5F5F5F5F5F5F5F5F5F5F5F5F5F5F5E2F5F5E2EFE2F5F5E2F5F5F5F5F5F5F5F5F5
310
F5F5F5F5F5F5F5E2F5F5F5F5E2E2F5E2F5E2E2E2E2F5E2F5E2E2F5E2F5F5F5F5F5F5F5E2F5E2E2E2F5F5F5F5F5F5F5F5F5F5F5F5F5F5F5F5F5F5F5F5F5F5F5F5F5F5F5F5F5E2E2E2E2E2E2F5E2E2E2E2E2E2F5E2F5E2E2E2E2E2E2E2E2F5E2E2F5E2E2E2F5F5F5F5F5F5F5F5F5F5F5F5F5F5F5F5F5F5F5F5F5F5F5F5F5F5F5
310
F5F5F5F5F5F5F5F5F5F5F5F5F5F5F5F5F5F5F5F5F5F5F5F5F5F5F5F5F5F5F5F5F5F5F5E2F5F5E2EFE2F5F5E2BEBEBEBEBEBEF5F5E2E2E2E2E2F5F5F5E2F5F5F5F5F5E2E2E2E2E2F5E2E2E2E2E2E2E2E2F5F5F5F5F5F5F5F5E2F5E2F5E2F5F5F5F5F5F5F5F5F5F5F5F5F5F5F5F5F5F5F5F5F5F5F5F5F5F5F5E2E2E2E2E2E2E2
310
E2E2E2E2E2E2E2E2E2E2E2E2E2E2E2E2E2E2E2E2E2F5E2E2E2E2E2E2E2F5F5F5F5F5F5F5F5F5F5F5F5F5F5F5F5F5F5F5E2F5F5F5F5F5F5E2F5F5F5F5F5F5F5F5F5F5F5F5F5F5F5F5F5F5F5F5F5F5F5F5F5F5F5F5F5F5F5F5E2F5F5E2EFE2F5F5E2BEBEBEBEBEBEE2E2F5F5F5F5F5E2F5E2F5F5F5F5F5F5E2E2E2E2E2E2E2E2
310
F5F5E2E2F5E2F5F5F5F5F5F5F5F5E2F5E2F5E2F5F5F5F5F5F5F5F5F5F5F5F5F5F5F5F5F5F5F5F5F5F5F5F5F5F5F5E2E2E2E2E2E2E2E2E2E2E2E2E2E2E2E2F5E2E2E2E2E2E2E2E2E2E2F5F5E2E2E2E2E2E2E2E2F5F5F5F5F5F5F5F5F5F5F5F5F5F5F5F5E2E2F5F5F5F5F5F5F5F5E2E2F5F5F5F5F5F5F5F5F5F5F5F5F5F5F5F5
310
F5F5F5F5F5F5F5F5F5F5F5F5F5F5E2F5F5E2EFE2F5F5E2BEBEBEBEBEBEF5F5F5F5F5F5F5F5E2E2F5F5F5F5F5F5E2E2F5E2E2E2E2E2E2E2E2E2E2F5E2E2F5F5F5F5F5F5E2F5F5E2E2F5F5F5F5F5F5F5F5F5F5F5F5F5F5F5F5F5F5F5F5F5F5F5F5F5F5F5F5F5F5E2F5E2F5F5F5F5F5F5F5F5F5F5F5F5F5F5F5F5F5F5F5F5F5F5
310
F5F5F5F5F5F5E2F5F5F5F5F5F5F5F5F5F5F5F5F5F5F5F5E2E2F5F5F5F5F5F5F5F5F5F5F5E2E2E2F5F5F5F5F5F5F5F5F5F5F5F5F5F5F5F5F5F5F5F5F5F5F5F5F5F5F5F5E2F5F5E2EFE2F5F5E2F5F5F5F5F5F5F5F5F5F5F5F5F5F5F5F5F5F5F5F5F5F5E2E2F5E2E2F5E2E2E2E2E2F5E2E2E2E2E2E2F5F5F5E2E2F5F5F5E2F5F5
310
F5F5F5F5F5F5F5F5F5F5F5F5F5F5F5F5F5F5F5F5F5F5F5F5F5F5F5E2E2E2E2F5F5F5F5F5F5F5F5F5F5F5F5F5F5F5F5F5F5F5F5F5F5F5F5F5F5F5F5E2F5F5F5F5F5F5F5F5F5F5F5F5F5F5F5F5E2F5F5F5F5F5F5F5F5F5F5F5F5E2E2E2F5F5F5F5F5F5F5F5F5F5F5F5F5F5F5F5F5F5F5F5F5F5F5F5F5F5F5F5E2F5F5E2EFE2F5
310
F5E2F5F5F5F5F5F5F5F5F5F5F5F5F5F5F5F5F5F5F5F5F5F5E2F5F5E2E2E2F5E2E2E2E2E2E2E2E2E2F5F5E2E2E2F5F5F5E2F5E2F5F5F5F5F5F5F5F5F5F5F5F5F5F5F5F5F5F5F5F5F5F5F5F5F5F5F5F5F5E2E2E2E2E2F5F5F5F5F5F5F5F5F5F5F5F5F5F5F5F5F5F5F5F5F5F5F5F5F5F5F5E2F5F5F5F5F5F5F5F5F5F5F5F5F5F5
310
F5E2F5F5F5F5E2E2E2E2E2E2F5F5F5F5E2F5E2F5F5F5F5E2E2E2E2E2E2E2E2E2E2E2E2E2F5F5F5E2F5F5F5F5F5F5E2F5F5E2EFE2F5F5E2F5F5F5F5F5F5F5F5F5F5F5F5F5F5F5F5F5F5F5F5F5F5E2E2E2E2F5F5F5F5E2E2F5E2E2E2E2E2E2E2E2F5F5F5E2E2F5E2E2F5F5F5F5F5F5F5F5F5F5F5F5F5F5F5F5F5F5F5F5F5F5F5
310
F5F5F5F5F5F5E2E2E2E2E2E2F5F5F5F5F5F5F5F5F5F5F5F5F5F5F5F5F5F5F5F5F5F5F5F5F5F5E2E2F5F5F5F5F5F5F5F5F5F5F5F5F5E2F5F5F5F5F5E2E2E2E2E2E2F5F5F5F5F5F5F5E2F5F5F5E2E2E2E2E2E2E2E2E2E2E2E2E2F5E2E2E2F5F5F5F5F5F5E2F5F5E2EFE2F5F5E2F5F5F5F5F5F5F5F5F5F5F5F5F5F5F5F5F5F5F5
310
F5F5E2F5F5F5F5E2E2F5F5F5F5E2E2E2E2E2E2E2F5F5F5F5E2F5E2F5F5E2F5F5F5F5F5F5F5F5F5F5F5F5F5F5F5F5F5F5F5F5F5F5F5F5F5F5F5F5F5E2E2F5E2E2E2E2F5F5F5F5F5F5F5F5F5F5F5F5F5F5F5F5F5F5F5F5F5F5F5F5F5E2E2F5F5F5F5F5F5F5F5F5F5F5F5F5E2F5E2E2E2E2E2E2E2E2E2E2E2E2E2E2F5F5F5E2F5
310
F5F5F5F5F5F5F5F5F5F5F5F5F5F5F5F5E2E2E2F5F5F5F5F5F5E2F5F5E2EFE2F5F5E2F5F5F5F5F5F5F5F5F5F5F5F5F5F5F5F5F5E2E2F5F5E2F5F5F5F5F5F5E2E2F5F5F5E2E2E2E2E2F5F5F5E2E2E2E2E2F5F5F5F5F5F5F5F5F5F5F5F5F5F5F5F5F5F5F5F5F5F5F5F5F5F5F5F5F5F5F5F5F5E2E2E2F5F5F5F5F5F5F5F5F5F5F5
310
F5F5F5F5F5F5F5F5F5F5F5F5F5F5F5F5F5E2E2F5F5F5F5F5F5F5F5F5F5F5F5E2F5F5E2E2E2E2E2E2E2E2E2E2E2E2E2E2F5F5F5E2F5F5F5E2E2E2E2E2E2E2E2E2E2E2E2E2E2E2E2E2E2E2F5F5F5F5E2F5F5E2EFE2F5F5E2F5F5F5F5F5F5F5F5F5F5F5F5F5F5F5F5F5E2E2F5F5E2F5F5F5F5F5F5F5F5E2E2F5E2F5E2F5F5F5E2
310
E2F5F5E2F5F5F5F5F5F5F5F5F5F5F5F5F5F5F5F5F5F5F5F5F5F5F5F5F5F5F5F5F5F5F5F5F5F5E2E2E2E2E2F5F5F5F5F5F5F5F5F5F5F5F5F5F5F5F5F5F5F5F5F5F5F5F5F5F5F5E2E2F5F5F5F5F5F5F5F5F5F5F5F5E2F5F5F5F5F5F5F5F5F5F5F5F5F5F5F5F5F5F5F5F5E2F5F5E2E2E2E2E2E2E2E2E2E2E2E2E2E2E2E2E2E2E2
310
F5F5F5F5E2F5F5E2EFE2F5F5E2F5F5F5F5F5F5F5F5F5F5F5F5F5F5F5F5E2F5E2F5E2F5F5F5F5F5F5F5F5F5F5F5E2E2E2F5F5F5E2E2F5E2E2E2F5F5F5F5F5F5F5F5F5F5F5F5F5F5F5F5F5F5F5F5F5F5F5F5F5F5F5F5F5F5F5F5F5F5F5E2F5E2E2F5F5F5F5F5F5F5F5F5F5F5F5F5F5F5F5F5F5F5F5F5F5F5F5F5F5F5E2F5F5F5
310
F5F5F5F5F5F5F5F5F5F5E2F5F5E2E2E2E2E2E2E2E2E2E2E2E2E2E2E2F5F5F5E2F5F5F5F5F5F5F5F5F5F5F5F5F5F5F5F5F5F5F5F5F5F5F5F5F5E2F5F5E2EFE2F5F5E2F5F5F5F5F5F5F5F5F5F5F5F5F5F5F5F5E2F5F5E2E2F5F5F5F5F5F5F5F5F5F5F5F5E2E2F5E2E2F5E2F5F5F5F5F5F5F5F5F5F5F5F5F5F5F5F5F5F5F5F5F5
310
F5F5F5F5F5F5F5F5F5F5F5F5F5F5F5F5F5E2E2E2E2E2F5F5F5F5F5F5F5F5F5F5F5F5F5F5F5F5F5F5F5F5F5F5F5F5F5F5F5E2E2F5F5F5F5F5F5F5F5F5F5F5F5E2F5F5E2E2E2E2E2E2E2E2E2E2E2E2E2E2E2F5F5F5E2F5F5F5F5F5F5F5F5F5F5F5F5F5F5F5F5F5F5F5F5F5F5F5F5F5E2F5F5E2EFE2F5F5E2F5F5F5F5F5F5F5F5
310
F5F5F5F5F5F5F5E2F5F5F5E2E2F5F5F5F5F5F5F5F5F5F5F5F5E2F5E2E2F5F5E2F5F5F5F5F5F5F5F5F5F5F5F5F5F5F5F5F5F5F5F5F5F5F5F5F5F5F5F5F5F5F5F5F5F5F5F5F5F5F5E2E2E2E2E2F5F5F5F5F5F5F5F5F5F5F5F5F5F5F5F5F5F5F5F5F5F5F5F5F5F5E2F5F5F5F5F5F5F5F5F5F5F5F5F5E2F5F5F5E2E2E2E2E2E2E2
310
E2E2E2E2E2E2F5F5F5E2F5F5F5E2E2E2E2E2E2E2E2E2E2E2E2E2E2E2E2F5F5F5F5F5F5F5E2F5F5E2EFE2F5F5E2F5F5F5F5F5F5F5F5F5F5F5F5F5F5E2F5F5F5F5F5F5F5F5F5F5F5F5F5F5F5F5F5F5F5E2F5E2E2E2F5F5F5F5F5F5F5F5F5F5F5F5F5F5F5F5F5F5F5F5F5F5F5F5F5F5F5F5F5F5F5F5F5F5F5F5F5F5E2E2E2E2E2
310
E2E2E2E2E2E2E2E2E2E2E2E2E2E2E2E2E2E2E2E2E2E2E2E2E2E2E2E2E2E2E2E2E2E2E2E2F5F5F5F5F5F5E2F5F5F5E2E2E2E2E2E2E2E2E2E2E2E2E2F5F5F5E2F5F5F5E2E2E2E2E2E2E2E2E2E2E2E2E2E2E2E2F5F5F5F5F5F5F5E2F5F5E2EFE2F5F5E2F5F5F5F5F5F5F5E2E2E2E2E2E2E2F5E2E2E2E2E2F5F5F5F5F5F5F5F5F5
310
F5F5F5F5F5E2F5F5F5F5F5F5F5F5F5F5F5F5F5F5F5F5F5F5F5F5F5F5F5F5F5F5F5F5F5F5F5F5F5F5F5F5F5F5F5F5F5F5F5E2E2E2E2E2E2F5F5E2E2E2E2E2E2E2E2E2E2E2F5F5F5F5F5F5F5F5F5F5F5F5E2E2E2E2E2E2E2E2E2E2E2F5F5F5F5E2F5E2E2E2E2E2E2E2E2E2E2E2E2E2E2E2E2E2F5E2F5F5F5E2E2E2E2E2E2E2E2
310
E2E2E2E2E2E2E2E2E2E2E2E2F5F5F5E2F5F5E2EFE2F5F5E2F5F5F5F5F5F5F5E2E2F5E2E2E2E2F5E2E2E2E2E2F5F5F5F5F5F5F5F5F5F5F5F5F5F5E2F5F5F5F5F5F5E2E2E2E2E2E2E2E2E2F5F5F5F5F5F5F5F5F5F5F5F5F5F5F5F5F5F5F5F5F5F5F5F5F5F5F5F5E2E2E2E2E2E2F5F5E2E2E2E2E2E2E2E2E2E2E2F5F5F5F5F5F5
310
F5F5F5F5F5F5E2E2E2E2E2E2E2E2E2E2F5F5F5F5F5F5E2E2E2E2E2E2E2E2E2E2E2E2E2E2E2E2E2E2F5E2F5F5F5E2E2E2E2E2E2E2E2E2E2E2E2E2E2E2E2E2E2E2E2F5F5F5E2F5F5E2EFE2F5F5E2F5F5F5F5F5F5F5F5F5F5F5F5F5F5F5F5F5F5F5F5F5F5F5F5F5F5F5F5F5F5F5F5F5F5F5E2F5E2E2E2E2E2E2E2E2E2E2E2E2E2
310
F5F5F5F5F5F5F5F5F5F5F5F5F5F5F5F5F5F5F5F5F5F5F5F5F5F5F5F5F5F5F5F5F5F5F5F5F5F5F5F5F5F5F5F5F5F5F5F5F5F5F5F5F5F5F5F5F5F5F5F5F5F5F5F5F5F5F5F5F5F5F5F5F5F5F5E2F5F5F5F5F5F5F5F5F5F5F5F5F5F5F5F5F5E2F5F5F5F5F5F5F5F5F5F5F5F5F5F5F5F5F5F5F5F5F5F5F5F5F5F5F5E2F5F5E2EFE2
310
F5F5E2F5F5F5F5F5F5F5F5F5F5F5F5F5F5F5F5F5F5F5F5F5F5F5F5F5F5F5F5F5F5F5F5F5F5F5E2F5E2F5F5F5E2E2E2E2E2E2E2E2F5F5F5F5F5F5F5F5F5F5F5F5F5F5F5F5F5F5F5F5F5F5F5F5F5F5F5F5F5F5E2E2E2E2E2E2F5E2E2F5E2E2E2E2E2E2E2E2E2E2E2E2E2E2E2E2E2E2E2E2E2F5F5F5F5F5F5F5F5F5F5F5F5F5F5
310
F5F5E2F5F5F5F5F5F5F5F5F5F5F5F5F5F5F5F5E2F5F5F5F5F5F5F5F5F5F5F5F5F5F5F5F5F5F5F5F5F5F5F5F5F5F5F5E2F5F5E2EFE2F5F5E2F5F5F5F5F5F5F5F5F5F5F5F5F5F5F5F5F5F5F5F5F5F5F5F5F5F5F5F5F5F5F5F5F5F5F5E2F5E2F5F5F5F5F5F5F5F5F5F5F5F5F5F5F5F5F5F5F5F5F5F5F5F5F5F5F5F5F5F5F5F5F5
310
F5F5F5F5F5F5F5E2E2E2E2E2E2E2E2E2F5F5E2E2E2E2E2E2E2E2E2E2E2E2E2E2E2E2E2E2E2E2E2F5F5F5F5F5F5F5F5F5F5F5F5F5F5F5F5F5E2F5F5F5F5F5F5F5F5F5F5F5F5F5F5E2F5F5F5F5F5F5F5F5F5F5F5F5F5F5F5F5F5F5F5F5F5F5F5F5F5F5F5F5E2F5F5E2EFE2F5F5E2F5F5F5F5F5F5F5F5F5F5F5F5F5F5F5F5F5F5
310
F5F5F5F5F5F5F5F5F5F5F5F5F5F5F5F5F5E2E2F5F5F5F5F5F5F5F5F5F5F5F5F5F5F5F5F5F5F5F5F5F5F5F5F5F5F5F5F5F5F5F5F5F5F5F5F5F5F5F5F5F5F5F5F5F5F5F5F5F5F5F5F5F5F5F5F5F5F5F5F5F5F5F5F5F5F5F5F5F5F5F5F5F5F5F5F5F5F5F5F5F5F5F5F5F5F5F5F5F5F5E2F5F5F5F5F5F5F5F5F5F5F5E2E2F5F5F5
310
F5F5F5E2E2E2E2E2E2E2E2E2E2E2E2E2E2E2E2E2F5F5F5F5F5F5E2F5F5E2EFE2F5F5E2F5F5F5F5F5F5F5F5F5F5F5F5F5F5F5F5F5F5F5F5F5F5F5F5F5F5F5F5F5F5F5F5F5F5F5F5F5F5F5F5F5F5F5F5F5F5F5F5F5F5F5F5F5F5F5F5F5F5F5F5F5F5F5F5F5F5F5F5F5F5F5F5F5F5F5F5F5F5F5F5F5F5F5F5F5F5F5F5F5F5F5F5
310
F5F5F5F5F5F5F5F5F5F5F5F5F5F5F5F5F5F5F5F5F5F5F5F5F5F5F5F5F5F5F5F5F5F5F5F5F5E2E2F5F5F5F5F5F5F5E2E2F5F5F5F5F5F5F5F5E2E2E2E2E2E2E2E2E2E2E2E2E2E2E2E2E2F5F5F5F5F5F5E2F5F5E2EFE2F5F5E2F5F5F5F5F5F5F5F5F5F5F5F5F5F5F5F5F5F5F5F5F5F5F5F5F5F5F5F5F5F5F5F5F5F5F5F5F5F5F5
310
F5F5F5F5F5F5F5F5F5F5F5F5F5F5F5F5F5F5F5F5F5F5F5F5F5F5F5F5F5F5F5F5F5F5F5F5F5F5F5F5F5F5F5F5F5F5F5F5F5F5F5F5F5F5F5F5F5F5F5F5F5F5F5F5F5F5F5F5F5F5F5F5F5F5F5F5F5F5F5F5F5F5F5F5F5F5F5F5F5F5F5F5E2E2E2E2E2E2E2F5F5F5F5F5F5F5F5F5F5F5F5F5F5F5F5F5F5F5F5F5F5F5F5F5F5F5F5
310
F5F5F5F5F5E2F5F5E2EFE2F5F5E2F5F5F5F5F5F5F5F5F5F5F5F5F5F5F5F5F5F5F5F5F5F5F5F5F5F5F5F5F5F5F5F5F5F5F5F5F5F5F5F5F5F5F5F5F5F5F5F5F5F5F5F5F5F5F5F5F5F5F5F5F5F5F5F5F5F5F5F5F5F5F5F5F5F5F5F5F5F5F5F5F5F5F5F5F5F5F5F5F5F5F5F5F5F5F5F5F5F5F5F5F5F5F5F5F5F5F5F5F5F5F5F5F5
310
F5F5F5F5F5F5F5F5F5F5F5F5F5F5F5F5F5F5F5F5F5F5F5F5F5F5F5F5F5F5F5F5F5F5F5F5F5F5F5F5F5F5F5F5F5F5F5F5F5F5F5F5F5F5F5F5F5F5E2F5F5E2EFE2F5F5E2F5F5F5F5F5F5F5F5F5F5F5F5F5F5F5F5F5F5F5F5F5F5F5F5F5F5F5F5F5F5F5F5F5F5F5F5F5F5F5F5F5F5F5F5F5F5F5F5F5F5F5F5F5F5F5F5F5F5F5F5
310
F5F5F5F5F5F5F5F5F5F5F5F5F5F5F5F5F5F5F5F5F5F5F5F5F5F5F5F5F5F5F5F5F5F5F5F5F5F5F5F5F5F5F5F5F5F5F5F5F5F5F5F5F5F5F5F5F5F5F5F5F5F5F5F5F5F5F5F5E2E2E2F5F5F5F5F5F5F5F5F5F5F5F5F5F5F5F5F5F5F5F5F5F5F5F5F5F5F5F5F5F5F5F5F5F5F5F5E2E2E2F5E2F5F5E2EFE2F5F5E2F5F5F5F5F5F5F5
310
F5F5F5F5F5F5F5F5F5F5F5F5F5F5F5F5F5F5F5F5F5F5F5F5F5F5F5F5F5F5F5F5F5F5F5F5F5F5F5F5F5F5F5F5F5F5F5F5F5F5F5F5F5F5F5F5F5F5F5F5F5F5F5F5F5F5F5F5F5F5F5F5F5F5F5F5F5F5F5F5F5F5F5F5F5F5F5F5F5F5F5F5F5F5F5F5F5F5F5F5F5F5F5F5F5F5F5F5F5F5F5F5F5F5F5F5F5F5F5F5F5E2E2E2F5F5F5
310
F5F5F5F5F5F5F5F5F5F5F5F5F5F5F5F5F5F5F5F5F5F5F5F5F5F5F5F5F5F5F5F5F5E2E2E2F5E2F5F5E2EFE2F5F5E2F5F5F5F5F5F5F5F5F5F5F5F5F5F5F5F5F5F5F5F5F5F5F5F5F5F5F5F5F5F5F5F5F5F5F5F5F5F5F5F5F5F5F5F5F5F5F5F5F5F5F5F5F5F5F5F5F5F5F5F5F5F5F5F5F5F5F5F5F5F5F5F5F5F5F5F5F5F5F5F5F5
310
F5F5F5F5F5F5F5F5F5F5F5F5F5F5F5F5F5F5F5F5F5F5F5E2E2F5F5F5F5F5F5F5F5F5F5F5F5F5F5F5F5F5F5F5F5F5F5E2E2E2F5F5F5F5F5F5F5F5F5F5F5F5F5F5F5F5F5F5F5F5F5F5F5F5F5F5F5F5F5F5F5E2E2E2E2E2E2E2E2F5E2F5F5E2EFE2F5F5E2F5F5F5F5F5F5F5F5F5F5F5F5F5F5F5F5F5F5F5F5F5F5F5F5F5F5F5F5
310
F5F5F5F5F5F5F5F5F5F5F5F5F5F5F5F5F5F5F5F5F5F5F5F5F5F5F5F5F5F5F5F5F5F5F5F5F5F5F5F5F5F5F5F5F5F5F5F5F5F5F5F5F5F5F5F5F5F5F5F5F5F5F5F5F5F5F5F5F5F5F5F5F5F5E2E2E2E2E2E2E2E2E2E2E2E2F5F5F5F5F5F5F5F5F5F5F5F5F5F5E2E2E2F5F5F5E2F5F5E2F5F5E2F5E2F5F5E2F5E2F5F5E2F5F5E2F5
310
E2F5F5E2F5E2F5F5E2F5F5F5F5F5F5F5E2F5F5E2EFE2F5F5E2F5F5F5F5F5F5F5F5F5F5F5F5F5F5F5F5F5F5F5F5F5F5F5F5F5F5F5F5F5F5F5F5F5F5F5F5F5F5F5F5F5F5F5F5F5F5F5F5F5F5F5F5F5F5F5F5F5F5F5F5F5F5F5F5F5F5F5F5F5F5F5F5F5F5F5F5F5F5F5F5F5F5F5F5F5F5F5F5F5F5F5F5E2F5E2F5E2E2F5F5F5F5
310
E2E2E2E2E2E2E2E2E2E2E2E2F5F5F5F5F5F5F5F5F5F5F5F5F5F5F5F5F5F5F5F5E2F5F5E2F5F5E2F5E2F5F5E2F5E2F5F5E2F5F5E2F5E2F5F5E2F5E2F5F5E2F5F5F5F5F5F5F5E2F5F5E2EFE2F5F5E2F5F5F5F5F5F5F5F5F5F5F5F5F5F5F5F5F5F5F5F5F5F5F5F5F5F5F5F5F5F5F5F5F5F5F5F5F5F5F5F5F5F5F5F5F5F5F5F5F5
310
F5F5F5F5F5F5F5F5F5F5F5F5F5F5F5F5F5F5F5F5F5F5F5F5F5F5F5F5F5F5F5F5F5F5F5F5F5F5F5F5F5F5E2E2E2E2F5E2E2E2E2E2E2F5E2E2E2F5F5F5F5F5F5E2F5F5F5F5F5F5F5F5F5F5F5F5F5F5F5E2E2E2E2E2F5E2E2F5E2F5E2E2F5E2F5E2E2F5E2E2F5E2F5E2E2F5E2F5E2E2F5E2E2F5E2F5F5E2E2E2E2F5E2F5F5E2EF
310
E2F5F5E2F5F5F5F5F5F5F5F5F5F5F5F5F5F5F5F5F5F5F5F5F5F5F5F5F5F5F5F5F5F5F5F5F5F5F5F5F5F5F5F5F5F5F5F5F5F5F5F5F5F5F5F5F5F5F5F5F5F5F5F5F5F5F5F5F5F5F5F5F5F5F5F5F5F5F5F5F5F5F5F5F5F5F5F5F5F5F5F5F5F5F5F5F5F5E2F5E2F5F5F5F5F5E2F5E2E2E2E2E2F5E2E2E2E2F5F5F5F5F5F5F5F5F5
310
F5F5F5F5F5E2E2E2F5E2E2F5E2E2F5E2E2F5E2F5E2E2F5E2F5E2E2F5E2E2F5E2F5E2E2F5E2F5E2E2F5E2E2F5E2E2E2F5E2F5F5E2EFE2F5F5E2F5F5F5F5F5F5F5F5F5F5F5F5F5F5F5F5F5F5F5F5F5F5F5F5F5F5F5F5F5F5F5F5F5F5F5F5F5F5F5F5F5F5F5F5F5F5F5F5F5F5F5F5F5F5F5F5F5F5F5F5F5F5F5F5F5F5F5F5F5F5
310
F5F5F5F5F5F5F5F5F5F5F5F5F5F5F5F5F5F5F5F5F5F5F5F5E2F5E2F5F5F5F5F5E2E2E2E2E2E2F5F5E2E2E2E2F5F5F5F5F5F5F5F5F5F5F5F5F5F5E2E2E2F5F5E2F5F5E2F5E2F5F5E2F5E2F5F5E2F5F5E2F5E2F5F5E2F5E2F5F5E2F5F5E2F5E2E2F5E2E2E2F5E2F5F5E2EFE2F5F5E2F5F5F5F5F5F5F5F5F5F5F5F5F5F5F5F5F5
310
F5F5F5F5F5F5F5F5F5F5F5F5F5F5F5F5F5F5F5F5F5F5F5F5F5F5F5F5F5F5F5F5F5F5F5F5F5F5F5F5F5F5F5F5F5F5F5F5F5F5F5F5F5F5F5F5F5F5F5F5F5F5F5F5F5F5F5F5F5F5F5F5F5F5F5F5F5E2F0F0F5F5F5F5F5F5F5F5F5F5F5F5F5F5F5F5F5F5F5F5F5F5F5F5F5F5F5F5F5F5F5E2E2E2F5F5E2F5F5E2F5E2F5F5E2F5E2
310
F5F5E2F5F5E2F5E2F5F5E2F5E2F5F5E2F5F5E2F5E2F5F5E2E2E2F5E2F5F5E2EFE2F5F5E2F5F5F5F5F5F5F5F5F5F5F5F5F5F5F5F5F5F5F5F5F5F5F5F5F5F5F5F5F5F5F5F5F5F5F5F5F5F5F5F5F5F5F5F5F5F5F5F5F5F5F5F5F5F5F5F5F5F5F5F5F5F5F5F5F5F5F5F5F5F5F5F5F5F5F5F5F5F5F5F5F5F5F5F5F5F5F5F5F5F5F5
310
F5F5F5F0F0F0F5F5F5F5F5F5F5F5F5F5F5F5F5F5F5F5F5F5F5F5F5F5F5F5F5F5F5F5F5F5F5E2E2E2F5F5F5F5F5F5F5F5F5F5F5F5F5F5F5F5F5F5F5F5F5F5F5F5F5F5F5F5F5F5F5F5F5E2F5F5F5F5F5F5E2F5F5E2EFE2F5F5E2F5F5F5F5F5F5F5F5F5F5F5F5F5F5F5F5F5F5F5F5F5F5F5F5F5F5F5F5F5F5F5F5F5F5F5F5F5F5
310
F5F5F5F5F5F5F5F5F5F5F5F5F5F5F5F5F5F5F5F5F5F5F5F5F5F5F5F5F5F5F5F5F5F5F5F5F5F5F5F5F5F5F5F5F5F5F5F5F5F5F5F5F5F5F5F5F0F0F0F5F5F5F5F5F5F5F5F5F5F5F5F5F5F5F5F5F5F5F5F5F5F5F5F5F5F5F5F5F5F5F5F5F5F5F5F5F5F5F5F5F5F5F5F5F5F5F5F5F5F5F5F5F5F5F5F5F5F5F5F5F5F5F5F5F5F5E2
310
F5F5F5F5F5F5E2F5F5E2EFE2F5F5E2F5F5F5F5F5F5F5F5F5F5F5F5F5F5F5F5F5F5F5F5F5F5F5F5F5F5F5F5F5F5F5F5F5F5F5F5F5F5F5F5F5F5F5F5F5F5F5F5F5F5F5F5F5F5F5F5F5F5F5F5F5F5F5F5F5F5F5F5F5F5F5F5F5F5F5F5F5F5F5F5F5F5F5F5F5F5F5F5F5F5F5F5F5F5F0F0F0F5F5F5F5F5F5F5F5F5F5F5F5F5F5F5
310
F5F5F5F5F5F5F5F5F5F5F5F5F5F5F5F5F5F5F5F5F5F5F5F5F5F5F5F5F5F5F5F5F5F5F5F5F5F5F5F5F5F5F5F5F5F5F5F5F5F5F5F5E2F5F5F5F5F5F5E2F5F5E2EFE2F5F5E2F5F5F5F5F5F5F5F5F5F5F5F5F5F5F5F5F5F5F5F5F5F5F5F5F5F5F5F5F5F5F5F5F5F5F5F5F5F5F5F5F5F5F5F5F5F5F5F5F5F5F5F5F5F5F5F5F5F5F5
310
F5F5F5F5F5F5F5F5F5F5F5F5F5F5F5F5F5F5F5F5F5F5F5F5F5F5F5F5F5F5F5F5F5F5F5F0F0F0F5F5F5F5F5F5F5F5F5F5F5F5F5F5F5F5F5F5F5F5F5F5F5F5F5F5F5F5F5F5F5F5F5F5F5F5F5F5F5F5F5F5F5F5F5F5F5F5F5F5F5F5F5F5F5F5F5F5F5F5F5F5F5F5F5F5F5E2F5F5F5F5F5F5E2F5F5E2EFE2F5F5E2F5F5F5F5F5F5
310
F5F5F5F5F5F5F5F5F5F5F5F5F5F5F5F5F5F5F5F5F5F5F5F5F5F5F5F5F5F5F5F5F5F5F5F5F5F5F5F5F5F5F5F5F5F5F5F5F5F5F5F5F5F5F5F5F5F5F5F5F5F5F5F5F5F5F5F5F5F5F5F5F5F5F5F5F5F5F5F5F5F5F5F5F5F5F5F5F0F0F0F5F5F5F5F5F5F5F5F5F5F5F5F5F5F5F5F5F5F5F5F5F5F5F5F5F5F5F5F5F5F5F5F5F5F5F5
310
F5F5F5F5F5F5F5F5F5F5F5F5F5F5F5F5F5F5F5F5F5F5F5F5F5F5F5F5F5F5E2E2E2F5F5F5F5F5E2F5F5E2EFE2F5F5E2F5F5F5F5F5F5F5F5F5F5F5F5F5F5F5F5F5F5F5F5F5F5F5F5F5F5F5F5F5F5F5F5F5F5F5F5F5F5F5F5F5F5F5F5F5F5F5F5F5F5F5F5F5F5F5F5F5F5F5F5F5F5F5F5F5F5F5F5F5F5F5F5F5F5F5F5F5F5F5F5
310
F5F5F5F5F5F5F5F5F5F5F5F5F5F5F0F0F0F5F5F5F5F5F5F5F5F5F5F5F5F5F5F5F5F5F5F5F5F5F5F5F5F5F5F5F5F5F5F5F5F5F5F5F5F5F5F5F5F5F5F5F5F5F5F5F5F5F5F5F5F5F5F5F5F5F5F5F5F5F5F5F5F5F5E2E2E2F5F5F5F5F5E2F5F5E2EFE2F5F5E2F5F5F5F5F5F5F5F5F5F5F5F5F5F5F5F5F5F5F5F5F5F5F5F5F5F5F5
310
F5F5F5F5F5F5F5F5F5F5F5F5F5F5F5F5F5F5F5F5F5F5F5F5F5F5F5F5F5F5F5F5F5F5F5F5F5F5F5F5F5F5F5F5F5F5F5F5F5F5F5F5F5F5F5F5F5F5F5F5F5F5F5F5F5F5F5F0F0F0F5F5F5F5F5F5F5F5F5F5F5F5F5F5F5F5F5F5F5F5F5F5F5F5F5F5F5F5F5F5F5F5F5F5F5F5F5F5F5F5F5F5F5F5F5F5F5F5F5F5F5F5F5F5F5F5F5
310
F5F5F5F5F5F5F5F5F5E2E2E2F5F5F5F5F5E2F5F5E2EFE2F5F5E2F5F5F5F5F5F5F5F5F5F5F5F5F5F5F5F5F5F5F5F5F5F5F5F5F5F5F5F5F5F5F5F5F5F5F5F5F5F5F5F5F5F5F5F5F5F5F5F5F5F5F5F5F5F5F5F5F5F5F5F5F5F5F5F5F5F5F5F5F5F5F5F5F5F5F5F5F5F5F5F5F5F5F5F5F5F5F5F5F5F5F5F5F5F5F0F0F0F5F5F5F5
310
F5F5F5F5F5F5F5F5F5F5F5F5F5F5F5F5F5F5F5F5F5F5F5F5F5F5F5F5F5F5F5F5F5F5F5F5F5F5F5F5F5F5F5F5F5F5F5F5F5F5F5F5F5F5F5F5F5F5F5F5F5F5F5F5F5F5F5F5F5F5E2F5F5E2EFE2F5F5E2F5F5F5F5F5F5F5F5F5F5F5F5F5F5F5F5F5F5F5E2E2E2E2E2E2E2E2E2E2E2E2E2E2F5F5F5E2E2F5F5F5E2E2E2E2F5F5F5
310
F5F5F5F5F5F5F5F5F5F5F5F5F5F5F5F5F5F5F5F5F5F5F5F5F5F5F5F5F5F5F5F5F5F5F5F5F5F5F5F5F5F5F5F5F5F5F0F0F0E2E2E2F5F5F5F5F5F5F5F5F5F5F5F5F5F5F5F5F5F5F5F5F5F5F5F5F5F5F5F5F5F5F5F5F5F5F5F5F5F5F5F5E2E2E2E2F5F5F5E2E2E2F5F5F5E2E2E2E2F5F5F5F5F5F5F5F5F5F5F5F5F5F5E2F5F5E2
310
EFE2F5F5E2F5F5F5F5F5F5F5F5F5F5F5F5F5F5F5F5F5F5F5F5E2F5F5F5F5F5F5F5F5E2F5F5E2F5E2E2E2E2E2E2F5E2F5F5E2F5F5F5F5F5F5F5F5F5F5F5F5F5F5F5F5F5F5F5F5F5F5F5F5F5F5F5F5F5F5F5F5F5F5F5F5F5F5F5F5F5F5F5F5F5F5E2E2E2F0F0F0E2F5E2F5F5F5F5F5F5F5F5F5F5F5F5F5F5F5F5F5F5F5F5F5F5
310
F5F5F5F5F5F5F5F5F5F5F5F5F5F5F5F5F5F5E2F5F5E2F5F5E2E2F5E2E2F5F5E2F5F5E2F5F5F5F5F5F5F5F5F5F5F5F5F5F5E2F5F5E2EFE2F5F5E2F5F5F5F5F5F5F5F5F5F5F5F5F5F5F5F5F5F5F5F5E2F5F5F5F5F5F5F5F5E2F5F5E2E2E2E2E2E2E2E2E2E2F5F5E2F5F5F5F5F5F5F5F5F5F5F5F5F5F5F5F5F5F5F5F5F5F5F5F5
310
F5F5F5F5F5F5F5F5F5F5F5F5F5F5F5F5F5F5F5F5E2E2E2F5F5F0F0F0E2F5E2E2E2E2E2E2E2E2E2E2E2E2E2E2E2E2E2E2E2E2F5F5F5F5F5F5F5F5F5F5F5F5F5F5F5F5F5F5F5F5F5E2E2E2E2E2E2E2E2E2E2E2E2E2E2E2E2E2F5F5F5F5F5F5F5F5F5F5F5F5F5F5E2F5F5E2EFE2F5F5E2F5F5F5F5F5F5F5F5F5F5F5F5F5F5F5F5
310
F5F5F5F5E2F5F5F5F5F5F5F5F5E2F5E2E2E2E2E2E2E2E2F5E2E2E2F5E2F5F5F5F5F5F5F5F5F5F5F5F5F5F5F5F5F5F5F5F5F5F5F5F5F5F5F5F5F5F5F5F5F5F5F5F5F5F5F5E2E2E2E2E2E2F5E2F5F5F0E2F0E2F5F5F5E2F5F5F5F5F5F5F5F5F5F5E2F5F5E2F5F5E2F5F5F5F5F5F5F5F5F5F5F5F5F5F5F5F5F5F5F5F5F5E2E2E2
310
E2F5F5F5F5F5F5F5F5F5F5F5F5E2F5F5F5F5F5F5F5F5F5F5F5F5F5F5E2F5F5E2EFE2F5F5E2F5F5F5F5F5F5F5F5F5F5F5F5F5F5F5F5F5F5F5F5E2F5F5F5F5F5F5F5F5E2F5E2E2E2E2E2F5F5F5E2E2E2E2E2E2F5F5F5F5F5F5F5F5F5F5F5F5F5F5F5F5F5F5F5F5F5F5F5F5F5F5F5F5F5F5F5F5F5F5F5F5F5F5F5E2F5F5F5F5E2
310
F5E2F5F5F0E2F0E2F5F5F5E2F5F5F5F5F5F5F5F5F5F5E2F5F5E2F5F5E2F5F5F5F5F5F5F5F5F5F5F5F5F5F5F5F5F5F5F5F5F5E2E2E2E2F5F5F5F5F5F5F5F5F5F5F5F5E2F5F5F5F5F5F5F5F5F5F5F5F5F5F5E2F5F5E2EFE2F5F5E2F5F5F5F5F5F5F5F5F5F5F5F5F5F5F5F5F5F5F5F5E2F5F5F5F5F5F5F5F5E2E2E2E2E2F5F5F5
310
F5F5F5E2E2F5E2E2F5F5F5F5F5F5F5F5F5F5F5F5F5F5F5F5F5F5F5F5F5F5F5F5F5F5F5F5F5F5F5F5F5F5F5F5F5F5F5E2E2E2E2E2E2F5E2E2F5F0E2F0E2F5F5F5E2F5F5F5F5F5F5F5F5F5F5E2F5F5E2F5F5E2F5F5F5F5F5F5F5F5F5F5F5F5F5F5F5F5F5F5F5F5F5E2E2E2E2F5F5F5F5F5F5F5F5F5F5F5F5E2F5F5F5F5F5F5F5
310
F5F5F5F5F5F5F5E2F5F5E2EFE2F5F5E2F5F5F5F5F5F5F5F5F5F5F5F5F5F5F5F5F5F5F5F5E2F5F5F5F5F5F5F5F5E2E2F5E2E2F5F5F5F5F5F5F5E2E2E2E2F5F5F5F5F5F5F5F5F5F5F5F5F5F5F5F5F5F5F5F5F5F5F5F5F5F5F5F5F5F5F5F5F5F5F5F5F5F5F5E2E2E2E2E2E2F5E2E2F5F0E2F0E2F5F5F5E2F5F5F5F5F5F5F5F5F5
310
F5E2F5F5E2F5F5E2F5F5F5F5F5F5F5F5F5F5F5F5F5F5F5F5F5F5F5F5F5E2F5F5F5F5F5F5F5F5F5F5F5F5F5F5F5E2F5F5F5F5F5F5F5F5F5F5F5F5F5F5E2F5F5E2EFE2F5F5E2F5F5F5F5F5F5F5F5F5F5F5F5F5F5F5F5F5F5F5F5E2F5F5F5F5F5F5F5F5E2E2E2E2F5F5F5F5F5F5F5F5E2E2E2E2F5F5F5F5F5F5F5F5F5F5F5F5F5
310
F5F5F5F5F5F5F5F5F5F5F5F5F5F5F5F5F5F5F5F5F5F5F5F5F5F5E2F5F5F5F5E2F5E2F5F5F0E2F0E2F5F5F5E2F5F5F5F5F5F5F5F5F5F5E2F5F5E2F5F5E2F5F5F5F5F5F5F5F5F5F5F5F5F5F5F5F5F5F5F5F5F5E2F5F5F5F5F5F5F5F5F5F5F5F5F5F5F5E2F5F5F5F5F5F5F5F5F5F5F5F5F5F5E2F5F5E2EFE2F5F5E2F5F5F5F5F5
310
F5F5F5F5F5F5F5F5F5F5F5F5F5F5E2E2E2F5F5F5F5F5F5F5E2E2E2E2F5F5F5F5F5F5F5F5E2E2E2E2F5F5F5F5F5F5F5F5F5F5F5F5F5F5F5F5F5F5F5F5F5F5F5F5F5F5F5F5F5F5F5F5F5F5F5F5F5F5F5E2F5F5F5F5E2F5E2F5F5F0E2F0E2F5F5F5E2F5F5F5F5F5F5F5F5F5F5E2F5F5E2F5F5E2F5F5F5F5F5F5F5F5F5F5F5F5F5
310
F5F5F5F5F5F5F5F5E2F5E2E2E2F5E2E2F5F5E2E2F5F5F5F5E2F5F5F5F5F5F5F5F5F5F5F5F5F5F5E2F5F5E2EFE2F5F5E2F5F5F5F5F5F5F5F5F5F5F5F5F5F5F5F5F5F5F5E2E2E2F5F5F5F5F5F5F5E2E2E2E2F5F5F5F5F5F5F5F5E2E2E2E2F5F5F5F5F5F5F5F5F5F5F5F5F5F5F5F5F5F5F5F5F5F5F5F5F5F5F5F5F5F5F5F5F5F5
310
F5F5F5F5F5E2F5F5F5F5E2F5E2F5F5F0E2F0E2F5F5F5E2F5F5F5F5F5F5F5F5F5F5E2F5F5E2F5F5E2F5F5F5F5F5F5F5F5F5F5F5F5F5F5F5F5F5F5F5F5F5E2F5E2E2E2F5E2E2F5F5E2E2F5F5F5F5E2F5F5F5F5F5F5F5F5F5F5F5F5F5F5E2F5F5E2EFE2F5F5E2F5F5F5F5F5F5F5F5F5F5F5F5F5F5F5F5F5F5F5E2E2E2F5F5F5F5
310
F5F5F5E2E2E2E2F5F5F5F5F5F5F5F5E2E2E2E2F5F5F5F5F5F5F5F5F5F5F5F5F5F5F5F5F5F5F5F5F5F5F5F5F5F5F5F5F5F5F5F5F5F5F5F5F5F5F5E2E2E2E2E2E2F5E2F5F5F0E2F0E2F5F5F5E2F5F5F5F5F5F5F5F5F5F5E2F5F5E2F5F5E2F5F5F5F5F5F5F5F5F5F5F5F5F5F5F5F5F5F5F5F5F5E2F5E2E2E2F5E2E2F5F5E2E2F5
310
F5F5F5E2F5F5F5F5F5F5F5F5F5F5F5F5F5F5E2F5F5E2EFE2F5F5E2F5F5F5F5F5F5F5F5F5F5F5F5F5F5F5F5F5F5F5F5E2E2F5F5F5F5F5F5F5E2E2E2E2E2F5F5F5F5F5F5F5E2E2E2E2F5F5F5F5F5F5F5F5F5F5F5F5F5F5F5F5F5F5F5F5F5F5F5F5F5F5F5F5F5F5F5F5F5F5F5F5F5F5F5E2E2E2E2E2E2F5E2F5F5F0E2F0E2F5F5
310
F5E2F5F5F5F5F5F5F5F5F5F5E2F5F5E2E2E2E2F5F5F5F5F5F5F5F5F5F5F5F5F5F5F5F5F5F5F5F5F5E2E2E2E2E2E2E2E2E2E2E2E2E2E2F5F5E2F5F5F5F5F5F5F5F5F5F5F5F5F5F5E2F5F5E2EFE2F5F5E2F5F5F5F5F5F5F5F5F5F5F5F5F5F5F5F5F5F5F5F5E2F5F5F5F5F5F5F5F5E2E2E2E2E2F5F5F5F5F5F5F5E2F5E2E2F5F5
310
F5F5F5F5F5F5F5F5F5F5F5F5F5F5F5F5F5F5F5F5F5F5F5F5F5F5F5F5F5F5F5F5F5F5F5F5F5E2F5F5F5F5E2F5E2E2F5F0E2F0E2F5F5F5E2F5F5F5F5F5F5F5F5F5F5E2F5F5F5F5F5E2F5F5F5F5F5F5F5F5F5F5F5F5F5F5F5F5F5F5F5F5F5E2E2E2E2E2E2E2E2E2E2E2E2E2E2E2F5E2F5F5F5F5F5F5F5F5F5F5F5F5F5F5E2F5F5
310
E2EFE2F5F5E2F5F5F5F5F5F5F5F5F5F5F5F5F5F5F5F5F5F5F5F5E2F5F5F5F5F5F5F5F5E2E2E2F5E2E2F5F5F5F5E2E2E2E2E2E2F5F5F5F5F5F5F5F5F5F5F5F5F5F5F5F5F5F5F5F5F5F5F5F5F5F5F5F5F5F5F5F5F5F5F5F5F5F5F5E2F5F5F5F5E2F5E2F5F5F0E2F0E2F5F5F5E2F5F5F5F5F5F5F5F5F5F5E2F5F5F5F5F5E2F5F5
310
F5F5F5F5F5F5F5F5F5F5F5F5F5F5F5F5F5F5F5E2E2E2E2E2E2E2E2E2E2E2E2E2E2E2E2E2F5F5F5F5F5F5F5F5F5F5F5F5F5F5E2F5F5E2EFE2F5F5E2F5F5F5F5F5F5F5F5F5F5F5F5F5F5F5F5F5F5F5F5E2F5F5F5F5F5F5F5F5E2F5E2E2E2E2E2E2E2E2E2E2E2E2F5E2F5F5F5F5F5F5F5F5F5F5F5F5F5F5F5F5F5F5F5F5F5F5F5
310
F5F5F5F5F5F5F5F5F5F5F5F5F5F5F5E2E2E2E2E2E2E2F5E2F5F5F0E2F0E2F5F5F5E2F5F5F5F5F5F5F5F5F5F5E2F5F5F5F5F5E2F5F5F5F5F5F5F5F5F5F5F5F5F5F5F5F5F5F5F5F5F5E2E2E2E2E2E2E2E2E2E2E2E2E2E2E2E2E2F5F5F5F5F5F5F5F5F5F5F5F5F5F5E2F5F5E2EFE2F5F5E2F5F5F5F5F5F5F5F5F5F5F5F5F5F5F5
310
F5F5F5F5F5E2F5F5F5F5F5F5F5F5E2F5F5E2E2E2E2E2E2E2E2E2E2F5F5E2F5F5F5F5F5F5F5F5F5F5F5F5F5F5F5F5F5F5F5F5F5F5F5F5F5F5F5F5F5F5F5F5F5F5F5F5F5F5E2E2E2E2E2E2E2F5E2F5F5F0F0F0E2F5E2E2E2E2E2E2E2E2E2E2E2E2E2E2E2E2E2E2E2E2F5F5F5F5F5F5F5F5F5F5F5F5F5F5F5F5F5F5F5F5F5E2E2
310
E2E2E2E2E2E2E2E2E2E2E2E2E2E2E2F5F5F5F5F5F5F5F5F5F5F5F5F5F5E2F5F5E2EFE2F5F5E2F5F5F5F5F5F5F5F5F5F5F5F5F5F5F5F5F5F5F5F5E2F5F5F5F5F5F5F5E2E2F5F5E2F5E2E2E2E2E2E2F5E2F5F5E2E2F5F5F5F5F5F5F5F5F5F5F5F5F5F5F5F5F5F5F5F5F5F5F5F5F5F5F5F5F5F5F5F5F5F5F5F5F5E2F5F5F5F5F5
310
E2E2E2E2E2F0F0F0E2F5E2F5F5F5F5F5F5F5F5E2F5F5F5F5F5F5F5F5F5E2F5F5F5F5F5F5F5F5F5F5F5F5F5F5F5F5F5F5F5F5F5E2F5F5E2F5E2E2E2E2E2E2E2F5E2F5F5E2F5F5F5F5F5F5F5F5F5F5F5F5F5F5E2F5F5E2EFE2F5F5E2F5F5F5F5F5F5F5F5F5F5F5F5F5F5F5F5F5F5F5E2E2E2E2E2E2E2E2E2E2E2E2E2E2F5E2E2
310
E2E2E2E2F5E2E2E2E2E2F5F5F5F5F5F5F5F5F5F5F5F5F5F5F5F5F5F5F5F5F5F5F5F5F5F5F5F5F5F5F5F5F5F5F5F5F5E2F5F5F5F5F5F5F5F5F5F5F0F0F0E2E2E2F5F5F5F5F5F5F5F5E2F5F5F5F5F5F5F5F5F5E2F5F5F5F5F5F5F5F5F5F5F5F5F5F5F5F5F5F5F5F5F5E2E2E2E2F5E2F5E2F5E2F5E2F5E2E2E2E2F5F5F5F5F5F5
310
F5F5F5F5F5F5F5F5E2F5F5E2EFE2F5F5E2F5F5F5F5F5F5F5F5F5F5F5F5F5F5F5F5F5F5F5F5F5F5F5F5F5F5F5F5E2F5F5F5F5F5E2E2E2E2E2E2F5F5F5F5F5E2F5F5F5F5F5F5F5F5F5F5F5F5F5F5F5F5F5F5F5F5F5F5F5F5F5F5F5F5F5F5F5F5F5F5F5F5F5E2F5F5F5F5F5F5F5F5F5F5F0F0F0F5F5F5F5F5F5F5F5F5F5F5E2F5
310
F5F5F5F5F5F5F5F5E2F5F5F5F5F5F5F5F5F5F5F5F5F5F5F5F5F5F5F5F5F5F5F5F5F5F5F5E2E2E2E2E2F5F5F5F5F5F5F5F5F5F5F5F5F5F5F5F5F5F5F5F5E2F5F5E2EFE2F5F5E2F5F5F5F5F5F5F5F5F5F5F5F5F5F5F5F5F5F5F5F5F5F5F5F5F5F5F5F5E2F5F5F5F5F5F5F5F5F5F5F5F5F5F5F5F5E2F5F5F5F5F5F5F5F5F5F5F5
310
F5F5F5F5F5F5F5F5F5F5F5F5F5F5F5F5F5F5F5F5F5F5F5F5F5F5E2F5F5F5F5F5F5F5F5F5F5F0F0F0F5F5F5F5F5F5F5F5F5F5F5F5F5F5F5F5F5F5F5F5F5E2F5F5F5F5F5F5F5F5F5F5F5F5F5F5F5F5F5F5F5F5F5F5F5F5F5F5F5F5F5F5F5F5F5F5F5F5F5F5F5F5F5F5F5F5F5F5F5F5F5F5F5F5E2F5F5E2EFE2F5F5E2F5F5F5F5
310
F5F5F5F5F5F5F5F5F5F5F5F5F5F5F5F5F5F5F5F5F5F5F5F5E2F5F5F5F5F5F5F5F5F5F5F5F5F5F5F5F5E2F5F5F5F5F5F5F5F5F5F5F5F5F5F5F5F5F5F5F5F5F5F5F5F5F5F5F5F5F5F5F5F5F5F5F5F5F5E2F5F5F5F5F5F5F5F5F5F5F0F0F0F5F5F5F5F5F5F5F5F5F5F5F5F5F5F5F5F5F5F5F5F5E2F5F5F5F5F5F5F5F5F5F5F5F5
310
F5F5F5F5F5F5F5F5F5F5F5F5F5F5F5F5F5F5F5F5F5F5F5F5F5F5F5F5F5F5F5F5F5F5F5F5F5F5F5F5E2F5F5E2EFE2F5F5E2F5F5F5F5F5F5F5F5F5F5F5F5F5F5F5F5F5F5F5F5F5F5F5F5F5F5F5F5E2F5F5F5F5F5F5F5F5F5F5F5F5F5F5F5F5E2F5F5F5F5F5F5F5F5F5F5F5F5F5F5F5F5F5F5F5F5F5F5F5F5F5F5F5F5F5F5F5F5
310
F5F5F5F5F5E2F5F5F5F5F5F5F5F5F5F5F0F0F0F5F5F5F5F5F5F5F5F5F5F5F5F5F5F5F5F5F5F5F5F5E2F5F5F5F5F5F5F5F5F5F5F5F5F5F5F5F5F5F5F5F5F5F5F5F5F5F5F5F5F5F5F5F5F5F5F5F5F5F5F5F5F5F5F5F5F5F5F5F5F5F5F5F5E2F5F5E2EFE2F5F5E2F5F5F5F5F5F5F5F5F5F5F5F5F5F5F5F5F5F5F5F5F5F5F5F5F5
310
F5F5F5E2F5F5F5F5F5F5F5F5F5F5F5F5F5F5F5F5E2F5F5F5F5F5F5F5F5F5F5F5F5F5F5F5F5F5F5F5F5F5F5F5F5F5F5F5F5F5F5F5F5F5F5F5F5F5E2F5F5F5F5F5F5F5F5F5F5F0F0F0F5F5F5F5F5F5F5F5F5F5F5F5F5F5F5F5F5F5F5F5F5E2F5F5F5F5F5F5F5F5F5F5F5F5F5F5F5F5F5F5F5F5F5F5F5F5F5F5F5F5F5F5F5F5F5
310
F5F5F5F5F5F5F5F5F5F5F5F5F5F5F5F5F5F5F5E2F5F5E2EFE2F5F5E2F5F5F5F5F5F5F5F5F5F5F5F5F5F5F5F5F5F5F5F5F5F5F5F5F5F5F5F5E2F5F5F5F5F5F5F5E2E2E2F5F5F5F5F5F5E2F5F5F5F5F5F5F5F5F5F5F5F5F5F5F5F5F5F5F5F5F5F5F5F5F5F5F5F5F5F5F5F5F5F5F5F5F5E2F5F5F5F5F5F5F5F5F5F5F0F0F0F5F5
310
F5F5F5F5F5F5F5F5F5F5F5F5F5F5F5F5F5F5F5E2F5F5F5F5F5F5F5F5F5F5F5F5F5F5F5F5F5F5F5F5F5F5F5F5F5F5F5F5F5F5F5F5F5F5F5F5F5F5F5F5F5F5F5F5F5F5F5F5F5F5F5F5E2F5F5E2EFE2F5F5E2F5F5F5F5F5F5F5F5F5F5F5F5F5F5F5F5F5F5F5F5F5F5F5F5F5F5F5F5E2E2E2E2E2E2E2E2E2E2E2E2E2E2E2E2E2E2
310
F5F5F5F5F5F5F5F5F5F5F5F5F5F5F5F5F5F5F5F5F5F5F5F5F5F5F5F5F5F5F5F5F5F5F5F5F5E2F5F5F5F5F5F5F5F5F5F5F0F0F0F5F5F5F5F5F5F5F5F5F5F5F5F5F5F5F5F5F5F5F5F5E2F5F5F5F5F5F5F5F5F5F5F5F5F5F5F5F5F5F5F5F5F5F5F5F5F5F5F5F5F5F5F5F5F5F5F5F5F5F5F5F5F5F5F5F5F5F5F5F5F5F5F5F5E2F5
310
F5E2EFE2F5F5E2F5F5F5F5F5F5F5F5F5F5F5F5F5F5F5F5F5F5F5F5F5F5F5F5F5F5F5F5E2F5F5F5F5F5F5E2F5E2F5F5F5F5F5F5F5E2F5F5F5F5F5F5F5F5F5F5F5F5F5F5F5F5F5F5F5F5F5F5F5F5F5F5F5F5F5F5F5F5F5F5F5F5F5E2F5F5F5F5F5F5F5F5F5F5F0F0F0F5F5F5F5F5F5F5F5F5F5F5F5F5F5F5F5F5F5F5F5F5E2F5
310
F5F5F5F5F5F5F5F5F5F5F5F5F5F5F5F5F5F5F5F5F5F5F5F5F5F5F5F5F5F5F5F5F5F5F5F5F5F5F5F5F5F5F5F5F5F5F5F5F5F5F5E2F5F5E2EFE2F5F5E2F5F5F5F5F5F5F5F5F5F5F5F5F5F5F5F5F5F5F5F5F5F5F5F5F5F5F5F5F5F5F5F5F5F5F5F5F5E2F5F5F5F5F5F5F5F5F5F5F5F5F5F5F5F5F5F5F5F5F5F5F5F5F5F5F5F5F5
310
F5F5F5F5F5F5F5F5F5F5F5F5F5F5F5F5E2F5F5F5F5F5F5F5F5F5F5F0F0F0F5F5F5F5F5F5F5F5F5F5F5F5F5F5F5F5F5F5F5F5F5E2F5F5F5F5F5F5F5F5F5F5F5F5F5F5F5F5F5F5F5F5F5F5F5F5F5F5F5F5F5F5F5F5F5F5F5F5F5F5F5F5F5F5F5F5F5F5F5F5F5F5F5F5E2F5F5E2EFE2F5F5E2F5F5F5F5F5F5F5F5F5F5F5F5F5F5
310
F5F5F5F5F5F5F5F5F5F5F5F5F5F5F5F5F5F5F5F5F5F5F5F5F5F5F5F5F5F5F5F5F5F5F5F5F5F5F5F5F5F5F5F5F5F5F5F5F5F5F5F5F5F5F5F5F5F5F5F5F5F5F5F5F5F5F5F5F5E2F5F5F5F5F5F5F5F5F5F5F0F0F0F5F5F5F5F5F5F5F5F5F5F5F5F5F5F5F5F5F5F5F5F5E2F5F5F5F5F5F5F5F5F5F5F5F5F5F5F5F5F5F5F5F5F5F5
310
F5F5F5F5F5F5F5F5F5F5F5F5F5F5F5F5F5F5F5F5F5F5F5F5F5F5F5F5F5F5E2F5F5E2EFE2F5F5E2F5F5F5F5F5F5F5F5F5F5F5F5F5F5F5F5F5F5F5F5F5F5F5F5F5F5F5F5F5F5F5F5F5F5F5F5F5F5F5F5F5F5F5F5F5F5F5F5F5F5F5F5F5F5F5F5F5F5F5F5F5F5F5F5F5F5F5F5F5F5F5F5F5F5F5F5F5F5F5F5F5F5F5E2F5F5F5F5
310
F5F5F5F5F5F5F0F0F0F5F5F5F5F5F5F5F5F5F5F5F5F5F5F5F5F5F5F5F5F5E2F5F5F5F5F5F5F5F5F5F5F5F5F5F5F5F5F5F5F5F5F5F5F5F5F5F5F5F5F5F5F5F5F5F5F5F5F5F5F5F5F5F5F5F5F5F5F5F5F5F5F5F5E2F5F5E2EFE2F5F5E2F5F5F5F5F5F5F5F5F5F5F5F5F5F5F5F5F5F5F5F5F5F5F5F5F5F5F5F5F5F5F5F5F5F5F5
310
F5F5F5F5F5F5F5F5F5F5F5F5F5F5F5F5F5F5F5F5F5F5F5F5F5F5F5F5F5F5F5F5F5F5F5F5F5F5F5F5F5F5F5F5F5F5F5F5E2F5F5F5F5F5F5F5F5F5F5E2F0E2F5F5F5F5F5F5F5F5F5F5F5F5F5F5F5F5F5F5F5F5F5E2F5F5F5F5F5F5F5F5F5F5F5F5F5F5F5F5F5F5F5F5F5F5F5F5F5F5F5F5F5F5F5F5F5F5F5F5F5F5F5F5F5F5F5
310
F5F5F5F5F5F5F5F5F5E2F5F5E2EFE2F5F5E2F5F5F5F5F5F5F5F5F5F5F5F5F5F5F5F5F5F5F5F5F5F5F5F5F5F5F5F5F5F5F5F5F5F5F5F5F5F5F5F5F5F5F5F5F5F5F5F5F5F5F5F5F5F5F5F5F5F5F5F5F5F5F5F5F5F5F5F5F5F5F5F5F5F5F5F5F5F5F5F5F5F5F5E2F5F5F5F5F5F5F5F5F5F5E2F5E2F5F5F5F5F5F5F5F5F5F5F5F5
310
F5F5F5F5F5F5F5F5F5E2F5F5F5F5F5F5F5F5F5F5F5F5F5F5F5F5F5F5F5F5F5F5F5F5F5F5F5F5F5F5F5F5F5F5F5F5F5F5F5F5F5F5F5F5F5F5F5F5F5F5F5F5E2F5F5E2EFE2F5F5E2F5E2E2E2E2E2E2E2E2E2E2F5E2E2E2E2E2E2E2E2E2E2E2E2E2E2E2E2E2E2E2E2F5E2E2E2E2E2E2E2E2E2E2E2E2E2E2E2E2E2E2E2E2E2E2F5
310
F5F5F5F5F5F5F5F5F5F5F5F5F5F5F5F5F5F5F5F5F5F5F5F5F5F5F5E2F5F5F5F5F5F5F5F5F5F5E2F5E2F5F5F5F5F5F5F5F5F5F5F5F5F5F5F5F5F5F5F5F5F5E2F5F5F5F5F5F5F5F5F5F5F5F5F5F5F5F5F5F5F5F5F5F5F5F5F5F5F5F5F5F5F5F5F5F5F5F5F5F5F5F5F5F5F5F5F5F5F5F5F5F5F5F5E2F5F5E2EFE2F5F5E2F5E2E2
310
E2E2E2E2E2E2E2E2F5E2E2E2E2E2E2E2E2E2F5E2E2E2E2E2E2E2E2F5F5F5E2E2E2E2E2E2E2E2E2E2E2E2E2E2E2E2E2E2E2E2E2E2F5F5F5F5F5F5F5F5F5F5F5F5F5F5F5F5F5F5F5F5F5F5F5F5F5F5F5F5E2F5F5F5F5F5F5F5F5F5F5E2F5E2F5F5F5F5F5F5F5F5F5E2E2F5F5F5F5F5F5F5F5F5F5E2F5F5F5F5F5F5F5F5F5F5F5
310
F5F5F5F5F5F5F5F5F5F5F5F5F5F5F5F5F5F5F5F5F5F5F5F5F5F5F5F5F5F5F5F5F5F5F5F5F5F5F5F5F5E2F5F5E2EFE2F5F5E2F5E2E2E2E2E2E2E2E2E2E2E2E2E2E2E2E2E2E2E2E2E2E2E2F5E2E2E2E2E2E2E2E2E2E2E2E2E2F5E2E2E2E2E2E2E2E2E2E2E2E2E2E2E2E2F5F5F5F5F5F5F5F5F5F5F5F5F5F5F5F5F5F5F5F5F5F5
310
F5F5F5F5F5F5E2F5F5F5F5F5E2F5F5F5F5E2F5E2F5F5F5F5F5F5F5F5E2E2E2F5F5F5F5F5F5F5F5F5F5E2F5F5F5F5F5F5F5F5F5F5F5F5F5F5F5F5F5F5F5F5F5F5F5F5F5F5F5F5F5F5F5F5F5F5F5F5F5F5F5F5F5F5F5F5F5F5F5F5F5F5F5F5E2F5F5E2EFE2F5F5E2F5E2E2E2E2E2E2E2E2E2E2E2E2E2E2E2E2E2E2E2E2E2E2E2
310
F5E2E2E2E2E2E2E2E2E2E2E2E2E2F5E2E2E2E2E2E2E2E2F5E2E2E2E2F5F5F5F5F5F5F5F5F5F5F5F5F5F5F5F5F5F5F5F5F5F5F5F5F5F5F5F5F5F5F5E2E2E2E2E2E2E2E2E2E2E2E2F5E2E2E2E2E2E2E2E2E2E2E2E2E2E2E2E2E2E2E2E2E2E2E2F5F5F5F5F5F5F5F5F5F5F5F5F5F5F5F5F5F5F5F5F5F5F5F5F5F5F5F5F5F5F5F5
310
F5F5F5F5F5F5F5F5F5F5F5F5F5F5F5F5F5F5F5F5E2F5F5E2EFE2F5F5E2F5F5F5F5F5F5F5F5F5F5F5F5F5F5F5F5F5F5F5F5F5F5F5F5F5F5F5F5F5F5F5F5F5F5F5F5F5F5F5F5F5F5F5F5F5F5F5F5F5F5F5F5F5F5F5F5F5F5F5F5F5F5F5F5F5F5F5F5F5F5F5F5F5F5F5F5F5F5F5F5F5F5F5E2F5F5F5F5F5E2F5F5F5F5E2F5F5F5
310
F5F5F5F5F5F5F5F5E2E2F5F5F5F5F5F5F5F5F5F5F5F5F5F5F5F5F5F5F5F5F5F5F5F5F5F5F5F5F5F5F5F5F5F5F5F5F5F5F5F5F5F5F5F5F5F5F5F5F5F5F5F5F5F5F5F5F5F5F5F5F5F5F5E2F5F5E2EFE2F5F5E2F5E2E2E2E2E2E2E2E2E2E2E2E2E2E2E2E2E2E2E2E2E2E2E2E2F5F5F5E2E2E2E2F5E2E2E2E2E2E2E2E2E2F5F5F5
310
F5F5F5F5F5F5F5F5F5F5F5F5F5F5F5F5F5F5F5F5F5F5F5F5F5F5F5F5F5F5F5F5F5F5F5F5F5F5F5F5F5F5F5F5F5F5F5F5F5F5F5F5F5F5F5F5F5F5F5F5F5F5F5F5F5F5F5F5F5F5F5F5F5F5F5F5F5F5F5F5F5F5F5F5F5F5F5F5F5F5F5F5F5F5F5F5F5F5F5F5F5F5F5F5F5F5F5F5F5F5F5F5F5F5F5F5F5F5F5F5F5F5F5F5F5F5E2
310
F5F5E2EFE2F5F5E2F5E2E2E2E2E2E2E2E2E2E2E2E2E2E2E2E2E2E2E2E2E2E2E2F5E2E2E2E2E2E2E2E2E2E2E2E2E2E2E2E2E2F5F5F5F5F5F5F5F5F5F5F5F5F5F5F5F5F5F5F5F5F5F5F5F5F5F5F5F5F5F5F5F5F5F5F5F5F5F5F5F5F5F5F5F5F5F5F5F5F5F5F5F5F5F5F5F5F5F5F5F5F5F5F5F5F5F5F5F5F5F5F5F5F5F5F5F5F5
310
F5F5F5F5F5F5F5F5F5F5F5F5F5F5F5F5F5F5F5F5F5F5F5F5F5F5F5F5F5F5F5F5F5F5F5F5F5F5F5F5F5F5F5F5F5F5F5F5F5F5F5F5E2F5F5E2EFE2F5F5E2E2E2E2E2E2E2E2F5F5F5F5F5F5F5F5F5E2E2E2E2E2E2E2E2E2E2E2E2E2E2E2E2F5F5F5F5F5F5F5F5F5E2E2E2E2E2E2E2E2E2E2E2E2E2E2E2E2F5F5F5F5F5F5F5F5E2
310
E2E2E2E2E2E2E2E2E2E2E2E2E2E2E2F5F5F5F5F5F5F5F5F5E2E2E2E2E2E2E2E2E2E2E2E2E2E2E2E2F5F5F5F5F5F5F5F5E2E2E2E2E2E2E2E2E2E2E2E2E2E2E2E2F5F5F5F5F5F5F5F5F5E2E2E2E2E2E2E2E2E2E2E2E2E2E2E2E2F5F5F5F5F5F5F5F5F5E2E2E2E2E2E2E2E2F5F5E2EFE2F5F5E2F5F5F5F5F5F5F5F5F5F5F5F5F5
310
F5F5F5F5F5F5F5F5F5F5F5F5F5F5F5F5F5F5F5F5F5F5F5F5F5F5F5F5F5F5F5F5F5F5F5F5F5F5F5F5F5F5F5F5F5F5F5F5F5F5F5F5F5F5F5F5F5F5F5F5F5F5F5F5F5F5F5F5F5F5F5F5F5F5F5F5F5F5F5F5F5F5F5F5F5F5F5F5F5F5F5F5F5F5F5F5F5F5F5F5F5F5F5F5F5F5F5F5F5F5F5F5F5F5F5F5F5F5F5F5F5F5F5F5F5F5F5
310
F5F5F5F5F5F5F5F5F5F5F5F5F5F5F5F5F5F5F5F5F5F5F5F5F5F5F5F5F5F5F5E2F5F5E2EFE2F5F5E2F5E2E2E2E2E2E2F5F5F5F5F5F5F5F5F5F5F5F5F5F5F5F5F5F5F5F5F5F5F5F5F5F5F5F5F5F5F5F5F5F5F5F5F5F5F5F5F5F5F5F5F5F5F5F5F5F5F5F5F5F5F5F5F5F5F5F5F5F5F5F5F5F5F5F5F5F5F5F5F5F5F5F5F5F5F5F5
310
F5F5F5F5F5F5F5F5F5F5F5F5F5F5F5F5F5F5F5F5F5F5F5F5F5F5F5F5F5F5F5F5F5F5F5F5F5F5F5F5F5F5F5F5F5F5F5F5F5F5F5F5F5F5F5F5F5F5F5F5F5F5F5F5F5F5F5F5F5F5F5F5F5F5F5F5F5F5F5F5F5F5F5F5E2F5F5E2EFE2F5F5E2F5E2E2E2E2E2E2F5F5F5F5F5F5F5F5F5F5F5F5F5F5F5F5F5F5F5F5F5F5F5F5F5F5F5
310
F5F5F5F5F5F5F5F5F5F5F5F5F5F5F5F5F5F5F5F5F5F5F5F5F5F5F5F5F5F5F5F5F5F5F5F5F5F5F5F5F5F5F5F5F5F5F5F5F5F5F5F5F5F5F5F5F5F5F5F5F5F5F5F5F5F5F5F5F5F5F5F5F5F5F5F5F5F5F5F5F5F5F5F5F5F5F5F5F5F5F5F5F5F5F5F5F5F5F5F5F5F5F5F5F5F5F5F5F5F5F5F5F5F5F5F5F5F5F5F5F5F5F5F5F5F5F5
310
F5F5F5F5F5F5F5F5F5F5E2F5F5E2EFE2F5F5E2F5F5F5F5F5F5F5F5F5F5F5F5F5F5F5F5F5F5F5F5F5F5F5F5F5F5F5F5F5F5F5F5F5F5F5F5F5F5F5F5F5F5F5F5F5F5F5F5F5F5F5F5F5F5F5F5F5F5F5F5F5F5F5F5F5F5F5F5F5F5F5F5F5F5F5F5F5F5F5F5F5F5F5F5F5F5F5F5F5F5F5F5F5F5F5F5F5F5F5F5F5F5F5F5F5F5F5F5
310
F5F5F5F5F5F5F5F5F5F5F5F5F5F5F5F5F5F5F5F5F5F5F5F5F5F5F5F5F5F5F5F5F5F5F5F5F5F5F5F5F5F5F5F5F5F5F5F5F5F5F5F5F5F5F5F5F5F5F5F5F5F5F5E2F5F5E2EFE2F5F5E2E2E2E2E2E2E2E2E2E2E2E2E2E2E2E2E2E2E2E2E2E2E2E2E2E2E2E2E2E2E2E2E2E2E2E2E2E2E2E2E2E2E2E2E2E2E2E2E2E2E2E2E2E2E2E2
310
E2E2E2E2E2E2E2E2E2E2E2E2E2E2E2E2E2E2E2E2E2E2E2E2E2E2E2E2E2E2E2E2E2E2E2E2E2E2E2E2E2E2E2E2E2E2E2E2E2E2E2E2E2E2E2E2E2E2E2E2E2E2E2E2E2E2E2E2E2E2E2E2E2E2E2E2E2E2E2E2E2E2E2E2E2E2E2E2E2E2E2E2E2E2E2E2E2E2E2E2E2E2E2E2E2E2E2E2E2E2E2E2E2E2E2E2E2F5F5E2EFE2F5F5F5F5F5
310
F5F5F5F5F5F5F5F5F5F5F5F5F5F5F5F5F5F5F5F5F5F5F5F5F5F5F5F5F5F5F5F5F5F5F5F5F5F5F5F5F5F5F5F5F5F5F5F5F5F5F5F5F5F5F5F5F5F5F5F5F5F5F5F5F5F5F5F5F5F5F5F5F5F5F5F5F5F5F5F5F5F5F5F5F5F5F5F5F5F5F5F5F5F5F5F5F5F5F5F5F5F5F5F5F5F5F5F5F5F5F5F5F5F5F5F5F5F5F5F5F5F5F5F5F5F5F5
310
F5F5F5F5F5F5F5F5F5F5F5F5F5F5F5F5F5F5F5F5F5F5F5F5F5F5F5F5F5F5F5F5F5F5F5F5F5F5F5F5F5F5F5F5F5E2EFE2E2E2E2E2E2E2E2E2E2E2E2E2E2E2E2E2E2E2E2E2E2E2E2E2E2E2E2E2E2E2E2E2E2E2E2E2E2E2E2E2E2E2E2E2E2E2E2E2E2E2E2E2E2E2E2E2E2E2E2E2E2E2E2E2E2E2E2E2E2E2E2E2E2E2E2E2E2E2E2
310
E2E2E2E2E2E2E2E2E2E2E2E2E2E2E2E2E2E2E2E2E2E2E2E2E2E2E2E2E2E2E2E2E2E2E2E2E2E2E2E2E2E2E2E2E2E2E2E2E2E2E2E2E2E2E2E2E2E2E2E2E2E2E2E2E2E2E2E2E2E2E2E2E2E2E2E2E2E2E2E2E2E2E2E2E2E2E2E2E2E2E2E2E2E2E2E2E2E2E2EF
  0
XRECORD
  5
8CC
102
{ACAD_REACTORS
330
8CB
102
}
330
8CB
100
AcDbXrecord
280
     1
102
SHADEPLOT
 70
     0
102
SHADEPLOTRESLEVEL
 70
     2
102
SHADEPLOTCUSTOMDPI
 70
   300
  0
ENDSEC
  0
EOF
