  0
SECTION
  2
HEADER
  9
$ACADVER
  1
AC1015
  9
$ACADMAINTVER
 70
    20
  9
$DWGCODEPAGE
  3
ANSI_1252
  9
$INSBASE
 10
0.0
 20
0.0
 30
0.0
  9
$EXTMIN
 10
0.0000000293786862
 20
-0.0000000235213244
 30
0.0
  9
$EXTMAX
 10
34.00000002937871
 20
21.99999997647868
 30
0.0
  9
$LIMMIN
 10
0.0
 20
0.0
  9
$LIMMAX
 10
17.0
 20
11.0
  9
$ORTHOMODE
 70
     0
  9
$REGENMODE
 70
     1
  9
$FILLMODE
 70
     1
  9
$QTEXTMODE
 70
     0
  9
$MIRRTEXT
 70
     1
  9
$LTSCALE
 40
1.0
  9
$ATTMODE
 70
     1
  9
$TEXTSIZE
 40
0.12
  9
$TRACEWID
 40
0.05
  9
$TEXTSTYLE
  7
outline drawings
  9
$CLAYER
  8
0
  9
$CELTYPE
  6
BYLAYER
  9
$CECOLOR
 62
   256
  9
$CELTSCALE
 40
1.0
  9
$DISPSILH
 70
     0
  9
$DIMSCALE
 40
1.0
  9
$DIMASZ
 40
0.125
  9
$DIMEXO
 40
0.0625
  9
$DIMDLI
 40
0.38
  9
$DIMRND
 40
0.0
  9
$DIMDLE
 40
0.0
  9
$DIMEXE
 40
0.18
  9
$DIMTP
 40
0.0
  9
$DIMTM
 40
0.0
  9
$DIMTXT
 40
0.18
  9
$DIMCEN
 40
0.09
  9
$DIMTSZ
 40
0.0
  9
$DIMTOL
 70
     0
  9
$DIMLIM
 70
     0
  9
$DIMTIH
 70
     1
  9
$DIMTOH
 70
     1
  9
$DIMSE1
 70
     0
  9
$DIMSE2
 70
     0
  9
$DIMTAD
 70
     0
  9
$DIMZIN
 70
     0
  9
$DIMBLK
  1

  9
$DIMASO
 70
     1
  9
$DIMSHO
 70
     1
  9
$DIMPOST
  1
 mm\X
  9
$DIMAPOST
  1
 in
  9
$DIMALT
 70
     1
  9
$DIMALTD
 70
     2
  9
$DIMALTF
 40
0.0393700787
  9
$DIMLFAC
 40
25.4
  9
$DIMTOFL
 70
     0
  9
$DIMTVP
 40
0.0
  9
$DIMTIX
 70
     0
  9
$DIMSOXD
 70
     0
  9
$DIMSAH
 70
     0
  9
$DIMBLK1
  1

  9
$DIMBLK2
  1

  9
$DIMSTYLE
  2
Outline Drawings
  9
$DIMCLRD
 70
     0
  9
$DIMCLRE
 70
     0
  9
$DIMCLRT
 70
     0
  9
$DIMTFAC
 40
1.0
  9
$DIMGAP
 40
0.09
  9
$DIMJUST
 70
     0
  9
$DIMSD1
 70
     0
  9
$DIMSD2
 70
     0
  9
$DIMTOLJ
 70
     1
  9
$DIMTZIN
 70
     0
  9
$DIMALTZ
 70
     0
  9
$DIMALTTZ
 70
     0
  9
$DIMUPT
 70
     0
  9
$DIMDEC
 70
     0
  9
$DIMTDEC
 70
     0
  9
$DIMALTU
 70
     2
  9
$DIMALTTD
 70
     2
  9
$DIMTXSTY
  7
outline drawings
  9
$DIMAUNIT
 70
     0
  9
$DIMADEC
 70
     0
  9
$DIMALTRND
 40
0.0
  9
$DIMAZIN
 70
     0
  9
$DIMDSEP
 70
    46
  9
$DIMATFIT
 70
     3
  9
$DIMFRAC
 70
     0
  9
$DIMLDRBLK
  1

  9
$DIMLUNIT
 70
     2
  9
$DIMLWD
 70
    -2
  9
$DIMLWE
 70
    -2
  9
$DIMTMOVE
 70
     0
  9
$LUNITS
 70
     2
  9
$LUPREC
 70
     4
  9
$SKETCHINC
 40
0.1
  9
$FILLETRAD
 40
0.125
  9
$AUNITS
 70
     0
  9
$AUPREC
 70
     0
  9
$MENU
  1
.
  9
$ELEVATION
 40
0.0
  9
$PELEVATION
 40
0.0
  9
$THICKNESS
 40
0.0
  9
$LIMCHECK
 70
     0
  9
$CHAMFERA
 40
0.125
  9
$CHAMFERB
 40
0.125
  9
$CHAMFERC
 40
1.0
  9
$CHAMFERD
 40
0.0
  9
$SKPOLY
 70
     1
  9
$TDCREATE
 40
2453796.345401759
  9
$TDUCREATE
 40
2453796.553735093
  9
$TDUPDATE
 40
2453796.470127628
  9
$TDUUPDATE
 40
2453796.678460961
  9
$TDINDWG
 40
0.0365197917
  9
$TDUSRTIMER
 40
0.0365197917
  9
$USRTIMER
 70
     1
  9
$ANGBASE
 50
0.0
  9
$ANGDIR
 70
     0
  9
$PDMODE
 70
     0
  9
$PDSIZE
 40
0.0
  9
$PLINEWID
 40
0.0
  9
$SPLFRAME
 70
     0
  9
$SPLINETYPE
 70
     6
  9
$SPLINESEGS
 70
     8
  9
$HANDSEED
  5
1176
  9
$SURFTAB1
 70
     6
  9
$SURFTAB2
 70
     6
  9
$SURFTYPE
 70
     6
  9
$SURFU
 70
     6
  9
$SURFV
 70
     6
  9
$UCSBASE
  2

  9
$UCSNAME
  2

  9
$UCSORG
 10
0.0
 20
0.0
 30
0.0
  9
$UCSXDIR
 10
1.0
 20
0.0
 30
0.0
  9
$UCSYDIR
 10
0.0
 20
1.0
 30
0.0
  9
$UCSORTHOREF
  2

  9
$UCSORTHOVIEW
 70
     0
  9
$UCSORGTOP
 10
0.0
 20
0.0
 30
0.0
  9
$UCSORGBOTTOM
 10
0.0
 20
0.0
 30
0.0
  9
$UCSORGLEFT
 10
0.0
 20
0.0
 30
0.0
  9
$UCSORGRIGHT
 10
0.0
 20
0.0
 30
0.0
  9
$UCSORGFRONT
 10
0.0
 20
0.0
 30
0.0
  9
$UCSORGBACK
 10
0.0
 20
0.0
 30
0.0
  9
$PUCSBASE
  2

  9
$PUCSNAME
  2

  9
$PUCSORG
 10
0.0
 20
0.0
 30
0.0
  9
$PUCSXDIR
 10
1.0
 20
0.0
 30
0.0
  9
$PUCSYDIR
 10
0.0
 20
1.0
 30
0.0
  9
$PUCSORTHOREF
  2

  9
$PUCSORTHOVIEW
 70
     0
  9
$PUCSORGTOP
 10
0.0
 20
0.0
 30
0.0
  9
$PUCSORGBOTTOM
 10
0.0
 20
0.0
 30
0.0
  9
$PUCSORGLEFT
 10
0.0
 20
0.0
 30
0.0
  9
$PUCSORGRIGHT
 10
0.0
 20
0.0
 30
0.0
  9
$PUCSORGFRONT
 10
0.0
 20
0.0
 30
0.0
  9
$PUCSORGBACK
 10
0.0
 20
0.0
 30
0.0
  9
$USERI1
 70
     0
  9
$USERI2
 70
     0
  9
$USERI3
 70
     0
  9
$USERI4
 70
     0
  9
$USERI5
 70
     0
  9
$USERR1
 40
0.0
  9
$USERR2
 40
0.0
  9
$USERR3
 40
0.0
  9
$USERR4
 40
0.0
  9
$USERR5
 40
0.0
  9
$WORLDVIEW
 70
     1
  9
$SHADEDGE
 70
     3
  9
$SHADEDIF
 70
    70
  9
$TILEMODE
 70
     1
  9
$MAXACTVP
 70
    48
  9
$PINSBASE
 10
0.0
 20
0.0
 30
0.0
  9
$PLIMCHECK
 70
     0
  9
$PEXTMIN
 10
1.000000000000000E+20
 20
1.000000000000000E+20
 30
1.000000000000000E+20
  9
$PEXTMAX
 10
-1.000000000000000E+20
 20
-1.000000000000000E+20
 30
-1.000000000000000E+20
  9
$PLIMMIN
 10
-0.2500002402958907
 20
-0.2499999962453767
  9
$PLIMMAX
 10
10.74999951940821
 20
8.249999763458731
  9
$UNITMODE
 70
     0
  9
$VISRETAIN
 70
     1
  9
$PLINEGEN
 70
     0
  9
$PSLTSCALE
 70
     1
  9
$TREEDEPTH
 70
  3020
  9
$CMLSTYLE
  2
STANDARD
  9
$CMLJUST
 70
     0
  9
$CMLSCALE
 40
1.0
  9
$PROXYGRAPHICS
 70
     1
  9
$MEASUREMENT
 70
     0
  9
$CELWEIGHT
370
    -1
  9
$ENDCAPS
280
     0
  9
$JOINSTYLE
280
     0
  9
$LWDISPLAY
290
     0
  9
$INSUNITS
 70
     1
  9
$HYPERLINKBASE
  1

  9
$STYLESHEET
  1

  9
$XEDIT
290
     1
  9
$CEPSNTYPE
380
     0
  9
$PSTYLEMODE
290
     1
  9
$FINGERPRINTGUID
  2
{B8B52373-5F84-430B-AB47-F73ABF7BCCA7}
  9
$VERSIONGUID
  2
{C2A5E60F-8442-49C5-9F57-081B6B9C49AD}
  9
$EXTNAMES
290
     1
  9
$PSVPSCALE
 40
0.0
  9
$OLESTARTUP
290
     0
  0
ENDSEC
  0
SECTION
  2
CLASSES
  0
CLASS
  1
ACMESTATEMGR
  2
AcMeStateMgr
  3
AcMeServices
 90
        0
280
     0
281
     0
  0
CLASS
  1
ACMESCOPE
  2
AcMeScope
  3
AcMeServices
 90
        0
280
     0
281
     0
  0
CLASS
  1
ACMECOMMANDHISTORY
  2
AcMeCommandHistory
  3
AcMeServices
 90
        0
280
     0
281
     0
  0
CLASS
  1
ACRFINSADJUSTERMGR
  2
AcRfInsAdjusterMgr
  3
AcMeServices
 90
        0
280
     0
281
     0
  0
CLASS
  1
ACMEDRAWINGMAN
  2
AcMeDrawingMan
  3
AcMeServices
 90
        0
280
     0
281
     0
  0
CLASS
  1
AMATTR
  2
AcMeAttribute
  3
AcMeServices
 90
    32768
280
     0
281
     0
  0
CLASS
  1
ACMEBOMCOLUMN
  2
AcMeBOMColumn
  3
AcMeServices
 90
    32768
280
     0
281
     0
  0
CLASS
  1
ACMEBOMCONF
  2
AcMeBOMConf
  3
AcMeServices
 90
    32768
280
     0
281
     0
  0
CLASS
  1
ACMEBOMTABLE
  2
AcMeBOMTable
  3
AcMeServices
 90
    32768
280
     0
281
     0
  0
CLASS
  1
ACMEBOMENTRY
  2
AcMeBOMEntry
  3
AcMeServices
 90
    32768
280
     0
281
     0
  0
CLASS
  1
ACMEVIEW
  2
AcMeView
  3
AcMeServices
 90
    32768
280
     0
281
     0
  0
CLASS
  1
ACGREFMASTER
  2
AcGrefMaster
  3
AcAttribServices
 90
        0
280
     0
281
     0
  0
CLASS
  1
AMIMASTER
  2
AmiMaster
  3
AmiServices
 90
        0
280
     0
281
     0
  0
CLASS
  1
ACASGREFMASTER
  2
AcAsGrefMaster
  3
AutoSurfResolverServices
 90
        0
280
     0
281
     0
  0
CLASS
  1
ADAPPL
  2
AcAdAppl
  3
DesignerServices
 90
        0
280
     0
281
     0
  0
CLASS
  1
DEPMGR
  2
AcAdDepMgr
  3
DesignerServices
 90
        0
280
     0
281
     0
  0
CLASS
  1
PARAMMGR
  2
AcAdParamMgr
  3
DesignerServices
 90
        0
280
     0
281
     0
  0
CLASS
  1
PARAMSCOPE
  2
AcAdParamScope
  3
DesignerServices
 90
        0
280
     0
281
     0
  0
CLASS
  1
ACIMSYSVARMAN
  2
AcImSysVarManager
  3
AcMeServices
 90
        0
280
     0
281
     0
  0
CLASS
  1
ACIMINTSYSVAR
  2
AcImIntSysVar
  3
AcMeServices
 90
        0
280
     0
281
     0
  0
CLASS
  1
ACIMREALSYSVAR
  2
AcImRealSysVar
  3
AcMeServices
 90
        0
280
     0
281
     0
  0
CLASS
  1
ACIMSTRSYSVAR
  2
AcImStrSysVar
  3
AcMeServices
 90
        0
280
     0
281
     0
  0
CLASS
  1
NAMEDAPPL
  2
AcAdNamedAppl
  3
DesignerServices
 90
        0
280
     0
281
     0
  0
CLASS
  1
ADHNTMPLT
  2
AdHoleNoteTemplateMgr
  3
DesignerServices
 90
    32768
280
     0
281
     0
  0
CLASS
  1
AM_HNTEMPLATE_MGR_NAME
  2
AdHoleNoteTemplateMgrName
  3
DesignerServices
 90
    32768
280
     0
281
     0
  0
CLASS
  1
ACADGREFMODULE
  2
AcAdGrefModule
  3
AdGrefServices
 90
        0
280
     0
281
     0
  0
CLASS
  1
AM_DRAWING_MGR
  2
AcDmDwgMgr
  3
AcMechDwgViewMgmt
 90
        0
280
     0
281
     0
  0
CLASS
  1
AM_DWG_DOCUMENT
  2
AcDmDwgDocument
  3
AcMechDwgViewMgmt
 90
        0
280
     0
281
     0
  0
CLASS
  1
AM_DWG_SHEET
  2
AcDmSheet
  3
AcMechDwgViewMgmt
 90
        0
280
     0
281
     0
  0
CLASS
  1
AM_VIEWDIMPARMAP
  2
AcDmViewDimParMap
  3
AcMechDwgViewMgmt
 90
        0
280
     0
281
     0
  0
CLASS
  1
AM_DWGMGR_NAME
  2
AcDmDwgMgrName
  3
AcMechDwgViewMgmt
 90
        0
280
     0
281
     0
  0
CLASS
  1
ACAMPROJECT
  2
AcAmProject
  3
DesignerAssemblies
 90
        0
280
     0
281
     0
  0
CLASS
  1
ACAMGRCOMPSET
  2
AcAmGrCompSet
  3
DesignerAssemblies
 90
    32768
280
     0
281
     0
  0
CLASS
  1
ACAMGRCOMPDEFSET
  2
AcAmGrCompDefSet
  3
DesignerAssemblies
 90
        0
280
     0
281
     0
  0
CLASS
  1
ACAMGRCOMPDEF
  2
AcAmGrCompDef
  3
DesignerAssemblies
 90
        0
280
     0
281
     0
  0
CLASS
  1
ACCMCONTEXT
  2
AcCmContext
  3
DesignerAssemblies
 90
        0
280
     0
281
     0
  0
CLASS
  1
ACAMCOMPDEF
  2
AcAmCompDef
  3
DesignerAssemblies
 90
        0
280
     0
281
     0
  0
CLASS
  1
ACAMCOMPDEFMGR
  2
AcAmCompDefMgr
  3
DesignerAssemblies
 90
        0
280
     0
281
     0
  0
CLASS
  1
AMCONTEXTMGR
  2
AcAmContextMgr
  3
DesignerAssemblies
 90
        0
280
     0
281
     0
  0
CLASS
  1
ACAMCONTEXTMODELER
  2
AcAmContextModeler
  3
DesignerAssemblies
 90
        0
280
     0
281
     0
  0
CLASS
  1
ACDMVIEWGEOM
  2
AcDmViewGeometry
  3
AcMechDwgViewMgmt
 90
        0
280
     0
281
     1
  0
CLASS
  1
CBROWSERAPPOBJECT
  2
CBrowserAppObject
  3
McadcomServices
 90
        0
280
     0
281
     0
  0
CLASS
  1
IM_STATIC_MAN
  2
AcImStaticVarManager
  3
AcMeServices
 90
        0
280
     0
281
     0
  0
CLASS
  1
ASAPP
  2
AcAsAppObject
  3
AutoSurfServices
 90
        0
280
     0
281
     0
  0
CLASS
  1
ACIMDBLSTATICVAR
  2
AcImDblStaticVar
  3
AcMeServices
 90
        0
280
     0
281
     0
  0
CLASS
  1
ACIMSTRSTATICVAR
  2
AcImStrStaticVar
  3
AcMeServices
 90
        0
280
     0
281
     0
  0
CLASS
  1
ACIMINTSTATICVAR
  2
AcImIntStaticVar
  3
AcMeServices
 90
        0
280
     0
281
     0
  0
CLASS
  1
CATALOGSTATE
  2
AcAmCatalogState
  3
DesignerAssemblies
 90
        0
280
     0
281
     0
  0
CLASS
  1
DM_PLACEHOLDER
  2
AcDmSelsetPlaceholder
  3
AcMechDwgViewMgmt
 90
        0
280
     0
281
     0
  0
CLASS
  1
DICTIONARYVAR
  2
AcDbDictionaryVar
  3
ObjectDBX Classes
 90
        0
280
     0
281
     0
  0
CLASS
  1
ACMSTANDARDJIS
  2
AcmStandardJIS
  3
"Amdt_StdImp|Product Description: AutoCAD Mechanical 2004 DX|Company: Autodesk"
 90
    32768
280
     0
281
     0
  0
CLASS
  1
ACMSTANDARDANSI
  2
AcmStandardANSI
  3
"Amdt_StdImp|Product Description: AutoCAD Mechanical 2004 DX|Company: Autodesk"
 90
        0
280
     0
281
     0
  0
CLASS
  1
ACMSTANDARDBSI
  2
AcmStandardBSI
  3
"Amdt_StdImp|Product Description: AutoCAD Mechanical 2004 DX|Company: Autodesk"
 90
    32768
280
     0
281
     0
  0
CLASS
  1
ACMSTANDARDDIN
  2
AcmStandardDIN
  3
"Amdt_StdImp|Product Description: AutoCAD Mechanical 2004 DX|Company: Autodesk"
 90
    32768
280
     0
281
     0
  0
CLASS
  1
ACMSTANDARDISO
  2
AcmStandardISO
  3
"Amdt_StdImp|Product Description: AutoCAD Mechanical 2004 DX|Company: Autodesk"
 90
        0
280
     0
281
     0
  0
CLASS
  1
LAYER_INDEX
  2
AcDbLayerIndex
  3
ObjectDBX Classes
 90
        0
280
     0
281
     0
  0
CLASS
  1
IDBUFFER
  2
AcDbIdBuffer
  3
ObjectDBX Classes
 90
        0
280
     0
281
     0
  0
CLASS
  1
ACDBDICTIONARYWDFLT
  2
AcDbDictionaryWithDefault
  3
ObjectDBX Classes
 90
        0
280
     0
281
     0
  0
CLASS
  1
ACDBPLACEHOLDER
  2
AcDbPlaceHolder
  3
ObjectDBX Classes
 90
        0
280
     0
281
     0
  0
CLASS
  1
LAYOUT
  2
AcDbLayout
  3
ObjectDBX Classes
 90
        0
280
     0
281
     0
  0
CLASS
  1
ACME_DOCUMENT
  2
AcMeDbDoc
  3
AcMeServices
 90
        0
280
     0
281
     0
  0
CLASS
  1
AMGSETTINGSOBJ
  2
AmgSettingsObj
  3
"AcadM|Product Description: AutoCAD Mechanical 2000|Company: Autodesk"
 90
        0
280
     0
281
     0
  0
CLASS
  1
AMGOBJPROPCFG
  2
AmgObjPropCfg
  3
"AmgLay|Product Description: AutoCAD Mechanical 2000|Company: Autodesk"
 90
        1
280
     0
281
     0
  0
CLASS
  1
ACDBENTITYCACHE
  2
AcMeEntityCache
  3
AcMeServices
 90
        0
280
     0
281
     0
  0
CLASS
  1
GSMANAGER
  2
AcMeGSManager
  3
AcMeServices
 90
        0
280
     0
281
     0
  0
CLASS
  1
AMDTINTERNALREACTOR
  2
AmdtInternalReactor
  3
AcMeServices
 90
        0
280
     0
281
     0
  0
CLASS
  1
ACME_DATABASE
  2
AcMeDbDatabase
  3
AcMeServices
 90
        0
280
     0
281
     0
  0
CLASS
  1
ACGREFACADMASTER
  2
AcGrefacadMaster
  3
AcGrefServices
 90
        0
280
     0
281
     0
  0
CLASS
  1
AMDTMENUSTATEMGR
  2
AmdtMenuStateMgr
  3
McadcomServices
 90
        0
280
     0
281
     0
  0
CLASS
  1
AMDTMCOMMENUSTATE
  2
AmdtMcomMenuState
  3
McadcomServices
 90
        0
280
     0
281
     0
  0
CLASS
  1
MAPIADMODULE
  2
MApiAdModule
  3
MApiAdServices
 90
        0
280
     0
281
     0
  0
CLASS
  1
AMDTDMMENUSTATE
  2
AmdtDmMenuState
  3
AcMechDwgViewMgmt
 90
        0
280
     0
281
     0
  0
CLASS
  1
AMDTADMENUSTATE
  2
AmdtAdMenuState
  3
DesignerServices
 90
        0
280
     0
281
     0
  0
CLASS
  1
AMDTAMMENUSTATE
  2
AmdtAmMenuState
  3
DesignerAssemblies
 90
        0
280
     0
281
     0
  0
CLASS
  1
ACMDATADICTIONARY
  2
AcmDataDictionary
  3
"AcmSymBB|Product Description: AutoCAD Mechanical 2004 DX|Company: Autodesk"
 90
        0
280
     0
281
     0
  0
CLASS
  1
ACMDATAENTRYBLOCK
  2
AcmDataEntryBlock
  3
"AcmSymBB|Product Description: AutoCAD Mechanical 2004 DX|Company: Autodesk"
 90
        0
280
     0
281
     0
  0
CLASS
  1
AMDTBROWSERDBTAB
  2
AmdtBrowserDbTab
  3
McadcomServices
 90
        0
280
     0
281
     0
  0
CLASS
  1
ACAMGFILTERDAT
  2
AcAmgFilterDat
  3
"AcadM|Product Description: AutoCAD Mechanical 2000|Company: Autodesk"
 90
        0
280
     0
281
     0
  0
CLASS
  1
MAPIAMMOUDLE
  2
MApiAmModule
  3
MApiAmServices
 90
        0
280
     0
281
     0
  0
CLASS
  1
AMDTMAPISURFMOUDULE
  2
AmdtMApiSurfModule
  3
MApiSurfServices
 90
        0
280
     0
281
     0
  0
CLASS
  1
ACMSURFSTANDARDANSI
  2
AcmSurfTextStdANSI
  3
"Amdt_StdImp|Product Description: AutoCAD Mechanical 2004 DX|Company: Autodesk"
 90
        0
280
     0
281
     0
  0
CLASS
  1
ACMFCFSTANDARDANSI
  2
AcmFCFStdANSI
  3
"Amdt_StdImp|Product Description: AutoCAD Mechanical 2004 DX|Company: Autodesk"
 90
        0
280
     0
281
     0
  0
CLASS
  1
ACMWELDSTANDARDANSI
  2
AcmWeldingStdANSI
  3
"Amdt_StdImp|Product Description: AutoCAD Mechanical 2004 DX|Company: Autodesk"
 90
        0
280
     0
281
     0
  0
CLASS
  1
ACMIDSTANDARDANSI
  2
AcmIdStdANSI
  3
"Amdt_StdImp|Product Description: AutoCAD Mechanical 2004 DX|Company: Autodesk"
 90
        0
280
     0
281
     0
  0
CLASS
  1
ACMDATUMSTANDARDANSI
  2
AcmDatumStdANSI
  3
"Amdt_StdImp|Product Description: AutoCAD Mechanical 2004 DX|Company: Autodesk"
 90
        0
280
     0
281
     0
  0
CLASS
  1
ACMBOMSTANDARDANSI
  2
AcmBOMStdANSI
  3
"Amdt_StdImp|Product Description: AutoCAD Mechanical 2004 DX|Company: Autodesk"
 90
        0
280
     0
281
     0
  0
CLASS
  1
ACAMGLAYSTD
  2
AcAmgLayStd
  3
"AcAmgLayStd|Product Description: AutoCAD Mechanical 2000|Company: Autodesk"
 90
        0
280
     0
281
     0
  0
CLASS
  1
ACAMGDIMSTD
  2
AcAmgDimStd
  3
"AcAmgDimStd|Product Description: AutoCAD Mechanical 2000|Company: Autodesk"
 90
        0
280
     0
281
     0
  0
CLASS
  1
ACAMGTITLESTD
  2
AcAmgTitleStd
  3
"TITLEAPP"
 90
        0
280
     0
281
     0
  0
CLASS
  1
ACMDETAILSTANDARDANSI
  2
AmdtDetailSymStdANSI
  3
"Amdt_StdImp|Product Description: AutoCAD Mechanical 2004 DX|Company: Autodesk"
 90
        0
280
     0
281
     0
  0
CLASS
  1
ACMSECTIONSTANDARDANSI
  2
AmdtSectionSymStdANSI
  3
"Amdt_StdImp|Product Description: AutoCAD Mechanical 2004 DX|Company: Autodesk"
 90
        0
280
     0
281
     0
  0
CLASS
  1
ACMCENTERLINESTANDARDANSI
  2
AmdtCenterLineStdANSI
  3
"Amdt_StdImp|Product Description: AutoCAD Mechanical 2004 DX|Company: Autodesk"
 90
        0
280
     0
281
     0
  0
CLASS
  1
ACMTHREADLINESTANDARDANSI
  2
AmdtThreadLineStdANSI
  3
"Amdt_StdImp|Product Description: AutoCAD Mechanical 2004 DX|Company: Autodesk"
 90
        0
280
     0
281
     0
  0
CLASS
  1
ACMSURFSTANDARDBSI
  2
AcmSurfTextStdBSI
  3
"Amdt_StdImp|Product Description: AutoCAD Mechanical 2004 DX|Company: Autodesk"
 90
    32768
280
     0
281
     0
  0
CLASS
  1
ACMFCFSTANDARDBSI
  2
AcmFCFStdBSI
  3
"Amdt_StdImp|Product Description: AutoCAD Mechanical 2004 DX|Company: Autodesk"
 90
    32768
280
     0
281
     0
  0
CLASS
  1
ACMWELDSTANDARDBSI
  2
AcmWeldingStdBSI
  3
"Amdt_StdImp|Product Description: AutoCAD Mechanical 2004 DX|Company: Autodesk"
 90
    32768
280
     0
281
     0
  0
CLASS
  1
ACMIDSTANDARDBSI
  2
AcmIdStdBSI
  3
"Amdt_StdImp|Product Description: AutoCAD Mechanical 2004 DX|Company: Autodesk"
 90
    32768
280
     0
281
     0
  0
CLASS
  1
ACMDATUMSTANDARDBSI
  2
AcmDatumStdBSI
  3
"Amdt_StdImp|Product Description: AutoCAD Mechanical 2004 DX|Company: Autodesk"
 90
    32768
280
     0
281
     0
  0
CLASS
  1
ACMBOMSTANDARDBSI
  2
AcmBOMStdBSI
  3
"Amdt_StdImp|Product Description: AutoCAD Mechanical 2004 DX|Company: Autodesk"
 90
    32768
280
     0
281
     0
  0
CLASS
  1
ACMDETAILSTANDARDBSI
  2
AmdtDetailSymStdBSI
  3
"Amdt_StdImp|Product Description: AutoCAD Mechanical 2004 DX|Company: Autodesk"
 90
    32768
280
     0
281
     0
  0
CLASS
  1
ACMSECTIONSTANDARDBSI
  2
AmdtSectionSymStdBSI
  3
"Amdt_StdImp|Product Description: AutoCAD Mechanical 2004 DX|Company: Autodesk"
 90
    32768
280
     0
281
     0
  0
CLASS
  1
ACMCENTERLINESTANDARDBSI
  2
AmdtCenterLineStdBSI
  3
"Amdt_StdImp|Product Description: AutoCAD Mechanical 2004 DX|Company: Autodesk"
 90
    32768
280
     0
281
     0
  0
CLASS
  1
ACMTHREADLINESTANDARDBSI
  2
AmdtThreadLineStdBSI
  3
"Amdt_StdImp|Product Description: AutoCAD Mechanical 2004 DX|Company: Autodesk"
 90
    32768
280
     0
281
     0
  0
CLASS
  1
AMDTEDGESTANDARDDIN
  2
AmdtEdgeStdDIN
  3
"Amdt_StdImp|Product Description: AutoCAD Mechanical 2004 DX|Company: Autodesk"
 90
    32768
280
     0
281
     0
  0
CLASS
  1
ACMSURFSTANDARDDIN
  2
AcmSurfTextStdDIN
  3
"Amdt_StdImp|Product Description: AutoCAD Mechanical 2004 DX|Company: Autodesk"
 90
    32768
280
     0
281
     0
  0
CLASS
  1
ACMFCFSTANDARDDIN
  2
AcmFCFStdDIN
  3
"Amdt_StdImp|Product Description: AutoCAD Mechanical 2004 DX|Company: Autodesk"
 90
    32768
280
     0
281
     0
  0
CLASS
  1
ACMWELDSTANDARDDIN
  2
AcmWeldingStdDIN
  3
"Amdt_StdImp|Product Description: AutoCAD Mechanical 2004 DX|Company: Autodesk"
 90
    32768
280
     0
281
     0
  0
CLASS
  1
ACMIDSTANDARDDIN
  2
AcmIdStdDIN
  3
"Amdt_StdImp|Product Description: AutoCAD Mechanical 2004 DX|Company: Autodesk"
 90
    32768
280
     0
281
     0
  0
CLASS
  1
ACMDATUMSTANDARDDIN
  2
AcmDatumStdDIN
  3
"Amdt_StdImp|Product Description: AutoCAD Mechanical 2004 DX|Company: Autodesk"
 90
    32768
280
     0
281
     0
  0
CLASS
  1
ACMBOMSTANDARDDIN
  2
AcmBOMStdDIN
  3
"Amdt_StdImp|Product Description: AutoCAD Mechanical 2004 DX|Company: Autodesk"
 90
    32768
280
     0
281
     0
  0
CLASS
  1
ACMDETAILSTANDARDDIN
  2
AmdtDetailSymStdDIN
  3
"Amdt_StdImp|Product Description: AutoCAD Mechanical 2004 DX|Company: Autodesk"
 90
    32768
280
     0
281
     0
  0
CLASS
  1
ACMSECTIONSTANDARDDIN
  2
AmdtSectionSymStdDIN
  3
"Amdt_StdImp|Product Description: AutoCAD Mechanical 2004 DX|Company: Autodesk"
 90
    32768
280
     0
281
     0
  0
CLASS
  1
ACMCENTERLINESTANDARDDIN
  2
AmdtCenterLineStdDIN
  3
"Amdt_StdImp|Product Description: AutoCAD Mechanical 2004 DX|Company: Autodesk"
 90
    32768
280
     0
281
     0
  0
CLASS
  1
ACMTHREADLINESTANDARDDIN
  2
AmdtThreadLineStdDIN
  3
"Amdt_StdImp|Product Description: AutoCAD Mechanical 2004 DX|Company: Autodesk"
 90
    32768
280
     0
281
     0
  0
CLASS
  1
ACMSURFSTANDARDISO
  2
AcmSurfTextStdISO
  3
"Amdt_StdImp|Product Description: AutoCAD Mechanical 2004 DX|Company: Autodesk"
 90
        0
280
     0
281
     0
  0
CLASS
  1
ACMFCFSTANDARDISO
  2
AcmFCFStdISO
  3
"Amdt_StdImp|Product Description: AutoCAD Mechanical 2004 DX|Company: Autodesk"
 90
        0
280
     0
281
     0
  0
CLASS
  1
ACMWELDSTANDARDISO
  2
AcmWeldingStdISO
  3
"Amdt_StdImp|Product Description: AutoCAD Mechanical 2004 DX|Company: Autodesk"
 90
        0
280
     0
281
     0
  0
CLASS
  1
ACMIDSTANDARDISO
  2
AcmIdStdISO
  3
"Amdt_StdImp|Product Description: AutoCAD Mechanical 2004 DX|Company: Autodesk"
 90
        0
280
     0
281
     0
  0
CLASS
  1
ACMDATUMSTANDARDISO
  2
AcmDatumStdISO
  3
"Amdt_StdImp|Product Description: AutoCAD Mechanical 2004 DX|Company: Autodesk"
 90
        0
280
     0
281
     0
  0
CLASS
  1
ACMBOMSTANDARDISO
  2
AcmBOMStdISO
  3
"Amdt_StdImp|Product Description: AutoCAD Mechanical 2004 DX|Company: Autodesk"
 90
        0
280
     0
281
     0
  0
CLASS
  1
AMDTEDGESTANDARDISO
  2
AmdtEdgeStdISO
  3
"Amdt_StdImp|Product Description: AutoCAD Mechanical 2004 DX|Company: Autodesk"
 90
    32768
280
     0
281
     0
  0
CLASS
  1
ACMDETAILSTANDARDISO
  2
AmdtDetailSymStdISO
  3
"Amdt_StdImp|Product Description: AutoCAD Mechanical 2004 DX|Company: Autodesk"
 90
        0
280
     0
281
     0
  0
CLASS
  1
ACMSECTIONSTANDARDISO
  2
AmdtSectionSymStdISO
  3
"Amdt_StdImp|Product Description: AutoCAD Mechanical 2004 DX|Company: Autodesk"
 90
        0
280
     0
281
     0
  0
CLASS
  1
ACMCENTERLINESTANDARDISO
  2
AmdtCenterLineStdISO
  3
"Amdt_StdImp|Product Description: AutoCAD Mechanical 2004 DX|Company: Autodesk"
 90
        0
280
     0
281
     0
  0
CLASS
  1
ACMTHREADLINESTANDARDISO
  2
AmdtThreadLineStdISO
  3
"Amdt_StdImp|Product Description: AutoCAD Mechanical 2004 DX|Company: Autodesk"
 90
        0
280
     0
281
     0
  0
CLASS
  1
ACMSURFSTANDARDJIS
  2
AcmSurfTextStdJIS
  3
"Amdt_StdImp|Product Description: AutoCAD Mechanical 2004 DX|Company: Autodesk"
 90
    32768
280
     0
281
     0
  0
CLASS
  1
ACMFCFSTANDARDJIS
  2
AcmFCFStdJIS
  3
"Amdt_StdImp|Product Description: AutoCAD Mechanical 2004 DX|Company: Autodesk"
 90
    32768
280
     0
281
     0
  0
CLASS
  1
ACMWELDSTANDARDJIS
  2
AcmWeldingStdJIS
  3
"Amdt_StdImp|Product Description: AutoCAD Mechanical 2004 DX|Company: Autodesk"
 90
    32768
280
     0
281
     0
  0
CLASS
  1
ACMIDSTANDARDJIS
  2
AcmIdStdJIS
  3
"Amdt_StdImp|Product Description: AutoCAD Mechanical 2004 DX|Company: Autodesk"
 90
    32768
280
     0
281
     0
  0
CLASS
  1
ACMDATUMSTANDARDJIS
  2
AcmDatumStdJIS
  3
"Amdt_StdImp|Product Description: AutoCAD Mechanical 2004 DX|Company: Autodesk"
 90
    32768
280
     0
281
     0
  0
CLASS
  1
ACMBOMSTANDARDJIS
  2
AcmBOMStdJIS
  3
"Amdt_StdImp|Product Description: AutoCAD Mechanical 2004 DX|Company: Autodesk"
 90
    32768
280
     0
281
     0
  0
CLASS
  1
ACMDETAILSTANDARDJIS
  2
AmdtDetailSymStdJIS
  3
"Amdt_StdImp|Product Description: AutoCAD Mechanical 2004 DX|Company: Autodesk"
 90
    32768
280
     0
281
     0
  0
CLASS
  1
ACMSECTIONSTANDARDJIS
  2
AmdtSectionSymStdJIS
  3
"Amdt_StdImp|Product Description: AutoCAD Mechanical 2004 DX|Company: Autodesk"
 90
    32768
280
     0
281
     0
  0
CLASS
  1
ACMCENTERLINESTANDARDJIS
  2
AmdtCenterLineStdJIS
  3
"Amdt_StdImp|Product Description: AutoCAD Mechanical 2004 DX|Company: Autodesk"
 90
    32768
280
     0
281
     0
  0
CLASS
  1
ACMTHREADLINESTANDARDJIS
  2
AmdtThreadLineStdJIS
  3
"Amdt_StdImp|Product Description: AutoCAD Mechanical 2004 DX|Company: Autodesk"
 90
    32768
280
     0
281
     0
  0
CLASS
  1
ACMNOTESTANDARDANSI
  2
AmdtNoteStdANSI
  3
"Amdt_StdImp|Product Description: AutoCAD Mechanical 2004 DX|Company: Autodesk"
 90
        0
280
     0
281
     0
  0
CLASS
  1
ACAMGHOLECHARTSTDANSI
  2
AcAmgHoleChartStdANSI
  3
ACMSYMBB_MODULE_NAME
 90
        0
280
     0
281
     0
  0
CLASS
  1
TABLESTYLE
  2
AcDbTableStyle
  3
ObjectDBX Classes
 90
     2047
280
     0
281
     0
  0
CLASS
  1
AMDTNOTETEMPLATEDB
  2
AmdtNoteTemplateDB
  3
AMDT_STDIMP_MODULE_NAME
 90
        0
280
     0
281
     0
  0
CLASS
  1
VAACXREFPANELOBJECT
  2
VaAcXREFPanelObject
  3
VAAC_ADDIN
 90
        0
280
     0
281
     0
  0
CLASS
  1
VAACIMAGEINVENTORY
  2
VaAcImageInventory
  3
VAAC_ADDIN
 90
        0
280
     0
281
     0
  0
CLASS
  1
AMDTEDGESTANDARDISO13715
  2
AmdtEdgeStdISO13715
  3
"Amdt_StdImp|Product Description: AutoCAD Mechanical 2004 DX|Company: Autodesk"
 90
        0
280
     0
281
     0
  0
CLASS
  1
ACMNOTESTANDARDISO
  2
AmdtNoteStdISO
  3
"Amdt_StdImp|Product Description: AutoCAD Mechanical 2004 DX|Company: Autodesk"
 90
        0
280
     0
281
     0
  0
CLASS
  1
ACAMGHOLECHARTSTDISO
  2
AcAmgHoleChartStdISO
  3
ACMSYMBB_MODULE_NAME
 90
        0
280
     0
281
     0
  0
CLASS
  1
ACAMCOMPENT
  2
AcAmCompEnt
  3
DesignerAssemblies
 90
        0
280
     0
281
     1
  0
CLASS
  1
SORTENTSTABLE
  2
AcDbSortentsTable
  3
ObjectDBX Classes
 90
        0
280
     0
281
     0
  0
CLASS
  1
IMAGE
  2
AcDbRasterImage
  3
ISM
 90
      127
280
     0
281
     1
  0
CLASS
  1
IMAGEDEF_REACTOR
  2
AcDbRasterImageDefReactor
  3
ISM
 90
        1
280
     0
281
     0
  0
CLASS
  1
ACAMCOMPENTCLONE
  2
AcAmCompEntClone
  3
DesignerAssemblies
 90
        0
280
     0
281
     1
  0
CLASS
  1
IMAGEDEF
  2
AcDbRasterImageDef
  3
ISM
 90
        0
280
     0
281
     0
  0
CLASS
  1
ACAMCOMP
  2
AcAmComp
  3
DesignerAssemblies
 90
        0
280
     0
281
     0
  0
CLASS
  1
ACAMCOMPFEEDBACK
  2
AcAmCompFeedback
  3
DesignerAssemblies
 90
        0
280
     0
281
     0
  0
CLASS
  1
ACCMBODY
  2
AcCmBody
  3
DesignerAssemblies
 90
        0
280
     0
281
     0
  0
CLASS
  1
ACAMCLONEREACTOR
  2
AcAmGrCompCloneReactor
  3
DesignerAssemblies
 90
        0
280
     0
281
     0
  0
CLASS
  1
RASTERVARIABLES
  2
AcDbRasterVariables
  3
ISM
 90
        0
280
     0
281
     0
  0
ENDSEC
  0
SECTION
  2
TABLES
  0
TABLE
  2
VPORT
  5
8
330
0
100
AcDbSymbolTable
 70
     4
  0
VPORT
  5
116A
330
8
100
AcDbSymbolTableRecord
100
AcDbViewportTableRecord
  2
*Active
 70
     0
 10
0.0
 20
0.0
 11
1.0
 21
1.0
 12
17.00467412360183
 22
11.0013817545568
 13
0.0
 23
0.0
 14
0.125
 24
0.125
 15
1.0
 25
1.0
 16
0.0
 26
0.0
 36
1.0
 17
0.0
 27
0.0
 37
0.0
 40
24.6346577349061
 41
1.387234042553191
 42
50.0
 43
0.0
 44
0.0
 50
0.0
 51
0.0
 71
     0
 72
 20000
 73
     1
 74
     1
 75
     0
 76
     0
 77
     0
 78
     0
281
     0
 65
     0
110
0.0
120
0.0
130
0.0
111
1.0
121
0.0
131
0.0
112
0.0
122
1.0
132
0.0
 79
     0
146
0.0
  0
ENDTAB
  0
TABLE
  2
LTYPE
  5
5
330
0
100
AcDbSymbolTable
 70
    37
  0
LTYPE
  5
13
330
5
100
AcDbSymbolTableRecord
100
AcDbLinetypeTableRecord
  2
BYBLOCK
 70
     0
  3

 72
    65
 73
     0
 40
0.0
  0
LTYPE
  5
14
330
5
100
AcDbSymbolTableRecord
100
AcDbLinetypeTableRecord
  2
BYLAYER
 70
     0
  3

 72
    65
 73
     0
 40
0.0
  0
LTYPE
  5
15
330
5
100
AcDbSymbolTableRecord
100
AcDbLinetypeTableRecord
  2
CONTINUOUS
 70
     0
  3
Solid line
 72
    65
 73
     0
 40
0.0
  0
LTYPE
  5
8C
330
5
100
AcDbSymbolTableRecord
100
AcDbLinetypeTableRecord
  2
HIDDEN
 70
     0
  3
__ __ __ __ __ __ __ __ __ __ __ __ __ __ __ __
 72
    65
 73
     2
 40
0.375
 49
0.25
 74
     0
 49
-0.125
 74
     0
  0
LTYPE
  5
8E
330
5
100
AcDbSymbolTableRecord
100
AcDbLinetypeTableRecord
  2
PHANTOM2
 70
     0
  3
___ _ _ ___ _ _ ___ _ _ ___ _ _ ___ _ _ ___ _ _
 72
    65
 73
     6
 40
1.25
 49
0.625
 74
     0
 49
-0.125
 74
     0
 49
0.125
 74
     0
 49
-0.125
 74
     0
 49
0.125
 74
     0
 49
-0.125
 74
     0
  0
LTYPE
  5
99
330
5
100
AcDbSymbolTableRecord
100
AcDbLinetypeTableRecord
  2
CENTER
 70
     0
  3
____ _ ____ _ ____ _ ____ _ ____ _ ____ _ ____ 
 72
    65
 73
     4
 40
2.0
 49
1.25
 74
     0
 49
-0.25
 74
     0
 49
0.25
 74
     0
 49
-0.25
 74
     0
  0
LTYPE
  5
F2
330
5
100
AcDbSymbolTableRecord
100
AcDbLinetypeTableRecord
  2
ASULTYPE
 70
     0
  3
Solid line
 72
    65
 73
     2
 40
3.0
 49
2.5
 74
     0
 49
0.5
 74
     0
  0
LTYPE
  5
F3
330
5
100
AcDbSymbolTableRecord
100
AcDbLinetypeTableRecord
  2
ASVLTYPE
 70
     0
  3
__ __ __ __ __ __ __ __ __ __ __ __ __ __ __ __ __ __ __ __ __
 72
    65
 73
     2
 40
0.75
 49
0.5
 74
     0
 49
-0.25
 74
     0
  0
LTYPE
  5
15C
330
5
100
AcDbSymbolTableRecord
100
AcDbLinetypeTableRecord
  2
AM_ISO02W050
 70
     0
  3
__ __ __ __ __ __ __ __ __ __ __ __ __ __ __
 72
    65
 73
     2
 40
7.5
 49
6.0
 74
     0
 49
-1.5
 74
     0
  0
LTYPE
  5
15D
330
5
100
AcDbSymbolTableRecord
100
AcDbLinetypeTableRecord
  2
AM_ISO08W050
 70
     0
  3
____ . ____ . ____ . ____ . ____ . ____ . ____
 72
    65
 73
     4
 40
18.0
 49
12.0
 74
     0
 49
-1.5
 74
     0
 49
3.0
 74
     0
 49
-1.5
 74
     0
  0
LTYPE
  5
15E
330
5
100
AcDbSymbolTableRecord
100
AcDbLinetypeTableRecord
  2
AM_ISO09W050
 70
     0
  3
_____ . . _____ . . _____ . . ____ .. ____
 72
    65
 73
     6
 40
22.5
 49
12.0
 74
     0
 49
-1.5
 74
     0
 49
3.0
 74
     0
 49
-1.5
 74
     0
 49
3.0
 74
     0
 49
-1.5
 74
     0
  0
LTYPE
  5
15F
330
5
100
AcDbSymbolTableRecord
100
AcDbLinetypeTableRecord
  2
AM_ISO02W050x2
 70
     0
  3
 _ _ _ _ _ _ _ _ _ _ _ _
 72
    65
 73
     2
 40
3.75
 49
3.0
 74
     0
 49
-0.75
 74
     0
  0
LTYPE
  5
160
330
5
100
AcDbSymbolTableRecord
100
AcDbLinetypeTableRecord
  2
AM_ISO08W050x2
 70
     0
  3
__ . __ . __ . __ . __ . __
 72
    65
 73
     4
 40
9.0
 49
6.0
 74
     0
 49
-0.75
 74
     0
 49
1.5
 74
     0
 49
-0.75
 74
     0
  0
LTYPE
  5
163
330
5
100
AcDbSymbolTableRecord
100
AcDbLinetypeTableRecord
  2
amzigzag
 70
     0
  3
/\/-/\/-/\/-/\/-/\/-/\/
 72
    65
 73
     2
 40
11.0001
 49
0.0001
 74
     4
 75
   135
340
162
 46
0.04
 50
0.0
 44
0.0
 45
0.0
 49
-11.0
 74
     0
  0
LTYPE
  5
164
330
5
100
AcDbSymbolTableRecord
100
AcDbLinetypeTableRecord
  2
HIDDEN2
 70
     0
  3
Hidden (.5x) _ _ _ _ _ _ _ _ _ _ _ _ _ _ _ _ _
 72
    65
 73
     2
 40
0.1875
 49
0.125
 74
     0
 49
-0.0625
 74
     0
  0
LTYPE
  5
165
330
5
100
AcDbSymbolTableRecord
100
AcDbLinetypeTableRecord
  2
CENTER2
 70
     0
  3
Center (.5x) ___ _ ___ _ ___ _ ___ _ ___ _ ___
 72
    65
 73
     4
 40
1.125
 49
0.75
 74
     0
 49
-0.125
 74
     0
 49
0.125
 74
     0
 49
-0.125
 74
     0
  0
LTYPE
  5
2A6
330
5
100
AcDbSymbolTableRecord
100
AcDbLinetypeTableRecord
  2
Amconstr
 70
     0
  3
_______________________
 72
    65
 73
     2
 40
9999.0
 49
9999.0
 74
     0
 49
0.0
 74
     0
  0
LTYPE
  5
2B1
330
5
100
AcDbSymbolTableRecord
100
AcDbLinetypeTableRecord
  2
Amzigzag2
 70
     0
  3
/\/-/\/-/\/-/\/-/\/-/\/
 72
    65
 73
     2
 40
0.4401
 49
0.0001
 74
     4
 75
   135
340
162
 46
0.0016
 50
0.0
 44
0.0
 45
0.0
 49
-0.4400000000000001
 74
     0
  0
LTYPE
  5
2B2
330
5
100
AcDbSymbolTableRecord
100
AcDbLinetypeTableRecord
  2
AM_DIN_F_W050
 70
     0
  3
__ __ __ __ __ __ __ __ __ __ __ __ __ __ __
 72
    65
 73
     2
 40
6.25
 49
4.75
 74
     0
 49
-1.5
 74
     0
  0
LTYPE
  5
2B3
330
5
100
AcDbSymbolTableRecord
100
AcDbLinetypeTableRecord
  2
AM_DIN_G_W050
 70
     0
  3
____ . ____ . ____ . ____ . ____ . ____ . ____
 72
    65
 73
     4
 40
13.75
 49
9.75
 74
     0
 49
-1.5
 74
     0
 49
1.0
 74
     0
 49
-1.5
 74
     0
  0
LTYPE
  5
2B4
330
5
100
AcDbSymbolTableRecord
100
AcDbLinetypeTableRecord
  2
AM_DIN_K_W050
 70
     0
  3
_____ . . _____ . . _____ . . ____ .. ____
 72
    65
 73
     6
 40
16.25
 49
9.75
 74
     0
 49
-1.5
 74
     0
 49
1.0
 74
     0
 49
-1.5
 74
     0
 49
1.0
 74
     0
 49
-1.5
 74
     0
  0
LTYPE
  5
2B5
330
5
100
AcDbSymbolTableRecord
100
AcDbLinetypeTableRecord
  2
AM_DIN_G_W050x2
 70
     0
  3
__ . __ . __ . __ . __ . __
 72
    65
 73
     4
 40
6.875
 49
4.75
 74
     0
 49
-0.875
 74
     0
 49
0.375
 74
     0
 49
-0.875
 74
     0
  0
LTYPE
  5
2B6
330
5
100
AcDbSymbolTableRecord
100
AcDbLinetypeTableRecord
  2
AM_DIN_F_W050x2
 70
     0
  3
 _ _ _ _ _ _ _ _ _ _ _ _
 72
    65
 73
     2
 40
3.125
 49
2.25
 74
     0
 49
-0.875
 74
     0
  0
LTYPE
  5
2CC
330
5
100
AcDbSymbolTableRecord
100
AcDbLinetypeTableRecord
  2
ACANSTGBM
 70
     0
  3
__ . . __ . .
 72
    65
 73
     6
 40
9.0
 49
4.0
 74
     0
 49
-1.0
 74
     0
 49
1.0
 74
     0
 49
-1.0
 74
     0
 49
1.0
 74
     0
 49
-1.0
 74
     0
  0
LTYPE
  5
2CD
330
5
100
AcDbSymbolTableRecord
100
AcDbLinetypeTableRecord
  2
ACANSTGLM
 70
     0
  3
_ _ _ _ _
 72
    65
 73
     2
 40
3.0
 49
2.0
 74
     0
 49
-1.0
 74
     0
  0
LTYPE
  5
2E5
330
5
100
AcDbSymbolTableRecord
100
AcDbLinetypeTableRecord
  2
ACBSWELD
 70
     0
  3
_ _ _ _ _
 72
    65
 73
     2
 40
2.0
 49
2.0
 74
     0
 49
-1.0
 74
     0
  0
LTYPE
  5
2E8
330
5
100
AcDbSymbolTableRecord
100
AcDbLinetypeTableRecord
  2
ACBSITGB
 70
     0
  3
__ . . __ . .
 72
    65
 73
     6
 40
9.0
 49
4.0
 74
     0
 49
-1.0
 74
     0
 49
1.0
 74
     0
 49
-1.0
 74
     0
 49
1.0
 74
     0
 49
-1.0
 74
     0
  0
LTYPE
  5
2E9
330
5
100
AcDbSymbolTableRecord
100
AcDbLinetypeTableRecord
  2
ACBSITGL
 70
     0
  3
_ _ _ _ _
 72
    65
 73
     2
 40
3.0
 49
2.0
 74
     0
 49
-1.0
 74
     0
  0
LTYPE
  5
300
330
5
100
AcDbSymbolTableRecord
100
AcDbLinetypeTableRecord
  2
ACDINWELD
 70
     0
  3
_ _ _ _ _
 72
    65
 73
     2
 40
2.0
 49
2.0
 74
     0
 49
-1.0
 74
     0
  0
LTYPE
  5
303
330
5
100
AcDbSymbolTableRecord
100
AcDbLinetypeTableRecord
  2
ACDINTGB
 70
     0
  3
__ . . __ . .
 72
    65
 73
     6
 40
9.0
 49
4.0
 74
     0
 49
-1.0
 74
     0
 49
1.0
 74
     0
 49
-1.0
 74
     0
 49
1.0
 74
     0
 49
-1.0
 74
     0
  0
LTYPE
  5
304
330
5
100
AcDbSymbolTableRecord
100
AcDbLinetypeTableRecord
  2
ACDINTGL
 70
     0
  3
_ _ _ _ _
 72
    65
 73
     2
 40
3.0
 49
2.0
 74
     0
 49
-1.0
 74
     0
  0
LTYPE
  5
31A
330
5
100
AcDbSymbolTableRecord
100
AcDbLinetypeTableRecord
  2
ACISOWELD
 70
     0
  3
_ _ _ _ _
 72
    65
 73
     2
 40
2.0
 49
2.0
 74
     0
 49
-1.0
 74
     0
  0
LTYPE
  5
31D
330
5
100
AcDbSymbolTableRecord
100
AcDbLinetypeTableRecord
  2
ACISOTGB
 70
     0
  3
__ . . __ . .
 72
    65
 73
     6
 40
9.0
 49
4.0
 74
     0
 49
-1.0
 74
     0
 49
1.0
 74
     0
 49
-1.0
 74
     0
 49
1.0
 74
     0
 49
-1.0
 74
     0
  0
LTYPE
  5
31E
330
5
100
AcDbSymbolTableRecord
100
AcDbLinetypeTableRecord
  2
ACISOTGL
 70
     0
  3
_ _ _ _ _
 72
    65
 73
     2
 40
3.0
 49
2.0
 74
     0
 49
-1.0
 74
     0
  0
LTYPE
  5
337
330
5
100
AcDbSymbolTableRecord
100
AcDbLinetypeTableRecord
  2
ACJISTGB
 70
     0
  3
__ . . __ . .
 72
    65
 73
     6
 40
9.0
 49
4.0
 74
     0
 49
-1.0
 74
     0
 49
1.0
 74
     0
 49
-1.0
 74
     0
 49
1.0
 74
     0
 49
-1.0
 74
     0
  0
LTYPE
  5
338
330
5
100
AcDbSymbolTableRecord
100
AcDbLinetypeTableRecord
  2
ACJISTGL
 70
     0
  3
_ _ _ _ _
 72
    65
 73
     2
 40
3.0
 49
2.0
 74
     0
 49
-1.0
 74
     0
  0
LTYPE
  5
3A6
330
5
100
AcDbSymbolTableRecord
100
AcDbLinetypeTableRecord
  2
ACANSTGB
 70
     0
  3
__ . . __ . .
 72
    65
 73
     6
 40
0.35433070866
 49
0.15748031496
 74
     0
 49
-0.03937007874
 74
     0
 49
0.03937007874
 74
     0
 49
-0.03937007874
 74
     0
 49
0.03937007874
 74
     0
 49
-0.03937007874
 74
     0
  0
LTYPE
  5
3A7
330
5
100
AcDbSymbolTableRecord
100
AcDbLinetypeTableRecord
  2
ACANSTGL
 70
     0
  3
_ _ _ _ _
 72
    65
 73
     2
 40
0.11811023622
 49
0.07874015748
 74
     0
 49
-0.03937007874
 74
     0
  0
LTYPE
  5
E61
330
5
100
AcDbSymbolTableRecord
100
AcDbLinetypeTableRecord
  2
PHANTOM
 70
     0
  3
Phantom ______  __  __  ______  __  __  ______
 72
    65
 73
     6
 40
2.5
 49
1.25
 74
     0
 49
-0.25
 74
     0
 49
0.25
 74
     0
 49
-0.25
 74
     0
 49
0.25
 74
     0
 49
-0.25
 74
     0
  0
ENDTAB
  0
TABLE
  2
LAYER
  5
2
102
{ACAD_XDICTIONARY
360
44C
102
}
330
0
100
AcDbSymbolTable
 70
    11
  0
LAYER
  5
F
330
2
100
AcDbSymbolTableRecord
100
AcDbLayerTableRecord
  2
0
 70
     0
 62
     7
  6
CONTINUOUS
370
    -3
390
14F
  0
LAYER
  5
6C8
330
2
100
AcDbSymbolTableRecord
100
AcDbLayerTableRecord
  2
DEFPOINTS
 70
     0
 62
     7
  6
CONTINUOUS
290
     0
370
    -3
390
14F
  0
LAYER
  5
6C9
330
2
100
AcDbSymbolTableRecord
100
AcDbLayerTableRecord
  2
DD
 70
     0
 62
     7
  6
CONTINUOUS
370
    30
390
14F
  0
LAYER
  5
6CA
330
2
100
AcDbSymbolTableRecord
100
AcDbLayerTableRecord
  2
1
 70
     0
 62
     3
  6
CENTER
370
    13
390
14F
  0
LAYER
  5
6CB
330
2
100
AcDbSymbolTableRecord
100
AcDbLayerTableRecord
  2
dim
 70
     0
 62
     2
  6
CONTINUOUS
370
     9
390
14F
  0
LAYER
  5
E62
330
2
100
AcDbSymbolTableRecord
100
AcDbLayerTableRecord
  2
CENTER
 70
     0
 62
     5
  6
CENTER
370
    -3
390
14F
  0
LAYER
  5
E63
330
2
100
AcDbSymbolTableRecord
100
AcDbLayerTableRecord
  2
10
 70
     0
 62
     7
  6
CONTINUOUS
370
    -3
390
14F
  0
LAYER
  5
E64
330
2
100
AcDbSymbolTableRecord
100
AcDbLayerTableRecord
  2
L-REV
 70
     0
 62
     4
  6
CONTINUOUS
370
    -3
390
14F
  0
LAYER
  5
E65
330
2
100
AcDbSymbolTableRecord
100
AcDbLayerTableRecord
  2
L-INSPECTION
 70
     0
 62
     5
  6
CONTINUOUS
370
    -3
390
14F
  0
LAYER
  5
E66
330
2
100
AcDbSymbolTableRecord
100
AcDbLayerTableRecord
  2
L-DIM
 70
     0
 62
     1
  6
CONTINUOUS
370
    -3
390
14F
  0
LAYER
  5
E67
330
2
100
AcDbSymbolTableRecord
100
AcDbLayerTableRecord
  2
LREV
 70
     0
 62
     4
  6
CONTINUOUS
370
    -3
390
14F
  0
ENDTAB
  0
TABLE
  2
STYLE
  5
3
330
0
100
AcDbSymbolTable
 70
    21
  0
STYLE
  5
10
330
3
100
AcDbSymbolTableRecord
100
AcDbTextStyleTableRecord
  2
STANDARD
 70
     0
 40
0.0
 41
1.0
 50
0.0
 71
     0
 42
0.12
  3
ROMANS.SHX
  4

  0
STYLE
  5
11D
330
3
100
AcDbSymbolTableRecord
100
AcDbTextStyleTableRecord
  2
ADESK1
 70
     0
 40
0.0
 41
1.0
 50
0.0
 71
     0
 42
0.12
  3
romans.shx
  4

  0
STYLE
  5
162
330
3
100
AcDbSymbolTableRecord
100
AcDbTextStyleTableRecord
  2

 70
     1
 40
0.0
 41
1.0
 50
0.0
 71
     0
 42
0.12
  3
ltypeshp.shx
  4

  0
STYLE
  5
2C5
330
3
100
AcDbSymbolTableRecord
100
AcDbTextStyleTableRecord
  2
ACANSTSI
 70
     0
 40
1.0
 41
1.0
 50
0.0
 71
     0
 42
3.5
  3
romans.shx
  4

  0
STYLE
  5
2C8
330
3
100
AcDbSymbolTableRecord
100
AcDbTextStyleTableRecord
  2
ACANSGDT
 70
     0
 40
0.0
 41
1.0
 50
0.0
 71
     0
 42
3.5
  3
amgdt.shx
  4

  0
STYLE
  5
2E0
330
3
100
AcDbSymbolTableRecord
100
AcDbTextStyleTableRecord
  2
ACBSITS
 70
     0
 40
1.0
 41
1.0
 50
0.0
 71
     0
 42
3.5
  3
isocp.shx
  4

  0
STYLE
  5
2E3
330
3
100
AcDbSymbolTableRecord
100
AcDbTextStyleTableRecord
  2
ACBSIGDT
 70
     0
 40
0.0
 41
1.0
 50
0.0
 71
     0
 42
3.5
  3
amgdt.shx
  4

  0
STYLE
  5
2FA
330
3
100
AcDbSymbolTableRecord
100
AcDbTextStyleTableRecord
  2
ACDINTS
 70
     0
 40
1.0
 41
1.0
 50
0.0
 71
     0
 42
3.5
  3
isocp.shx
  4

  0
STYLE
  5
2FE
330
3
100
AcDbSymbolTableRecord
100
AcDbTextStyleTableRecord
  2
ACDINGDT
 70
     0
 40
0.0
 41
1.0
 50
0.0
 71
     0
 42
3.5
  3
amgdt.shx
  4

  0
STYLE
  5
315
330
3
100
AcDbSymbolTableRecord
100
AcDbTextStyleTableRecord
  2
ACISOTS
 70
     0
 40
1.0
 41
1.0
 50
0.0
 71
     0
 42
3.5
  3
isocp.shx
  4

  0
STYLE
  5
318
330
3
100
AcDbSymbolTableRecord
100
AcDbTextStyleTableRecord
  2
ACISOGDT
 70
     0
 40
0.0
 41
1.0
 50
0.0
 71
     0
 42
3.5
  3
amgdt.shx
  4

  0
STYLE
  5
330
330
3
100
AcDbSymbolTableRecord
100
AcDbTextStyleTableRecord
  2
ACJISTS
 70
     0
 40
1.0
 41
1.0
 50
0.0
 71
     0
 42
3.5
  3
isocp.shx
  4
bigfont.shx
  0
STYLE
  5
333
330
3
100
AcDbSymbolTableRecord
100
AcDbTextStyleTableRecord
  2
ACJISGDT
 70
     0
 40
0.0
 41
1.0
 50
0.0
 71
     0
 42
3.5
  3
amgdt.shx
  4

  0
STYLE
  5
39B
330
3
100
AcDbSymbolTableRecord
100
AcDbTextStyleTableRecord
  2
ACANSTS
 70
     0
 40
1.0
 41
1.0
 50
0.0
 71
     0
 42
0.12
  3
romans.shx
  4

  0
STYLE
  5
4CF
330
3
100
AcDbSymbolTableRecord
100
AcDbTextStyleTableRecord
  2
USER1
 70
     0
 40
0.0
 41
1.0
 50
0.0
 71
     0
 42
0.12
  3
TXT.SHX
  4

  0
STYLE
  5
4D0
330
3
100
AcDbSymbolTableRecord
100
AcDbTextStyleTableRecord
  2
USER2
 70
     0
 40
0.0
 41
1.0
 50
0.0
 71
     0
 42
0.12
  3
SIMPLEX.SHX
  4

  0
STYLE
  5
4D1
330
3
100
AcDbSymbolTableRecord
100
AcDbTextStyleTableRecord
  2
USER3
 70
     0
 40
0.0
 41
1.0
 50
0.0
 71
     0
 42
0.12
  3
ITALIC.SHX
  4

  0
STYLE
  5
5AB
330
3
100
AcDbSymbolTableRecord
100
AcDbTextStyleTableRecord
  2
outline drawings
 70
     0
 40
0.0
 41
1.0
 50
0.0
 71
     0
 42
0.12
  3
ARIAL.TTF
  4

1001
ACAD
1000
Arial
1071
       34
  0
STYLE
  5
6CC
330
3
100
AcDbSymbolTableRecord
100
AcDbTextStyleTableRecord
  2
SIMPLEX
 70
     0
 40
3.0
 41
1.0
 50
0.0
 71
     0
 42
1.0
  3
complex.shx
  4

  0
STYLE
  5
6CD
330
3
100
AcDbSymbolTableRecord
100
AcDbTextStyleTableRecord
  2
ARIALNARROW
 70
     0
 40
2.0
 41
1.199999999999999
 50
0.0
 71
     0
 42
2.0
  3
ARIALN.TTF
  4

1001
ACAD
1000
Arial Narrow
1071
       34
  0
STYLE
  5
E68
330
3
100
AcDbSymbolTableRecord
100
AcDbTextStyleTableRecord
  2
c3controls
 70
     0
 40
0.0
 41
1.0
 50
0.0
 71
     0
 42
0.125
  3
ARIAL.TTF
  4

1001
ACAD
1000
Arial
1071
       34
  0
ENDTAB
  0
TABLE
  2
VIEW
  5
6
330
0
100
AcDbSymbolTable
 70
     3
  0
VIEW
  5
193
330
6
100
AcDbSymbolTableRecord
100
AcDbViewTableRecord
  2
AMDTVIEW1
 70
     0
 40
11.38251346627189
 10
7.263840830449827
 20
5.691256733135946
 41
14.52768166089965
 11
0.0
 21
0.0
 31
1.0
 12
0.0
 22
0.0
 32
0.0
 42
50.0
 43
0.0
 44
0.0
 50
0.0
 71
     0
281
     0
 72
     0
  0
VIEW
  5
194
330
6
100
AcDbSymbolTableRecord
100
AcDbViewTableRecord
  2
AMDTVIEW2
 70
     0
 40
11.38251346627189
 10
7.263840830449827
 20
5.691256733135946
 41
14.52768166089965
 11
0.0
 21
0.0
 31
1.0
 12
0.0
 22
0.0
 32
0.0
 42
50.0
 43
0.0
 44
0.0
 50
0.0
 71
     0
281
     0
 72
     0
  0
VIEW
  5
195
330
6
100
AcDbSymbolTableRecord
100
AcDbViewTableRecord
  2
AMDTVIEW3
 70
     0
 40
11.38251346627189
 10
7.263840830449827
 20
5.691256733135946
 41
14.52768166089965
 11
0.0
 21
0.0
 31
1.0
 12
0.0
 22
0.0
 32
0.0
 42
50.0
 43
0.0
 44
0.0
 50
0.0
 71
     0
281
     0
 72
     0
  0
ENDTAB
  0
TABLE
  2
UCS
  5
7
330
0
100
AcDbSymbolTable
 70
     0
  0
ENDTAB
  0
TABLE
  2
APPID
  5
9
330
0
100
AcDbSymbolTable
 70
    17
  0
APPID
  5
11
330
9
100
AcDbSymbolTableRecord
100
AcDbRegAppTableRecord
  2
ACAD
 70
     0
  0
APPID
  5
9C
330
9
100
AcDbSymbolTableRecord
100
AcDbRegAppTableRecord
  2
AD_DRAW
 70
     0
  0
APPID
  5
B6
330
9
100
AcDbSymbolTableRecord
100
AcDbRegAppTableRecord
  2
DESIGNERASSEMBLIES
 70
     0
  0
APPID
  5
BD
330
9
100
AcDbSymbolTableRecord
100
AcDbRegAppTableRecord
  2
MCAD_NO_VIS
 70
     0
  0
APPID
  5
F4
330
9
100
AcDbSymbolTableRecord
100
AcDbRegAppTableRecord
  2
ASURF_PCURVE_APPNAME
 70
     0
  0
APPID
  5
168
330
9
100
AcDbSymbolTableRecord
100
AcDbRegAppTableRecord
  2
ACAD_TEMP_GRAPHIC
 70
     0
  0
APPID
  5
172
330
9
100
AcDbSymbolTableRecord
100
AcDbRegAppTableRecord
  2
ACATTRIBSERVICES
 70
     0
  0
APPID
  5
18F
330
9
100
AcDbSymbolTableRecord
100
AcDbRegAppTableRecord
  2
ACADM_DIM_EDIT
 70
     0
  0
APPID
  5
19D
330
9
100
AcDbSymbolTableRecord
100
AcDbRegAppTableRecord
  2
GENIUS_GENDIM_13
 70
     0
  0
APPID
  5
19E
330
9
100
AcDbSymbolTableRecord
100
AcDbRegAppTableRecord
  2
GENIUS_GENDTOL_13
 70
     0
  0
APPID
  5
19F
330
9
100
AcDbSymbolTableRecord
100
AcDbRegAppTableRecord
  2
GENIUS_GE3DTOL_13
 70
     0
  0
APPID
  5
2A2
330
9
100
AcDbSymbolTableRecord
100
AcDbRegAppTableRecord
  2
AMG_3D2D_5.0
 70
     0
  0
APPID
  5
3EE
330
9
100
AcDbSymbolTableRecord
100
AcDbRegAppTableRecord
  2
AMDT_DM_ADJ
 70
     0
  0
APPID
  5
4D3
330
9
100
AcDbSymbolTableRecord
100
AcDbRegAppTableRecord
  2
ACAD_DSTYLE_DIMTEXT_FILL
 70
     0
  0
APPID
  5
E6A
330
9
100
AcDbSymbolTableRecord
100
AcDbRegAppTableRecord
  2
AD_SKETCHDIM
 70
     0
  0
APPID
  5
E6B
330
9
100
AcDbSymbolTableRecord
100
AcDbRegAppTableRecord
  2
ABNSLEADERTOOLS
 70
     0
  0
APPID
  5
E6C
330
9
100
AcDbSymbolTableRecord
100
AcDbRegAppTableRecord
  2
ACAD_PSEXT
 70
     0
  0
ENDTAB
  0
TABLE
  2
DIMSTYLE
  5
A
330
0
100
AcDbSymbolTable
 70
    38
100
AcDbDimStyleTable
 71
     6
340
606
340
1D
340
2D3
340
322
340
308
340
2ED
  0
DIMSTYLE
105
1D
330
A
100
AcDbSymbolTableRecord
100
AcDbDimStyleTableRecord
  2
STANDARD
 70
     0
340
10
  0
DIMSTYLE
105
2D3
330
A
100
AcDbSymbolTableRecord
100
AcDbDimStyleTableRecord
  2
AM_ANSI
 70
     0
  4
mm
 41
0.1
 42
0.05
 43
0.5
 44
0.1
 47
0.1
 48
0.1
 78
     7
 79
     2
140
0.12
141
0.0
146
0.71
147
0.06
176
   256
177
   256
178
     2
274
     4
284
     7
340
10
371
    -1
372
    -1
  0
DIMSTYLE
105
2D4
330
A
100
AcDbSymbolTableRecord
100
AcDbDimStyleTableRecord
  2
AM_ANSI$3
 70
     0
  4
mm
 41
0.1
 42
0.05
 43
0.5
 44
0.1
 47
0.1
 48
0.1
 78
     7
 79
     2
140
0.12
141
0.0
146
0.71
147
0.06
176
   256
177
   256
178
     2
274
     4
284
     7
288
     1
289
     0
340
10
371
    -1
372
    -1
  0
DIMSTYLE
105
2D5
330
A
100
AcDbSymbolTableRecord
100
AcDbDimStyleTableRecord
  2
AM_ANSI$4
 70
     0
  4
mm
 41
0.1
 42
0.05
 43
0.5
 44
0.1
 47
0.1
 48
0.1
 78
     7
 79
     2
140
0.12
141
0.0
146
0.71
147
0.06
176
   256
177
   256
178
     2
274
     4
284
     7
288
     1
289
     0
340
10
371
    -1
372
    -1
  0
DIMSTYLE
105
2D6
330
A
100
AcDbSymbolTableRecord
100
AcDbDimStyleTableRecord
  2
AM_ANSI$7
 70
     0
  4
mm
 41
0.1
 42
0.05
 43
0.5
 44
0.1
 47
0.1
 48
0.1
 78
     7
 79
     2
140
0.24
141
0.0
146
0.71
147
0.06
176
   256
177
   256
178
     2
274
     4
284
     7
340
10
371
    -1
372
    -1
  0
DIMSTYLE
105
2D7
330
A
100
AcDbSymbolTableRecord
100
AcDbDimStyleTableRecord
  2
AM_ANSI$SF
 70
     0
  4
mm
 41
0.1
 42
0.05
 43
0.5
 44
0.1
 47
0.1
 48
0.1
 75
     1
 76
     1
 78
     7
 79
     2
140
0.12
141
0.0
146
0.71
147
0.06
176
   256
177
   256
178
     2
274
     4
284
     7
340
10
371
    -1
372
    -1
  0
DIMSTYLE
105
2D8
330
A
100
AcDbSymbolTableRecord
100
AcDbDimStyleTableRecord
  2
AM_ANSI$SH
 70
     0
  4
mm
 41
0.1
 42
0.05
 43
0.5
 44
0.1
 47
0.1
 48
0.1
 75
     1
 76
     1
 78
     7
 79
     2
140
0.12
141
0.0
146
0.71
147
0.06
173
     1
176
   256
177
   256
178
     2
274
     4
284
     7
340
10
371
    -1
372
    -1
  0
DIMSTYLE
105
2ED
330
A
100
AcDbSymbolTableRecord
100
AcDbDimStyleTableRecord
  2
AM_BSI
 70
     0
  4
mm
 41
0.1574803149606299
 42
0.05
 43
0.5
 44
0.1
 47
0.1
 48
0.1
 73
     0
 74
     0
 77
     1
 78
     7
 79
     2
140
0.12
141
0.0
146
0.71
147
0.06
172
     1
176
   256
177
   256
178
     2
274
     4
283
     0
284
     7
340
10
371
    -1
372
    -1
  0
DIMSTYLE
105
2EE
330
A
100
AcDbSymbolTableRecord
100
AcDbDimStyleTableRecord
  2
AM_BSI$3
 70
     0
  4
mm
 41
0.1574803149606299
 42
0.05
 43
0.5
 44
0.1
 47
0.1
 48
0.1
 73
     0
 77
     1
 78
     7
 79
     2
140
0.12
141
0.0
146
0.71
147
0.06
176
   256
177
   256
178
     2
274
     4
283
     0
284
     7
288
     1
289
     0
340
10
371
    -1
372
    -1
  0
DIMSTYLE
105
2EF
330
A
100
AcDbSymbolTableRecord
100
AcDbDimStyleTableRecord
  2
AM_BSI$4
 70
     0
  4
mm
 41
0.1574803149606299
 42
0.05
 43
0.5
 44
0.1
 47
0.1
 48
0.1
 73
     0
 77
     1
 78
     7
 79
     2
140
0.12
141
0.0
146
0.71
147
0.06
176
   256
177
   256
178
     2
274
     4
283
     0
284
     7
288
     1
289
     0
340
10
371
    -1
372
    -1
  0
DIMSTYLE
105
2F0
330
A
100
AcDbSymbolTableRecord
100
AcDbDimStyleTableRecord
  2
AM_BSI$6
 70
     0
  4
mm
 41
0.1574803149606299
 42
0.05
 43
0.5
 44
0.1
 47
0.1
 48
0.1
 73
     0
 74
     0
 78
     7
 79
     2
140
0.12
141
0.0
146
0.71
147
0.06
172
     1
176
   256
177
   256
178
     2
274
     4
283
     0
284
     7
340
10
371
    -1
372
    -1
  0
DIMSTYLE
105
2F1
330
A
100
AcDbSymbolTableRecord
100
AcDbDimStyleTableRecord
  2
AM_BSI$7
 70
     0
  4
mm
 41
0.1
 42
0.05
 43
0.5
 44
0.1
 47
0.1
 48
0.1
 73
     0
 74
     0
 77
     1
 78
     7
 79
     2
140
0.24
141
0.0
146
0.71
147
0.06
172
     1
176
   256
177
   256
178
     2
274
     4
283
     0
284
     7
340
10
371
    -1
372
    -1
  0
DIMSTYLE
105
2F2
330
A
100
AcDbSymbolTableRecord
100
AcDbDimStyleTableRecord
  2
AM_BSI$SF
 70
     0
  4
mm
 41
0.1574803149606299
 42
0.05
 43
0.5
 44
0.1
 47
0.1
 48
0.1
 73
     0
 74
     0
 75
     1
 76
     1
 77
     1
 78
     7
 79
     2
140
0.12
141
0.0
146
0.71
147
0.06
172
     1
176
   256
177
   256
178
     2
274
     4
283
     0
284
     7
340
10
371
    -1
372
    -1
  0
DIMSTYLE
105
2F3
330
A
100
AcDbSymbolTableRecord
100
AcDbDimStyleTableRecord
  2
AM_BSI$SH
 70
     0
  4
mm
 41
0.1574803149606299
 42
0.05
 43
0.5
 44
0.1
 47
0.1
 48
0.1
 73
     0
 74
     0
 75
     1
 76
     1
 77
     1
 78
     7
 79
     2
140
0.12
141
0.0
144
2.0
146
0.71
147
0.06
172
     1
173
     1
176
   256
177
   256
178
     2
274
     4
283
     0
284
     7
340
10
371
    -1
372
    -1
  0
DIMSTYLE
105
308
330
A
100
AcDbSymbolTableRecord
100
AcDbDimStyleTableRecord
  2
AM_DIN
 70
     0
  4
mm
 41
0.1
 42
0.05
 43
0.5
 44
0.1
 47
0.1
 48
0.1
 73
     0
 74
     0
 77
     1
 78
     7
 79
     2
140
0.12
141
0.0
146
0.71
147
0.06
172
     1
176
   256
177
   256
178
     2
274
     4
283
     0
284
     7
340
10
371
    -1
372
    -1
  0
DIMSTYLE
105
309
330
A
100
AcDbSymbolTableRecord
100
AcDbDimStyleTableRecord
  2
AM_DIN$3
 70
     0
  4
mm
 41
0.1
 42
0.05
 43
0.5
 44
0.1
 47
0.1
 48
0.1
 73
     0
 77
     1
 78
     7
 79
     2
140
0.12
141
0.0
146
0.71
147
0.06
176
   256
177
   256
178
     2
274
     4
283
     0
284
     7
288
     1
289
     0
340
10
371
    -1
372
    -1
  0
DIMSTYLE
105
30A
330
A
100
AcDbSymbolTableRecord
100
AcDbDimStyleTableRecord
  2
AM_DIN$4
 70
     0
  4
mm
 41
0.1
 42
0.05
 43
0.5
 44
0.1
 47
0.1
 48
0.1
 73
     0
 77
     1
 78
     7
 79
     2
140
0.12
141
0.0
146
0.71
147
0.06
176
   256
177
   256
178
     2
274
     4
283
     0
284
     7
288
     1
289
     0
340
10
371
    -1
372
    -1
  0
DIMSTYLE
105
30B
330
A
100
AcDbSymbolTableRecord
100
AcDbDimStyleTableRecord
  2
AM_DIN$6
 70
     0
  4
mm
 41
0.1
 42
0.05
 43
0.5
 44
0.1
 47
0.1
 48
0.1
 73
     0
 74
     0
 78
     7
 79
     2
140
0.12
141
0.0
146
0.71
147
0.06
172
     1
176
   256
177
   256
178
     2
274
     4
283
     0
284
     7
340
10
371
    -1
372
    -1
  0
DIMSTYLE
105
30C
330
A
100
AcDbSymbolTableRecord
100
AcDbDimStyleTableRecord
  2
AM_DIN$7
 70
     0
  4
mm
 41
0.1
 42
0.05
 43
0.5
 44
0.1
 47
0.1
 48
0.1
 73
     0
 74
     0
 77
     1
 78
     7
 79
     2
140
0.24
141
0.0
146
0.71
147
0.06
172
     1
176
   256
177
   256
178
     2
274
     4
283
     0
284
     7
340
10
371
    -1
372
    -1
  0
DIMSTYLE
105
30D
330
A
100
AcDbSymbolTableRecord
100
AcDbDimStyleTableRecord
  2
AM_DIN$SF
 70
     0
  4
mm
 41
0.1
 42
0.05
 43
0.5
 44
0.1
 47
0.1
 48
0.1
 73
     0
 74
     0
 75
     1
 76
     1
 77
     1
 78
     7
 79
     2
140
0.12
141
0.0
146
0.71
147
0.06
172
     1
176
   256
177
   256
178
     2
274
     4
283
     0
284
     7
340
10
371
    -1
372
    -1
  0
DIMSTYLE
105
30E
330
A
100
AcDbSymbolTableRecord
100
AcDbDimStyleTableRecord
  2
AM_DIN$SH
 70
     0
  4
mm
 41
0.1
 42
0.05
 43
0.5
 44
0.1
 47
0.1
 48
0.1
 73
     0
 74
     0
 75
     1
 76
     1
 77
     1
 78
     7
 79
     2
140
0.12
141
0.0
144
2.0
146
0.71
147
0.06
172
     1
173
     1
176
   256
177
   256
178
     2
274
     4
283
     0
284
     7
340
10
371
    -1
372
    -1
  0
DIMSTYLE
105
322
330
A
100
AcDbSymbolTableRecord
100
AcDbDimStyleTableRecord
  2
AM_ISO
 70
     0
  4
mm
 41
0.1
 42
0.05
 43
0.5
 44
0.1
 47
0.1
 48
0.1
 73
     0
 74
     0
 77
     1
 78
     7
 79
     2
140
0.12
141
0.0
146
0.71
147
0.06
172
     1
176
   256
177
   256
178
     2
274
     4
283
     0
284
     7
340
10
371
    -1
372
    -1
  0
DIMSTYLE
105
323
330
A
100
AcDbSymbolTableRecord
100
AcDbDimStyleTableRecord
  2
AM_ISO$3
 70
     0
  4
mm
 41
0.1
 42
0.05
 43
0.5
 44
0.1
 47
0.1
 48
0.1
 73
     0
 77
     1
 78
     7
 79
     2
140
0.12
141
0.0
146
0.71
147
0.06
176
   256
177
   256
178
     2
274
     4
283
     0
284
     7
288
     1
289
     0
340
10
371
    -1
372
    -1
  0
DIMSTYLE
105
324
330
A
100
AcDbSymbolTableRecord
100
AcDbDimStyleTableRecord
  2
AM_ISO$4
 70
     0
  4
mm
 41
0.1
 42
0.05
 43
0.5
 44
0.1
 47
0.1
 48
0.1
 73
     0
 77
     1
 78
     7
 79
     2
140
0.12
141
0.0
146
0.71
147
0.06
176
   256
177
   256
178
     2
274
     4
283
     0
284
     7
288
     1
289
     0
340
10
371
    -1
372
    -1
  0
DIMSTYLE
105
325
330
A
100
AcDbSymbolTableRecord
100
AcDbDimStyleTableRecord
  2
AM_ISO$6
 70
     0
  4
mm
 41
0.1
 42
0.05
 43
0.5
 44
0.1
 47
0.1
 48
0.1
 73
     0
 74
     0
 78
     7
 79
     2
140
0.12
141
0.0
146
0.71
147
0.06
172
     1
176
   256
177
   256
178
     2
274
     4
283
     0
284
     7
340
10
371
    -1
372
    -1
  0
DIMSTYLE
105
326
330
A
100
AcDbSymbolTableRecord
100
AcDbDimStyleTableRecord
  2
AM_ISO$7
 70
     0
  4
mm
 41
0.1
 42
0.05
 43
0.5
 44
0.1
 47
0.1
 48
0.1
 73
     0
 74
     0
 77
     1
 78
     7
 79
     2
140
0.24
141
0.0
146
0.71
147
0.06
172
     1
176
   256
177
   256
178
     2
274
     4
283
     0
284
     7
340
10
371
    -1
372
    -1
  0
DIMSTYLE
105
327
330
A
100
AcDbSymbolTableRecord
100
AcDbDimStyleTableRecord
  2
AM_ISO$SF
 70
     0
  4
mm
 41
0.1
 42
0.05
 43
0.5
 44
0.1
 47
0.1
 48
0.1
 73
     0
 74
     0
 75
     1
 76
     1
 77
     1
 78
     7
 79
     2
140
0.12
141
0.0
146
0.71
147
0.06
172
     1
176
   256
177
   256
178
     2
274
     4
283
     0
284
     7
340
10
371
    -1
372
    -1
  0
DIMSTYLE
105
328
330
A
100
AcDbSymbolTableRecord
100
AcDbDimStyleTableRecord
  2
AM_ISO$SH
 70
     0
  4
mm
 41
0.1
 42
0.05
 43
0.5
 44
0.1
 47
0.1
 48
0.1
 73
     0
 74
     0
 75
     1
 76
     1
 77
     1
 78
     7
 79
     2
140
0.12
141
0.0
144
2.0
146
0.71
147
0.06
172
     1
173
     1
176
   256
177
   256
178
     2
274
     4
283
     0
284
     7
340
10
371
    -1
372
    -1
  0
DIMSTYLE
105
33C
330
A
100
AcDbSymbolTableRecord
100
AcDbDimStyleTableRecord
  2
AM_JIS
 70
     0
  4
mm
 41
0.1
 42
0.05
 43
0.5
 44
0.1
 47
0.1
 48
0.1
 73
     0
 74
     0
 77
     3
 78
     7
 79
     2
140
0.12
141
0.0
146
0.71
147
0.06
172
     1
176
   256
177
   256
178
     2
274
     4
283
     0
284
     7
340
10
371
    -1
372
    -1
  0
DIMSTYLE
105
33D
330
A
100
AcDbSymbolTableRecord
100
AcDbDimStyleTableRecord
  2
AM_JIS$3
 70
     0
  4
mm
 41
0.1
 42
0.05
 43
0.5
 44
0.1
 47
0.1
 48
0.1
 73
     0
 77
     3
 78
     7
 79
     2
140
0.12
141
0.0
146
0.71
147
0.06
176
   256
177
   256
178
     2
274
     4
283
     0
284
     7
288
     1
289
     0
340
10
371
    -1
372
    -1
  0
DIMSTYLE
105
33E
330
A
100
AcDbSymbolTableRecord
100
AcDbDimStyleTableRecord
  2
AM_JIS$4
 70
     0
  4
mm
 41
0.1
 42
0.05
 43
0.5
 44
0.1
 47
0.1
 48
0.1
 73
     0
 77
     3
 78
     7
 79
     2
140
0.12
141
0.0
146
0.71
147
0.06
176
   256
177
   256
178
     2
274
     4
283
     0
284
     7
288
     1
289
     0
340
10
371
    -1
372
    -1
  0
DIMSTYLE
105
33F
330
A
100
AcDbSymbolTableRecord
100
AcDbDimStyleTableRecord
  2
AM_JIS$6
 70
     0
  4
mm
 41
0.1
 42
0.05
 43
0.5
 44
0.1
 47
0.1
 48
0.1
 73
     0
 74
     0
 78
     7
 79
     2
140
0.12
141
0.0
146
0.71
147
0.06
172
     1
176
   256
177
   256
178
     2
274
     4
283
     0
284
     7
340
10
371
    -1
372
    -1
  0
DIMSTYLE
105
340
330
A
100
AcDbSymbolTableRecord
100
AcDbDimStyleTableRecord
  2
AM_JIS$7
 70
     0
  4
mm
 41
0.1
 42
0.05
 43
0.5
 44
0.1
 47
0.1
 48
0.1
 73
     0
 74
     0
 77
     3
 78
     7
 79
     2
140
0.24
141
0.0
146
0.71
147
0.06
172
     1
176
   256
177
   256
178
     2
274
     4
283
     0
284
     7
340
10
371
    -1
372
    -1
  0
DIMSTYLE
105
341
330
A
100
AcDbSymbolTableRecord
100
AcDbDimStyleTableRecord
  2
AM_JIS$SF
 70
     0
  4
mm
 41
0.1
 42
0.05
 43
0.5
 44
0.1
 47
0.1
 48
0.1
 73
     0
 74
     0
 75
     1
 76
     1
 77
     3
 78
     7
 79
     2
140
0.12
141
0.0
146
0.71
147
0.06
172
     1
176
   256
177
   256
178
     2
274
     4
283
     0
284
     7
340
10
371
    -1
372
    -1
  0
DIMSTYLE
105
342
330
A
100
AcDbSymbolTableRecord
100
AcDbDimStyleTableRecord
  2
AM_JIS$SH
 70
     0
  4
mm
 41
0.1
 42
0.05
 43
0.5
 44
0.1
 47
0.1
 48
0.1
 73
     0
 74
     0
 75
     1
 76
     1
 77
     3
 78
     7
 79
     2
140
0.12
141
0.0
144
2.0
146
0.71
147
0.06
172
     1
173
     1
176
   256
177
   256
178
     2
274
     4
283
     0
284
     7
340
10
371
    -1
372
    -1
  0
DIMSTYLE
105
606
102
{ACAD_REACTORS
330
C79
330
C88
330
C97
330
CA6
330
CB5
330
D0C
330
D1B
330
D2A
330
D39
330
D48
330
D57
102
}
330
A
100
AcDbSymbolTableRecord
100
AcDbDimStyleTableRecord
  2
Outline Drawings
 70
     0
  3
 mm\X
  4
 in
 41
0.125
143
0.0393700787
144
25.4
170
     1
271
     0
272
     0
340
5AB
  0
DIMSTYLE
105
6CE
330
A
100
AcDbSymbolTableRecord
100
AcDbDimStyleTableRecord
  2
ISO-25
 70
     0
 41
3.0
 42
0.625
 43
1.25
 44
0.5
 73
     0
 74
     0
 77
     1
 78
     8
140
3.0
141
3.0
143
0.03937007874016
147
0.625
171
     3
172
     1
176
     2
177
     2
178
     4
271
     2
272
     2
274
     3
278
    44
283
     0
284
     8
340
10
371
    -1
372
    -1
  0
DIMSTYLE
105
E69
330
A
100
AcDbSymbolTableRecord
100
AcDbDimStyleTableRecord
  2
c3controls
 70
     0
 41
0.125
 43
0.25
 44
0.125
140
0.125
340
E68
  0
ENDTAB
  0
TABLE
  2
BLOCK_RECORD
  5
1
330
0
100
AcDbSymbolTable
 70
    44
  0
BLOCK_RECORD
  5
19
102
{ACAD_XDICTIONARY
360
11F
102
}
330
1
100
AcDbSymbolTableRecord
100
AcDbBlockTableRecord
  2
*MODEL_SPACE
340
152
  0
BLOCK_RECORD
  5
16
330
1
100
AcDbSymbolTableRecord
100
AcDbBlockTableRecord
  2
*PAPER_SPACE
340
153
  0
BLOCK_RECORD
  5
2A7
330
1
100
AcDbSymbolTableRecord
100
AcDbBlockTableRecord
  2
_Open30
340
0
  0
BLOCK_RECORD
  5
2AD
330
1
100
AcDbSymbolTableRecord
100
AcDbBlockTableRecord
  2
GENAXEH
340
0
  0
BLOCK_RECORD
  5
C7A
330
1
100
AcDbSymbolTableRecord
100
AcDbBlockTableRecord
  2
*D26
340
0
  0
BLOCK_RECORD
  5
C89
330
1
100
AcDbSymbolTableRecord
100
AcDbBlockTableRecord
  2
*D27
340
0
  0
BLOCK_RECORD
  5
C98
330
1
100
AcDbSymbolTableRecord
100
AcDbBlockTableRecord
  2
*D28
340
0
  0
BLOCK_RECORD
  5
CA7
330
1
100
AcDbSymbolTableRecord
100
AcDbBlockTableRecord
  2
*D29
340
0
  0
BLOCK_RECORD
  5
CB6
330
1
100
AcDbSymbolTableRecord
100
AcDbBlockTableRecord
  2
*D30
340
0
  0
BLOCK_RECORD
  5
D0D
330
1
100
AcDbSymbolTableRecord
100
AcDbBlockTableRecord
  2
*D31
340
0
  0
BLOCK_RECORD
  5
D1C
330
1
100
AcDbSymbolTableRecord
100
AcDbBlockTableRecord
  2
*D32
340
0
  0
BLOCK_RECORD
  5
D2B
330
1
100
AcDbSymbolTableRecord
100
AcDbBlockTableRecord
  2
*D33
340
0
  0
BLOCK_RECORD
  5
D3A
330
1
100
AcDbSymbolTableRecord
100
AcDbBlockTableRecord
  2
*D34
340
0
  0
BLOCK_RECORD
  5
D49
330
1
100
AcDbSymbolTableRecord
100
AcDbBlockTableRecord
  2
*D35
340
0
  0
BLOCK_RECORD
  5
D58
330
1
100
AcDbSymbolTableRecord
100
AcDbBlockTableRecord
  2
*D36
340
0
  0
BLOCK_RECORD
  5
D99
330
1
100
AcDbSymbolTableRecord
100
AcDbBlockTableRecord
  2
A$C708B5813
340
0
102
{BLKREFS
331
DDE
102
}
  0
BLOCK_RECORD
  5
DDC
330
1
100
AcDbSymbolTableRecord
100
AcDbBlockTableRecord
  2
A$C2BF30918
340
0
  0
BLOCK_RECORD
  5
DE0
330
1
100
AcDbSymbolTableRecord
100
AcDbBlockTableRecord
  2
A$C5A7A0274
340
0
  0
BLOCK_RECORD
  5
E1F
102
{ACAD_XDICTIONARY
360
E20
102
}
330
1
100
AcDbSymbolTableRecord
100
AcDbBlockTableRecord
  2
BLOCK1
340
0
1001
ACAD
1000
DesignCenter Data
1002
{
1070
     1
1070
     1
1002
}
  0
BLOCK_RECORD
  5
E40
102
{ACAD_XDICTIONARY
360
E41
102
}
330
1
100
AcDbSymbolTableRecord
100
AcDbBlockTableRecord
  2
Title Block
340
0
102
{BLKREFS
331
EF4
331
1123
102
}
1001
ACAD
1000
DesignCenter Data
1002
{
1070
     1
1070
     1
1002
}
  0
BLOCK_RECORD
  5
E6D
102
{ACAD_XDICTIONARY
360
EFC
102
}
330
1
100
AcDbSymbolTableRecord
100
AcDbBlockTableRecord
  2
STD50009-D-SIZE
340
0
1001
ACAD
1000
DesignCenter Data
1002
{
1070
     1
1070
     1
1002
}
  0
ENDTAB
  0
ENDSEC
  0
SECTION
  2
BLOCKS
  0
BLOCK
  5
1A
330
19
100
AcDbEntity
  8
0
100
AcDbBlockBegin
  2
*MODEL_SPACE
 70
     0
 10
0.0
 20
0.0
 30
0.0
  3
*MODEL_SPACE
  1

  0
ENDBLK
  5
1B
330
19
100
AcDbEntity
  8
0
100
AcDbBlockEnd
  0
BLOCK
  5
17
330
16
100
AcDbEntity
 67
     1
  8
0
100
AcDbBlockBegin
  2
*PAPER_SPACE
 70
     0
 10
0.0
 20
0.0
 30
0.0
  3
*PAPER_SPACE
  1

  0
ENDBLK
  5
18
330
16
100
AcDbEntity
 67
     1
  8
0
100
AcDbBlockEnd
  0
BLOCK
  5
2AB
330
2A7
100
AcDbEntity
  8
0
100
AcDbBlockBegin
  2
_Open30
 70
     0
 10
0.0
 20
0.0
 30
0.0
  3
_Open30
  1

  0
LINE
  5
2A8
330
2A7
100
AcDbEntity
  8
0
  6
ByBlock
 62
     0
370
    -2
100
AcDbLine
 10
-1.0
 20
0.26794919
 30
0.0
 11
0.0
 21
0.0
 31
0.0
  0
LINE
  5
2A9
330
2A7
100
AcDbEntity
  8
0
  6
ByBlock
 62
     0
370
    -2
100
AcDbLine
 10
0.0
 20
0.0
 30
0.0
 11
-1.0
 21
-0.26794919
 31
0.0
  0
LINE
  5
2AA
330
2A7
100
AcDbEntity
  8
0
  6
ByBlock
 62
     0
370
    -2
100
AcDbLine
 10
0.0
 20
0.0
 30
0.0
 11
-1.0
 21
0.0
 31
0.0
  0
ENDBLK
  5
2AC
330
2A7
100
AcDbEntity
  8
0
100
AcDbBlockEnd
  0
BLOCK
  5
2AF
330
2AD
100
AcDbEntity
  8
0
100
AcDbBlockBegin
  2
GENAXEH
 70
     0
 10
0.0
 20
0.0
 30
0.0
  3
GENAXEH
  1

  0
LINE
  5
2AE
330
2AD
100
AcDbEntity
  8
0
100
AcDbLine
 10
-1.0
 20
0.0
 30
0.0
 11
1.0
 21
0.0
 31
0.0
  0
ENDBLK
  5
2B0
330
2AD
100
AcDbEntity
  8
0
100
AcDbBlockEnd
  0
BLOCK
  5
C86
330
C7A
100
AcDbEntity
  8
0
100
AcDbBlockBegin
  2
*D26
 70
     1
 10
0.0
 20
0.0
 30
0.0
  3
*D26
  1

  0
LINE
  5
103C
330
C7A
100
AcDbEntity
  8
0
 62
     0
370
    -2
100
AcDbLine
 10
4.627408448987997
 20
15.57305152660477
 30
0.0
 11
3.538301574777342
 21
15.57305152660477
 31
0.0
  0
LINE
  5
103D
330
C7A
100
AcDbEntity
  8
0
 62
     0
370
    -2
100
AcDbLine
 10
4.627408448987997
 20
14.19509877210476
 30
0.0
 11
3.538301574777342
 21
14.19509877210477
 31
0.0
  0
LINE
  5
103E
330
C7A
100
AcDbEntity
  8
0
 62
     0
370
    -2
100
AcDbLine
 10
3.718301574777342
 20
15.44805152660477
 30
0.0
 11
3.718301574777342
 21
15.27139438537114
 31
0.0
  0
LINE
  5
103F
330
C7A
100
AcDbEntity
  8
0
 62
     0
370
    -2
100
AcDbLine
 10
3.718301574777342
 20
14.32009877210477
 30
0.0
 11
3.718301574777342
 21
14.4967559133384
 31
0.0
  0
SOLID
  5
1040
330
C7A
100
AcDbEntity
  8
0
 62
     0
100
AcDbTrace
 10
3.697468241444009
 20
15.44805152660477
 30
0.0
 11
3.739134908110676
 21
15.44805152660477
 31
0.0
 12
3.718301574777342
 22
15.57305152660477
 32
0.0
 13
3.718301574777342
 23
15.57305152660477
 33
0.0
  0
SOLID
  5
1041
330
C7A
100
AcDbEntity
  8
0
 62
     0
100
AcDbTrace
 10
3.697468241444008
 20
14.32009877210477
 30
0.0
 11
3.739134908110675
 21
14.32009877210477
 31
0.0
 12
3.718301574777342
 22
14.19509877210477
 32
0.0
 13
3.718301574777342
 23
14.19509877210477
 33
0.0
  0
MTEXT
  5
1042
330
C7A
100
AcDbEntity
  8
0
 62
     0
100
AcDbMText
 10
3.71830157477734
 20
15.06603967868628
 30
0.0
 40
0.18
 41
0.0
 71
     5
 72
     1
  1
\A1;35 mm
  7
outline drawings
 73
     1
 44
1.0
1001
ACAD
1000
MTEXTBEGIN
1070
    73
1070
     1
1070
    44
1040
1.0
1070
    74
1070
     0
1000
MTEXTEND
  0
MTEXT
  5
1043
330
C7A
100
AcDbEntity
  8
0
 62
     0
100
AcDbMText
 10
3.71830157477734
 20
14.67872044266991
 30
0.0
 40
0.18
 41
0.0
 71
     5
 72
     1
  1
\A1;[1.38 in]
  7
outline drawings
 73
     1
 44
1.0
1001
ACAD
1000
MTEXTBEGIN
1070
    73
1070
     1
1070
    44
1040
1.0
1070
    74
1070
     0
1000
MTEXTEND
  0
POINT
  5
1044
330
C7A
100
AcDbEntity
  8
DEFPOINTS
 62
     0
100
AcDbPoint
 10
4.689908448987997
 20
15.57305152660477
 30
0.0
  0
POINT
  5
1045
330
C7A
100
AcDbEntity
  8
DEFPOINTS
 62
     0
100
AcDbPoint
 10
4.689908448987997
 20
14.19509877210476
 30
0.0
  0
POINT
  5
1046
330
C7A
100
AcDbEntity
  8
DEFPOINTS
 62
     0
100
AcDbPoint
 10
3.718301574777342
 20
14.19509877210477
 30
0.0
  0
ENDBLK
  5
C87
330
C7A
100
AcDbEntity
  8
0
100
AcDbBlockEnd
  0
BLOCK
  5
C95
330
C89
100
AcDbEntity
  8
0
100
AcDbBlockBegin
  2
*D27
 70
     1
 10
0.0
 20
0.0
 30
0.0
  3
*D27
  1

  0
LINE
  5
1047
330
C89
100
AcDbEntity
  8
0
 62
     0
370
    -2
100
AcDbLine
 10
7.442098091650422
 20
13.23866311342843
 30
0.0
 11
7.442098091650422
 21
17.76171446557973
 31
0.0
  0
LINE
  5
1048
330
C89
100
AcDbEntity
  8
0
 62
     0
370
    -2
100
AcDbLine
 10
8.426350059150422
 20
17.00286952783863
 30
0.0
 11
8.426350059150422
 21
17.76171446557973
 31
0.0
  0
LINE
  5
1049
330
C89
100
AcDbEntity
  8
0
 62
     0
370
    -2
100
AcDbLine
 10
7.567098091650422
 20
17.58171446557973
 30
0.0
 11
8.301350059150422
 21
17.58171446557973
 31
0.0
  0
LINE
  5
104A
330
C89
100
AcDbEntity
  8
0
 62
     0
370
    -2
100
AcDbLine
 10
8.426350059150422
 20
17.58171446557973
 30
0.0
 11
8.551350059150422
 21
17.58171446557973
 31
0.0
  0
SOLID
  5
104B
330
C89
100
AcDbEntity
  8
0
 62
     0
100
AcDbTrace
 10
7.567098091650422
 20
17.60254779891307
 30
0.0
 11
7.567098091650422
 21
17.5608811322464
 31
0.0
 12
7.442098091650422
 22
17.58171446557973
 32
0.0
 13
7.442098091650422
 23
17.58171446557973
 33
0.0
  0
SOLID
  5
104C
330
C89
100
AcDbEntity
  8
0
 62
     0
100
AcDbTrace
 10
8.301350059150422
 20
17.60254779891307
 30
0.0
 11
8.301350059150422
 21
17.5608811322464
 31
0.0
 12
8.426350059150422
 22
17.58171446557973
 32
0.0
 13
8.426350059150422
 23
17.58171446557973
 33
0.0
  0
MTEXT
  5
104D
330
C89
100
AcDbEntity
  8
0
 62
     0
100
AcDbMText
 10
9.072011723543328
 20
17.76361760336964
 30
0.0
 40
0.18
 41
0.0
 71
     5
 72
     1
  1
\A1;25 mm
  7
outline drawings
 73
     1
 44
1.0
1001
ACAD
1000
MTEXTBEGIN
1070
    73
1070
     1
1070
    44
1040
1.0
1070
    74
1070
     0
1000
MTEXTEND
  0
MTEXT
  5
104E
330
C89
100
AcDbEntity
  8
0
 62
     0
100
AcDbMText
 10
9.072011723543328
 20
17.37635975889488
 30
0.0
 40
0.18
 41
0.0
 71
     5
 72
     1
  1
\A1;[0.98 in]
  7
outline drawings
 73
     1
 44
1.0
1001
ACAD
1000
MTEXTBEGIN
1070
    73
1070
     1
1070
    44
1040
1.0
1070
    74
1070
     0
1000
MTEXTEND
  0
POINT
  5
104F
330
C89
100
AcDbEntity
  8
DEFPOINTS
 62
     0
100
AcDbPoint
 10
7.442098091650422
 20
13.17616311342844
 30
0.0
  0
POINT
  5
1050
330
C89
100
AcDbEntity
  8
DEFPOINTS
 62
     0
100
AcDbPoint
 10
8.426350059150422
 20
16.94036952783863
 30
0.0
  0
POINT
  5
1051
330
C89
100
AcDbEntity
  8
DEFPOINTS
 62
     0
100
AcDbPoint
 10
8.426350059150422
 20
17.58171446557973
 30
0.0
  0
ENDBLK
  5
C96
330
C89
100
AcDbEntity
  8
0
100
AcDbBlockEnd
  0
BLOCK
  5
CA4
330
C98
100
AcDbEntity
  8
0
100
AcDbBlockBegin
  2
*D28
 70
     1
 10
0.0
 20
0.0
 30
0.0
  3
*D28
  1

  0
LINE
  5
1052
330
C98
100
AcDbEntity
  8
0
 62
     0
370
    -2
100
AcDbLine
 10
8.607902794473725
 20
16.73446884825476
 30
0.0
 11
9.076759976843725
 21
16.73446884825476
 31
0.0
  0
LINE
  5
1053
330
C98
100
AcDbEntity
  8
0
 62
     0
370
    -2
100
AcDbLine
 10
7.672566509265244
 20
13.03368145045476
 30
0.0
 11
9.076759976843725
 21
13.03368145045476
 31
0.0
  0
LINE
  5
1054
330
C98
100
AcDbEntity
  8
0
 62
     0
370
    -2
100
AcDbLine
 10
8.896759976843725
 20
16.60946884825476
 30
0.0
 11
8.896759976843725
 21
15.27133299382953
 31
0.0
  0
LINE
  5
1055
330
C98
100
AcDbEntity
  8
0
 62
     0
370
    -2
100
AcDbLine
 10
8.896759976843725
 20
13.15868145045476
 30
0.0
 11
8.896759976843725
 21
14.49681730488
 31
0.0
  0
SOLID
  5
1056
330
C98
100
AcDbEntity
  8
0
 62
     0
100
AcDbTrace
 10
8.875926643510391
 20
16.60946884825476
 30
0.0
 11
8.917593310177059
 21
16.60946884825476
 31
0.0
 12
8.896759976843725
 22
16.73446884825476
 32
0.0
 13
8.896759976843725
 23
16.73446884825476
 33
0.0
  0
SOLID
  5
1057
330
C98
100
AcDbEntity
  8
0
 62
     0
100
AcDbTrace
 10
8.875926643510391
 20
13.15868145045476
 30
0.0
 11
8.917593310177059
 21
13.15868145045476
 31
0.0
 12
8.896759976843725
 22
13.03368145045476
 32
0.0
 13
8.896759976843725
 23
13.03368145045476
 33
0.0
  0
MTEXT
  5
1058
330
C98
100
AcDbEntity
  8
0
 62
     0
100
AcDbMText
 10
8.896759976843723
 20
15.06597828714467
 30
0.0
 40
0.18
 41
0.0
 71
     5
 72
     1
  1
\A1;94 mm
  7
outline drawings
 73
     1
 44
1.0
1001
ACAD
1000
MTEXTBEGIN
1070
    73
1070
     1
1070
    44
1040
1.0
1070
    74
1070
     0
1000
MTEXTEND
  0
MTEXT
  5
1059
330
C98
100
AcDbEntity
  8
0
 62
     0
100
AcDbMText
 10
8.896759976843723
 20
14.67872044266991
 30
0.0
 40
0.18
 41
0.0
 71
     5
 72
     1
  1
\A1;[3.70 in]
  7
outline drawings
 73
     1
 44
1.0
1001
ACAD
1000
MTEXTBEGIN
1070
    73
1070
     1
1070
    44
1040
1.0
1070
    74
1070
     0
1000
MTEXTEND
  0
POINT
  5
105A
330
C98
100
AcDbEntity
  8
DEFPOINTS
 62
     0
100
AcDbPoint
 10
8.545402794473725
 20
16.73446884825476
 30
0.0
  0
POINT
  5
105B
330
C98
100
AcDbEntity
  8
DEFPOINTS
 62
     0
100
AcDbPoint
 10
7.610066509265244
 20
13.03368145045476
 30
0.0
  0
POINT
  5
105C
330
C98
100
AcDbEntity
  8
DEFPOINTS
 62
     0
100
AcDbPoint
 10
8.896759976843725
 20
13.03368145045476
 30
0.0
  0
ENDBLK
  5
CA5
330
C98
100
AcDbEntity
  8
0
100
AcDbBlockEnd
  0
BLOCK
  5
CB3
330
CA7
100
AcDbEntity
  8
0
100
AcDbBlockBegin
  2
*D29
 70
     1
 10
0.0
 20
0.0
 30
0.0
  3
*D29
  1

  0
LINE
  5
105D
330
CA7
100
AcDbEntity
  8
0
 62
     0
370
    -2
100
AcDbLine
 10
15.85341713713141
 20
14.42319851424146
 30
0.0
 11
15.85341713713141
 21
11.99717806658349
 31
0.0
  0
LINE
  5
105E
330
CA7
100
AcDbEntity
  8
0
 62
     0
370
    -2
100
AcDbLine
 10
12.82192335969507
 20
12.7488469641873
 30
0.0
 11
12.82192335969507
 21
11.99717806658349
 31
0.0
  0
LINE
  5
105F
330
CA7
100
AcDbEntity
  8
0
 62
     0
370
    -2
100
AcDbLine
 10
15.72841713713141
 20
12.17717806658349
 30
0.0
 11
14.85833191280615
 21
12.17717806658349
 31
0.0
  0
LINE
  5
1060
330
CA7
100
AcDbEntity
  8
0
 62
     0
370
    -2
100
AcDbLine
 10
12.94692335969507
 20
12.17717806658349
 30
0.0
 11
13.81700858402034
 21
12.17717806658349
 31
0.0
  0
SOLID
  5
1061
330
CA7
100
AcDbEntity
  8
0
 62
     0
100
AcDbTrace
 10
15.72841713713141
 20
12.19801139991683
 30
0.0
 11
15.72841713713141
 21
12.15634473325016
 31
0.0
 12
15.85341713713141
 22
12.17717806658349
 32
0.0
 13
15.85341713713141
 23
12.17717806658349
 33
0.0
  0
SOLID
  5
1062
330
CA7
100
AcDbEntity
  8
0
 62
     0
100
AcDbTrace
 10
12.94692335969507
 20
12.19801139991683
 30
0.0
 11
12.94692335969507
 21
12.15634473325016
 31
0.0
 12
12.82192335969507
 22
12.17717806658349
 32
0.0
 13
12.82192335969507
 23
12.17717806658349
 33
0.0
  0
MTEXT
  5
1063
330
CA7
100
AcDbEntity
  8
0
 62
     0
100
AcDbMText
 10
14.33767024841324
 20
12.3572394581251
 30
0.0
 40
0.18
 41
0.0
 71
     5
 72
     1
  1
\A1;77 mm
  7
outline drawings
 73
     1
 44
1.0
1001
ACAD
1000
MTEXTBEGIN
1070
    73
1070
     1
1070
    44
1040
1.0
1070
    74
1070
     0
1000
MTEXTEND
  0
MTEXT
  5
1064
330
CA7
100
AcDbEntity
  8
0
 62
     0
100
AcDbMText
 10
14.33767024841324
 20
11.97182335989864
 30
0.0
 40
0.18
 41
0.0
 71
     5
 72
     1
  1
\A1;[3.03 in]
  7
outline drawings
 73
     1
 44
1.0
1001
ACAD
1000
MTEXTBEGIN
1070
    73
1070
     1
1070
    44
1040
1.0
1070
    74
1070
     0
1000
MTEXTEND
  0
POINT
  5
1065
330
CA7
100
AcDbEntity
  8
DEFPOINTS
 62
     0
100
AcDbPoint
 10
15.85341713713141
 20
14.48569851424147
 30
0.0
  0
POINT
  5
1066
330
CA7
100
AcDbEntity
  8
DEFPOINTS
 62
     0
100
AcDbPoint
 10
12.82192335969507
 20
12.8113469641873
 30
0.0
  0
POINT
  5
1067
330
CA7
100
AcDbEntity
  8
DEFPOINTS
 62
     0
100
AcDbPoint
 10
12.82192335969507
 20
12.17717806658349
 30
0.0
  0
ENDBLK
  5
CB4
330
CA7
100
AcDbEntity
  8
0
100
AcDbBlockEnd
  0
BLOCK
  5
CC2
330
CB6
100
AcDbEntity
  8
0
100
AcDbBlockBegin
  2
*D30
 70
     1
 10
0.0
 20
0.0
 30
0.0
  3
*D30
  1

  0
LINE
  5
1068
330
CB6
100
AcDbEntity
  8
0
 62
     0
370
    -2
100
AcDbLine
 10
12.82192335969507
 20
12.7488469641873
 30
0.0
 11
12.82192335969507
 21
10.86382206381301
 31
0.0
  0
LINE
  5
1069
330
CB6
100
AcDbEntity
  8
0
 62
     0
370
    -2
100
AcDbLine
 10
20.81802053441952
 20
13.52236255225476
 30
0.0
 11
20.81802053441952
 21
10.86382206381301
 31
0.0
  0
LINE
  5
106A
330
CB6
100
AcDbEntity
  8
0
 62
     0
370
    -2
100
AcDbLine
 10
12.94692335969507
 20
11.04382206381301
 30
0.0
 11
15.19849855005866
 21
11.04382206381301
 31
0.0
  0
LINE
  5
106B
330
CB6
100
AcDbEntity
  8
0
 62
     0
370
    -2
100
AcDbLine
 10
20.69302053441953
 20
11.04382206381301
 30
0.0
 11
18.44144534405593
 21
11.04382206381301
 31
0.0
  0
SOLID
  5
106C
330
CB6
100
AcDbEntity
  8
0
 62
     0
100
AcDbTrace
 10
12.94692335969507
 20
11.06465539714634
 30
0.0
 11
12.94692335969507
 21
11.02298873047967
 31
0.0
 12
12.82192335969507
 22
11.04382206381301
 32
0.0
 13
12.82192335969507
 23
11.04382206381301
 33
0.0
  0
SOLID
  5
106D
330
CB6
100
AcDbEntity
  8
0
 62
     0
100
AcDbTrace
 10
20.69302053441953
 20
11.06465539714634
 30
0.0
 11
20.69302053441953
 21
11.02298873047967
 31
0.0
 12
20.81802053441952
 22
11.04382206381301
 32
0.0
 13
20.81802053441952
 23
11.04382206381301
 33
0.0
  0
MTEXT
  5
106E
330
CB6
100
AcDbEntity
  8
0
 62
     0
100
AcDbMText
 10
16.8199719470573
 20
11.04382206381301
 30
0.0
 40
0.18
 41
0.0
 71
     5
 72
     1
  1
\A1;300 mm [11.811 in] \PMAX ENCLOSURE DEPTH
  7
outline drawings
 73
     1
 44
1.0
1001
ACAD
1000
MTEXTBEGIN
1070
    73
1070
     1
1070
    44
1040
1.0
1070
    74
1070
     0
1000
MTEXTEND
  0
POINT
  5
106F
330
CB6
100
AcDbEntity
  8
DEFPOINTS
 62
     0
100
AcDbPoint
 10
12.82192335969507
 20
12.8113469641873
 30
0.0
  0
POINT
  5
1070
330
CB6
100
AcDbEntity
  8
DEFPOINTS
 62
     0
100
AcDbPoint
 10
20.81802053441952
 20
13.58486255225477
 30
0.0
  0
POINT
  5
1071
330
CB6
100
AcDbEntity
  8
DEFPOINTS
 62
     0
100
AcDbPoint
 10
20.81802053441952
 20
11.04382206381301
 30
0.0
  0
ENDBLK
  5
CC3
330
CB6
100
AcDbEntity
  8
0
100
AcDbBlockEnd
  0
BLOCK
  5
D19
330
D0D
100
AcDbEntity
  8
0
100
AcDbBlockBegin
  2
*D31
 70
     1
 10
0.0
 20
0.0
 30
0.0
  3
*D31
  1

  0
LINE
  5
1072
330
D0D
100
AcDbEntity
  8
0
 62
     0
370
    -2
100
AcDbLine
 10
12.75942335969508
 20
16.55608733425249
 30
0.0
 11
11.55587202742711
 21
16.55608733425249
 31
0.0
  0
LINE
  5
1073
330
D0D
100
AcDbEntity
  8
0
 62
     0
370
    -2
100
AcDbLine
 10
12.75942335969508
 20
13.2097235993006
 30
0.0
 11
11.55587202742711
 21
13.20972359930061
 31
0.0
  0
LINE
  5
1074
330
D0D
100
AcDbEntity
  8
0
 62
     0
370
    -2
100
AcDbLine
 10
11.73587202742711
 20
16.43108733425249
 30
0.0
 11
11.73587202742711
 21
15.27016331125131
 31
0.0
  0
LINE
  5
1075
330
D0D
100
AcDbEntity
  8
0
 62
     0
370
    -2
100
AcDbLine
 10
11.73587202742711
 20
13.33472359930061
 30
0.0
 11
11.73587202742711
 21
14.49564762230179
 31
0.0
  0
SOLID
  5
1076
330
D0D
100
AcDbEntity
  8
0
 62
     0
100
AcDbTrace
 10
11.71503869409377
 20
16.43108733425249
 30
0.0
 11
11.75670536076044
 21
16.43108733425249
 31
0.0
 12
11.73587202742711
 22
16.55608733425249
 32
0.0
 13
11.73587202742711
 23
16.55608733425249
 33
0.0
  0
SOLID
  5
1077
330
D0D
100
AcDbEntity
  8
0
 62
     0
100
AcDbTrace
 10
11.71503869409377
 20
13.33472359930061
 30
0.0
 11
11.75670536076044
 21
13.33472359930061
 31
0.0
 12
11.73587202742711
 22
13.20972359930061
 32
0.0
 13
11.73587202742711
 23
13.20972359930061
 33
0.0
  0
MTEXT
  5
1078
330
D0D
100
AcDbEntity
  8
0
 62
     0
100
AcDbMText
 10
11.7358720274271
 20
15.06480860456645
 30
0.0
 40
0.18
 41
0.0
 71
     5
 72
     1
  1
\A1;85 mm
  7
outline drawings
 73
     1
 44
1.0
1001
ACAD
1000
MTEXTBEGIN
1070
    73
1070
     1
1070
    44
1040
1.0
1070
    74
1070
     0
1000
MTEXTEND
  0
MTEXT
  5
1079
330
D0D
100
AcDbEntity
  8
0
 62
     0
100
AcDbMText
 10
11.7358720274271
 20
14.67755076009169
 30
0.0
 40
0.18
 41
0.0
 71
     5
 72
     1
  1
\A1;[3.35 in]
  7
outline drawings
 73
     1
 44
1.0
1001
ACAD
1000
MTEXTBEGIN
1070
    73
1070
     1
1070
    44
1040
1.0
1070
    74
1070
     0
1000
MTEXTEND
  0
POINT
  5
107A
330
D0D
100
AcDbEntity
  8
DEFPOINTS
 62
     0
100
AcDbPoint
 10
12.82192335969507
 20
16.55608733425249
 30
0.0
  0
POINT
  5
107B
330
D0D
100
AcDbEntity
  8
DEFPOINTS
 62
     0
100
AcDbPoint
 10
12.82192335969508
 20
13.2097235993006
 30
0.0
  0
POINT
  5
107C
330
D0D
100
AcDbEntity
  8
DEFPOINTS
 62
     0
100
AcDbPoint
 10
11.73587202742711
 20
13.20972359930061
 30
0.0
  0
ENDBLK
  5
D1A
330
D0D
100
AcDbEntity
  8
0
100
AcDbBlockEnd
  0
BLOCK
  5
D28
330
D1C
100
AcDbEntity
  8
0
100
AcDbBlockBegin
  2
*D32
 70
     1
 10
0.0
 20
0.0
 30
0.0
  3
*D32
  1

  0
LINE
  5
107D
330
D1C
100
AcDbEntity
  8
0
 62
     0
370
    -2
100
AcDbLine
 10
20.65203026978899
 20
15.55960737668349
 30
0.0
 11
20.65203026978899
 21
17.49060902704307
 31
0.0
  0
LINE
  5
107E
330
D1C
100
AcDbEntity
  8
0
 62
     0
370
    -2
100
AcDbLine
 10
22.69909106722924
 20
14.94657514935452
 30
0.0
 11
22.69909106722924
 21
17.49060902704307
 31
0.0
  0
LINE
  5
107F
330
D1C
100
AcDbEntity
  8
0
 62
     0
370
    -2
100
AcDbLine
 10
20.77703026978899
 20
17.31060902704307
 30
0.0
 11
21.1548990041162
 21
17.31060902704307
 31
0.0
  0
LINE
  5
1080
330
D1C
100
AcDbEntity
  8
0
 62
     0
370
    -2
100
AcDbLine
 10
22.57409106722924
 20
17.31060902704307
 30
0.0
 11
22.19622233290202
 21
17.31060902704307
 31
0.0
  0
SOLID
  5
1081
330
D1C
100
AcDbEntity
  8
0
 62
     0
100
AcDbTrace
 10
20.77703026978899
 20
17.3314423603764
 30
0.0
 11
20.77703026978899
 21
17.28977569370974
 31
0.0
 12
20.65203026978899
 22
17.31060902704307
 32
0.0
 13
20.65203026978899
 23
17.31060902704307
 33
0.0
  0
SOLID
  5
1082
330
D1C
100
AcDbEntity
  8
0
 62
     0
100
AcDbTrace
 10
22.57409106722924
 20
17.3314423603764
 30
0.0
 11
22.57409106722924
 21
17.28977569370974
 31
0.0
 12
22.69909106722924
 22
17.31060902704307
 32
0.0
 13
22.69909106722924
 23
17.31060902704307
 33
0.0
  0
MTEXT
  5
1083
330
D1C
100
AcDbEntity
  8
0
 62
     0
100
AcDbMText
 10
21.67556066850911
 20
17.49251216483298
 30
0.0
 40
0.18
 41
0.0
 71
     5
 72
     1
  1
\A1;52 mm
  7
outline drawings
 73
     1
 44
1.0
1001
ACAD
1000
MTEXTBEGIN
1070
    73
1070
     1
1070
    44
1040
1.0
1070
    74
1070
     0
1000
MTEXTEND
  0
MTEXT
  5
1084
330
D1C
100
AcDbEntity
  8
0
 62
     0
100
AcDbMText
 10
21.67556066850911
 20
17.10525432035821
 30
0.0
 40
0.18
 41
0.0
 71
     5
 72
     1
  1
\A1;[2.05 in]
  7
outline drawings
 73
     1
 44
1.0
1001
ACAD
1000
MTEXTBEGIN
1070
    73
1070
     1
1070
    44
1040
1.0
1070
    74
1070
     0
1000
MTEXTEND
  0
POINT
  5
1085
330
D1C
100
AcDbEntity
  8
DEFPOINTS
 62
     0
100
AcDbPoint
 10
20.65203026978899
 20
15.49710737668349
 30
0.0
  0
POINT
  5
1086
330
D1C
100
AcDbEntity
  8
DEFPOINTS
 62
     0
100
AcDbPoint
 10
22.69909106722924
 20
14.88407514935452
 30
0.0
  0
POINT
  5
1087
330
D1C
100
AcDbEntity
  8
DEFPOINTS
 62
     0
100
AcDbPoint
 10
22.69909106722924
 20
17.31060902704307
 30
0.0
  0
ENDBLK
  5
D29
330
D1C
100
AcDbEntity
  8
0
100
AcDbBlockEnd
  0
BLOCK
  5
D37
330
D2B
100
AcDbEntity
  8
0
100
AcDbBlockBegin
  2
*D33
 70
     1
 10
0.0
 20
0.0
 30
0.0
  3
*D33
  1

  0
LINE
  5
1088
330
D2B
100
AcDbEntity
  8
0
 62
     0
370
    -2
100
AcDbLine
 10
20.88052053441952
 20
16.18328774645477
 30
0.0
 11
23.84129838243724
 21
16.18328774645477
 31
0.0
  0
LINE
  5
1089
330
D2B
100
AcDbEntity
  8
0
 62
     0
370
    -2
100
AcDbLine
 10
22.59811580660822
 20
10.08092554795491
 30
0.0
 11
23.84129838243724
 21
10.08092554795491
 31
0.0
  0
LINE
  5
108A
330
D2B
100
AcDbEntity
  8
0
 62
     0
370
    -2
100
AcDbLine
 10
23.66129838243724
 20
16.05828774645477
 30
0.0
 11
23.66129838243724
 21
13.5193644916796
 31
0.0
  0
LINE
  5
108B
330
D2B
100
AcDbEntity
  8
0
 62
     0
370
    -2
100
AcDbLine
 10
23.66129838243724
 20
10.20592554795491
 30
0.0
 11
23.66129838243724
 21
12.74484880273008
 31
0.0
  0
SOLID
  5
108C
330
D2B
100
AcDbEntity
  8
0
 62
     0
100
AcDbTrace
 10
23.64046504910391
 20
16.05828774645477
 30
0.0
 11
23.68213171577057
 21
16.05828774645477
 31
0.0
 12
23.66129838243724
 22
16.18328774645477
 32
0.0
 13
23.66129838243724
 23
16.18328774645477
 33
0.0
  0
SOLID
  5
108D
330
D2B
100
AcDbEntity
  8
0
 62
     0
100
AcDbTrace
 10
23.64046504910391
 20
10.20592554795491
 30
0.0
 11
23.68213171577057
 21
10.20592554795491
 31
0.0
 12
23.66129838243724
 22
10.08092554795491
 32
0.0
 13
23.66129838243724
 23
10.08092554795491
 33
0.0
  0
MTEXT
  5
108E
330
D2B
100
AcDbEntity
  8
0
 62
     0
100
AcDbMText
 10
23.66129838243724
 20
13.31400978499475
 30
0.0
 40
0.18
 41
0.0
 71
     5
 72
     1
  1
\A1;155 mm
  7
outline drawings
 73
     1
 44
1.0
1001
ACAD
1000
MTEXTBEGIN
1070
    73
1070
     1
1070
    44
1040
1.0
1070
    74
1070
     0
1000
MTEXTEND
  0
MTEXT
  5
108F
330
D2B
100
AcDbEntity
  8
0
 62
     0
100
AcDbMText
 10
23.66129838243724
 20
12.92675194051999
 30
0.0
 40
0.18
 41
0.0
 71
     5
 72
     1
  1
\A1;[6.10 in]
  7
outline drawings
 73
     1
 44
1.0
1001
ACAD
1000
MTEXTBEGIN
1070
    73
1070
     1
1070
    44
1040
1.0
1070
    74
1070
     0
1000
MTEXTEND
  0
POINT
  5
1090
330
D2B
100
AcDbEntity
  8
DEFPOINTS
 62
     0
100
AcDbPoint
 10
20.81802053441952
 20
16.18328774645477
 30
0.0
  0
POINT
  5
1091
330
D2B
100
AcDbEntity
  8
DEFPOINTS
 62
     0
100
AcDbPoint
 10
22.53561580660822
 20
10.08092554795491
 30
0.0
  0
POINT
  5
1092
330
D2B
100
AcDbEntity
  8
DEFPOINTS
 62
     0
100
AcDbPoint
 10
23.66129838243724
 20
10.08092554795491
 30
0.0
  0
ENDBLK
  5
D38
330
D2B
100
AcDbEntity
  8
0
100
AcDbBlockEnd
  0
BLOCK
  5
D46
330
D3A
100
AcDbEntity
  8
0
100
AcDbBlockBegin
  2
*D34
 70
     1
 10
0.0
 20
0.0
 30
0.0
  3
*D34
  1

  0
LINE
  5
1093
330
D3A
100
AcDbEntity
  8
0
 62
     0
370
    -2
100
AcDbLine
 10
26.98167555065683
 20
14.94657514935477
 30
0.0
 11
26.98167555065683
 21
17.89257373660142
 31
0.0
  0
LINE
  5
1094
330
D3A
100
AcDbEntity
  8
0
 62
     0
370
    -2
100
AcDbLine
 10
29.58010074485683
 20
14.94657514935477
 30
0.0
 11
29.58010074485683
 21
17.89257373660142
 31
0.0
  0
LINE
  5
1095
330
D3A
100
AcDbEntity
  8
0
 62
     0
370
    -2
100
AcDbLine
 10
27.10667555065683
 20
17.71257373660142
 30
0.0
 11
27.76022648336392
 21
17.71257373660142
 31
0.0
  0
LINE
  5
1096
330
D3A
100
AcDbEntity
  8
0
 62
     0
370
    -2
100
AcDbLine
 10
29.45510074485683
 20
17.71257373660142
 30
0.0
 11
28.80154981214974
 21
17.71257373660142
 31
0.0
  0
SOLID
  5
1097
330
D3A
100
AcDbEntity
  8
0
 62
     0
100
AcDbTrace
 10
27.10667555065683
 20
17.73340706993475
 30
0.0
 11
27.10667555065683
 21
17.69174040326809
 31
0.0
 12
26.98167555065683
 22
17.71257373660142
 32
0.0
 13
26.98167555065683
 23
17.71257373660142
 33
0.0
  0
SOLID
  5
1098
330
D3A
100
AcDbEntity
  8
0
 62
     0
100
AcDbTrace
 10
29.45510074485683
 20
17.73340706993475
 30
0.0
 11
29.45510074485683
 21
17.69174040326809
 31
0.0
 12
29.58010074485683
 22
17.71257373660142
 32
0.0
 13
29.58010074485683
 23
17.71257373660142
 33
0.0
  0
MTEXT
  5
1099
330
D3A
100
AcDbEntity
  8
0
 62
     0
100
AcDbMText
 10
28.28088814775683
 20
17.89447687439133
 30
0.0
 40
0.18
 41
0.0
 71
     5
 72
     1
  1
\A1;66 mm
  7
outline drawings
 73
     1
 44
1.0
1001
ACAD
1000
MTEXTBEGIN
1070
    73
1070
     1
1070
    44
1040
1.0
1070
    74
1070
     0
1000
MTEXTEND
  0
MTEXT
  5
109A
330
D3A
100
AcDbEntity
  8
0
 62
     0
100
AcDbMText
 10
28.28088814775683
 20
17.50721902991656
 30
0.0
 40
0.18
 41
0.0
 71
     5
 72
     1
  1
\A1;[2.60 in]
  7
outline drawings
 73
     1
 44
1.0
1001
ACAD
1000
MTEXTBEGIN
1070
    73
1070
     1
1070
    44
1040
1.0
1070
    74
1070
     0
1000
MTEXTEND
  0
POINT
  5
109B
330
D3A
100
AcDbEntity
  8
DEFPOINTS
 62
     0
100
AcDbPoint
 10
26.98167555065683
 20
14.88407514935477
 30
0.0
  0
POINT
  5
109C
330
D3A
100
AcDbEntity
  8
DEFPOINTS
 62
     0
100
AcDbPoint
 10
29.58010074485683
 20
14.88407514935477
 30
0.0
  0
POINT
  5
109D
330
D3A
100
AcDbEntity
  8
DEFPOINTS
 62
     0
100
AcDbPoint
 10
29.58010074485683
 20
17.71257373660142
 30
0.0
  0
ENDBLK
  5
D47
330
D3A
100
AcDbEntity
  8
0
100
AcDbBlockEnd
  0
BLOCK
  5
D55
330
D49
100
AcDbEntity
  8
0
100
AcDbBlockBegin
  2
*D35
 70
     1
 10
0.0
 20
0.0
 30
0.0
  3
*D35
  1

  0
LINE
  5
1026
330
D49
100
AcDbEntity
  8
0
 62
     0
370
    -2
100
AcDbLine
 10
27.54269917213183
 20
6.794822686851643
 30
0.0
 11
27.54269917213183
 21
7.614568187154869
 31
0.0
  0
LINE
  5
1027
330
D49
100
AcDbEntity
  8
0
 62
     0
370
    -2
100
AcDbLine
 10
29.01907712338183
 20
6.689013199667018
 30
0.0
 11
29.01907712338183
 21
7.614568187154869
 31
0.0
  0
LINE
  5
1028
330
D49
100
AcDbEntity
  8
0
 62
     0
370
    -2
100
AcDbLine
 10
27.41769917213183
 20
7.434568187154869
 30
0.0
 11
27.29269917213183
 21
7.434568187154869
 31
0.0
  0
LINE
  5
1029
330
D49
100
AcDbEntity
  8
0
 62
     0
370
    -2
100
AcDbLine
 10
29.14407712338183
 20
7.434568187154869
 30
0.0
 11
29.26907712338183
 21
7.434568187154869
 31
0.0
  0
SOLID
  5
102A
330
D49
100
AcDbEntity
  8
0
 62
     0
100
AcDbTrace
 10
27.41769917213183
 20
7.455401520488202
 30
0.0
 11
27.41769917213183
 21
7.413734853821536
 31
0.0
 12
27.54269917213183
 22
7.434568187154869
 32
0.0
 13
27.54269917213183
 23
7.434568187154869
 33
0.0
  0
SOLID
  5
102B
330
D49
100
AcDbEntity
  8
0
 62
     0
100
AcDbTrace
 10
29.14407712338183
 20
7.455401520488202
 30
0.0
 11
29.14407712338183
 21
7.413734853821536
 31
0.0
 12
29.01907712338183
 22
7.434568187154869
 32
0.0
 13
29.01907712338183
 23
7.434568187154869
 33
0.0
  0
MTEXT
  5
102C
330
D49
100
AcDbEntity
  8
0
 62
     0
100
AcDbMText
 10
28.28088814775682
 20
7.616532716486384
 30
0.0
 40
0.18
 41
0.0
 71
     5
 72
     1
  1
\A1;37.5 mm
  7
outline drawings
 73
     1
 44
1.0
1001
ACAD
1000
MTEXTBEGIN
1070
    73
1070
     1
1070
    44
1040
1.0
1070
    74
1070
     0
1000
MTEXTEND
  0
MTEXT
  5
102D
330
D49
100
AcDbEntity
  8
0
 62
     0
100
AcDbMText
 10
28.28088814775682
 20
7.229213480470013
 30
0.0
 40
0.18
 41
0.0
 71
     5
 72
     1
  1
\A1;[1.48 in]
  7
outline drawings
 73
     1
 44
1.0
1001
ACAD
1000
MTEXTBEGIN
1070
    73
1070
     1
1070
    44
1040
1.0
1070
    74
1070
     0
1000
MTEXTEND
  0
POINT
  5
102E
330
D49
100
AcDbEntity
  8
DEFPOINTS
 62
     0
100
AcDbPoint
 10
27.54269917213183
 20
6.732322686851643
 30
0.0
  0
POINT
  5
102F
330
D49
100
AcDbEntity
  8
DEFPOINTS
 62
     0
100
AcDbPoint
 10
29.01907712338183
 20
6.626513199667018
 30
0.0
  0
POINT
  5
1030
330
D49
100
AcDbEntity
  8
DEFPOINTS
 62
     0
100
AcDbPoint
 10
29.01907712338183
 20
7.434568187154869
 30
0.0
  0
ENDBLK
  5
D56
330
D49
100
AcDbEntity
  8
0
100
AcDbBlockEnd
  0
BLOCK
  5
D64
330
D58
100
AcDbEntity
  8
0
100
AcDbBlockBegin
  2
*D36
 70
     1
 10
0.0
 20
0.0
 30
0.0
  3
*D36
  1

  0
LINE
  5
1031
330
D58
100
AcDbEntity
  8
0
 62
     0
370
    -2
100
AcDbLine
 10
29.16401713771101
 20
6.538795283803544
 30
0.0
 11
29.91040842946271
 21
6.538795283803544
 31
0.0
  0
LINE
  5
1032
330
D58
100
AcDbEntity
  8
0
 62
     0
370
    -2
100
AcDbLine
 10
29.26437895590666
 20
5.062417332553544
 30
0.0
 11
29.91040842946271
 21
5.062417332553544
 31
0.0
  0
LINE
  5
1033
330
D58
100
AcDbEntity
  8
0
 62
     0
370
    -2
100
AcDbLine
 10
29.73040842946272
 20
6.413795283803544
 30
0.0
 11
29.73040842946272
 21
6.187925544194915
 31
0.0
  0
LINE
  5
1034
330
D58
100
AcDbEntity
  8
0
 62
     0
370
    -2
100
AcDbLine
 10
29.73040842946272
 20
5.187417332553544
 30
0.0
 11
29.73040842946272
 21
5.413287072162174
 31
0.0
  0
SOLID
  5
1035
330
D58
100
AcDbEntity
  8
0
 62
     0
100
AcDbTrace
 10
29.70957509612938
 20
6.413795283803544
 30
0.0
 11
29.75124176279605
 21
6.413795283803544
 31
0.0
 12
29.73040842946272
 22
6.538795283803544
 32
0.0
 13
29.73040842946272
 23
6.538795283803544
 33
0.0
  0
SOLID
  5
1036
330
D58
100
AcDbEntity
  8
0
 62
     0
100
AcDbTrace
 10
29.70957509612938
 20
5.187417332553544
 30
0.0
 11
29.75124176279605
 21
5.187417332553544
 31
0.0
 12
29.73040842946272
 22
5.062417332553544
 32
0.0
 13
29.73040842946272
 23
5.062417332553544
 33
0.0
  0
MTEXT
  5
1037
330
D58
100
AcDbEntity
  8
0
 62
     0
100
AcDbMText
 10
29.73040842946272
 20
5.982570837510063
 30
0.0
 40
0.18
 41
0.0
 71
     5
 72
     1
  1
\A1;37.5 mm
  7
outline drawings
 73
     1
 44
1.0
1001
ACAD
1000
MTEXTBEGIN
1070
    73
1070
     1
1070
    44
1040
1.0
1070
    74
1070
     0
1000
MTEXTEND
  0
MTEXT
  5
1038
330
D58
100
AcDbEntity
  8
0
 62
     0
100
AcDbMText
 10
29.73040842946272
 20
5.595251601493693
 30
0.0
 40
0.18
 41
0.0
 71
     5
 72
     1
  1
\A1;[1.48 in]
  7
outline drawings
 73
     1
 44
1.0
1001
ACAD
1000
MTEXTBEGIN
1070
    73
1070
     1
1070
    44
1040
1.0
1070
    74
1070
     0
1000
MTEXTEND
  0
POINT
  5
1039
330
D58
100
AcDbEntity
  8
DEFPOINTS
 62
     0
100
AcDbPoint
 10
29.10151713771101
 20
6.538795283803544
 30
0.0
  0
POINT
  5
103A
330
D58
100
AcDbEntity
  8
DEFPOINTS
 62
     0
100
AcDbPoint
 10
29.20187895590665
 20
5.062417332553544
 30
0.0
  0
POINT
  5
103B
330
D58
100
AcDbEntity
  8
DEFPOINTS
 62
     0
100
AcDbPoint
 10
29.73040842946272
 20
5.062417332553544
 30
0.0
  0
ENDBLK
  5
D65
330
D58
100
AcDbEntity
  8
0
100
AcDbBlockEnd
  0
BLOCK
  5
D9A
330
D99
100
AcDbEntity
  8
0
100
AcDbBlockBegin
  2
A$C708B5813
 70
     0
 10
0.0
 20
0.0
 30
0.0
  3
A$C708B5813
  1

  0
LINE
  5
D9B
330
D99
100
AcDbEntity
  8
10
100
AcDbLine
 10
0.2399999692803618
 20
0.2640315084226485
 30
0.0
 11
0.2436013672279564
 21
0.2661107764971518
 31
0.0
  0
CIRCLE
  5
D9C
330
D99
100
AcDbEntity
  8
10
100
AcDbCircle
 10
0.2399999692803618
 20
0.2640315084226485
 30
0.0
 40
0.0041585361490064
  0
ARC
  5
D9D
330
D99
100
AcDbEntity
  8
10
100
AcDbCircle
 10
0.2399999692803512
 20
0.2871255191902322
 30
0.0
 40
0.01
100
AcDbArc
 50
240.0000000000001
 51
300.0000000000008
  0
ARC
  5
D9E
330
D99
100
AcDbEntity
  8
10
100
AcDbCircle
 10
0.2399999692803618
 20
0.529612632249878
 30
0.0
 40
0.01
100
AcDbArc
 50
60.00000000000078
 51
119.9999999999996
  0
ARC
  5
D9F
330
D99
100
AcDbEntity
  8
10
100
AcDbCircle
 10
0.2399999692511088
 20
0.3949160812035983
 30
0.0
 40
0.01
100
AcDbArc
 50
239.9999999674645
 51
300.0000000465846
  0
ARC
  5
DA0
330
D99
100
AcDbEntity
  8
10
100
AcDbCircle
 10
0.2393667475655192
 20
0.4214564796978131
 30
0.0
 40
0.01
100
AcDbArc
 50
59.99999999999999
 51
119.9999999818938
  0
LINE
  5
DA1
330
D99
100
AcDbEntity
  8
10
100
AcDbLine
 10
0.0249999692803549
 20
0.3997088216822098
 30
0.0
 11
0.2349999692803522
 21
0.2784652651523878
 31
0.0
  0
LINE
  5
DA2
330
D99
100
AcDbEntity
  8
10
100
AcDbLine
 10
-0.0000000307196402
 20
0.3737280595686747
 30
0.0
 11
-0.0000000307196366
 21
0.1312409465090325
 31
0.0
  0
LINE
  5
DA3
330
D99
100
AcDbEntity
  8
10
100
AcDbLine
 10
0.0149999692803604
 20
0.3823883136065191
 30
0.0
 11
0.2249999692803613
 21
0.2611447570767011
 31
0.0
  0
LINE
  5
DA4
330
D99
100
AcDbEntity
  8
10
100
AcDbLine
 10
0.2399999692803618
 20
0.2640315084226485
 30
0.0
 11
0.2399999692803618
 21
0.2598729722736421
 31
0.0
  0
LINE
  5
DA5
330
D99
100
AcDbEntity
  8
10
100
AcDbLine
 10
0.2363985713327672
 20
0.2661107764971531
 30
0.0
 11
0.2399999692803618
 21
0.2640315084226485
 31
0.0
  0
LINE
  5
DA6
330
D99
100
AcDbEntity
  8
10
100
AcDbLine
 10
0.2299999692803709
 20
0.1139204384333419
 30
0.0
 11
0.1356921705519909
 21
0.168369071415853
 31
0.0
  0
LINE
  5
DA7
330
D99
100
AcDbEntity
  8
10
100
AcDbLine
 10
0.2299999692803674
 20
0.1370144492009269
 30
0.0
 11
0.1366506043749744
 21
0.1909097301577374
 31
0.0
  0
LINE
  5
DA8
330
D99
100
AcDbEntity
  8
10
100
AcDbLine
 10
0.2299999692803709
 20
0.113920438433345
 30
0.0
 11
0.2299999692803674
 21
0.0099973899792092
 31
0.0
  0
LINE
  5
DA9
330
D99
100
AcDbEntity
  8
10
100
AcDbLine
 10
0.2299999692803638
 20
0.2524845030388567
 30
0.0
 11
0.2299999692803674
 21
0.1370144492009304
 31
0.0
  0
ARC
  5
DAA
330
D99
100
AcDbEntity
  8
10
100
AcDbCircle
 10
0.1266506043749622
 20
0.1726410827766105
 30
0.0
 40
0.01
100
AcDbArc
 50
239.9999999999996
 51
334.709932108123
  0
LINE
  5
DAB
330
D99
100
AcDbEntity
  8
10
100
AcDbLine
 10
0.1366506043749744
 20
0.1909097301577414
 30
0.0
 11
0.1366506043749673
 21
0.1985892220820524
 31
0.0
  0
LINE
  5
DAC
330
D99
100
AcDbEntity
  8
10
100
AcDbLine
 10
0.1216506043749632
 20
0.1639808287387661
 30
0.0
 11
0.0983493341857553
 21
0.177433823354967
 31
0.0
  0
ARC
  5
DAD
330
D99
100
AcDbEntity
  8
10
100
AcDbCircle
 10
0.1266506043749658
 20
0.1985892220820524
 30
0.0
 40
0.01
100
AcDbArc
 50
0.0
 51
59.99999999999917
  0
LINE
  5
DAE
330
D99
100
AcDbEntity
  8
10
100
AcDbLine
 10
0.1316506043749648
 20
0.2072494761198969
 30
0.0
 11
0.1083493341857533
 21
0.2207024707360996
 31
0.0
  0
ARC
  5
DAF
330
D99
100
AcDbEntity
  8
10
100
AcDbCircle
 10
0.1033493341857543
 20
0.1860940773928115
 30
0.0
 40
0.01
100
AcDbArc
 50
180.0
 51
240.0
  0
LINE
  5
DB0
330
D99
100
AcDbEntity
  8
10
100
AcDbLine
 10
0.0933493341857528
 20
0.1860940773928115
 30
0.0
 11
0.0933493341857528
 21
0.2120422166982552
 31
0.0
  0
ARC
  5
DB1
330
D99
100
AcDbEntity
  8
10
100
AcDbCircle
 10
0.1033493341857543
 20
0.2120422166982552
 30
0.0
 40
0.01
100
AcDbArc
 50
59.99999999999999
 51
180.0
  0
ARC
  5
DB2
330
D99
100
AcDbEntity
  8
10
100
AcDbCircle
 10
0.009999969280365
 20
0.1312409465090325
 30
0.0
 40
0.01
100
AcDbArc
 50
180.0000000000008
 51
240.0000000000004
  0
LINE
  5
DB3
330
D99
100
AcDbEntity
  8
10
100
AcDbLine
 10
0.0049999692803659
 20
0.1225806924711881
 30
0.0
 11
0.2149999692803668
 21
0.0013371359413648
 31
0.0
  0
ARC
  5
DB4
330
D99
100
AcDbEntity
  8
10
100
AcDbCircle
 10
0.2199999692803658
 20
0.0099973899792092
 30
0.0
 40
0.01
100
AcDbArc
 50
240.0
 51
0.0
  0
ARC
  5
DB5
330
D99
100
AcDbEntity
  8
10
100
AcDbCircle
 10
0.2199999692803622
 20
0.2524845030388567
 30
0.0
 40
0.01
100
AcDbArc
 50
0.0000000000007124
 51
60.00000000000079
  0
LINE
  5
DB6
330
D99
100
AcDbEntity
  8
10
100
AcDbLine
 10
0.0249999692803549
 20
0.4170293297578987
 30
0.0
 11
0.2349999692803628
 21
0.5382728862877224
 31
0.0
  0
ARC
  5
DB7
330
D99
100
AcDbEntity
  8
10
100
AcDbCircle
 10
0.0299999692803539
 20
0.4083690757200542
 30
0.0
 40
0.01
100
AcDbArc
 50
119.9999999999997
 51
240.0000000000002
  0
LINE
  5
DB8
330
D99
100
AcDbEntity
  8
10
100
AcDbLine
 10
0.2349999692461928
 20
0.3862558271685934
 30
0.0
 11
0.2116986990911549
 21
0.3997088217818918
 31
0.0
  0
LINE
  5
DB9
330
D99
100
AcDbEntity
  8
10
100
AcDbLine
 10
0.2116986990911549
 20
0.4170293298575807
 30
0.0
 11
0.2343667475682558
 21
0.4301167337372376
 31
0.0
  0
ARC
  5
DBA
330
D99
100
AcDbEntity
  8
10
100
AcDbCircle
 10
0.2166986990911539
 20
0.4083690758197363
 30
0.0
 40
0.01
100
AcDbArc
 50
120.0
 51
240.0
  0
ARC
  5
DBB
330
D99
100
AcDbEntity
  8
10
100
AcDbCircle
 10
0.0099999692803614
 20
0.3737280595686747
 30
0.0
 40
0.01
100
AcDbArc
 50
60.00000000000071
 51
180.0
  0
LINE
  5
DBC
330
D99
100
AcDbEntity
  8
10
100
AcDbLine
 10
0.2449999692803502
 20
0.2784652651523878
 30
0.0
 11
0.4549999692803617
 21
0.399708821682216
 31
0.0
  0
LINE
  5
DBD
330
D99
100
AcDbEntity
  8
10
100
AcDbLine
 10
0.2599999692803685
 20
0.2640315084226534
 30
0.0
 11
0.4499999692803556
 21
0.3737280595686805
 31
0.0
  0
ARC
  5
DBE
330
D99
100
AcDbEntity
  8
10
100
AcDbCircle
 10
0.4599999692803572
 20
0.3564075514929916
 30
0.0
 40
0.02
100
AcDbArc
 50
0.0000000000006997
 51
119.9999999999999
  0
LINE
  5
DBF
330
D99
100
AcDbEntity
  8
10
100
AcDbLine
 10
0.3853226110081884
 20
0.1920490020623578
 30
0.0
 11
0.4799999692803603
 21
0.2467110003469632
 31
0.0
  0
LINE
  5
DC0
330
D99
100
AcDbEntity
  8
10
100
AcDbLine
 10
0.3860173827363553
 20
0.2155441394742277
 30
0.0
 11
0.4799999692803567
 21
0.269805011114542
 31
0.0
  0
ARC
  5
DC1
330
D99
100
AcDbEntity
  8
10
100
AcDbCircle
 10
0.37665060437498
 20
0.2120422166982596
 30
0.0
 40
0.01
100
AcDbArc
 50
20.49907611913283
 51
120.0000000000061
  0
LINE
  5
DC2
330
D99
100
AcDbEntity
  8
10
100
AcDbLine
 10
0.3853226110081849
 20
0.192049002062356
 30
0.0
 11
0.3853226110081813
 21
0.1857245431213443
 31
0.0
  0
LINE
  5
DC3
330
D99
100
AcDbEntity
  8
10
100
AcDbLine
 10
0.4799999692803603
 20
0.2467110003469597
 30
0.0
 11
0.4799999692803639
 21
0.1370144492009322
 31
0.0
  0
LINE
  5
DC4
330
D99
100
AcDbEntity
  8
10
100
AcDbLine
 10
0.4799999692803567
 20
0.3564075514929921
 30
0.0
 11
0.4799999692803567
 21
0.2698050111145451
 31
0.0
  0
ARC
  5
DC5
330
D99
100
AcDbEntity
  8
10
100
AcDbCircle
 10
0.3533493341857579
 20
0.1722355030579732
 30
0.0
 40
0.01
100
AcDbArc
 50
180.0
 51
301.5450923819967
  0
LINE
  5
DC6
330
D99
100
AcDbEntity
  8
10
100
AcDbLine
 10
0.3805543054044094
 20
0.1772022562366846
 30
0.0
 11
0.358581028581991
 21
0.1637132161733139
 31
0.0
  0
LINE
  5
DC7
330
D99
100
AcDbEntity
  8
10
100
AcDbLine
 10
0.3433493341857599
 20
0.1793627247739491
 30
0.0
 11
0.3433493341857563
 21
0.1722355030579732
 31
0.0
  0
ARC
  5
DC8
330
D99
100
AcDbEntity
  8
10
100
AcDbCircle
 10
0.3753226110081798
 20
0.1857245431213443
 30
0.0
 40
0.01
100
AcDbArc
 50
301.5450923819923
 51
0.0
  0
LINE
  5
DC9
330
D99
100
AcDbEntity
  8
10
100
AcDbLine
 10
0.3483493341857553
 20
0.2072494761198902
 30
0.0
 11
0.3716506043749774
 21
0.2207024707361036
 31
0.0
  0
ARC
  5
DCA
330
D99
100
AcDbEntity
  8
10
100
AcDbCircle
 10
0.3533493341857579
 20
0.1985892220820467
 30
0.0
 40
0.01
100
AcDbArc
 50
120.0000000000091
 51
180.0
  0
LINE
  5
DCB
330
D99
100
AcDbEntity
  8
10
100
AcDbLine
 10
0.3433493341857599
 20
0.1793627247739509
 30
0.0
 11
0.3433493341857563
 21
0.1985892220820467
 31
0.0
  0
ARC
  5
DCC
330
D99
100
AcDbEntity
  8
10
100
AcDbCircle
 10
0.2699999692803701
 20
0.2467110003469646
 30
0.0
 40
0.02
100
AcDbArc
 50
120.0000000000001
 51
180.0000000000028
  0
LINE
  5
DCD
330
D99
100
AcDbEntity
  8
10
100
AcDbLine
 10
0.2499999692803705
 20
0.2467110003469637
 30
0.0
 11
0.2499999692803705
 21
0.0273178980548985
 31
0.0
  0
ARC
  5
DCE
330
D99
100
AcDbEntity
  8
10
100
AcDbCircle
 10
0.2699999692803701
 20
0.0273178980548989
 30
0.0
 40
0.02
100
AcDbArc
 50
180.0000000000015
 51
300.0000000000004
  0
LINE
  5
DCF
330
D99
100
AcDbEntity
  8
10
100
AcDbLine
 10
0.2799999692803716
 20
0.0099973899792101
 30
0.0
 11
0.4699999692803658
 21
0.1196939411252429
 31
0.0
  0
ARC
  5
DD0
330
D99
100
AcDbEntity
  8
10
100
AcDbCircle
 10
0.4599999692803643
 20
0.1370144492009317
 30
0.0
 40
0.02
100
AcDbArc
 50
300.0000000000004
 51
0.0000000000017175
  0
ARC
  5
DD1
330
D99
100
AcDbEntity
  8
10
100
AcDbCircle
 10
0.2699999692803594
 20
0.2467110003469637
 30
0.0
 40
0.02
100
AcDbArc
 50
120.0000000000008
 51
180.0000000000007
  0
ARC
  5
DD2
330
D99
100
AcDbEntity
  8
10
100
AcDbCircle
 10
0.4499999692803627
 20
0.4083690757200605
 30
0.0
 40
0.01
100
AcDbArc
 50
300.000000000001
 51
60.00000000000074
  0
LINE
  5
DD3
330
D99
100
AcDbEntity
  8
10
100
AcDbLine
 10
0.3599999691803148
 20
0.471877605388678
 30
0.0
 11
0.4549999692803617
 21
0.4170293297579049
 31
0.0
  0
LINE
  5
DD4
330
D99
100
AcDbEntity
  8
10
100
AcDbLine
 10
0.2449999692803608
 20
0.5382728862877224
 30
0.0
 11
0.3399999691803188
 21
0.4834246107724694
 31
0.0
  0
LINE
  5
DD5
330
D99
100
AcDbEntity
  8
10
100
AcDbLine
 10
0.2660173827513717
 20
0.4176167338147874
 30
0.0
 11
0.3599999691803148
 21
0.471877605388678
 31
0.0
  0
LINE
  5
DD6
330
D99
100
AcDbEntity
  8
10
100
AcDbLine
 10
0.2460173826459275
 20
0.429163739137699
 30
0.0
 11
0.3399999691803188
 21
0.4834246107724694
 31
0.0
  0
LINE
  5
DD7
330
D99
100
AcDbEntity
  8
10
100
AcDbLine
 10
0.2460173826459311
 20
0.4291637391376977
 30
0.0
 11
0.2443667475655182
 21
0.4301167337356575
 31
0.0
  0
LINE
  5
DD8
330
D99
100
AcDbEntity
  8
10
100
AcDbLine
 10
0.267668017831781
 20
0.4166637392168293
 30
0.0
 11
0.2660173827513788
 21
0.417616733814787
 31
0.0
  0
LINE
  5
DD9
330
D99
100
AcDbEntity
  8
10
100
AcDbLine
 10
0.2449999692581493
 20
0.3862558271698191
 30
0.0
 11
0.2676680178317312
 21
0.3993432311411684
 31
0.0
  0
ARC
  5
DDA
330
D99
100
AcDbEntity
  8
10
100
AcDbCircle
 10
0.2626680178317322
 20
0.4080034851790129
 30
0.0
 40
0.01
100
AcDbArc
 50
300.0
 51
59.99999999968121
  0
ENDBLK
  5
DDB
330
D99
100
AcDbEntity
  8
0
100
AcDbBlockEnd
  0
BLOCK
  5
DDD
330
DDC
100
AcDbEntity
  8
0
100
AcDbBlockBegin
  2
A$C2BF30918
 70
     0
 10
0.0
 20
0.0
 30
0.0
  3
A$C2BF30918
  1

  0
INSERT
  5
DDE
330
DDC
100
AcDbEntity
  8
10
100
AcDbBlockReference
  2
A$C708B5813
 10
0.0000000098500248
 20
-0.0001119937962062
 30
0.0
 41
0.75
 42
0.75
 43
0.75
  0
ENDBLK
  5
DDF
330
DDC
100
AcDbEntity
  8
0
100
AcDbBlockEnd
  0
BLOCK
  5
DE1
330
DE0
100
AcDbEntity
  8
0
 62
     1
100
AcDbBlockBegin
  2
A$C5A7A0274
 70
     0
 10
0.0
 20
0.0
 30
0.0
  3
A$C5A7A0274
  1

  0
ELLIPSE
  5
DE2
330
DE0
100
AcDbEntity
  8
0
100
AcDbEllipse
 10
0.9687500026610944
 20
1.55578654199639
 30
0.0
 11
-0.0441941738241592
 21
0.0
 31
0.0
210
0.0
220
0.0
230
1.0
 40
0.5773502691896219
 41
7.068583470577035
 42
8.63937979737193
  0
ELLIPSE
  5
DE3
330
DE0
100
AcDbEntity
  8
0
100
AcDbEllipse
 10
0.9687500026610962
 20
1.158858231928522
 30
0.0
 11
-0.0441941738241592
 21
0.0
 31
0.0
210
0.0
220
0.0
230
1.0
 40
0.5773502691896219
 41
0.7853981633974491
 42
2.356194490192344
  0
ELLIPSE
  5
DE4
330
DE0
100
AcDbEntity
  8
0
100
AcDbEllipse
 10
0.9687500026610944
 20
2.16922120301037
 30
0.0
 11
-0.0441941738241592
 21
0.0
 31
0.0
210
0.0
220
0.0
230
1.0
 40
0.5773502691896219
 41
3.926990816987241
 42
5.497787143782137
  0
LINE
  5
DE5
330
DE0
100
AcDbEntity
  8
0
100
AcDbLine
 10
1.375000002661095
 20
1.970757047976435
 30
0.0
 11
0.9687500026610953
 21
1.736208501118149
 31
0.0
  0
ELLIPSE
  5
DE6
330
DE0
100
AcDbEntity
  8
0
100
AcDbEllipse
 10
0.3750000026610971
 20
0.9603940768945896
 30
0.0
 11
0.0220970869120795
 21
-0.0382732772309876
 31
0.0
210
0.0
220
0.0
230
1.0
 40
0.5773502691896241
 41
8.639379797371937
 42
10.21017612416683
  0
ELLIPSE
  5
DE7
330
DE0
100
AcDbEntity
  8
0
100
AcDbEllipse
 10
0.5000000026610963
 20
0.8882252932458861
 30
0.0
 11
0.0220970869120795
 21
-0.0382732772309876
 31
0.0
210
0.0
220
0.0
230
1.0
 40
0.5773502691896241
 41
7.068583470577035
 42
8.639379797371937
  0
ELLIPSE
  5
DE8
330
DE0
100
AcDbEntity
  8
0
100
AcDbEllipse
 10
0.5000000026610954
 20
0.6717189422997773
 30
0.0
 11
0.0220970869120795
 21
-0.0382732772309876
 31
0.0
210
0.0
220
0.0
230
1.0
 40
0.5773502691896241
 41
5.497787143782145
 42
7.068583470577059
  0
ELLIPSE
  5
DE9
330
DE0
100
AcDbEntity
  8
0
100
AcDbEllipse
 10
0.3750000026610962
 20
0.74388772594848
 30
0.0
 11
0.0220970869120795
 21
-0.0382732772309876
 31
0.0
210
0.0
220
0.0
230
1.0
 40
0.5773502691896241
 41
3.926990816987241
 42
5.497787143782145
  0
ELLIPSE
  5
DEA
330
DE0
100
AcDbEntity
  8
0
100
AcDbEllipse
 10
0.0312500026610962
 20
0.5454235709145463
 30
0.0
 11
0.0220970869120795
 21
-0.0382732772309876
 31
0.0
210
0.0
220
0.0
230
1.0
 40
0.5773502691896241
 41
3.926990816987241
 42
5.497787143782145
  0
ELLIPSE
  5
DEB
330
DE0
100
AcDbEntity
  8
0
100
AcDbEllipse
 10
0.9062500026610944
 20
0.0402420853736236
 30
0.0
 11
0.0220970869120795
 21
-0.0382732772309876
 31
0.0
210
0.0
220
0.0
230
1.0
 40
0.5773502691896241
 41
5.497787143782145
 42
7.068583470577035
  0
ELLIPSE
  5
DEC
330
DE0
100
AcDbEntity
  8
0
100
AcDbEllipse
 10
0.906250002661098
 20
1.050605056455468
 30
0.0
 11
0.0220970869120795
 21
-0.0382732772309876
 31
0.0
210
0.0
220
0.0
230
1.0
 40
0.5773502691896241
 41
7.068583470577035
 42
8.639379797371937
  0
ELLIPSE
  5
DED
330
DE0
100
AcDbEntity
  8
0
100
AcDbEllipse
 10
0.0312500026610962
 20
1.555786541996392
 30
0.0
 11
0.0220970869120795
 21
-0.0382732772309876
 31
0.0
210
0.0
220
0.0
230
1.0
 40
0.5773502691896241
 41
2.356194490192351
 42
3.926990816987241
  0
ELLIPSE
  5
DEE
330
DE0
100
AcDbEntity
  8
0
100
AcDbEllipse
 10
0.9062500026610962
 20
1.73620850111815
 30
0.0
 11
-0.0441941738241592
 21
0.0
 31
0.0
210
0.0
220
0.0
230
1.0
 40
0.5773502691896219
 41
3.926990816987229
 42
5.497787143782137
  0
ELLIPSE
  5
DEF
330
DE0
100
AcDbEntity
  8
0
100
AcDbEllipse
 10
0.7812500026610945
 20
1.664039717469445
 30
0.0
 11
-0.0441941738241592
 21
0.0
 31
0.0
210
0.0
220
0.0
230
1.0
 40
0.5773502691896219
 41
5.497787143782137
 42
7.068583470577035
  0
ELLIPSE
  5
DF0
330
DE0
100
AcDbEntity
  8
0
100
AcDbEllipse
 10
0.0937500026610954
 20
1.664039717469446
 30
0.0
 11
-0.0441941738241592
 21
0.0
 31
0.0
210
0.0
220
0.0
230
1.0
 40
0.5773502691896219
 41
5.497787143782137
 42
7.068583470577035
  0
LINE
  5
DF1
330
DE0
100
AcDbEntity
  8
0
100
AcDbLine
 10
0.9062500026610944
 20
0.004157693549272
 30
0.0
 11
0.0312500026610962
 21
0.5093391790901947
 31
0.0
  0
LINE
  5
DF2
330
DE0
100
AcDbEntity
  8
0
100
AcDbLine
 10
0.9375000026610971
 20
0.4552125913536669
 30
0.0
 11
0.5312500026610954
 21
0.6897611382119524
 31
0.0
  0
LINE
  5
DF3
330
DE0
100
AcDbEntity
  8
0
100
AcDbLine
 10
0.9375000026610971
 20
0.4552125913536669
 30
0.0
 11
0.9375000026610944
 21
0.0221998894614475
 31
0.0
  0
LINE
  5
DF4
330
DE0
100
AcDbEntity
  8
0
100
AcDbLine
 10
0.0625000026610954
 20
1.682081913381622
 30
0.0
 11
0.9375000026610944
 21
2.187263398922545
 31
0.0
  0
LINE
  5
DF5
330
DE0
100
AcDbEntity
  8
0
100
AcDbLine
 10
0.906250002661098
 20
1.086689448279819
 30
0.0
 11
0.0312500026610962
 21
1.591870933820743
 31
0.0
  0
LINE
  5
DF6
330
DE0
100
AcDbEntity
  8
0
100
AcDbLine
 10
0.0000000026610962
 20
1.573828737908567
 30
0.0
 11
0.0000000026610962
 21
0.5634657668267225
 31
0.0
  0
LINE
  5
DF7
330
DE0
100
AcDbEntity
  8
0
100
AcDbLine
 10
0.9375000026610962
 20
1.140816036016346
 30
0.0
 11
0.0625000026610954
 21
1.64599752155727
 31
0.0
  0
LINE
  5
DF8
330
DE0
100
AcDbEntity
  8
0
100
AcDbLine
 10
0.3437500026610971
 20
0.9784362728067655
 30
0.0
 11
0.3437500026610962
 21
0.7619299218606562
 31
0.0
  0
LINE
  5
DF9
330
DE0
100
AcDbEntity
  8
0
100
AcDbLine
 10
0.5000000026610954
 20
0.6356345504754256
 30
0.0
 11
0.3750000026610962
 21
0.7078033341241284
 31
0.0
  0
LINE
  5
DFA
330
DE0
100
AcDbEntity
  8
0
100
AcDbLine
 10
0.5000000026610963
 20
0.9243096850702379
 30
0.0
 11
0.3750000026610971
 21
0.9964784687189411
 31
0.0
  0
LINE
  5
DFB
330
DE0
100
AcDbEntity
  8
0
100
AcDbLine
 10
0.937500002661098
 20
1.032562860543292
 30
0.0
 11
0.9375000026610971
 21
0.5995501586510719
 31
0.0
  0
LINE
  5
DFC
330
DE0
100
AcDbEntity
  8
0
100
AcDbLine
 10
0.9375000026610971
 20
0.5995501586510719
 30
0.0
 11
0.5312500026610963
 21
0.8340987055093584
 31
0.0
  0
LINE
  5
DFD
330
DE0
100
AcDbEntity
  8
0
100
AcDbLine
 10
0.5312500026610954
 20
0.6536767463876006
 30
0.0
 11
0.5312500026610954
 21
0.6897611382119524
 31
0.0
  0
LINE
  5
DFE
330
DE0
100
AcDbEntity
  8
0
100
AcDbLine
 10
0.5312500026610963
 20
0.8701830973337099
 30
0.0
 11
0.5312500026610963
 21
0.8340987055093588
 31
0.0
  0
LINE
  5
DFF
330
DE0
100
AcDbEntity
  8
0
100
AcDbLine
 10
0.8750000026610962
 20
1.754250697030325
 30
0.0
 11
0.7500000026610945
 21
1.682081913381621
 31
0.0
  0
LINE
  5
E00
330
DE0
100
AcDbEntity
  8
0
100
AcDbLine
 10
0.9375000026610944
 20
1.537744346084215
 30
0.0
 11
0.7500000026610954
 21
1.64599752155727
 31
0.0
  0
LINE
  5
E01
330
DE0
100
AcDbEntity
  8
0
100
AcDbLine
 10
0.9375000026610962
 20
1.754250697030325
 30
0.0
 11
0.9687500026610953
 21
1.736208501118149
 31
0.0
  0
ELLIPSE
  5
E02
330
DE0
100
AcDbEntity
  8
0
100
AcDbEllipse
 10
1.375000002661096
 20
0.8521409014215347
 30
0.0
 11
-0.0220970869120792
 21
-0.0382732772309871
 31
0.0
210
0.0
220
0.0
230
1.0
 40
0.5773502691896314
 41
3.926990816987228
 42
5.497787143782119
  0
ELLIPSE
  5
E03
330
DE0
100
AcDbEntity
  8
0
100
AcDbEllipse
 10
1.500000002661096
 20
0.9243096850702379
 30
0.0
 11
-0.0220970869120792
 21
-0.0382732772309871
 31
0.0
210
0.0
220
0.0
230
1.0
 40
0.5773502691896314
 41
8.639379797371912
 42
10.21017612416681
  0
ELLIPSE
  5
E04
330
DE0
100
AcDbEntity
  8
0
100
AcDbEllipse
 10
1.500000002661098
 20
0.707803334124127
 30
0.0
 11
-0.0220970869120792
 21
-0.0382732772309871
 31
0.0
210
0.0
220
0.0
230
1.0
 40
0.5773502691896314
 41
7.068583470577021
 42
8.63937979737193
  0
ELLIPSE
  5
E05
330
DE0
100
AcDbEntity
  8
0
100
AcDbEllipse
 10
1.375000002661096
 20
0.6356345504754235
 30
0.0
 11
-0.0220970869120792
 21
-0.0382732772309871
 31
0.0
210
0.0
220
0.0
230
1.0
 40
0.5773502691896314
 41
5.497787143782125
 42
7.068583470577021
  0
ELLIPSE
  5
E06
330
DE0
100
AcDbEntity
  8
0
100
AcDbEllipse
 10
1.031250002661096
 20
0.0402420853736238
 30
0.0
 11
-0.0220970869120792
 21
-0.0382732772309871
 31
0.0
210
0.0
220
0.0
230
1.0
 40
0.5773502691896314
 41
5.497787143782125
 42
7.068583470577021
  0
ELLIPSE
  5
E07
330
DE0
100
AcDbEntity
  8
0
100
AcDbEllipse
 10
1.906250002661098
 20
0.5454235709145462
 30
0.0
 11
-0.0220970869120792
 21
-0.0382732772309871
 31
0.0
210
0.0
220
0.0
230
1.0
 40
0.5773502691896314
 41
0.7853981633974354
 42
2.356194490192332
  0
ELLIPSE
  5
E08
330
DE0
100
AcDbEntity
  8
0
100
AcDbEllipse
 10
1.906250002661097
 20
1.555786541996391
 30
0.0
 11
-0.0220970869120792
 21
-0.0382732772309871
 31
0.0
210
0.0
220
0.0
230
1.0
 40
0.5773502691896314
 41
2.356194490192338
 42
3.926990816987228
  0
ELLIPSE
  5
E09
330
DE0
100
AcDbEntity
  8
0
100
AcDbEllipse
 10
1.031250002661098
 20
1.050605056455469
 30
0.0
 11
-0.0220970869120792
 21
-0.0382732772309871
 31
0.0
210
0.0
220
0.0
230
1.0
 40
0.5773502691896314
 41
3.926990816987228
 42
5.497787143782105
  0
ELLIPSE
  5
E0A
330
DE0
100
AcDbEntity
  8
0
100
AcDbEllipse
 10
1.093750002661096
 20
1.627955325645094
 30
0.0
 11
-0.0441941738241592
 21
0.0
 31
0.0
210
0.0
220
0.0
230
1.0
 40
0.5773502691896219
 41
2.356194490192317
 42
3.926990816987241
  0
ELLIPSE
  5
E0B
330
DE0
100
AcDbEntity
  8
0
100
AcDbEllipse
 10
1.843750002661097
 20
1.664039717469445
 30
0.0
 11
-0.0441941738241592
 21
0.0
 31
0.0
210
0.0
220
0.0
230
1.0
 40
0.5773502691896219
 41
2.356194490192344
 42
3.926990816987241
  0
LINE
  5
E0C
330
DE0
100
AcDbEntity
  8
0
100
AcDbLine
 10
1.031250002661096
 20
0.004157693549272
 30
0.0
 11
1.906250002661098
 21
0.5093391790901945
 31
0.0
  0
LINE
  5
E0D
330
DE0
100
AcDbEntity
  8
0
100
AcDbLine
 10
1.000000002661097
 20
1.032562860543293
 30
0.0
 11
1.000000002661096
 21
0.0221998894614484
 31
0.0
  0
LINE
  5
E0E
330
DE0
100
AcDbEntity
  8
0
100
AcDbLine
 10
1.875000002661097
 20
1.682081913381621
 30
0.0
 11
1.500000002661095
 21
1.898588264327731
 31
0.0
  0
LINE
  5
E0F
330
DE0
100
AcDbEntity
  8
0
100
AcDbLine
 10
1.500000002661095
 20
1.898588264327731
 30
0.0
 11
1.093750002661096
 21
1.664039717469446
 31
0.0
  0
LINE
  5
E10
330
DE0
100
AcDbEntity
  8
0
100
AcDbLine
 10
1.531250002661097
 20
0.7619299218606546
 30
0.0
 11
1.937500002661098
 21
0.9964784687189403
 31
0.0
  0
LINE
  5
E11
330
DE0
100
AcDbEntity
  8
0
100
AcDbLine
 10
1.531250002661097
 20
0.9062674891580616
 30
0.0
 11
1.937500002661098
 21
1.140816036016348
 31
0.0
  0
LINE
  5
E12
330
DE0
100
AcDbEntity
  8
0
100
AcDbLine
 10
1.031250002661098
 20
1.08668944827982
 30
0.0
 11
1.906250002661097
 21
1.591870933820743
 31
0.0
  0
LINE
  5
E13
330
DE0
100
AcDbEntity
  8
0
100
AcDbLine
 10
1.000000002661096
 20
1.140816036016346
 30
0.0
 11
1.875000002661097
 21
1.64599752155727
 31
0.0
  0
LINE
  5
E14
330
DE0
100
AcDbEntity
  8
0
100
AcDbLine
 10
1.375000002661096
 20
0.5995501586510719
 30
0.0
 11
1.500000002661098
 21
0.6717189422997754
 31
0.0
  0
LINE
  5
E15
330
DE0
100
AcDbEntity
  8
0
100
AcDbLine
 10
1.375000002661096
 20
0.8882252932458861
 30
0.0
 11
1.500000002661096
 21
0.9603940768945889
 31
0.0
  0
LINE
  5
E16
330
DE0
100
AcDbEntity
  8
0
100
AcDbLine
 10
1.343750002661096
 20
0.8340987055093593
 30
0.0
 11
1.343750002661096
 21
0.6175923545632481
 31
0.0
  0
LINE
  5
E17
330
DE0
100
AcDbEntity
  8
0
100
AcDbLine
 10
1.531250002661097
 20
0.7619299218606548
 30
0.0
 11
1.531250002661098
 21
0.725845530036303
 31
0.0
  0
LINE
  5
E18
330
DE0
100
AcDbEntity
  8
0
100
AcDbLine
 10
1.531250002661096
 20
0.9423518809824145
 30
0.0
 11
1.531250002661096
 21
0.9062674891580613
 31
0.0
  0
LINE
  5
E19
330
DE0
100
AcDbEntity
  8
0
100
AcDbLine
 10
1.093750002661097
 20
1.664039717469446
 30
0.0
 11
1.125000002661096
 21
1.64599752155727
 31
0.0
  0
LINE
  5
E1A
330
DE0
100
AcDbEntity
  8
0
100
AcDbLine
 10
1.125000002661095
 20
1.609913129732918
 30
0.0
 11
1.000000002661094
 21
1.537744346084215
 31
0.0
  0
LINE
  5
E1B
330
DE0
100
AcDbEntity
  8
0
100
AcDbLine
 10
1.937500002661097
 20
1.573828737908567
 30
0.0
 11
1.937500002661098
 21
1.140816036016348
 31
0.0
  0
LINE
  5
E1C
330
DE0
100
AcDbEntity
  8
0
100
AcDbLine
 10
1.937500002661098
 20
0.9964784687189403
 30
0.0
 11
1.937500002661098
 21
0.5634657668267216
 31
0.0
  0
LINE
  5
E1D
330
DE0
100
AcDbEntity
  8
0
100
AcDbLine
 10
1.375000002661095
 20
1.970757047976435
 30
0.0
 11
1.000000002661094
 21
2.187263398922545
 31
0.0
  0
ENDBLK
  5
E1E
330
DE0
100
AcDbEntity
  8
0
 62
     1
100
AcDbBlockEnd
  0
BLOCK
  5
E22
330
E1F
100
AcDbEntity
  8
0
100
AcDbBlockBegin
  2
BLOCK1
 70
     0
 10
0.0
 20
0.0
 30
0.0
  3
BLOCK1
  1

  0
MTEXT
  5
E23
330
E1F
100
AcDbEntity
  8
10
 62
     7
100
AcDbMText
 10
6.711034280529553
 20
13.28956519178314
 30
0.0
 40
0.09
 41
0.0
 71
     2
 72
     5
  1
{\fArial|b0|i0|c0|p34;\LTOLERANCE:\P\P\l  .XX +/- 0.02\P .XXX +/- 0.005\P.XXXX +/- 0.001\PANGLES +/- 0.5 DEG\P\H0.7778x;\P\H1.286x;UNLESS OTHERWISE \PSPECIFIED}
 73
     1
 44
1.0
1001
ACAD
1000
MTEXTBEGIN
1070
    73
1070
     1
1070
    44
1040
1.0
1070
    74
1070
     0
1000
MTEXTEND
  0
MTEXT
  5
E24
102
{ACAD_XDICTIONARY
360
1172
102
}
330
E1F
100
AcDbEntity
  8
10
 62
     7
100
AcDbMText
 10
8.127666109371762
 20
12.36798589435038
 30
0.0
 40
0.1
 41
4.122956750395385
 71
     1
 72
     5
  1
{\fArial|b0|i0|c0|p34;P.O. BOX 496        BEAVER, PA 15009         \C256;www.c3controls.com}
 73
     1
 44
1.0
1001
ACAD
1000
MTEXTBEGIN
1070
    73
1070
     1
1070
    44
1040
1.0
1070
    74
1070
     0
1000
MTEXTEND
  0
LINE
  5
E25
330
E1F
100
AcDbEntity
  8
0
100
AcDbLine
 10
7.667110091834601
 20
12.21325811248016
 30
0.0
 11
12.6671100918346
 21
12.21325811248016
 31
0.0
  0
MTEXT
  5
E26
330
E1F
100
AcDbEntity
  8
0
100
AcDbMText
 10
6.680292549726473
 20
11.3112653072963
 30
0.0
 40
0.1
 41
1.986817542108126
 71
     5
 72
     5
  1
{\fArial|b0|i0|c0|p34;\C7;This drawing is the property of \C5;c3\C7;controls.  The drawing may not be copied, used or disclosed, for any purpose except as authorized in writing by \C5;c3\C7;controls.}
  7
ADESK1
 73
     1
 44
1.0
1001
ACAD
1000
MTEXTBEGIN
1070
    73
1070
     1
1070
    44
1040
1.0
1070
    74
1070
     0
1000
MTEXTEND
  0
LINE
  5
E27
330
E1F
100
AcDbEntity
  8
0
100
AcDbLine
 10
12.6671100918346
 20
11.21325811248016
 30
0.0
 11
7.667110091834601
 21
11.21325811248016
 31
0.0
  0
LINE
  5
E28
330
E1F
100
AcDbEntity
  8
0
100
AcDbLine
 10
5.667110091834601
 20
10.71325811248016
 30
0.0
 11
12.6671100918346
 21
10.71325811248016
 31
0.0
  0
MTEXT
  5
E29
330
E1F
100
AcDbEntity
  8
0
100
AcDbMText
 10
7.716796256136134
 20
12.16810483438634
 30
0.0
 40
0.09
 41
0.8658878108033007
 71
     1
 72
     5
  1
{\fArial|b0|i0|c0|p34;\LDescription\l:}
  7
ADESK1
 73
     1
 44
1.0
1001
ACAD
1000
MTEXTBEGIN
1070
    73
1070
     1
1070
    44
1040
1.0
1070
    74
1070
     0
1000
MTEXTEND
  0
LINE
  5
E2A
330
E1F
100
AcDbEntity
  8
0
100
AcDbLine
 10
10.1671100918346
 20
10.71325811248016
 30
0.0
 11
7.667110091834601
 21
10.71325811248016
 31
0.0
  0
MTEXT
  5
E2B
330
E1F
100
AcDbEntity
  8
0
100
AcDbMText
 10
7.71550440136373
 20
10.89465349197563
 30
0.0
 40
0.09
 41
0.384193607157087
 71
     1
 72
     5
  1
{\fArial|b0|i0|c0|p34;\LDate\l:}
  7
ADESK1
 73
     1
 44
1.0
1001
ACAD
1000
MTEXTBEGIN
1070
    73
1070
     1
1070
    44
1040
1.0
1070
    74
1070
     0
1000
MTEXTEND
  0
LINE
  5
E2C
330
E1F
100
AcDbEntity
  8
0
100
AcDbLine
 10
7.667110091834601
 20
11.21325811248016
 30
0.0
 11
7.667110091834601
 21
11.46325811248016
 31
0.0
  0
MTEXT
  5
E2D
330
E1F
100
AcDbEntity
  8
0
100
AcDbMText
 10
7.708132746996554
 20
11.14458739414986
 30
0.0
 40
0.09
 41
0.7497570415333997
 71
     1
 72
     5
  1
{\fArial|b0|i0|c0|p34;\LDrawn By\l:}
  7
ADESK1
 73
     1
 44
1.0
1001
ACAD
1000
MTEXTBEGIN
1070
    73
1070
     1
1070
    44
1040
1.0
1070
    74
1070
     0
1000
MTEXTEND
  0
LINE
  5
E2E
330
E1F
100
AcDbEntity
  8
0
100
AcDbLine
 10
5.667110091834601
 20
11.96325811248016
 30
0.0
 11
7.667110091834601
 21
11.96325811248016
 31
0.0
  0
MTEXT
  5
E2F
330
E1F
100
AcDbEntity
  8
0
100
AcDbMText
 10
9.197411036053196
 20
10.89516108875997
 30
0.0
 40
0.09
 41
0.3303643432308405
 71
     1
 72
     5
  1
{\fArial|b0|i0|c0|p34;\LScale\l:}
  7
ADESK1
 73
     1
 44
1.0
1001
ACAD
1000
MTEXTBEGIN
1070
    73
1070
     1
1070
    44
1040
1.0
1070
    74
1070
     0
1000
MTEXTEND
  0
MTEXT
  5
E30
330
E1F
100
AcDbEntity
  8
0
100
AcDbMText
 10
10.21235124952641
 20
11.16269294915084
 30
0.0
 40
0.09
 41
1.303856884813882
 71
     1
 72
     5
  1
{\fArial|b0|i0|c0|p34;\LDrawing Number\l:}
  7
ADESK1
 73
     1
 44
1.0
1001
ACAD
1000
MTEXTBEGIN
1070
    73
1070
     1
1070
    44
1040
1.0
1070
    74
1070
     0
1000
MTEXTEND
  0
LINE
  5
E31
330
E1F
100
AcDbEntity
  8
0
100
AcDbLine
 10
5.667110091834601
 20
13.33825811248016
 30
0.0
 11
5.667110091834601
 21
10.71325811248016
 31
0.0
  0
LINE
  5
E32
330
E1F
100
AcDbEntity
  8
0
100
AcDbLine
 10
5.667110091834601
 20
13.33825811248016
 30
0.0
 11
12.6671100918346
 21
13.33825811248017
 31
0.0
  0
LINE
  5
E33
330
E1F
100
AcDbEntity
  8
0
100
AcDbLine
 10
12.6671100918346
 20
13.33825811248017
 30
0.0
 11
12.6671100918346
 21
10.71325811248016
 31
0.0
  0
LINE
  5
E34
330
E1F
100
AcDbEntity
  8
0
100
AcDbLine
 10
7.6671100918346
 20
13.33825811248016
 30
0.0
 11
7.667110091834601
 21
10.71325811248016
 31
0.0
  0
LINE
  5
E35
330
E1F
100
AcDbEntity
  8
0
100
AcDbLine
 10
10.1671100918346
 20
11.21325811248016
 30
0.0
 11
10.1671100918346
 21
10.71325811248016
 31
0.0
  0
LINE
  5
E36
330
E1F
100
AcDbEntity
  8
0
100
AcDbLine
 10
7.667110091834601
 20
10.96325811248016
 30
0.0
 11
10.1671100918346
 21
10.96325811248016
 31
0.0
  0
MTEXT
  5
E37
330
E1F
100
AcDbEntity
  8
0
100
AcDbMText
 10
8.341013405886343
 20
11.1434052468619
 30
0.0
 40
0.125
 41
1.771714365360821
 71
     1
 72
     5
  1
{\fArial|b0|i0|c0|p34;NAME}
  7
ADESK1
 73
     1
 44
1.0
1001
ACAD
1000
MTEXTBEGIN
1070
    73
1070
     1
1070
    44
1040
1.0
1070
    74
1070
     0
1000
MTEXTEND
  0
MTEXT
  5
E38
330
E1F
100
AcDbEntity
  8
0
100
AcDbMText
 10
8.132724889397977
 20
10.88540557091899
 30
0.0
 40
0.1
 41
0.7449364758073216
 71
     1
 72
     5
  1
{\fArial|b0|i0|c0|p34;MM-DD-YYYY}
  7
ADESK1
 73
     1
 44
1.0
1001
ACAD
1000
MTEXTBEGIN
1070
    73
1070
     1
1070
    44
1040
1.0
1070
    74
1070
     0
1000
MTEXTEND
  0
MTEXT
  5
E39
330
E1F
100
AcDbEntity
  8
0
100
AcDbMText
 10
7.743995244054929
 20
11.94804782520594
 30
0.0
 40
0.125
 41
2.230442729182442
 71
     1
 72
     5
  1
{\fArial|b0|i0|c0|p34;<Prompt (Text Size 0.125")>}
  7
ADESK1
 73
     1
 44
1.0
1001
ACAD
1000
MTEXTBEGIN
1070
    73
1070
     1
1070
    44
1040
1.0
1070
    74
1070
     0
1000
MTEXTEND
  0
MTEXT
  5
E3A
330
E1F
100
AcDbEntity
  8
0
100
AcDbMText
 10
10.26973511976186
 20
10.94585451581953
 30
0.0
 40
0.15
 41
2.262622634115132
 71
     1
 72
     5
  1
{\fArial|b0|i0|c0|p34;##X#####}
  7
ADESK1
 73
     1
 44
1.0
1001
ACAD
1000
MTEXTBEGIN
1070
    73
1070
     1
1070
    44
1040
1.0
1070
    74
1070
     0
1000
MTEXTEND
  0
MTEXT
  5
E3B
330
E1F
100
AcDbEntity
  8
0
100
AcDbMText
 10
9.711274382750701
 20
10.9171026030377
 30
0.0
 40
0.125
 41
0.2871883947329365
 71
     1
 72
     5
  1
{\fArial|b0|i0|c0|p34;1:1}
  7
ADESK1
 73
     1
 44
1.0
1001
ACAD
1000
MTEXTBEGIN
1070
    73
1070
     1
1070
    44
1040
1.0
1070
    74
1070
     0
1000
MTEXTEND
  0
LINE
  5
E3C
330
E1F
100
AcDbEntity
  8
0
100
AcDbLine
 10
9.167110091834601
 20
10.96325811248016
 30
0.0
 11
9.167110091834601
 21
10.71325811248016
 31
0.0
  0
IMAGE
  5
E3D
330
E1F
100
AcDbEntity
  8
0
 92
      140
310
8C00000001000000840000000600000005000000E0AE6E9EFB522040B00296A1D3D428400000000000000000E0AE6E9EFB52204092D8A7CFC5842A4000000000000000006BE15DF0644D284092D8A7CFC5842A4000000000000000006BE15DF0644D2840B00296A1D3D428400000000000000000E0AE6E9EFB522040B00296
310
A1D3D428400000000000000000
100
AcDbRasterImage
 90
        0
 10
8.16207594967949
 20
12.41567711788352
 30
0.0
 11
0.0104153649562928
 21
0.0
 31
0.0
 12
0.0
 22
0.0104153649562928
 32
0.0
 13
383.0
 23
81.0
340
F02
 70
     7
280
     0
281
    50
282
    50
283
     0
360
E3E
 71
     1
 91
        2
 14
-0.5
 24
-0.5
 14
382.5
 24
80.5
  0
ENDBLK
  5
E3F
330
E1F
100
AcDbEntity
  8
0
100
AcDbBlockEnd
  0
BLOCK
  5
E42
330
E40
100
AcDbEntity
  8
0
100
AcDbBlockBegin
  2
Title Block
 70
     2
 10
0.0
 20
0.0
 30
0.0
  3
Title Block
  1

  0
MTEXT
  5
E43
330
E40
100
AcDbEntity
  8
10
 62
     7
100
AcDbMText
 10
1.043924196673284
 20
2.576307073912303
 30
0.0
 40
0.09
 41
0.0
 71
     2
 72
     5
  1
{\LTOLERANCE:\P\P}  .XX +/- 0.02\P .XXX +/- 0.005\P.XXXX +/- 0.001\PANGLES +/- 0.5 DEG\P\PUNLESS OTHERWISE \PSPECIFIED
  7
c3controls
 73
     1
 44
1.0
1001
ACAD
1000
MTEXTBEGIN
1070
    73
1070
     1
1070
    44
1040
1.0
1070
    74
1070
     0
1000
MTEXTEND
  0
MTEXT
  5
E44
102
{ACAD_XDICTIONARY
360
1174
102
}
330
E40
100
AcDbEntity
  8
10
 62
     7
100
AcDbMText
 10
2.460556025515494
 20
1.654727776479541
 30
0.0
 40
0.1
 41
4.122956750395385
 71
     1
 72
     5
  1
P.O. BOX 496        BEAVER, PA 15009         {\C256;www.c3controls.com}
  7
c3controls
 73
     1
 44
1.0
1001
ACAD
1000
MTEXTBEGIN
1070
    73
1070
     1
1070
    44
1040
1.0
1070
    74
1070
     0
1000
MTEXTEND
  0
LINE
  5
E45
330
E40
100
AcDbEntity
  8
0
100
AcDbLine
 10
2.000000007978332
 20
1.499999994609325
 30
0.0
 11
7.000000007978332
 21
1.499999994609325
 31
0.0
  0
MTEXT
  5
E46
330
E40
100
AcDbEntity
  8
0
100
AcDbMText
 10
1.013182465870205
 20
0.5980071894254646
 30
0.0
 40
0.1
 41
1.986817542108126
 71
     5
 72
     5
  1
{\C7;This drawing is the property of \C5;c3\C7;controls.  The drawing may not be copied, used or disclosed, for any purpose except as authorized in writing by \C5;c3\C7;controls.}
  7
c3controls
 73
     1
 44
1.0
1001
ACAD
1000
MTEXTBEGIN
1070
    73
1070
     1
1070
    44
1040
1.0
1070
    74
1070
     0
1000
MTEXTEND
  0
LINE
  5
E47
330
E40
100
AcDbEntity
  8
0
100
AcDbLine
 10
7.000000007978332
 20
0.4999999946093255
 30
0.0
 11
2.000000007978332
 21
0.4999999946093255
 31
0.0
  0
LINE
  5
E48
330
E40
100
AcDbEntity
  8
0
100
AcDbLine
 10
0.0000000079783327
 20
-0.0000000053906746
 30
0.0
 11
7.000000007978332
 21
-0.0000000053906746
 31
0.0
  0
MTEXT
  5
E49
330
E40
100
AcDbEntity
  8
0
100
AcDbMText
 10
2.049686172279866
 20
1.454846716515504
 30
0.0
 40
0.09
 41
0.8658878108033007
 71
     1
 72
     5
  1
{\LDescription}:
  7
c3controls
 73
     1
 44
1.0
1001
ACAD
1000
MTEXTBEGIN
1070
    73
1070
     1
1070
    44
1040
1.0
1070
    74
1070
     0
1000
MTEXTEND
  0
LINE
  5
E4A
330
E40
100
AcDbEntity
  8
0
100
AcDbLine
 10
4.500000007978332
 20
-0.0000000053906746
 30
0.0
 11
2.000000007978332
 21
-0.0000000053906746
 31
0.0
  0
MTEXT
  5
E4B
330
E40
100
AcDbEntity
  8
0
100
AcDbMText
 10
2.048394317507462
 20
0.1813953741047953
 30
0.0
 40
0.09
 41
0.384193607157087
 71
     1
 72
     5
  1
{\LDate}:
  7
c3controls
 73
     1
 44
1.0
1001
ACAD
1000
MTEXTBEGIN
1070
    73
1070
     1
1070
    44
1040
1.0
1070
    74
1070
     0
1000
MTEXTEND
  0
LINE
  5
E4C
330
E40
100
AcDbEntity
  8
0
100
AcDbLine
 10
2.000000007978332
 20
0.4999999946093272
 30
0.0
 11
2.000000007978332
 21
0.7499999946093272
 31
0.0
  0
MTEXT
  5
E4D
330
E40
100
AcDbEntity
  8
0
100
AcDbMText
 10
2.041022663140285
 20
0.4313292762790315
 30
0.0
 40
0.09
 41
0.7497570415333997
 71
     1
 72
     5
  1
{\LDrawn By}:
  7
c3controls
 73
     1
 44
1.0
1001
ACAD
1000
MTEXTBEGIN
1070
    73
1070
     1
1070
    44
1040
1.0
1070
    74
1070
     0
1000
MTEXTEND
  0
LINE
  5
E4E
330
E40
100
AcDbEntity
  8
0
100
AcDbLine
 10
0.0000000079783327
 20
1.249999994609325
 30
0.0
 11
2.000000007978332
 21
1.249999994609325
 31
0.0
  0
MTEXT
  5
E4F
330
E40
100
AcDbEntity
  8
0
100
AcDbMText
 10
3.530300952196927
 20
0.1819029708891406
 30
0.0
 40
0.09
 41
0.3303643432308405
 71
     1
 72
     5
  1
{\LScale}:
  7
c3controls
 73
     1
 44
1.0
1001
ACAD
1000
MTEXTBEGIN
1070
    73
1070
     1
1070
    44
1040
1.0
1070
    74
1070
     0
1000
MTEXTEND
  0
MTEXT
  5
E50
330
E40
100
AcDbEntity
  8
0
100
AcDbMText
 10
4.545241165670137
 20
0.4494348312800014
 30
0.0
 40
0.09
 41
1.303856884813882
 71
     1
 72
     5
  1
{\LDrawing Number}:
  7
c3controls
 73
     1
 44
1.0
1001
ACAD
1000
MTEXTBEGIN
1070
    73
1070
     1
1070
    44
1040
1.0
1070
    74
1070
     0
1000
MTEXTEND
  0
LINE
  5
E51
330
E40
100
AcDbEntity
  8
0
100
AcDbLine
 10
0.0000000079783327
 20
2.624999994609325
 30
0.0
 11
0.0000000079783327
 21
-0.0000000053906746
 31
0.0
  0
LINE
  5
E52
330
E40
100
AcDbEntity
  8
0
100
AcDbLine
 10
0.0000000079783327
 20
2.624999994609325
 30
0.0
 11
7.000000007978334
 21
2.624999994609334
 31
0.0
  0
LINE
  5
E53
330
E40
100
AcDbEntity
  8
0
100
AcDbLine
 10
7.000000007978334
 20
2.624999994609334
 30
0.0
 11
7.000000007978334
 21
-0.0000000053906746
 31
0.0
  0
LINE
  5
E54
330
E40
100
AcDbEntity
  8
0
100
AcDbLine
 10
2.000000007978331
 20
2.624999994609325
 30
0.0
 11
2.000000007978332
 21
-0.0000000053906746
 31
0.0
  0
LINE
  5
E55
330
E40
100
AcDbEntity
  8
0
100
AcDbLine
 10
4.50000000797833
 20
0.4999999946093255
 30
0.0
 11
4.500000007978332
 21
-0.0000000053906746
 31
0.0
  0
LINE
  5
E56
330
E40
100
AcDbEntity
  8
0
100
AcDbLine
 10
2.000000007978332
 20
0.2499999946093254
 30
0.0
 11
4.500000007978332
 21
0.2499999946093254
 31
0.0
  0
LINE
  5
E57
330
E40
100
AcDbEntity
  8
0
100
AcDbLine
 10
3.500000007978332
 20
0.2499999946093254
 30
0.0
 11
3.500000007978332
 21
-0.0000000053906746
 31
0.0
  0
IMAGE
  5
E58
330
E40
100
AcDbEntity
  8
0
 92
      140
310
8C00000001000000840000000600000005000000C8C6F2A9B0F50340C04B92B41B3DFB3F0000000000000000C8C6F2A9B0F503406A7D9092565E044000000000000000007AC8D7F8AAEF19406A7D9092565E044000000000000000007AC8D7F8AAEF1940C04B92B41B3DFB3F0000000000000000C8C6F2A9B0F50340C04B92
310
B41B3DFB3F0000000000000000
100
AcDbRasterImage
 90
        0
 10
2.494965865823221
 20
1.702419000012682
 30
0.0
 11
0.0104153649562928
 21
0.0
 31
0.0
 12
0.0
 22
0.0104153649562928
 32
0.0
 13
383.0
 23
81.0
340
F02
 70
     7
280
     0
281
    50
282
    50
283
     0
360
E59
 71
     1
 91
        2
 14
-0.5
 24
-0.5
 14
382.5
 24
80.5
  0
ATTDEF
  5
E5A
330
E40
100
AcDbEntity
  8
0
100
AcDbText
 10
2.651062769271845
 20
0.3158430657325937
 30
0.0
 40
0.125
  1
Your Name
  7
c3controls
 11
2.651062769271845
 21
0.3783430657325937
 31
0.0
100
AcDbAttributeDefinition
  3
Type Name:
  2
NAME
 70
     0
 74
     2
  0
ATTDEF
  5
E5B
330
E40
100
AcDbEntity
  8
0
100
AcDbText
 10
2.0456293532187
 20
1.16659293196254
 30
0.0
 40
0.125
  1
Description
  7
c3controls
100
AcDbAttributeDefinition
  3
Type Description Here:
  2
DESCRIPTION
 70
     0
  0
ATTDEF
  5
E5C
330
E40
100
AcDbEntity
  8
0
100
AcDbText
 10
4.843116636280641
 20
0.0394471703968549
 30
0.0
 40
0.25
  1
XX#XXXXX
  7
c3controls
 72
     1
 11
5.75554842345663
 21
0.1644471703968549
 31
0.0
100
AcDbAttributeDefinition
  3
Drawing Number
  2
XX#XXXXX
 70
     0
 74
     2
  0
ATTDEF
  5
E5D
330
E40
100
AcDbEntity
  8
0
100
AcDbText
 10
4.038931983541327
 20
0.0657556150057985
 30
0.0
 40
0.125
  1
1:1
  7
c3controls
 72
     1
 11
4.160308177265747
 21
0.1282556150057985
 31
0.0
100
AcDbAttributeDefinition
  3
Scale
  2
1:1
 70
     0
 74
     2
  0
ATTDEF
  5
E5E
330
E40
100
AcDbEntity
  8
0
100
AcDbText
 10
2.311122557773952
 20
0.0631452242737112
 30
0.0
 40
0.125
  1
MM-DD-YYYY
  7
c3controls
 72
     1
 11
2.873793089833979
 21
0.1256452242737112
 31
0.0
100
AcDbAttributeDefinition
  3
Date
  2
DATE
 70
     0
 74
     2
  0
ATTDEF
  5
E5F
330
E40
100
AcDbEntity
  8
0
100
AcDbText
 10
0.0000000079783368
 20
0.0
 30
0.0
 40
0.125
  1

  7
c3controls
100
AcDbAttributeDefinition
  3
Outline Drawing (Y or N)?
  2
OUTLINE_DRAWING
 70
     1
  0
ENDBLK
  5
E60
330
E40
100
AcDbEntity
  8
0
100
AcDbBlockEnd
  0
BLOCK
  5
EFE
330
E6D
100
AcDbEntity
  8
0
100
AcDbBlockBegin
  2
STD50009-D-SIZE
 70
     0
 10
0.0
 20
0.0
 30
0.0
  3
STD50009-D-SIZE
  1

  0
LINE
  5
E6F
330
E6D
100
AcDbEntity
  8
10
100
AcDbLine
 10
0.5000000293787004
 20
21.49999997647868
 30
0.0
 11
33.50000002937868
 21
21.49999997647868
 31
0.0
  0
LINE
  5
E70
330
E6D
100
AcDbEntity
  8
10
100
AcDbLine
 10
0.5000000293786862
 20
0.4999999764786774
 30
0.0
 11
33.50000002937868
 21
0.4999999764786569
 31
0.0
  0
LINE
  5
E71
330
E6D
100
AcDbEntity
  8
10
100
AcDbLine
 10
0.5000000293787004
 20
21.49999997647868
 30
0.0
 11
0.5000000293786862
 21
0.4999999764786783
 31
0.0
  0
CIRCLE
  5
E72
330
E6D
100
AcDbEntity
  8
10
 62
     1
100
AcDbCircle
 10
0.5000000293786791
 20
0.4999999764786765
 30
0.0
 40
0.283176754747501
  0
LINE
  5
E73
330
E6D
100
AcDbEntity
  8
10
100
AcDbLine
 10
0.0000000293786862
 20
-0.0000000235213236
 30
0.0
 11
0.5000000293786862
 21
-0.0000000235213244
 31
0.0
  0
LINE
  5
E74
330
E6D
100
AcDbEntity
  8
10
100
AcDbLine
 10
0.0000000293786933
 20
0.4999999764786765
 30
0.0
 11
0.0000000293786862
 21
-0.0000000235213236
 31
0.0
  0
LINE
  5
E75
330
E6D
100
AcDbEntity
  8
10
100
AcDbLine
 10
0.0000000293786862
 20
21.99999997647868
 30
0.0
 11
0.5000000293786862
 21
21.99999997647868
 31
0.0
  0
LINE
  5
E76
330
E6D
100
AcDbEntity
  8
10
100
AcDbLine
 10
0.0000000293786862
 20
21.99999997647868
 30
0.0
 11
0.0000000293786933
 21
21.49999997647868
 31
0.0
  0
LINE
  5
E77
330
E6D
100
AcDbEntity
  8
10
100
AcDbLine
 10
33.50000002937868
 20
21.49999997647868
 30
0.0
 11
33.50000002937868
 21
0.4999999764786569
 31
0.0
  0
LINE
  5
E78
330
E6D
100
AcDbEntity
  8
10
100
AcDbLine
 10
37.50000002937868
 20
-0.0000000235213209
 30
0.0
 11
38.00000002937869
 21
-0.0000000235213209
 31
0.0
  0
LINE
  5
E79
330
E6D
100
AcDbEntity
  8
10
100
AcDbLine
 10
38.00000002937867
 20
0.4999999764786783
 30
0.0
 11
38.00000002937869
 21
-0.0000000235213209
 31
0.0
  0
LINE
  5
E7A
330
E6D
100
AcDbEntity
  8
10
100
AcDbLine
 10
37.50000002937868
 20
21.99999997647868
 30
0.0
 11
38.00000002937871
 21
21.99999997647868
 31
0.0
  0
LINE
  5
E7B
330
E6D
100
AcDbEntity
  8
10
100
AcDbLine
 10
38.00000002937869
 20
21.99999997647868
 30
0.0
 11
38.00000002937867
 21
21.49999997647868
 31
0.0
  0
LINE
  5
E7C
330
E6D
100
AcDbEntity
  8
L-REV
100
AcDbLine
 10
34.00000002937867
 20
0.4999999764786552
 30
0.0
 11
34.0000000293787
 21
21.49999997647867
 31
0.0
  0
LINE
  5
E7D
330
E6D
100
AcDbEntity
  8
L-REV
100
AcDbLine
 10
34.50000002937867
 20
0.4999999764786552
 30
0.0
 11
34.5000000293787
 21
21.49999997647867
 31
0.0
  0
LINE
  5
E7E
330
E6D
100
AcDbEntity
  8
L-REV
100
AcDbLine
 10
37.00000002937867
 20
0.4999999764786552
 30
0.0
 11
37.0000000293787
 21
21.49999997647867
 31
0.0
  0
LINE
  5
E7F
330
E6D
100
AcDbEntity
  8
L-REV
100
AcDbLine
 10
37.50000002937867
 20
0.4999999764786552
 30
0.0
 11
37.50000002937869
 21
21.49999997647867
 31
0.0
  0
LINE
  5
E80
330
E6D
100
AcDbEntity
  8
L-REV
100
AcDbLine
 10
33.50000002937867
 20
0.7499999764786552
 30
0.0
 11
37.50000002937867
 21
0.7499999764786481
 31
0.0
  0
LINE
  5
E81
330
E6D
100
AcDbEntity
  8
L-REV
100
AcDbLine
 10
33.50000002937867
 20
1.249999976478655
 30
0.0
 11
37.50000002937867
 21
1.249999976478648
 31
0.0
  0
LINE
  5
E82
330
E6D
100
AcDbEntity
  8
L-REV
100
AcDbLine
 10
33.50000002937867
 20
1.749999976478655
 30
0.0
 11
37.50000002937867
 21
1.749999976478648
 31
0.0
  0
LINE
  5
E83
330
E6D
100
AcDbEntity
  8
L-REV
100
AcDbLine
 10
33.50000002937867
 20
2.249999976478655
 30
0.0
 11
37.50000002937867
 21
2.249999976478648
 31
0.0
  0
LINE
  5
E84
330
E6D
100
AcDbEntity
  8
L-REV
100
AcDbLine
 10
33.50000002937867
 20
2.749999976478648
 30
0.0
 11
37.50000002937867
 21
2.749999976478648
 31
0.0
  0
LINE
  5
E85
330
E6D
100
AcDbEntity
  8
L-REV
100
AcDbLine
 10
33.50000002937867
 20
3.249999976478648
 30
0.0
 11
37.50000002937868
 21
3.249999976478648
 31
0.0
  0
LINE
  5
E86
330
E6D
100
AcDbEntity
  8
L-REV
100
AcDbLine
 10
33.50000002937867
 20
3.749999976478648
 30
0.0
 11
37.50000002937868
 21
3.749999976478648
 31
0.0
  0
LINE
  5
E87
330
E6D
100
AcDbEntity
  8
L-REV
100
AcDbLine
 10
33.50000002937867
 20
4.249999976478648
 30
0.0
 11
37.50000002937868
 21
4.249999976478648
 31
0.0
  0
LINE
  5
E88
330
E6D
100
AcDbEntity
  8
L-REV
100
AcDbLine
 10
33.50000002937867
 20
4.749999976478648
 30
0.0
 11
37.50000002937868
 21
4.749999976478648
 31
0.0
  0
LINE
  5
E89
330
E6D
100
AcDbEntity
  8
L-REV
100
AcDbLine
 10
33.50000002937867
 20
5.249999976478648
 30
0.0
 11
37.50000002937868
 21
5.249999976478648
 31
0.0
  0
LINE
  5
E8A
330
E6D
100
AcDbEntity
  8
L-REV
100
AcDbLine
 10
33.50000002937867
 20
5.749999976478648
 30
0.0
 11
37.50000002937868
 21
5.749999976478648
 31
0.0
  0
LINE
  5
E8B
330
E6D
100
AcDbEntity
  8
L-REV
100
AcDbLine
 10
33.50000002937867
 20
0.9999999764786551
 30
0.0
 11
37.50000002937867
 21
0.999999976478648
 31
0.0
  0
LINE
  5
E8C
330
E6D
100
AcDbEntity
  8
L-REV
100
AcDbLine
 10
33.50000002937867
 20
1.499999976478655
 30
0.0
 11
37.50000002937867
 21
1.499999976478648
 31
0.0
  0
LINE
  5
E8D
330
E6D
100
AcDbEntity
  8
L-REV
100
AcDbLine
 10
33.50000002937867
 20
1.999999976478655
 30
0.0
 11
37.50000002937867
 21
1.999999976478648
 31
0.0
  0
LINE
  5
E8E
330
E6D
100
AcDbEntity
  8
L-REV
100
AcDbLine
 10
33.50000002937867
 20
2.499999976478655
 30
0.0
 11
37.50000002937867
 21
2.499999976478648
 31
0.0
  0
LINE
  5
E8F
330
E6D
100
AcDbEntity
  8
L-REV
100
AcDbLine
 10
33.50000002937867
 20
2.999999976478648
 30
0.0
 11
37.50000002937867
 21
2.999999976478648
 31
0.0
  0
LINE
  5
E90
330
E6D
100
AcDbEntity
  8
L-REV
100
AcDbLine
 10
33.50000002937867
 20
3.499999976478648
 30
0.0
 11
37.50000002937868
 21
3.499999976478648
 31
0.0
  0
LINE
  5
E91
330
E6D
100
AcDbEntity
  8
L-REV
100
AcDbLine
 10
33.50000002937867
 20
3.999999976478648
 30
0.0
 11
37.50000002937868
 21
3.999999976478648
 31
0.0
  0
LINE
  5
E92
330
E6D
100
AcDbEntity
  8
L-REV
100
AcDbLine
 10
33.50000002937867
 20
4.499999976478648
 30
0.0
 11
37.50000002937868
 21
4.499999976478648
 31
0.0
  0
LINE
  5
E93
330
E6D
100
AcDbEntity
  8
L-REV
100
AcDbLine
 10
33.50000002937867
 20
4.999999976478648
 30
0.0
 11
37.50000002937868
 21
4.999999976478648
 31
0.0
  0
LINE
  5
E94
330
E6D
100
AcDbEntity
  8
L-REV
100
AcDbLine
 10
33.50000002937867
 20
5.499999976478648
 30
0.0
 11
37.50000002937868
 21
5.499999976478648
 31
0.0
  0
LINE
  5
E95
330
E6D
100
AcDbEntity
  8
L-REV
100
AcDbLine
 10
37.50000002937867
 20
0.4999999764786552
 30
0.0
 11
33.50000002937868
 21
0.4999999764786552
 31
0.0
  0
MTEXT
  5
E96
330
E6D
100
AcDbEntity
  8
L-REV
100
AcDbMText
 10
33.59568526472396
 20
0.6655795213986622
 30
0.0
 40
0.09
 41
0.0
 71
     1
 72
     5
  1
REV#
 73
     1
 44
1.0
1001
ACAD
1000
MTEXTBEGIN
1070
    73
1070
     1
1070
    44
1040
1.0
1070
    74
1070
     0
1000
MTEXTEND
  0
MTEXT
  5
E97
330
E6D
100
AcDbEntity
  8
L-REV
100
AcDbMText
 10
34.17448481894672
 20
0.6655795213986622
 30
0.0
 40
0.09
 41
0.0
 71
     1
 72
     5
  1
BY
 73
     1
 44
1.0
1001
ACAD
1000
MTEXTBEGIN
1070
    73
1070
     1
1070
    44
1040
1.0
1070
    74
1070
     0
1000
MTEXTEND
  0
MTEXT
  5
E98
330
E6D
100
AcDbEntity
  8
L-REV
100
AcDbMText
 10
35.3041830125825
 20
0.675128447922063
 30
0.0
 40
0.09
 41
0.0
 71
     1
 72
     5
  1
DESCRIPTION
 73
     1
 44
1.0
1001
ACAD
1000
MTEXTBEGIN
1070
    73
1070
     1
1070
    44
1040
1.0
1070
    74
1070
     0
1000
MTEXTEND
  0
MTEXT
  5
E99
330
E6D
100
AcDbEntity
  8
L-REV
100
AcDbMText
 10
37.09900131259495
 20
0.6655795213986587
 30
0.0
 40
0.09
 41
0.0
 71
     1
 72
     5
  1
DATE
 73
     1
 44
1.0
1001
ACAD
1000
MTEXTBEGIN
1070
    73
1070
     1
1070
    44
1040
1.0
1070
    74
1070
     0
1000
MTEXTEND
  0
LINE
  5
E9A
330
E6D
100
AcDbEntity
  8
L-REV
100
AcDbLine
 10
33.50000002937868
 20
11.24999997647865
 30
0.0
 11
37.50000002937868
 21
11.24999997647865
 31
0.0
  0
LINE
  5
E9B
330
E6D
100
AcDbEntity
  8
L-REV
100
AcDbLine
 10
33.50000002937868
 20
11.49999997647865
 30
0.0
 11
37.50000002937869
 21
11.49999997647865
 31
0.0
  0
LINE
  5
E9C
330
E6D
100
AcDbEntity
  8
L-REV
100
AcDbLine
 10
33.50000002937868
 20
9.999999976478655
 30
0.0
 11
37.50000002937869
 21
9.999999976478655
 31
0.0
  0
LINE
  5
E9D
330
E6D
100
AcDbEntity
  8
L-REV
100
AcDbLine
 10
33.50000002937868
 20
10.49999997647865
 30
0.0
 11
37.50000002937869
 21
10.49999997647865
 31
0.0
  0
LINE
  5
E9E
330
E6D
100
AcDbEntity
  8
L-REV
100
AcDbLine
 10
33.50000002937867
 20
10.99999997647865
 30
0.0
 11
37.50000002937868
 21
10.99999997647865
 31
0.0
  0
LINE
  5
E9F
330
E6D
100
AcDbEntity
  8
L-REV
100
AcDbLine
 10
33.50000002937868
 20
9.749999976478655
 30
0.0
 11
37.50000002937869
 21
9.749999976478655
 31
0.0
  0
LINE
  5
EA0
330
E6D
100
AcDbEntity
  8
L-REV
100
AcDbLine
 10
33.50000002937868
 20
10.24999997647865
 30
0.0
 11
37.50000002937869
 21
10.24999997647865
 31
0.0
  0
LINE
  5
EA1
330
E6D
100
AcDbEntity
  8
L-REV
100
AcDbLine
 10
33.50000002937868
 20
10.74999997647865
 30
0.0
 11
37.50000002937868
 21
10.74999997647865
 31
0.0
  0
LINE
  5
EA2
330
E6D
100
AcDbEntity
  8
L-REV
100
AcDbLine
 10
33.50000002937867
 20
6.249999976478648
 30
0.0
 11
37.50000002937868
 21
6.249999976478648
 31
0.0
  0
LINE
  5
EA3
330
E6D
100
AcDbEntity
  8
L-REV
100
AcDbLine
 10
33.50000002937867
 20
6.749999976478648
 30
0.0
 11
37.50000002937868
 21
6.749999976478648
 31
0.0
  0
LINE
  5
EA4
330
E6D
100
AcDbEntity
  8
L-REV
100
AcDbLine
 10
33.50000002937867
 20
7.249999976478648
 30
0.0
 11
37.50000002937868
 21
7.249999976478648
 31
0.0
  0
LINE
  5
EA5
330
E6D
100
AcDbEntity
  8
L-REV
100
AcDbLine
 10
33.50000002937867
 20
7.749999976478648
 30
0.0
 11
37.50000002937868
 21
7.749999976478648
 31
0.0
  0
LINE
  5
EA6
330
E6D
100
AcDbEntity
  8
L-REV
100
AcDbLine
 10
33.50000002937868
 20
8.249999976478648
 30
0.0
 11
37.50000002937868
 21
8.249999976478648
 31
0.0
  0
LINE
  5
EA7
330
E6D
100
AcDbEntity
  8
L-REV
100
AcDbLine
 10
33.50000002937868
 20
8.749999976478648
 30
0.0
 11
37.50000002937869
 21
8.749999976478648
 31
0.0
  0
LINE
  5
EA8
330
E6D
100
AcDbEntity
  8
L-REV
100
AcDbLine
 10
33.50000002937868
 20
9.249999976478648
 30
0.0
 11
37.50000002937869
 21
9.249999976478648
 31
0.0
  0
LINE
  5
EA9
330
E6D
100
AcDbEntity
  8
L-REV
100
AcDbLine
 10
33.50000002937867
 20
5.999999976478648
 30
0.0
 11
37.50000002937868
 21
5.999999976478648
 31
0.0
  0
LINE
  5
EAA
330
E6D
100
AcDbEntity
  8
L-REV
100
AcDbLine
 10
33.50000002937867
 20
6.499999976478648
 30
0.0
 11
37.50000002937868
 21
6.499999976478648
 31
0.0
  0
LINE
  5
EAB
330
E6D
100
AcDbEntity
  8
L-REV
100
AcDbLine
 10
33.50000002937867
 20
6.999999976478648
 30
0.0
 11
37.50000002937868
 21
6.999999976478648
 31
0.0
  0
LINE
  5
EAC
330
E6D
100
AcDbEntity
  8
L-REV
100
AcDbLine
 10
33.50000002937867
 20
7.499999976478648
 30
0.0
 11
37.50000002937868
 21
7.499999976478648
 31
0.0
  0
LINE
  5
EAD
330
E6D
100
AcDbEntity
  8
L-REV
100
AcDbLine
 10
33.50000002937867
 20
7.999999976478648
 30
0.0
 11
37.50000002937868
 21
7.999999976478648
 31
0.0
  0
LINE
  5
EAE
330
E6D
100
AcDbEntity
  8
L-REV
100
AcDbLine
 10
33.50000002937868
 20
8.499999976478648
 30
0.0
 11
37.50000002937869
 21
8.499999976478648
 31
0.0
  0
LINE
  5
EAF
330
E6D
100
AcDbEntity
  8
L-REV
100
AcDbLine
 10
33.50000002937868
 20
8.999999976478648
 30
0.0
 11
37.50000002937869
 21
8.999999976478648
 31
0.0
  0
LINE
  5
EB0
330
E6D
100
AcDbEntity
  8
L-REV
100
AcDbLine
 10
37.50000002937868
 20
9.499999976478655
 30
0.0
 11
33.50000002937868
 21
9.49999997647864
 31
0.0
  0
LINE
  5
EB1
330
E6D
100
AcDbEntity
  8
L-REV
100
AcDbLine
 10
33.50000002937867
 20
18.74999997647866
 30
0.0
 11
37.50000002937868
 21
18.74999997647866
 31
0.0
  0
LINE
  5
EB2
330
E6D
100
AcDbEntity
  8
L-REV
100
AcDbLine
 10
33.50000002937867
 20
18.24999997647866
 30
0.0
 11
37.50000002937868
 21
18.24999997647866
 31
0.0
  0
LINE
  5
EB3
330
E6D
100
AcDbEntity
  8
L-REV
100
AcDbLine
 10
33.50000002937867
 20
17.74999997647866
 30
0.0
 11
37.50000002937868
 21
17.74999997647866
 31
0.0
  0
LINE
  5
EB4
330
E6D
100
AcDbEntity
  8
L-REV
100
AcDbLine
 10
33.50000002937867
 20
17.24999997647866
 30
0.0
 11
37.50000002937868
 21
17.24999997647866
 31
0.0
  0
LINE
  5
EB5
330
E6D
100
AcDbEntity
  8
L-REV
100
AcDbLine
 10
33.50000002937867
 20
18.49999997647866
 30
0.0
 11
37.50000002937868
 21
18.49999997647866
 31
0.0
  0
LINE
  5
EB6
330
E6D
100
AcDbEntity
  8
L-REV
100
AcDbLine
 10
33.50000002937867
 20
17.99999997647866
 30
0.0
 11
37.50000002937868
 21
17.99999997647866
 31
0.0
  0
LINE
  5
EB7
330
E6D
100
AcDbEntity
  8
L-REV
100
AcDbLine
 10
33.50000002937867
 20
17.49999997647866
 30
0.0
 11
37.50000002937868
 21
17.49999997647866
 31
0.0
  0
LINE
  5
EB8
330
E6D
100
AcDbEntity
  8
L-REV
100
AcDbLine
 10
33.50000002937868
 20
12.99999997647865
 30
0.0
 11
37.50000002937869
 21
12.99999997647865
 31
0.0
  0
LINE
  5
EB9
330
E6D
100
AcDbEntity
  8
L-REV
100
AcDbLine
 10
33.50000002937868
 20
12.49999997647865
 30
0.0
 11
37.50000002937869
 21
12.49999997647865
 31
0.0
  0
LINE
  5
EBA
330
E6D
100
AcDbEntity
  8
L-REV
100
AcDbLine
 10
33.50000002937867
 20
11.99999997647865
 30
0.0
 11
37.50000002937868
 21
11.99999997647865
 31
0.0
  0
LINE
  5
EBB
330
E6D
100
AcDbEntity
  8
L-REV
100
AcDbLine
 10
33.50000002937868
 20
13.24999997647865
 30
0.0
 11
37.50000002937869
 21
13.24999997647865
 31
0.0
  0
LINE
  5
EBC
330
E6D
100
AcDbEntity
  8
L-REV
100
AcDbLine
 10
33.50000002937868
 20
12.74999997647865
 30
0.0
 11
37.50000002937869
 21
12.74999997647865
 31
0.0
  0
LINE
  5
EBD
330
E6D
100
AcDbEntity
  8
L-REV
100
AcDbLine
 10
33.50000002937868
 20
12.24999997647865
 30
0.0
 11
37.50000002937868
 21
12.24999997647865
 31
0.0
  0
LINE
  5
EBE
330
E6D
100
AcDbEntity
  8
L-REV
100
AcDbLine
 10
33.50000002937867
 20
16.74999997647866
 30
0.0
 11
37.50000002937868
 21
16.74999997647866
 31
0.0
  0
LINE
  5
EBF
330
E6D
100
AcDbEntity
  8
L-REV
100
AcDbLine
 10
33.50000002937867
 20
16.24999997647866
 30
0.0
 11
37.50000002937868
 21
16.24999997647866
 31
0.0
  0
LINE
  5
EC0
330
E6D
100
AcDbEntity
  8
L-REV
100
AcDbLine
 10
33.50000002937867
 20
15.74999997647866
 30
0.0
 11
37.50000002937868
 21
15.74999997647866
 31
0.0
  0
LINE
  5
EC1
330
E6D
100
AcDbEntity
  8
L-REV
100
AcDbLine
 10
33.50000002937867
 20
15.24999997647866
 30
0.0
 11
37.50000002937868
 21
15.24999997647866
 31
0.0
  0
LINE
  5
EC2
330
E6D
100
AcDbEntity
  8
L-REV
100
AcDbLine
 10
33.50000002937868
 20
14.74999997647866
 30
0.0
 11
37.50000002937868
 21
14.74999997647866
 31
0.0
  0
LINE
  5
EC3
330
E6D
100
AcDbEntity
  8
L-REV
100
AcDbLine
 10
33.50000002937868
 20
14.24999997647866
 30
0.0
 11
37.50000002937869
 21
14.24999997647866
 31
0.0
  0
LINE
  5
EC4
330
E6D
100
AcDbEntity
  8
L-REV
100
AcDbLine
 10
33.50000002937868
 20
13.74999997647866
 30
0.0
 11
37.50000002937869
 21
13.74999997647866
 31
0.0
  0
LINE
  5
EC5
330
E6D
100
AcDbEntity
  8
L-REV
100
AcDbLine
 10
33.50000002937867
 20
16.99999997647866
 30
0.0
 11
37.50000002937868
 21
16.99999997647866
 31
0.0
  0
LINE
  5
EC6
330
E6D
100
AcDbEntity
  8
L-REV
100
AcDbLine
 10
33.50000002937867
 20
16.49999997647866
 30
0.0
 11
37.50000002937868
 21
16.49999997647866
 31
0.0
  0
LINE
  5
EC7
330
E6D
100
AcDbEntity
  8
L-REV
100
AcDbLine
 10
33.50000002937867
 20
15.99999997647866
 30
0.0
 11
37.50000002937868
 21
15.99999997647866
 31
0.0
  0
LINE
  5
EC8
330
E6D
100
AcDbEntity
  8
L-REV
100
AcDbLine
 10
33.50000002937867
 20
15.49999997647866
 30
0.0
 11
37.50000002937868
 21
15.49999997647866
 31
0.0
  0
LINE
  5
EC9
330
E6D
100
AcDbEntity
  8
L-REV
100
AcDbLine
 10
33.50000002937867
 20
14.99999997647866
 30
0.0
 11
37.50000002937868
 21
14.99999997647866
 31
0.0
  0
LINE
  5
ECA
330
E6D
100
AcDbEntity
  8
L-REV
100
AcDbLine
 10
33.50000002937868
 20
14.49999997647866
 30
0.0
 11
37.50000002937869
 21
14.49999997647866
 31
0.0
  0
LINE
  5
ECB
330
E6D
100
AcDbEntity
  8
L-REV
100
AcDbLine
 10
33.50000002937868
 20
13.99999997647866
 30
0.0
 11
37.50000002937869
 21
13.99999997647866
 31
0.0
  0
LINE
  5
ECC
330
E6D
100
AcDbEntity
  8
L-REV
100
AcDbLine
 10
37.50000002937868
 20
13.49999997647865
 30
0.0
 11
33.50000002937868
 21
13.49999997647867
 31
0.0
  0
LINE
  5
ECD
330
E6D
100
AcDbEntity
  8
L-REV
100
AcDbLine
 10
33.50000002937867
 20
19.74999997647866
 30
0.0
 11
37.50000002937868
 21
19.74999997647866
 31
0.0
  0
LINE
  5
ECE
330
E6D
100
AcDbEntity
  8
L-REV
100
AcDbLine
 10
33.50000002937867
 20
19.24999997647866
 30
0.0
 11
37.50000002937868
 21
19.24999997647866
 31
0.0
  0
LINE
  5
ECF
330
E6D
100
AcDbEntity
  8
L-REV
100
AcDbLine
 10
33.50000002937867
 20
19.49999997647866
 30
0.0
 11
37.50000002937868
 21
19.49999997647866
 31
0.0
  0
LINE
  5
ED0
330
E6D
100
AcDbEntity
  8
L-REV
100
AcDbLine
 10
33.50000002937867
 20
18.99999997647866
 30
0.0
 11
37.50000002937868
 21
18.99999997647866
 31
0.0
  0
LINE
  5
ED1
330
E6D
100
AcDbEntity
  8
L-REV
100
AcDbLine
 10
33.50000002937868
 20
11.74999997647865
 30
0.0
 11
37.50000002937868
 21
11.74999997647865
 31
0.0
  0
LINE
  5
ED2
330
E6D
100
AcDbEntity
  8
L-REV
100
AcDbLine
 10
33.50000002937867
 20
21.49999997647866
 30
0.0
 11
37.50000002937868
 21
21.49999997647866
 31
0.0
  0
LINE
  5
ED3
330
E6D
100
AcDbEntity
  8
L-REV
100
AcDbLine
 10
33.50000002937867
 20
19.99999997647866
 30
0.0
 11
37.50000002937868
 21
19.99999997647866
 31
0.0
  0
LINE
  5
ED4
330
E6D
100
AcDbEntity
  8
L-REV
100
AcDbLine
 10
33.50000002937867
 20
20.49999997647866
 30
0.0
 11
37.50000002937868
 21
20.49999997647866
 31
0.0
  0
LINE
  5
ED5
330
E6D
100
AcDbEntity
  8
L-REV
100
AcDbLine
 10
33.50000002937867
 20
20.74999997647866
 30
0.0
 11
37.50000002937868
 21
20.74999997647866
 31
0.0
  0
LINE
  5
ED6
330
E6D
100
AcDbEntity
  8
L-REV
100
AcDbLine
 10
33.50000002937867
 20
21.24999997647866
 30
0.0
 11
37.50000002937868
 21
21.24999997647866
 31
0.0
  0
LINE
  5
ED7
330
E6D
100
AcDbEntity
  8
L-REV
100
AcDbLine
 10
33.50000002937867
 20
20.99999997647866
 30
0.0
 11
37.50000002937868
 21
20.99999997647866
 31
0.0
  0
LINE
  5
ED8
330
E6D
100
AcDbEntity
  8
L-REV
100
AcDbLine
 10
33.50000002937867
 20
20.24999997647866
 30
0.0
 11
37.50000002937868
 21
20.24999997647866
 31
0.0
  0
MTEXT
  5
ED9
330
E6D
100
AcDbEntity
  8
10
100
AcDbMText
 10
24.36718679875366
 20
21.35156246460367
 30
0.0000000000000001
 40
0.1562500125
 41
0.0
 71
     4
 72
     5
  1
 XXXXX
  7
ACANSTS
 73
     1
 44
1.0
1001
ACAD
1000
MTEXTBEGIN
1070
    73
1070
     1
1070
    44
1040
1.0
1070
    74
1070
     0
1000
MTEXTEND
  0
MTEXT
  5
EDA
330
E6D
100
AcDbEntity
  8
10
100
AcDbMText
 10
24.36718679875366
 20
21.01971719996083
 30
0.0000000000000001
 40
0.1562500125
 41
3.812500305
 71
     4
 72
     5
  1
 XXXXX
  7
ACANSTS
 73
     1
 44
1.0
1001
ACAD
1000
MTEXTBEGIN
1070
    73
1070
     1
1070
    44
1040
1.0
1070
    74
1070
     0
1000
MTEXTEND
  0
LINE
  5
EDB
330
E6D
100
AcDbEntity
  8
10
100
AcDbLine
 10
33.50000002937867
 20
20.17261891790725
 30
0.0
 11
23.78013318036081
 21
20.17261891790725
 31
0.0
  0
LINE
  5
EDC
330
E6D
100
AcDbEntity
  8
10
100
AcDbLine
 10
23.78013318036081
 20
20.5044641825501
 30
0.0
 11
33.50000002937867
 21
20.5044641825501
 31
0.0
  0
LINE
  5
EDD
330
E6D
100
AcDbEntity
  8
10
100
AcDbLine
 10
23.78013318036081
 20
20.83630944719296
 30
0.0
 11
33.50000002937867
 21
20.83630944719296
 31
0.0
  0
LINE
  5
EDE
330
E6D
100
AcDbEntity
  8
10
100
AcDbLine
 10
23.78013318036081
 20
21.49999997647868
 30
0.0
 11
33.50000002937867
 21
21.49999997647868
 31
0.0
  0
LINE
  5
EDF
330
E6D
100
AcDbEntity
  8
10
100
AcDbLine
 10
23.78013318036081
 20
21.16815471183582
 30
0.0
 11
33.50000002937867
 21
21.16815471183582
 31
0.0
  0
LINE
  5
EE0
330
E6D
100
AcDbEntity
  8
10
100
AcDbLine
 10
24.32031179500366
 20
21.49999997647868
 30
0.0
 11
24.32031179500366
 21
21.16815471183582
 31
0.0
  0
MTEXT
  5
EE1
330
E6D
100
AcDbEntity
  8
10
100
AcDbMText
 10
24.05022248768224
 20
21.42968747085368
 30
0.0000000000000001
 40
0.1562500125
 41
0.446469943125
 71
     2
 72
     5
  1
H02
  7
ACANSTS
 73
     1
 44
1.0
1001
ACAD
1000
MTEXTBEGIN
1070
    73
1070
     1
1070
    44
1040
1.0
1070
    74
1070
     0
1000
MTEXTEND
  0
LINE
  5
EE2
330
E6D
100
AcDbEntity
  8
10
100
AcDbLine
 10
23.78013318036081
 20
20.17261891790725
 30
0.0
 11
23.78013318036081
 21
21.49999997647868
 31
0.0
  0
MTEXT
  5
EE3
330
E6D
100
AcDbEntity
  8
10
100
AcDbMText
 10
24.05022248768224
 20
20.76599694156796
 30
0.0000000000000001
 40
0.1562500125
 41
0.4464286071428573
 71
     2
 72
     5
  1
Item
  7
ACANSTS
 73
     1
 44
1.0
1001
ACAD
1000
MTEXTBEGIN
1070
    73
1070
     1
1070
    44
1040
1.0
1070
    74
1070
     0
1000
MTEXTEND
  0
MTEXT
  5
EE4
330
E6D
100
AcDbEntity
  8
10
100
AcDbMText
 10
24.05022248768224
 20
21.09784220621082
 30
0.0000000000000001
 40
0.1562500125
 41
0.446469943125
 71
     2
 72
     5
  1
H01
  7
ACANSTS
 73
     1
 44
1.0
1001
ACAD
1000
MTEXTBEGIN
1070
    73
1070
     1
1070
    44
1040
1.0
1070
    74
1070
     0
1000
MTEXTEND
  0
LINE
  5
EE5
330
E6D
100
AcDbEntity
  8
10
100
AcDbLine
 10
24.32031179500366
 20
21.16815471183582
 30
0.0
 11
24.32031179500366
 21
20.83630944719296
 31
0.0
  0
LINE
  5
EE6
330
E6D
100
AcDbEntity
  8
10
100
AcDbLine
 10
24.32031179500366
 20
20.83630944719296
 30
0.0
 11
24.32031179500366
 21
20.5044641825501
 31
0.0
  0
MTEXT
  5
EE7
330
E6D
100
AcDbEntity
  8
10
100
AcDbMText
 10
32.58344652180156
 20
21.42968747085368
 30
0.0000000000000001
 40
0.1562500125
 41
1.444010532187499
 71
     2
 72
     5
  1
RED
  7
ACANSTS
 73
     1
 44
1.0
1001
ACAD
1000
MTEXTBEGIN
1070
    73
1070
     1
1070
    44
1040
1.0
1070
    74
1070
     0
1000
MTEXTEND
  0
MTEXT
  5
EE8
330
E6D
100
AcDbEntity
  8
10
100
AcDbMText
 10
32.58344652180156
 20
20.76599694156796
 30
0.0000000000000001
 40
0.1562500125
 41
1.444010532187499
 71
     2
 72
     5
  1
Color
  7
ACANSTS
 73
     1
 44
1.0
1001
ACAD
1000
MTEXTBEGIN
1070
    73
1070
     1
1070
    44
1040
1.0
1070
    74
1070
     0
1000
MTEXTEND
  0
MTEXT
  5
EE9
330
E6D
100
AcDbEntity
  8
10
100
AcDbMText
 10
32.58344652180156
 20
21.09784220621082
 30
0.0000000000000001
 40
0.1562500125
 41
1.444010532187499
 71
     2
 72
     5
  1
GREEN
  7
ACANSTS
 73
     1
 44
1.0
1001
ACAD
1000
MTEXTBEGIN
1070
    73
1070
     1
1070
    44
1040
1.0
1070
    74
1070
     0
1000
MTEXTEND
  0
MTEXT
  5
EEA
330
E6D
100
AcDbEntity
  8
10
100
AcDbMText
 10
28.64006660486973
 20
20.33854155022868
 30
0.0000000000000001
 40
0.1562500125
 41
0.0
 71
     5
 72
     5
  1
PART DESCRIPTION (MOLD NUMBER)
  7
ACANSTS
 73
     1
 44
1.0
1001
ACAD
1000
MTEXTBEGIN
1070
    73
1070
     1
1070
    44
1040
1.0
1070
    74
1070
     0
1000
MTEXTEND
  0
MTEXT
  5
EEB
330
E6D
100
AcDbEntity
  8
10
100
AcDbMText
 10
27.02775990713957
 20
20.76599694156796
 30
0.0000000000000001
 40
0.1562500125
 41
3.812500305
 71
     2
 72
     5
  1
Description
  7
ACANSTS
 73
     1
 44
1.0
1001
ACAD
1000
MTEXTBEGIN
1070
    73
1070
     1
1070
    44
1040
1.0
1070
    74
1070
     0
1000
MTEXTEND
  0
LINE
  5
EEC
330
E6D
100
AcDbEntity
  8
10
100
AcDbLine
 10
31.68145046945353
 20
20.5044641825501
 30
0.0
 11
31.68145046945353
 21
21.49999997647868
 31
0.0
  0
LINE
  5
EED
330
E6D
100
AcDbEntity
  8
10
100
AcDbLine
 10
29.24711662839814
 20
21.49999997647868
 30
0.0
 11
29.24711662839814
 21
21.16815471183582
 31
0.0
  0
MTEXT
  5
EEE
330
E6D
100
AcDbEntity
  8
10
100
AcDbMText
 10
30.58249204820353
 20
21.42968747085368
 30
0.0000000000000001
 40
0.1562500125
 41
2.104166835
 71
     2
 72
     5
  1
VALOX 357
  7
ACANSTS
 73
     1
 44
1.0
1001
ACAD
1000
MTEXTBEGIN
1070
    73
1070
     1
1070
    44
1040
1.0
1070
    74
1070
     0
1000
MTEXTEND
  0
MTEXT
  5
EEF
330
E6D
100
AcDbEntity
  8
10
100
AcDbMText
 10
30.58249204820353
 20
20.76599694156796
 30
0.0000000000000001
 40
0.1562500125
 41
2.104166835
 71
     2
 72
     5
  1
Material
  7
ACANSTS
 73
     1
 44
1.0
1001
ACAD
1000
MTEXTBEGIN
1070
    73
1070
     1
1070
    44
1040
1.0
1070
    74
1070
     0
1000
MTEXTEND
  0
MTEXT
  5
EF0
330
E6D
100
AcDbEntity
  8
10
100
AcDbMText
 10
30.58249204820353
 20
21.09784220621082
 30
0.0000000000000001
 40
0.1562500125
 41
2.104166835
 71
     2
 72
     5
  1
VALOX 357
  7
ACANSTS
 73
     1
 44
1.0
1001
ACAD
1000
MTEXTBEGIN
1070
    73
1070
     1
1070
    44
1040
1.0
1070
    74
1070
     0
1000
MTEXTEND
  0
LINE
  5
EF1
330
E6D
100
AcDbEntity
  8
10
100
AcDbLine
 10
29.24711662839814
 20
21.16815471183582
 30
0.0
 11
29.24711662839814
 21
20.83630944719296
 31
0.0
  0
LINE
  5
EF2
330
E6D
100
AcDbEntity
  8
10
100
AcDbLine
 10
29.24711662839814
 20
20.83630944719296
 30
0.0
 11
29.24711662839814
 21
20.5044641825501
 31
0.0
  0
LINE
  5
EF3
330
E6D
100
AcDbEntity
  8
10
100
AcDbLine
 10
33.50000002937867
 20
21.49999997647868
 30
0.0
 11
33.50000002937867
 21
20.17261891790725
 31
0.0
  0
INSERT
  5
EF4
330
E6D
100
AcDbEntity
  8
0
100
AcDbBlockReference
 66
     1
  2
Title Block
 10
26.50000002140035
 20
0.4999999818693315
 30
0.0
  0
ATTRIB
  5
EF5
330
EF4
100
AcDbEntity
  8
0
100
AcDbText
 10
29.15106279067219
 20
0.8158430476019251
 30
0.0
 40
0.125
  1
Your Name
  7
c3controls
 11
29.15106279067219
 21
0.8783430476019251
 31
0.0
100
AcDbAttribute
  2
NAME
 70
     0
 74
     2
  0
ATTRIB
  5
EF6
330
EF4
100
AcDbEntity
  8
0
100
AcDbText
 10
28.54562937461905
 20
1.666592913831872
 30
0.0
 40
0.125
  1
Description
  7
c3controls
100
AcDbAttribute
  2
DESCRIPTION
 70
     0
  0
ATTRIB
  5
EF7
330
EF4
100
AcDbEntity
  8
0
100
AcDbText
 10
31.34311665768099
 20
0.5394471522661864
 30
0.0
 40
0.25
  1
XX#XXXXX
  7
c3controls
 72
     1
 11
32.25554844485698
 21
0.6644471522661864
 31
0.0
100
AcDbAttribute
  2
XX#XXXXX
 70
     0
 74
     2
  0
ATTRIB
  5
EF8
330
EF4
100
AcDbEntity
  8
0
100
AcDbText
 10
30.53893200494167
 20
0.56575559687513
 30
0.0
 40
0.125
  1
1:1
  7
c3controls
 72
     1
 11
30.6603081986661
 21
0.62825559687513
 31
0.0
100
AcDbAttribute
  2
1:1
 70
     0
 74
     2
  0
ATTRIB
  5
EF9
330
EF4
100
AcDbEntity
  8
0
100
AcDbText
 10
28.8111225791743
 20
0.5631452061430427
 30
0.0
 40
0.125
  1
MM-DD-YYYY
  7
c3controls
 72
     1
 11
29.37379311123433
 21
0.6256452061430427
 31
0.0
100
AcDbAttribute
  2
DATE
 70
     0
 74
     2
  0
ATTRIB
  5
EFA
330
EF4
100
AcDbEntity
  8
0
100
AcDbText
 10
26.50000002937868
 20
0.4999999818693315
 30
0.0
 40
0.125
  1

  7
c3controls
100
AcDbAttribute
  2
OUTLINE_DRAWING
 70
     1
  0
SEQEND
  5
EFB
330
EF4
100
AcDbEntity
  8
0
  0
ENDBLK
  5
EFF
330
E6D
100
AcDbEntity
  8
0
100
AcDbBlockEnd
  0
ENDSEC
  0
SECTION
  2
ENTITIES
  0
LINE
  5
8F9
330
19
100
AcDbEntity
  8
DD
370
    30
100
AcDbLine
 10
26.91553381844076
 20
16.55608733425252
 30
0.0
 11
27.59821098309874
 21
16.5560873342525
 31
0.0
  0
LINE
  5
8FA
330
19
100
AcDbEntity
  8
DD
370
    30
100
AcDbLine
 10
26.92356531449557
 20
15.94021688056095
 30
0.0
 11
26.98781728293408
 21
15.94021688056095
 31
0.0
  0
LINE
  5
8FB
330
19
100
AcDbEntity
  8
DD
370
    30
100
AcDbLine
 10
27.01994326715322
 20
16.02098527065226
 30
0.0
 11
26.93041579822871
 21
16.044974083651
 31
0.0
  0
LINE
  5
8FC
330
19
100
AcDbEntity
  8
DD
370
    30
100
AcDbLine
 10
26.91556097335993
 20
15.78764115740841
 30
0.0
 11
27.01994326715322
 21
15.78764115740841
 31
0.0
  0
LINE
  5
8FD
330
19
100
AcDbEntity
  8
DD
370
    30
100
AcDbLine
 10
26.83521885789283
 20
15.96029562069795
 30
0.0
 11
26.99986452701619
 21
15.96029562069798
 31
0.0
  0
LINE
  5
8FE
330
19
100
AcDbEntity
  8
DD
370
    30
100
AcDbLine
 10
26.83521885789283
 20
15.89202790423217
 30
0.0
 11
27.01994326715322
 21
15.89202790423217
 31
0.0
  0
LINE
  5
8FF
330
19
100
AcDbEntity
  8
DD
370
    30
100
AcDbLine
 10
26.83521885789283
 20
15.80803068537868
 30
0.0
 11
26.98781728293397
 21
15.80803068537868
 31
0.0
  0
LINE
  5
900
330
19
100
AcDbEntity
  8
DD
370
    30
100
AcDbLine
 10
26.83521885789283
 20
15.96832711675277
 30
0.0
 11
27.01994326715322
 21
15.96832711675277
 31
0.0
  0
LINE
  5
901
330
19
100
AcDbEntity
  8
DD
370
    30
100
AcDbLine
 10
26.98781728293408
 20
15.8981788856761
 30
0.0
 11
26.83521885789283
 21
15.8981788856761
 31
0.0
  0
LINE
  5
902
330
19
100
AcDbEntity
  8
DD
370
    30
100
AcDbLine
 10
26.91553381844086
 20
16.06120399797517
 30
0.0
 11
27.01994326715322
 21
16.03322757051052
 31
0.0
  0
LINE
  5
903
330
19
100
AcDbEntity
  8
DD
370
    30
100
AcDbLine
 10
26.91553381844086
 20
16.55608733425247
 30
0.0
 11
29.64624247707281
 21
16.5560873342525
 31
0.0
  0
LINE
  5
905
330
19
100
AcDbEntity
  8
DD
370
    30
100
AcDbLine
 10
27.01994326715322
 20
13.74716502805726
 30
0.0
 11
26.93041579822871
 21
13.72317621505853
 31
0.0
  0
LINE
  5
906
330
19
100
AcDbEntity
  8
DD
370
    30
100
AcDbLine
 10
26.92356531449567
 20
13.82793341814856
 30
0.0
 11
26.98781728293408
 21
13.82793341814856
 31
0.0
  0
LINE
  5
907
330
19
100
AcDbEntity
  8
DD
370
    30
100
AcDbLine
 10
26.91553381844086
 20
13.70694630073433
 30
0.0
 11
27.01994326715322
 21
13.73492272819901
 31
0.0
  0
LINE
  5
908
330
19
100
AcDbEntity
  8
DD
370
    30
100
AcDbLine
 10
26.98781728293408
 20
13.86997141303341
 30
0.0
 11
26.83521885789283
 21
13.86997141303341
 31
0.0
  0
LINE
  5
909
330
19
100
AcDbEntity
  8
DD
370
    30
100
AcDbLine
 10
26.83521885789283
 20
13.96011961333085
 30
0.0
 11
26.98781728293397
 21
13.96011961333085
 31
0.0
  0
LINE
  5
90A
330
19
100
AcDbEntity
  8
DD
370
    30
100
AcDbLine
 10
26.83521885789283
 20
13.87612239447736
 30
0.0
 11
27.01994326715322
 21
13.87612239447736
 31
0.0
  0
LINE
  5
90B
330
19
100
AcDbEntity
  8
DD
370
    30
100
AcDbLine
 10
26.91556097335993
 20
13.9805545450784
 30
0.0
 11
27.34729086299675
 21
13.9805545450784
 31
0.0
  0
LINE
  5
90C
330
19
100
AcDbEntity
  8
DD
370
    30
100
AcDbLine
 10
26.83521885789283
 20
13.79982318195676
 30
0.0
 11
27.01994326715322
 21
13.79982318195676
 31
0.0
  0
LINE
  5
90D
330
19
100
AcDbEntity
  8
DD
370
    30
100
AcDbLine
 10
26.83521885789283
 20
13.80785467801155
 30
0.0
 11
26.99986452701619
 21
13.80785467801155
 31
0.0
  0
LINE
  5
90E
330
19
100
AcDbEntity
  8
DD
370
    30
100
AcDbLine
 10
26.91553381844086
 20
13.2097235993006
 30
0.0
 11
27.45678093472637
 21
13.2097235993006
 31
0.0
  0
LINE
  5
90F
330
19
100
AcDbEntity
  8
DD
370
    30
100
AcDbLine
 10
26.91553381844086
 20
13.20972359930058
 30
0.0
 11
27.45678093472637
 21
13.2097235993006
 31
0.0
  0
LINE
  5
914
330
19
100
AcDbEntity
  8
0
100
AcDbLine
 10
4.766461379793533
 20
14.29078993561172
 30
0.0
 11
4.766461379793533
 21
14.19509877210476
 31
0.0
  0
LINE
  5
915
330
19
100
AcDbEntity
  8
0
100
AcDbLine
 10
4.689908448987999
 20
14.29078993561172
 30
0.0
 11
4.689908448987999
 21
14.19509877210476
 31
0.0
  0
LINE
  5
917
330
19
100
AcDbEntity
  8
0
  6
CENTER2
100
AcDbLine
 10
29.01907712338183
 20
5.062417332553543
 30
0.0
 11
29.01907712338183
 21
6.626513199667018
 31
0.0
  0
CIRCLE
  5
919
330
19
100
AcDbEntity
  8
DD
100
AcDbCircle
 10
29.01907712338183
 20
5.062417332553543
 30
0.0
 40
0.1574803148
  0
LINE
  5
91A
330
19
100
AcDbEntity
  8
0
  6
CENTER2
100
AcDbLine
 10
29.01907712338183
 20
5.243748374278098
 30
0.0
 11
29.01907712338183
 21
4.88108629082899
 31
0.0
  0
LINE
  5
91B
330
19
100
AcDbEntity
  8
0
  6
CENTER2
100
AcDbLine
 10
28.836275290857
 20
5.062417332553543
 30
0.0
 11
29.20187895590665
 21
5.062417332553543
 31
0.0
  0
LINE
  5
91E
330
19
100
AcDbEntity
  8
0
  6
CENTER2
100
AcDbLine
 10
27.54269917213183
 20
6.538795283803539
 30
0.0
 11
29.10151713771101
 21
6.538795283803544
 31
0.0
  0
CIRCLE
  5
923
330
19
100
AcDbEntity
  8
DD
100
AcDbCircle
 10
27.54269917213183
 20
6.538795283803544
 30
0.0
 40
0.1574803148
  0
LINE
  5
924
330
19
100
AcDbEntity
  8
0
  6
CENTER2
100
AcDbLine
 10
27.54269917213183
 20
6.732322686851643
 30
0.0
 11
27.54269917213183
 21
6.345267880755443
 31
0.0
  0
LINE
  5
925
330
19
100
AcDbEntity
  8
0
  6
CENTER2
100
AcDbLine
 10
27.35341074358454
 20
6.538795283803544
 30
0.0
 11
27.73198760067911
 21
6.538795283803544
 31
0.0
  0
POINT
  5
928
330
19
100
AcDbEntity
  8
DEFPOINTS
  6
ByBlock
100
AcDbPoint
 10
4.766461379793533
 20
14.19509877210476
 30
0.0
  0
LINE
  5
929
330
19
100
AcDbEntity
  8
0
100
AcDbLine
 10
4.689908448987999
 20
14.19509877210476
 30
0.0
 11
4.766461379793533
 21
14.19509877210476
 31
0.0
  0
LINE
  5
92D
330
19
100
AcDbEntity
  8
0
  6
CENTER2
 48
3.0
100
AcDbLine
 10
7.274129674035599
 20
13.03368145045476
 30
0.0
 11
7.610066509265244
 21
13.03368145045476
 31
0.0
  0
LINE
  5
92E
330
19
100
AcDbEntity
  8
0
100
AcDbLine
 10
7.407991392455716
 20
12.93515098611466
 30
0.0
 11
7.476204790844988
 21
12.93515098611466
 31
0.0
  0
LINE
  5
92F
330
19
100
AcDbEntity
  8
0
100
AcDbLine
 10
7.407991392455716
 20
13.13221191479487
 30
0.0
 11
7.476204790844988
 21
13.13221191479487
 31
0.0
  0
POINT
  5
930
330
19
100
AcDbEntity
  8
DEFPOINTS
  6
ByBlock
100
AcDbPoint
 10
7.604622988553074
 20
13.03368145045476
 30
0.0
  0
ARC
  5
931
330
19
100
AcDbEntity
  8
0
100
AcDbCircle
 10
7.476204790844988
 20
13.03368145045476
 30
0.0
 40
0.098530464340107
100
AcDbArc
 50
270.0
 51
90.0
  0
LINE
  5
932
330
19
100
AcDbEntity
  8
0
  6
CENTER2
 48
3.0
100
AcDbLine
 10
7.442098091650422
 20
12.89119978748109
 30
0.0
 11
7.442098091650422
 21
13.17616311342844
 31
0.0
  0
ARC
  5
933
330
19
100
AcDbEntity
  8
0
100
AcDbCircle
 10
7.407991392455716
 20
13.03368145045476
 30
0.0
 40
0.098530464340107
100
AcDbArc
 50
90.0
 51
270.0
  0
LINE
  5
938
330
19
100
AcDbEntity
  8
0
  6
CENTER2
 48
8.0
100
AcDbLine
 10
4.26816431163294
 20
14.88407514935476
 30
0.0
 11
4.895678880067976
 21
14.88407514935476
 31
0.0
  0
LINE
  5
939
330
19
100
AcDbEntity
  8
0
100
AcDbLine
 10
4.523144421633293
 20
15.36253096688949
 30
0.0
 11
4.523144421633293
 21
14.40561933182005
 31
0.0
  0
LINE
  5
93A
330
19
100
AcDbEntity
  8
0
100
AcDbLine
 10
4.599697352438877
 20
15.36253096688949
 30
0.0
 11
4.599697352438877
 21
14.40561933182005
 31
0.0
  0
ARC
  5
93B
330
19
100
AcDbEntity
  8
0
100
AcDbCircle
 10
4.618835585140246
 20
14.40561933182005
 30
0.0
 40
0.0956911635069444
100
AcDbArc
 50
180.0
 51
270.0
  0
ARC
  5
93C
330
19
100
AcDbEntity
  8
0
100
AcDbCircle
 10
4.618835585140246
 20
14.40561933182005
 30
0.0
 40
0.0191382327013889
100
AcDbArc
 50
180.0
 51
270.0
  0
LINE
  5
93D
330
19
100
AcDbEntity
  8
0
100
AcDbLine
 10
4.618835585140246
 20
14.38648109911863
 30
0.0
 11
4.670770216286626
 21
14.38648109911863
 31
0.0
  0
ARC
  5
93E
330
19
100
AcDbEntity
  8
0
100
AcDbCircle
 10
4.670770216286626
 20
14.29078993561172
 30
0.0
 40
0.0191382327013889
100
AcDbArc
 50
0.0
 51
90.0
  0
LINE
  5
93F
330
19
100
AcDbEntity
  8
0
100
AcDbLine
 10
4.618835585140246
 20
14.30992816831309
 30
0.0
 11
4.670770216286626
 21
14.30992816831309
 31
0.0
  0
ARC
  5
940
330
19
100
AcDbEntity
  8
0
100
AcDbCircle
 10
4.670770216286626
 20
14.29078993561172
 30
0.0
 40
0.0956911635069444
100
AcDbArc
 50
0.0
 51
90.0
  0
LINE
  5
941
330
19
100
AcDbEntity
  8
0
100
AcDbLine
 10
4.766461379793533
 20
15.47736036309781
 30
0.0
 11
4.766461379793533
 21
15.57305152660477
 31
0.0
  0
POINT
  5
942
330
19
100
AcDbEntity
  8
DEFPOINTS
  6
ByBlock
100
AcDbPoint
 10
4.766461379793533
 20
15.57305152660477
 30
0.0
  0
LINE
  5
943
330
19
100
AcDbEntity
  8
0
100
AcDbLine
 10
4.689908448987999
 20
15.47736036309781
 30
0.0
 11
4.689908448987999
 21
15.57305152660477
 31
0.0
  0
ARC
  5
944
330
19
100
AcDbEntity
  8
0
100
AcDbCircle
 10
4.670770216286626
 20
15.47736036309781
 30
0.0
 40
0.0191382327013889
100
AcDbArc
 50
270.0
 51
0.0
  0
LINE
  5
945
330
19
100
AcDbEntity
  8
0
100
AcDbLine
 10
4.618835585140246
 20
15.45822213039644
 30
0.0
 11
4.670770216286626
 21
15.45822213039644
 31
0.0
  0
ARC
  5
946
330
19
100
AcDbEntity
  8
0
100
AcDbCircle
 10
4.618835585140246
 20
15.36253096688949
 30
0.0
 40
0.0191382327013889
100
AcDbArc
 50
90.0
 51
180.0
  0
LINE
  5
947
330
19
100
AcDbEntity
  8
0
100
AcDbLine
 10
4.618835585140246
 20
15.38166919959086
 30
0.0
 11
4.670770216286626
 21
15.38166919959086
 31
0.0
  0
ARC
  5
948
330
19
100
AcDbEntity
  8
0
100
AcDbCircle
 10
4.618835585140246
 20
15.36253096688949
 30
0.0
 40
0.0956911635069444
100
AcDbArc
 50
90.0
 51
180.0
  0
ARC
  5
949
330
19
100
AcDbEntity
  8
0
100
AcDbCircle
 10
4.670770216286626
 20
15.47736036309781
 30
0.0
 40
0.0956911635069444
100
AcDbArc
 50
270.0
 51
0.0
  0
LINE
  5
94A
330
19
100
AcDbEntity
  8
0
100
AcDbLine
 10
4.689908448987999
 20
15.57305152660477
 30
0.0
 11
4.766461379793533
 21
15.57305152660477
 31
0.0
  0
LINE
  5
94B
330
19
100
AcDbEntity
  8
0
  6
CENTER2
 48
3.0
100
AcDbLine
 10
8.426350059150422
 20
16.94036952783863
 30
0.0
 11
8.426350059150422
 21
16.52856816867089
 31
0.0
  0
ARC
  5
94C
330
19
100
AcDbEntity
  8
0
100
AcDbCircle
 10
8.426350059150422
 20
16.70036214906008
 30
0.0
 40
0.098530464340107
100
AcDbArc
 50
180.0
 51
0.0
  0
ARC
  5
94D
330
19
100
AcDbEntity
  8
0
100
AcDbCircle
 10
8.426350059150422
 20
16.7685755474494
 30
0.0
 40
0.098530464340107
100
AcDbArc
 50
0.0
 51
180.0
  0
LINE
  5
94E
330
19
100
AcDbEntity
  8
0
  6
CENTER2
 48
3.0
100
AcDbLine
 10
8.307297323827118
 20
16.73446884825476
 30
0.0
 11
8.545402794473723
 21
16.73446884825476
 31
0.0
  0
LINE
  5
94F
330
19
100
AcDbEntity
  8
0
100
AcDbLine
 10
8.32781959481025
 20
16.70036214906008
 30
0.0
 11
8.32781959481025
 21
16.7685755474494
 31
0.0
  0
LINE
  5
950
330
19
100
AcDbEntity
  8
0
100
AcDbLine
 10
8.524880523490498
 20
16.7685755474494
 30
0.0
 11
8.524880523490498
 21
16.70036214906008
 31
0.0
  0
POINT
  5
951
330
19
100
AcDbEntity
  8
DEFPOINTS
  6
ByBlock
100
AcDbPoint
 10
8.426350059150422
 20
16.58725221137209
 30
0.0
  0
LINE
  5
954
330
19
100
AcDbEntity
  8
DD
370
    30
100
AcDbLine
 10
26.83521885789283
 20
13.29003855984861
 30
0.0
 11
26.83521885789283
 21
14.88407514935477
 31
0.0
  0
LINE
  5
955
330
19
100
AcDbEntity
  8
DD
370
    30
100
AcDbLine
 10
26.83521885789283
 20
13.29003855984861
 30
0.0
 11
26.83521885789283
 21
14.88407514935477
 31
0.0
  0
LINE
  5
956
330
19
100
AcDbEntity
  8
DD
370
    30
100
AcDbLine
 10
26.8352460128119
 20
15.7073261968604
 30
0.0
 11
26.8352460128119
 21
14.06086950562641
 31
0.0
  0
LINE
  5
957
330
19
100
AcDbEntity
  8
DD
370
    30
100
AcDbLine
 10
21.59563305803752
 20
15.94706727425476
 30
0.0
 11
21.59305619154078
 21
13.81211059610551
 31
0.0
  0
LINE
  5
958
330
19
100
AcDbEntity
  8
DD
370
    30
100
AcDbLine
 10
22.20866528536627
 20
14.88407514935477
 30
0.0
 11
22.20866528536627
 21
10.08092554795494
 31
0.0
  0
LINE
  5
959
330
19
100
AcDbEntity
  8
DD
370
    30
100
AcDbLine
 10
22.63778784449639
 20
14.88407514935474
 30
0.0
 11
22.63778784449639
 21
13.53540424923158
 31
0.0
  0
LINE
  5
95A
330
19
100
AcDbEntity
  8
DD
370
    30
100
AcDbLine
 10
22.20866528536627
 20
14.88407514935477
 30
0.0
 11
22.20866528536627
 21
10.08092554795494
 31
0.0
  0
LINE
  5
95B
330
19
100
AcDbEntity
  8
DD
370
    30
100
AcDbLine
 10
22.53561580660822
 20
10.08092554795494
 30
0.0
 11
22.53561580660822
 21
15.36936380940598
 31
0.0
  0
LINE
  5
95C
330
19
100
AcDbEntity
  8
DD
370
    30
100
AcDbLine
 10
22.69909106722924
 20
14.88407514935474
 30
0.0
 11
22.69909106722924
 21
10.71723307195878
 31
0.0
  0
TEXT
  5
95D
330
19
100
AcDbEntity
  8
DD
370
    30
100
AcDbText
 10
21.25965968353975
 20
14.1416453377143
 30
0.0
 40
0.3346363734951807
  1
O  OFF
 50
90.0
  7
ARIALNARROW
100
AcDbText
  0
LINE
  5
95E
330
19
100
AcDbEntity
  8
DD
370
    30
100
AcDbLine
 10
15.49487816552946
 20
13.78853940279315
 30
0.0
 11
15.49487816552946
 21
15.97961089591638
 31
0.0
  0
ARC
  5
95F
330
19
100
AcDbEntity
  8
DD
370
    30
100
AcDbCircle
 10
13.75412468586032
 20
14.2155730409511
 30
0.0
 40
0.039837663511331
100
AcDbArc
 50
270.0
 51
0.0
  0
LINE
  5
960
330
19
100
AcDbEntity
  8
DD
370
    30
100
AcDbLine
 10
14.78592017080385
 20
13.88298011264218
 30
0.0
 11
14.78592017080385
 21
14.76339247624256
 31
0.0
  0
LINE
  5
961
330
19
100
AcDbEntity
  8
0
  6
CENTER2
100
AcDbLine
 10
15.67414765133043
 20
15.58180159951407
 30
0.0
 11
15.67414765133043
 21
14.18634869919551
 31
0.0
  0
LINE
  5
962
330
19
100
AcDbEntity
  8
DD
370
    30
100
AcDbLine
 10
20.81802053441952
 20
16.18328774645477
 30
0.0
 11
20.81802053441952
 21
13.58486255225476
 31
0.0
  0
LINE
  5
963
330
19
100
AcDbEntity
  8
DD
370
    30
100
AcDbLine
 10
21.59563305803752
 20
15.94706727425476
 30
0.0
 11
21.59305619154078
 21
13.81211059610551
 31
0.0
  0
LINE
  5
964
330
19
100
AcDbEntity
  8
DD
370
    30
100
AcDbLine
 10
21.39018394659304
 20
16.06517751035476
 30
0.0
 11
21.39018394659305
 21
13.70297278835477
 31
0.0
  0
LINE
  5
965
330
19
100
AcDbEntity
  8
DD
370
    30
100
AcDbLine
 10
13.02111167725175
 20
14.18176258897714
 30
0.0
 11
13.02111167725175
 21
15.58803211092714
 31
0.0
  0
LINE
  5
966
330
19
100
AcDbEntity
  8
DD
370
    30
100
AcDbLine
 10
12.94143635022906
 20
14.30525934586227
 30
0.0
 11
12.98127401374036
 21
14.18176258897714
 31
0.0
  0
LINE
  5
967
330
19
100
AcDbEntity
  8
DD
370
    30
100
AcDbLine
 10
12.82192335969507
 20
12.8113469641873
 30
0.0
 11
12.82192335969507
 21
14.30525934586227
 31
0.0
  0
LINE
  5
969
330
19
100
AcDbEntity
  8
DD
370
    30
100
AcDbLine
 10
14.78592017080385
 20
13.78853940279315
 30
0.0
 11
15.49487816552946
 21
13.78853940279315
 31
0.0
  0
LINE
  5
96A
330
19
100
AcDbEntity
  8
DD
370
    30
100
AcDbLine
 10
13.88336576563897
 20
13.2097235993006
 30
0.0
 11
12.82192335969507
 21
13.2097235993006
 31
0.0
  0
LINE
  5
96B
330
19
100
AcDbEntity
  8
DD
370
    30
100
AcDbLine
 10
14.07282599395088
 20
14.03630355515012
 30
0.0
 11
13.58680649911276
 21
14.03630355515012
 31
0.0
  0
LINE
  5
96C
330
19
100
AcDbEntity
  8
DD
370
    30
100
AcDbLine
 10
13.98878384458291
 20
13.87695288167128
 30
0.0
 11
13.58680649911276
 21
13.87695288167128
 31
0.0
  0
LINE
  5
96D
330
19
100
AcDbEntity
  8
DD
370
    30
100
AcDbLine
 10
13.77005975126488
 20
13.28939892632329
 30
0.0
 11
12.82192335969507
 21
13.28939892632329
 31
0.0
  0
LINE
  5
96E
330
19
100
AcDbEntity
  8
0
  6
CENTER2
100
AcDbLine
 10
13.05596953554021
 20
13.00854339856846
 30
0.0
 11
12.72910168029469
 21
13.00854339856846
 31
0.0
  0
LINE
  5
96F
330
19
100
AcDbEntity
  8
DD
370
    30
100
AcDbLine
 10
12.96135518198476
 20
12.8113469641873
 30
0.0
 11
12.96135518198476
 21
13.2097235993006
 31
0.0
  0
LINE
  5
970
330
19
100
AcDbEntity
  8
DD
370
    30
100
AcDbLine
 10
12.96135518198476
 20
12.8113469641873
 30
0.0
 11
12.82192335969507
 21
12.8113469641873
 31
0.0
  0
POINT
  5
971
330
19
100
AcDbEntity
  8
DD
370
    30
100
AcDbPoint
 10
12.82192335969507
 20
12.8113469641873
 30
0.0
  0
POINT
  5
972
330
19
100
AcDbEntity
  8
DD
370
    30
100
AcDbPoint
 10
12.82192335969507
 20
12.8113469641873
 30
0.0
  0
POINT
  5
973
330
19
100
AcDbEntity
  8
DD
370
    30
100
AcDbPoint
 10
12.82192335969507
 20
13.2097235993006
 30
0.0
  0
LINE
  5
974
330
19
100
AcDbEntity
  8
DD
370
    30
100
AcDbLine
 10
12.96135518198476
 20
13.09021060876667
 30
0.0
 11
13.08086817251874
 21
13.2097235993006
 31
0.0
  0
LINE
  5
975
330
19
100
AcDbEntity
  8
DD
370
    30
100
AcDbLine
 10
12.98127401374036
 20
14.18176258897714
 30
0.0
 11
13.02111167725175
 21
14.18176258897714
 31
0.0
  0
LINE
  5
976
330
19
100
AcDbEntity
  8
DD
370
    30
100
AcDbLine
 10
13.80989741477617
 20
13.32923658983464
 30
0.0
 11
13.80989741477617
 21
13.76142365748844
 31
0.0
  0
ARC
  5
977
330
19
100
AcDbEntity
  8
DD
370
    30
100
AcDbCircle
 10
13.77005975126488
 20
13.32923658983464
 30
0.0
 40
0.039837663511331
100
AcDbArc
 50
270.0
 51
0.0
  0
ARC
  5
978
330
19
100
AcDbEntity
  8
DD
370
    30
100
AcDbCircle
 10
13.77005975126488
 20
13.76142365748844
 30
0.0
 40
0.039837663511331
100
AcDbArc
 50
0.0
 51
90.0
  0
LINE
  5
979
330
19
100
AcDbEntity
  8
DD
370
    30
100
AcDbLine
 10
13.51111493844121
 20
13.84109898451112
 30
0.0
 11
13.51111493844121
 21
14.13589771392841
 31
0.0
  0
ARC
  5
97A
330
19
100
AcDbEntity
  8
DD
370
    30
100
AcDbCircle
 10
13.55095260195251
 20
13.84109898451112
 30
0.0
 40
0.039837663511331
100
AcDbArc
 50
180.0
 51
270.0
  0
ARC
  5
97B
330
19
100
AcDbEntity
  8
DD
370
    30
100
AcDbCircle
 10
13.55095260195251
 20
14.13589771392841
 30
0.0
 40
0.039837663511331
100
AcDbArc
 50
90.0
 51
180.0
  0
LINE
  5
97C
330
19
100
AcDbEntity
  8
DD
370
    30
100
AcDbLine
 10
13.58680649911276
 20
13.87695288167128
 30
0.0
 11
13.58680649911276
 21
14.03630355515012
 31
0.0
  0
LINE
  5
97D
330
19
100
AcDbEntity
  8
DD
370
    30
100
AcDbLine
 10
13.77005975126488
 20
13.80126132099978
 30
0.0
 11
13.55095260195251
 21
13.80126132099978
 31
0.0
  0
LINE
  5
97E
330
19
100
AcDbEntity
  8
DD
370
    30
100
AcDbLine
 10
13.75412468586032
 20
14.17573537743975
 30
0.0
 11
13.55095260195251
 21
14.17573537743975
 31
0.0
  0
LINE
  5
97F
330
19
100
AcDbEntity
  8
DD
370
    30
100
AcDbLine
 10
14.78592017080385
 20
13.80728855197063
 30
0.0
 11
14.02900456408855
 21
13.80728855197063
 31
0.0
  0
LINE
  5
980
330
19
100
AcDbEntity
  8
DD
370
    30
100
AcDbLine
 10
14.78592017080385
 20
14.10607102830559
 30
0.0
 11
14.07282599395088
 21
14.10607102830564
 31
0.0
  0
LINE
  5
981
330
19
100
AcDbEntity
  8
DD
370
    30
100
AcDbLine
 10
14.78592017080385
 20
13.88298011264218
 30
0.0
 11
14.53892665703371
 21
13.88298011264218
 31
0.0
  0
ARC
  5
982
330
19
100
AcDbEntity
  8
DD
370
    30
100
AcDbCircle
 10
14.60665068500278
 20
13.38899308510163
 30
0.0
 40
0.1792694858009896
100
AcDbArc
 50
270.0
 51
0.0
  0
LINE
  5
983
330
19
100
AcDbEntity
  8
DD
370
    30
100
AcDbLine
 10
14.60665068500278
 20
13.2097235993006
 30
0.0
 11
13.88336576563897
 21
13.2097235993006
 31
0.0
  0
LINE
  5
984
330
19
100
AcDbEntity
  8
DD
370
    30
100
AcDbLine
 10
14.02900456408855
 20
13.80728855197063
 30
0.0
 11
13.98878384458291
 21
13.87695288167128
 31
0.0
  0
LINE
  5
985
330
19
100
AcDbEntity
  8
DD
370
    30
100
AcDbLine
 10
14.17640391908031
 20
13.83517491642855
 30
0.0
 11
14.01290436406203
 21
13.83517491642855
 31
0.0
  0
LINE
  5
986
330
19
100
AcDbEntity
  8
DD
370
    30
100
AcDbLine
 10
14.17640391908031
 20
13.80728855197068
 30
0.0
 11
14.17640391908031
 21
13.83517491642855
 31
0.0
  0
LINE
  5
987
330
19
100
AcDbEntity
  8
DD
370
    30
100
AcDbLine
 10
14.07282599395088
 20
14.03630355515012
 30
0.0
 11
14.07282599395088
 21
14.10607102830564
 31
0.0
  0
LINE
  5
988
330
19
100
AcDbEntity
  8
DD
370
    30
100
AcDbLine
 10
14.53892665703371
 20
13.80728855197063
 30
0.0
 11
14.53892665703371
 21
13.88298011264218
 31
0.0
  0
LINE
  5
989
330
19
100
AcDbEntity
  8
DD
370
    30
100
AcDbLine
 10
14.78592017080385
 20
13.38899308510163
 30
0.0
 11
14.78592017080385
 21
13.80728855197063
 31
0.0
  0
LINE
  5
98A
330
19
100
AcDbEntity
  8
DD
370
    30
100
AcDbLine
 10
14.66640718026977
 20
13.88298011264218
 30
0.0
 11
14.66640718026977
 21
13.97859050506937
 31
0.0
  0
LINE
  5
98B
330
19
100
AcDbEntity
  8
DD
  6
Continuous
100
AcDbLine
 10
14.78592017080385
 20
13.97859050506937
 30
0.0
 11
14.66640718026977
 21
13.97859050506937
 31
0.0
  0
ARC
  5
98C
330
19
100
AcDbEntity
  8
DD
370
    30
100
AcDbCircle
 10
21.49400892294525
 20
13.26990192265478
 30
0.0
 40
0.5511811018000001
100
AcDbArc
 50
0.0
 51
90.00000000000976
  0
LINE
  5
98D
330
19
100
AcDbEntity
  8
DD
370
    30
100
AcDbLine
 10
22.20866528536627
 20
14.0204993160743
 30
0.0
 11
21.59305619154078
 21
13.81211059610554
 31
0.0
  0
ARC
  5
98E
330
19
100
AcDbEntity
  8
DD
370
    30
100
AcDbCircle
 10
22.21086456783424
 20
13.91300218963901
 30
0.0
 40
0.5653782195832268
100
AcDbArc
 50
191.9203777477562
 51
252.1802467536681
  0
LINE
  5
98F
330
19
100
AcDbEntity
  8
DD
370
    30
100
AcDbLine
 10
21.39018394659305
 20
13.70297278835477
 30
0.0
 11
20.81802053441952
 21
13.58486255225477
 31
0.0
  0
LINE
  5
990
330
19
100
AcDbEntity
  8
DD
370
    30
100
AcDbLine
 10
21.39018394659305
 20
13.82108302445477
 30
0.0
 11
21.49400892294516
 21
13.82108302445478
 31
0.0
  0
LINE
  5
991
330
19
100
AcDbEntity
  8
DD
370
    30
100
AcDbLine
 10
22.04519002474525
 20
13.26990192265478
 30
0.0
 11
22.04519002474525
 21
10.71723307195731
 31
0.0
  0
LINE
  5
992
330
19
100
AcDbEntity
  8
DD
370
    30
100
AcDbLine
 10
22.04519002474525
 20
11.12424800060643
 30
0.0
 11
22.04519002474525
 21
11.04251037029592
 31
0.0
  0
ARC
  5
993
330
19
100
AcDbEntity
  8
DD
370
    30
100
AcDbCircle
 10
21.19250140163301
 20
10.75720905143457
 30
0.0
 40
1.503767163470008
100
AcDbArc
 50
333.2738809302467
 51
356.7141985901544
  0
ARC
  5
994
330
19
100
AcDbEntity
  8
DD
370
    30
100
AcDbCircle
 10
23.37898948575164
 20
10.72074945586162
 30
0.0
 40
1.333804096236286
100
AcDbArc
 50
180.1510523102587
 51
208.6657165226108
  0
LINE
  5
995
330
19
100
AcDbEntity
  8
DD
370
    30
100
AcDbLine
 10
22.20866528536627
 20
10.08092554795494
 30
0.0
 11
22.53561580660822
 21
10.08092554795494
 31
0.0
  0
LINE
  5
996
330
19
100
AcDbEntity
  8
DD
370
    30
100
AcDbLine
 10
22.04519002474525
 20
10.97152310599132
 30
0.0
 11
22.20866528536627
 21
10.97152310599132
 31
0.0
  0
LINE
  5
997
330
19
100
AcDbEntity
  8
DD
370
    30
100
AcDbLine
 10
22.04519002474525
 20
10.88978547568084
 30
0.0
 11
22.20866528536627
 21
10.88978547568084
 31
0.0
  0
LINE
  5
998
330
19
100
AcDbEntity
  8
DD
370
    30
100
AcDbLine
 10
22.04519002474525
 20
11.09585668516928
 30
0.0
 11
22.20866528536627
 21
11.09585668516928
 31
0.0
  0
LINE
  5
999
330
19
100
AcDbEntity
  8
DD
370
    30
100
AcDbLine
 10
22.04519002474525
 20
11.0141190548588
 30
0.0
 11
22.20866528536627
 21
11.0141190548588
 31
0.0
  0
LINE
  5
99A
330
19
100
AcDbEntity
  8
DD
370
    30
100
AcDbLine
 10
22.04519002474525
 20
10.99991442142844
 30
0.0
 11
22.04519002474525
 21
10.91817679111795
 31
0.0
  0
LINE
  5
99B
330
19
100
AcDbEntity
  8
DD
370
    30
100
AcDbLine
 10
22.04519002474525
 20
10.97152310599132
 30
0.0
 11
22.04519002474525
 21
10.88978547568084
 31
0.0
  0
LINE
  5
99C
330
19
100
AcDbEntity
  8
DD
370
    30
100
AcDbLine
 10
22.04519002474525
 20
11.09585668516928
 30
0.0
 11
22.04519002474525
 21
11.0141190548588
 31
0.0
  0
ARC
  5
99D
330
19
100
AcDbEntity
  8
DD
370
    30
100
AcDbCircle
 10
22.49474699145298
 20
10.71723307195878
 30
0.0
 40
0.2043440757762403
100
AcDbArc
 50
346.9287789991837
 51
0.0
  0
LINE
  5
99E
330
19
100
AcDbEntity
  8
DD
370
    30
100
AcDbLine
 10
22.04519002474525
 20
11.50454483672176
 30
0.0
 11
22.20866528536627
 21
11.50454483672176
 31
0.0
  0
LINE
  5
99F
330
19
100
AcDbEntity
  8
DD
370
    30
100
AcDbLine
 10
22.04519002474525
 20
11.83149535796372
 30
0.0
 11
22.20866528536627
 21
11.83149535796372
 31
0.0
  0
LINE
  5
9A0
330
19
100
AcDbEntity
  8
DD
370
    30
100
AcDbLine
 10
22.04519002474525
 20
11.74975772765324
 30
0.0
 11
22.20866528536627
 21
11.74975772765324
 31
0.0
  0
LINE
  5
9A1
330
19
100
AcDbEntity
  8
DD
370
    30
100
AcDbLine
 10
22.04519002474525
 20
11.58628246703224
 30
0.0
 11
22.20866528536627
 21
11.58628246703224
 31
0.0
  0
LINE
  5
9A2
330
19
100
AcDbEntity
  8
DD
370
    30
100
AcDbLine
 10
22.04519002474525
 20
11.34106957610076
 30
0.0
 11
22.20866528536627
 21
11.34106957610076
 31
0.0
  0
LINE
  5
9A3
330
19
100
AcDbEntity
  8
DD
370
    30
100
AcDbLine
 10
22.04519002474525
 20
11.25933194579028
 30
0.0
 11
22.20866528536627
 21
11.25933194579028
 31
0.0
  0
LINE
  5
9A4
330
19
100
AcDbEntity
  8
DD
370
    30
100
AcDbLine
 10
22.04519002474525
 20
11.58628246703224
 30
0.0
 11
22.04519002474525
 21
11.50454483672176
 31
0.0
  0
LINE
  5
9A5
330
19
100
AcDbEntity
  8
DD
370
    30
100
AcDbLine
 10
22.04519002474525
 20
11.85988667340087
 30
0.0
 11
22.04519002474525
 21
11.77814904309036
 31
0.0
  0
LINE
  5
9A6
330
19
100
AcDbEntity
  8
DD
370
    30
100
AcDbLine
 10
22.04519002474525
 20
11.83149535796372
 30
0.0
 11
22.04519002474525
 21
11.74975772765324
 31
0.0
  0
LINE
  5
9A7
330
19
100
AcDbEntity
  8
DD
370
    30
100
AcDbLine
 10
22.04519002474525
 20
11.61467378246939
 30
0.0
 11
22.04519002474525
 21
11.53293615215888
 31
0.0
  0
LINE
  5
9A8
330
19
100
AcDbEntity
  8
DD
370
    30
100
AcDbLine
 10
22.04519002474525
 20
11.36946089153791
 30
0.0
 11
22.04519002474525
 21
11.2877232612274
 31
0.0
  0
LINE
  5
9A9
330
19
100
AcDbEntity
  8
DD
370
    30
100
AcDbLine
 10
22.04519002474525
 20
11.34106957610076
 30
0.0
 11
22.04519002474525
 21
11.25933194579028
 31
0.0
  0
LINE
  5
9AA
330
19
100
AcDbEntity
  8
DD
370
    30
100
AcDbLine
 10
22.04519002474525
 20
12.0767082488952
 30
0.0
 11
22.20866528536627
 21
12.0767082488952
 31
0.0
  0
LINE
  5
9AB
330
19
100
AcDbEntity
  8
DD
370
    30
100
AcDbLine
 10
22.04519002474525
 20
12.2400940755002
 30
0.0
 11
22.20866528536627
 21
12.2400940755002
 31
0.0
  0
LINE
  5
9AC
330
19
100
AcDbEntity
  8
DD
370
    30
100
AcDbLine
 10
22.04519002474525
 20
12.32183170581068
 30
0.0
 11
22.20866528536627
 21
12.32183170581068
 31
0.0
  0
LINE
  5
9AD
330
19
100
AcDbEntity
  8
DD
370
    30
100
AcDbLine
 10
22.04519002474525
 20
12.48521753241569
 30
0.0
 11
22.20866528536627
 21
12.48521753241569
 31
0.0
  0
LINE
  5
9AE
330
19
100
AcDbEntity
  8
DD
370
    30
100
AcDbLine
 10
22.04519002474525
 20
12.56695516272617
 30
0.0
 11
22.20866528536627
 21
12.56695516272617
 31
0.0
  0
LINE
  5
9AF
330
19
100
AcDbEntity
  8
DD
370
    30
100
AcDbLine
 10
22.04519002474525
 20
11.99497061858472
 30
0.0
 11
22.20866528536627
 21
11.99497061858472
 31
0.0
  0
LINE
  5
9B0
330
19
100
AcDbEntity
  8
DD
370
    30
100
AcDbLine
 10
22.04519002474525
 20
12.35022302124783
 30
0.0
 11
22.04519002474525
 21
12.26848539093732
 31
0.0
  0
LINE
  5
9B1
330
19
100
AcDbEntity
  8
DD
370
    30
100
AcDbLine
 10
22.04519002474525
 20
12.32183170581068
 30
0.0
 11
22.04519002474525
 21
12.2400940755002
 31
0.0
  0
LINE
  5
9B2
330
19
100
AcDbEntity
  8
DD
370
    30
100
AcDbLine
 10
22.04519002474525
 20
12.56695516272617
 30
0.0
 11
22.04519002474525
 21
12.48521753241569
 31
0.0
  0
LINE
  5
9B3
330
19
100
AcDbEntity
  8
DD
370
    30
100
AcDbLine
 10
22.04519002474525
 20
12.59534647816331
 30
0.0
 11
22.04519002474525
 21
12.5136088478528
 31
0.0
  0
LINE
  5
9B4
330
19
100
AcDbEntity
  8
DD
370
    30
100
AcDbLine
 10
22.04519002474525
 20
12.05657941830759
 30
0.0
 11
22.04519002474525
 21
11.97484178799708
 31
0.0
  0
LINE
  5
9B5
330
19
100
AcDbEntity
  8
DD
370
    30
100
AcDbLine
 10
22.04519002474525
 20
12.0767082488952
 30
0.0
 11
22.04519002474525
 21
11.99497061858472
 31
0.0
  0
LINE
  5
9B6
330
19
100
AcDbEntity
  8
DD
370
    30
100
AcDbLine
 10
22.04519002474525
 20
12.73034098933117
 30
0.0
 11
22.20866528536627
 21
12.73034098933117
 31
0.0
  0
LINE
  5
9B7
330
19
100
AcDbEntity
  8
DD
370
    30
100
AcDbLine
 10
22.04519002474525
 20
12.81207861964165
 30
0.0
 11
22.20866528536627
 21
12.81207861964165
 31
0.0
  0
LINE
  5
9B8
330
19
100
AcDbEntity
  8
DD
370
    30
100
AcDbLine
 10
22.04519002474525
 20
12.97546444624665
 30
0.0
 11
22.20866528536627
 21
12.97546444624665
 31
0.0
  0
LINE
  5
9B9
330
19
100
AcDbEntity
  8
DD
370
    30
100
AcDbLine
 10
22.04519002474525
 20
13.30241496748864
 30
0.0
 11
22.20866528536627
 21
13.30241496748864
 31
0.0
  0
LINE
  5
9BA
330
19
100
AcDbEntity
  8
DD
370
    30
100
AcDbLine
 10
22.04519002474525
 20
13.05720207655714
 30
0.0
 11
22.20866528536627
 21
13.05720207655714
 31
0.0
  0
LINE
  5
9BB
330
19
100
AcDbEntity
  8
DD
370
    30
100
AcDbLine
 10
22.04519002474525
 20
13.22067733717813
 30
0.0
 11
22.20866528536627
 21
13.22067733717813
 31
0.0
  0
LINE
  5
9BC
330
19
100
AcDbEntity
  8
DD
370
    30
100
AcDbLine
 10
22.04519002474525
 20
12.84046993507879
 30
0.0
 11
22.04519002474525
 21
12.75873230476828
 31
0.0
  0
LINE
  5
9BD
330
19
100
AcDbEntity
  8
DD
370
    30
100
AcDbLine
 10
22.04519002474525
 20
12.81207861964165
 30
0.0
 11
22.04519002474525
 21
12.73034098933117
 31
0.0
  0
LINE
  5
9BE
330
19
100
AcDbEntity
  8
DD
370
    30
100
AcDbLine
 10
22.04519002474525
 20
13.08559339199428
 30
0.0
 11
22.04519002474525
 21
13.00385576168377
 31
0.0
  0
LINE
  5
9BF
330
19
100
AcDbEntity
  8
DD
370
    30
100
AcDbLine
 10
22.04519002474525
 20
13.05720207655714
 30
0.0
 11
22.04519002474525
 21
12.97546444624665
 31
0.0
  0
LINE
  5
9C0
330
19
100
AcDbEntity
  8
DD
370
    30
100
AcDbLine
 10
22.04519002474525
 20
13.30241496748864
 30
0.0
 11
22.04519002474525
 21
13.22067733717813
 31
0.0
  0
LINE
  5
9C1
330
19
100
AcDbEntity
  8
DD
370
    30
100
AcDbLine
 10
22.04519002474525
 20
13.79284074935162
 30
0.0
 11
22.20866528536627
 21
13.79284074935162
 31
0.0
  0
LINE
  5
9C2
330
19
100
AcDbEntity
  8
DD
370
    30
100
AcDbLine
 10
22.04519002474525
 20
13.54762785842012
 30
0.0
 11
22.20866528536627
 21
13.54762785842012
 31
0.0
  0
LINE
  5
9C3
330
19
100
AcDbEntity
  8
DD
370
    30
100
AcDbLine
 10
22.04519002474525
 20
13.46589022810963
 30
0.0
 11
22.20866528536627
 21
13.46589022810963
 31
0.0
  0
LINE
  5
9C4
330
19
100
AcDbEntity
  8
DD
370
    30
100
AcDbLine
 10
22.04519002474525
 20
13.71110311904112
 30
0.0
 11
22.20866528536627
 21
13.71110311904112
 31
0.0
  0
LINE
  5
9C5
330
19
100
AcDbEntity
  8
DD
370
    30
100
AcDbLine
 10
22.04519002474525
 20
13.54762785842012
 30
0.0
 11
22.04519002474525
 21
13.46589022810963
 31
0.0
  0
LINE
  5
9C6
330
19
100
AcDbEntity
  8
DD
370
    30
100
AcDbLine
 10
22.04519002474525
 20
13.79284074935162
 30
0.0
 11
22.04519002474525
 21
13.71110311904112
 31
0.0
  0
LINE
  5
9C7
330
19
100
AcDbEntity
  8
DD
370
    30
100
AcDbLine
 10
22.63778784449639
 20
13.53540424923158
 30
0.0
 11
22.69909106722924
 21
13.53540424923158
 31
0.0
  0
LINE
  5
9C8
330
19
100
AcDbEntity
  8
DD
370
    30
100
AcDbLine
 10
26.91553381844086
 20
13.2097235993006
 30
0.0
 11
26.91553381844086
 21
13.70723961570333
 31
0.0
  0
LINE
  5
9C9
330
19
100
AcDbEntity
  8
DD
370
    30
100
AcDbLine
 10
26.91553381844086
 20
13.2097235993006
 30
0.0
 11
26.91553381844086
 21
13.70694630073433
 31
0.0
  0
ARC
  5
9CA
330
19
100
AcDbEntity
  8
DD
370
    30
100
AcDbCircle
 10
26.91553381844086
 20
13.29003855984861
 30
0.0
 40
0.080314960548
100
AcDbArc
 50
180.0
 51
270.0
  0
LINE
  5
9CB
330
19
100
AcDbEntity
  8
DD
370
    30
100
AcDbLine
 10
26.92356531449567
 20
13.79982318195676
 30
0.0
 11
26.92356531449567
 21
13.82793341814856
 31
0.0
  0
ARC
  5
9CC
330
19
100
AcDbEntity
  8
DD
370
    30
100
AcDbCircle
 10
26.91556097335993
 20
14.06086950562641
 30
0.0
 40
0.080314960548
100
AcDbArc
 50
180.0
 51
270.0
  0
LINE
  5
9CD
330
19
100
AcDbEntity
  8
DD
370
    30
100
AcDbLine
 10
26.83521885789283
 20
13.96011961333085
 30
0.0
 11
26.83521885789283
 21
13.80785467801155
 31
0.0
  0
ARC
  5
9CE
330
19
100
AcDbEntity
  8
DD
370
    30
100
AcDbCircle
 10
26.93561255857779
 20
13.70378164140086
 30
0.0
 40
0.020078740137
100
AcDbArc
 50
104.9999999999944
 51
180.0
  0
ARC
  5
9CF
330
19
100
AcDbEntity
  8
DD
370
    30
100
AcDbCircle
 10
26.93561255857779
 20
13.6915393415426
 30
0.0
 40
0.020078740137
100
AcDbArc
 50
104.9999999999944
 51
180.0
  0
LINE
  5
9D0
330
19
100
AcDbEntity
  8
DD
370
    30
100
AcDbLine
 10
18.7743486977057
 20
15.37785685450169
 30
0.0
 11
18.46838326513481
 21
14.35126658407005
 31
0.0
  0
LINE
  5
9D2
330
19
100
AcDbEntity
  8
DD
370
    30
100
AcDbLine
 10
18.579688831387
 20
14.72472449530943
 30
0.0
 11
20.65203026978899
 21
14.72472449530943
 31
0.0
  0
LINE
  5
9D3
330
19
100
AcDbEntity
  8
DD
370
    30
100
AcDbLine
 10
14.78592017080385
 20
15.97961089591638
 30
0.0
 11
15.49487816552946
 21
15.97961089591638
 31
0.0
  0
ARC
  5
9D4
330
19
100
AcDbEntity
  8
DD
370
    30
100
AcDbCircle
 10
13.90152404085238
 20
14.96258079379923
 30
0.0
 40
0.039837663511331
100
AcDbArc
 50
90.0
 51
180.0
  0
ARC
  5
9D5
330
19
100
AcDbEntity
  8
DD
370
    30
100
AcDbCircle
 10
13.90152404085238
 20
14.8032301397539
 30
0.0
 40
0.039837663511331
100
AcDbArc
 50
180.0
 51
270.0
  0
LINE
  5
9D6
330
19
100
AcDbEntity
  8
DD
370
    30
100
AcDbLine
 10
14.07282599395088
 20
15.72950737840306
 30
0.0
 11
13.58680649911276
 21
15.72950737840306
 31
0.0
  0
LINE
  5
9D7
330
19
100
AcDbEntity
  8
DD
370
    30
100
AcDbLine
 10
13.98878384458291
 20
15.88885805188181
 30
0.0
 11
13.58680649911276
 21
15.88885805188181
 31
0.0
  0
LINE
  5
9D8
330
19
100
AcDbEntity
  8
DD
370
    30
100
AcDbLine
 10
12.82192335969507
 20
16.55608733425249
 30
0.0
 11
14.60665068500278
 21
16.55608733425249
 31
0.0
  0
LINE
  5
9D9
330
19
100
AcDbEntity
  8
DD
370
    30
100
AcDbLine
 10
12.82192335969507
 20
15.62786977443843
 30
0.0
 11
12.82192335969507
 21
16.55608733425249
 31
0.0
  0
LINE
  5
9DA
330
19
100
AcDbEntity
  8
DD
370
    30
100
AcDbLine
 10
13.51111493844121
 20
15.92471194904201
 30
0.0
 11
13.51111493844121
 21
15.62991321962473
 31
0.0
  0
LINE
  5
9DB
330
19
100
AcDbEntity
  8
DD
370
    30
100
AcDbLine
 10
13.58680649911276
 20
15.88885805188181
 30
0.0
 11
13.58680649911276
 21
15.72950737840306
 31
0.0
  0
LINE
  5
9DC
330
19
100
AcDbEntity
  8
DD
370
    30
100
AcDbLine
 10
12.82192335969507
 20
16.95446396936579
 30
0.0
 11
12.82192335969507
 21
15.61471828534264
 31
0.0
  0
LINE
  5
9DD
330
19
100
AcDbEntity
  8
DD
370
    30
100
AcDbLine
 10
13.02111167725175
 20
14.56420415868593
 30
0.0
 11
13.75412468586032
 21
14.56420415868593
 31
0.0
  0
LINE
  5
9DE
330
19
100
AcDbEntity
  8
DD
370
    30
100
AcDbLine
 10
13.02111167725175
 20
15.20160677486726
 30
0.0
 11
13.75412468586032
 21
15.20160677486726
 31
0.0
  0
LINE
  5
9DF
330
19
100
AcDbEntity
  8
DD
370
    30
100
AcDbLine
 10
12.94143635022906
 20
14.30525934586227
 30
0.0
 11
12.82192335969507
 21
14.30525934586227
 31
0.0
  0
LINE
  5
9E0
330
19
100
AcDbEntity
  8
DD
370
    30
100
AcDbLine
 10
12.92151751847336
 20
15.58803211092714
 30
0.0
 11
12.82192335969507
 21
15.61471828534264
 31
0.0
  0
LINE
  5
9E1
330
19
100
AcDbEntity
  8
DD
370
    30
100
AcDbLine
 10
12.92151751847336
 20
15.58803211092714
 30
0.0
 11
13.02111167725175
 21
15.58803211092714
 31
0.0
  0
LINE
  5
9E2
330
19
100
AcDbEntity
  8
DD
370
    30
100
AcDbLine
 10
12.92151751847336
 20
15.58803211092714
 30
0.0
 11
12.91618384145108
 21
15.58803211092714
 31
0.0
  0
LINE
  5
9E3
330
19
100
AcDbEntity
  8
DD
370
    30
100
AcDbLine
 10
13.86168637734109
 20
14.96258079379923
 30
0.0
 11
13.86168637734109
 21
14.88290546677659
 31
0.0
  0
LINE
  5
9E4
330
19
100
AcDbEntity
  8
DD
370
    30
100
AcDbLine
 10
13.86168637734109
 20
14.8032301397539
 30
0.0
 11
13.86168637734109
 21
14.88290546677659
 31
0.0
  0
ARC
  5
9E5
330
19
100
AcDbEntity
  8
DD
370
    30
100
AcDbCircle
 10
13.75412468586032
 20
14.52436649517459
 30
0.0
 40
0.039837663511331
100
AcDbArc
 50
0.0
 51
90.0
  0
LINE
  5
9E6
330
19
100
AcDbEntity
  8
DD
370
    30
100
AcDbLine
 10
13.79396234937162
 20
14.2155730409511
 30
0.0
 11
13.79396234937162
 21
14.52436649517459
 31
0.0
  0
ARC
  5
9E7
330
19
100
AcDbEntity
  8
DD
370
    30
100
AcDbCircle
 10
13.75412468586032
 20
15.2414444383786
 30
0.0
 40
0.039837663511331
100
AcDbArc
 50
270.0
 51
0.0
  0
LINE
  5
9E8
330
19
100
AcDbEntity
  8
DD
370
    30
100
AcDbLine
 10
13.79396234937162
 20
15.55023789260204
 30
0.0
 11
13.79396234937162
 21
15.2414444383786
 31
0.0
  0
ARC
  5
9E9
330
19
100
AcDbEntity
  8
DD
370
    30
100
AcDbCircle
 10
13.75412468586032
 20
15.55023789260204
 30
0.0
 40
0.039837663511331
100
AcDbArc
 50
0.0
 51
90.0
  0
ARC
  5
9EA
330
19
100
AcDbEntity
  8
DD
370
    30
100
AcDbCircle
 10
13.55095260195251
 20
15.62991321962473
 30
0.0
 40
0.039837663511331
100
AcDbArc
 50
180.0
 51
270.0
  0
LINE
  5
9EB
330
19
100
AcDbEntity
  8
DD
370
    30
100
AcDbLine
 10
13.75412468586032
 20
15.59007555611338
 30
0.0
 11
13.55095260195251
 21
15.59007555611338
 31
0.0
  0
LINE
  5
9EC
330
19
100
AcDbEntity
  8
DD
370
    30
100
AcDbLine
 10
12.82192335969507
 20
16.47641200722985
 30
0.0
 11
13.77005975126488
 21
16.47641200722985
 31
0.0
  0
LINE
  5
9ED
330
19
100
AcDbEntity
  8
DD
370
    30
100
AcDbLine
 10
12.96135518198476
 20
16.95446396936579
 30
0.0
 11
12.82192335969507
 21
16.95446396936579
 31
0.0
  0
POINT
  5
9EE
330
19
100
AcDbEntity
  8
DD
370
    30
100
AcDbPoint
 10
12.82192335969507
 20
16.95446396936579
 30
0.0
  0
LINE
  5
9EF
330
19
100
AcDbEntity
  8
0
  6
CENTER2
100
AcDbLine
 10
13.05596953554021
 20
16.75726753498468
 30
0.0
 11
12.72910168029469
 21
16.75726753498468
 31
0.0
  0
POINT
  5
9F0
330
19
100
AcDbEntity
  8
DD
370
    30
100
AcDbPoint
 10
12.82192335969507
 20
16.55608733425249
 30
0.0
  0
LINE
  5
9F1
330
19
100
AcDbEntity
  8
DD
370
    30
100
AcDbLine
 10
12.96135518198476
 20
16.67560032478652
 30
0.0
 11
13.08086817251874
 21
16.55608733425249
 31
0.0
  0
LINE
  5
9F2
330
19
100
AcDbEntity
  8
DD
370
    30
100
AcDbLine
 10
12.96135518198476
 20
16.95446396936579
 30
0.0
 11
12.96135518198476
 21
16.55608733425249
 31
0.0
  0
LINE
  5
9F3
330
19
100
AcDbEntity
  8
DD
370
    30
100
AcDbLine
 10
13.80989741477617
 20
16.4365743437185
 30
0.0
 11
13.80989741477617
 21
16.00438727606465
 31
0.0
  0
ARC
  5
9F4
330
19
100
AcDbEntity
  8
DD
370
    30
100
AcDbCircle
 10
13.77005975126488
 20
16.00438727606465
 30
0.0
 40
0.039837663511331
100
AcDbArc
 50
270.0
 51
0.0
  0
ARC
  5
9F5
330
19
100
AcDbEntity
  8
DD
370
    30
100
AcDbCircle
 10
13.77005975126488
 20
16.4365743437185
 30
0.0
 40
0.039837663511331
100
AcDbArc
 50
0.0
 51
90.0
  0
ARC
  5
9F6
330
19
100
AcDbEntity
  8
DD
370
    30
100
AcDbCircle
 10
13.55095260195251
 20
15.92471194904201
 30
0.0
 40
0.039837663511331
100
AcDbArc
 50
90.0
 51
180.0
  0
LINE
  5
9F7
330
19
100
AcDbEntity
  8
DD
370
    30
100
AcDbLine
 10
13.77005975126488
 20
15.96454961255336
 30
0.0
 11
13.55095260195251
 21
15.96454961255336
 31
0.0
  0
LINE
  5
9F8
330
19
100
AcDbEntity
  8
DD
370
    30
100
AcDbLine
 10
14.78592017080385
 20
15.00241845731063
 30
0.0
 11
14.78592017080385
 21
16.37681784845151
 31
0.0
  0
LINE
  5
9F9
330
19
100
AcDbEntity
  8
DD
370
    30
100
AcDbLine
 10
14.78592017080385
 20
15.00241845731063
 30
0.0
 11
13.90152404085238
 21
15.00241845731063
 31
0.0
  0
LINE
  5
9FA
330
19
100
AcDbEntity
  8
DD
370
    30
100
AcDbLine
 10
14.78592017080385
 20
15.65973990524755
 30
0.0
 11
14.07282599395088
 21
15.65973990524755
 31
0.0
  0
LINE
  5
9FB
330
19
100
AcDbEntity
  8
DD
370
    30
100
AcDbLine
 10
14.78592017080385
 20
14.76339247624256
 30
0.0
 11
13.90152404085238
 21
14.76339247624256
 31
0.0
  0
LINE
  5
9FC
330
19
100
AcDbEntity
  8
DD
370
    30
100
AcDbLine
 10
14.07282599395088
 20
15.72950737840306
 30
0.0
 11
14.07282599395088
 21
15.65973990524755
 31
0.0
  0
LINE
  5
9FD
330
19
100
AcDbEntity
  8
DD
370
    30
100
AcDbLine
 10
14.78592017080385
 20
15.00241845731063
 30
0.0
 11
14.78592017080385
 21
14.76339247624256
 31
0.0
  0
LINE
  5
9FE
330
19
100
AcDbEntity
  8
DD
370
    30
100
AcDbLine
 10
14.78592017080385
 20
15.95852238158251
 30
0.0
 11
14.02900456408855
 21
15.95852238158251
 31
0.0
  0
LINE
  5
9FF
330
19
100
AcDbEntity
  8
DD
370
    30
100
AcDbLine
 10
14.78592017080385
 20
15.88283082091096
 30
0.0
 11
14.53892665703371
 21
15.88283082091096
 31
0.0
  0
ARC
  5
A00
330
19
100
AcDbEntity
  8
DD
370
    30
100
AcDbCircle
 10
14.60665068500278
 20
16.37681784845151
 30
0.0
 40
0.1792694858009896
100
AcDbArc
 50
0.0
 51
90.0
  0
LINE
  5
A01
330
19
100
AcDbEntity
  8
DD
370
    30
100
AcDbLine
 10
14.17640391908031
 20
15.93063601712458
 30
0.0
 11
14.01290436406203
 21
15.93063601712458
 31
0.0
  0
LINE
  5
A02
330
19
100
AcDbEntity
  8
DD
370
    30
100
AcDbLine
 10
14.02900456408855
 20
15.95852238158251
 30
0.0
 11
13.98878384458291
 21
15.88885805188181
 31
0.0
  0
LINE
  5
A03
330
19
100
AcDbEntity
  8
DD
370
    30
100
AcDbLine
 10
14.17640391908031
 20
15.95852238158251
 30
0.0
 11
14.17640391908031
 21
15.93063601712458
 31
0.0
  0
LINE
  5
A04
330
19
100
AcDbEntity
  8
DD
370
    30
100
AcDbLine
 10
14.53892665703371
 20
15.95852238158251
 30
0.0
 11
14.53892665703371
 21
15.88283082091096
 31
0.0
  0
LINE
  5
A05
330
19
100
AcDbEntity
  8
DD
370
    30
100
AcDbLine
 10
14.66640718026977
 20
15.88283082091096
 30
0.0
 11
14.66640718026977
 21
15.78722042848376
 31
0.0
  0
LINE
  5
A06
330
19
100
AcDbEntity
  8
DD
  6
Continuous
100
AcDbLine
 10
14.78592017080385
 20
15.78722042848376
 30
0.0
 11
14.66640718026977
 21
15.78722042848376
 31
0.0
  0
LINE
  5
A07
330
19
100
AcDbEntity
  8
DD
370
    30
100
AcDbLine
 10
15.85341713713141
 20
14.72472449530943
 30
0.0
 11
18.23631090731882
 21
14.72472449530943
 31
0.0
  0
LINE
  5
A08
330
19
100
AcDbEntity
  8
DD
370
    30
100
AcDbLine
 10
15.85341713713141
 20
15.0434258034001
 30
0.0
 11
18.33177623021487
 21
15.0434258034001
 31
0.0
  0
LINE
  5
A0A
330
19
100
AcDbEntity
  8
DD
370
    30
100
AcDbLine
 10
15.85341713713141
 20
14.48569851424147
 30
0.0
 11
15.85341713713141
 21
15.28245178446806
 31
0.0
  0
LINE
  5
A0B
330
19
100
AcDbEntity
  8
DD
370
    30
100
AcDbLine
 10
15.49487816552946
 20
14.48569851424147
 30
0.0
 11
15.85341713713141
 21
14.48569851424147
 31
0.0
  0
LINE
  5
A0C
330
19
100
AcDbEntity
  8
DD
370
    30
100
AcDbLine
 10
15.55463466079645
 20
14.39981571574298
 30
0.0
 11
15.79366064186442
 21
14.39981571574298
 31
0.0
  0
LINE
  5
A0D
330
19
100
AcDbEntity
  8
DD
370
    30
100
AcDbLine
 10
15.63430998781903
 20
14.35997805223169
 30
0.0
 11
15.71398531484172
 21
14.35997805223169
 31
0.0
  0
LINE
  5
A0E
330
19
100
AcDbEntity
  8
DD
370
    30
100
AcDbLine
 10
15.57455349255204
 20
14.3002215569647
 30
0.0
 11
15.77374181010872
 21
14.3002215569647
 31
0.0
  0
LINE
  5
A0F
330
19
100
AcDbEntity
  8
DD
370
    30
100
AcDbLine
 10
15.55463466079645
 20
14.32014038872034
 30
0.0
 11
15.55463466079645
 21
14.39981571574298
 31
0.0
  0
LINE
  5
A10
330
19
100
AcDbEntity
  8
DD
370
    30
100
AcDbLine
 10
15.61439115606344
 20
14.39981571574298
 30
0.0
 11
15.61439115606344
 21
14.48569851424147
 31
0.0
  0
LINE
  5
A11
330
19
100
AcDbEntity
  8
DD
370
    30
100
AcDbLine
 10
15.63430998781903
 20
14.3002215569647
 30
0.0
 11
15.63430998781903
 21
14.35997805223169
 31
0.0
  0
ARC
  5
A12
330
19
100
AcDbEntity
  8
DD
370
    30
100
AcDbCircle
 10
15.57455349255204
 20
14.32014038872034
 30
0.0
 40
0.0199188317556655
100
AcDbArc
 50
180.0
 51
269.9999999999739
  0
LINE
  5
A13
330
19
100
AcDbEntity
  8
DD
370
    30
100
AcDbLine
 10
15.79366064186442
 20
14.32014038872034
 30
0.0
 11
15.79366064186442
 21
14.39981571574298
 31
0.0
  0
LINE
  5
A14
330
19
100
AcDbEntity
  8
DD
370
    30
100
AcDbLine
 10
15.73390414659742
 20
14.39981571574298
 30
0.0
 11
15.73390414659742
 21
14.48569851424147
 31
0.0
  0
LINE
  5
A15
330
19
100
AcDbEntity
  8
DD
370
    30
100
AcDbLine
 10
15.71398531484172
 20
14.3002215569647
 30
0.0
 11
15.71398531484172
 21
14.35997805223169
 31
0.0
  0
ARC
  5
A16
330
19
100
AcDbEntity
  8
DD
370
    30
100
AcDbCircle
 10
15.77374181010872
 20
14.32014038872034
 30
0.0
 40
0.0199188317556655
100
AcDbArc
 50
269.9999999999739
 51
0.0
  0
LINE
  5
A17
330
19
100
AcDbEntity
  8
DD
370
    30
100
AcDbLine
 10
15.49487816552946
 20
15.28245178446806
 30
0.0
 11
15.85341713713141
 21
15.28245178446806
 31
0.0
  0
LINE
  5
A18
330
19
100
AcDbEntity
  8
DD
370
    30
100
AcDbLine
 10
15.55463466079645
 20
15.36833458296655
 30
0.0
 11
15.79366064186442
 21
15.36833458296655
 31
0.0
  0
LINE
  5
A19
330
19
100
AcDbEntity
  8
DD
370
    30
100
AcDbLine
 10
15.57455349255204
 20
15.46792874174484
 30
0.0
 11
15.77374181010872
 21
15.46792874174489
 31
0.0
  0
LINE
  5
A1A
330
19
100
AcDbEntity
  8
DD
370
    30
100
AcDbLine
 10
15.63430998781903
 20
15.40817224647784
 30
0.0
 11
15.71398531484172
 21
15.40817224647784
 31
0.0
  0
LINE
  5
A1B
330
19
100
AcDbEntity
  8
DD
370
    30
100
AcDbLine
 10
15.61439115606344
 20
15.36833458296655
 30
0.0
 11
15.61439115606344
 21
15.28245178446806
 31
0.0
  0
LINE
  5
A1C
330
19
100
AcDbEntity
  8
DD
370
    30
100
AcDbLine
 10
15.55463466079645
 20
15.44800990998919
 30
0.0
 11
15.55463466079645
 21
15.36833458296655
 31
0.0
  0
ARC
  5
A1D
330
19
100
AcDbEntity
  8
DD
370
    30
100
AcDbCircle
 10
15.57455349255204
 20
15.44800990998919
 30
0.0
 40
0.0199188317556655
100
AcDbArc
 50
90.0
 51
180.0
  0
LINE
  5
A1E
330
19
100
AcDbEntity
  8
DD
370
    30
100
AcDbLine
 10
15.63430998781903
 20
15.46792874174484
 30
0.0
 11
15.63430998781903
 21
15.40817224647784
 31
0.0
  0
LINE
  5
A1F
330
19
100
AcDbEntity
  8
DD
370
    30
100
AcDbLine
 10
15.73390414659742
 20
15.36833458296655
 30
0.0
 11
15.73390414659742
 21
15.28245178446806
 31
0.0
  0
LINE
  5
A20
330
19
100
AcDbEntity
  8
DD
370
    30
100
AcDbLine
 10
15.79366064186442
 20
15.44800990998919
 30
0.0
 11
15.79366064186442
 21
15.36833458296655
 31
0.0
  0
ARC
  5
A21
330
19
100
AcDbEntity
  8
DD
370
    30
100
AcDbCircle
 10
15.77374181010872
 20
15.44800990998919
 30
0.0
 40
0.0199188317556655
100
AcDbArc
 50
0.0
 51
90.0
  0
LINE
  5
A22
330
19
100
AcDbEntity
  8
DD
370
    30
100
AcDbLine
 10
15.71398531484172
 20
15.46792874174489
 30
0.0
 11
15.71398531484172
 21
15.40817224647784
 31
0.0
  0
LINE
  5
A25
330
19
100
AcDbEntity
  8
DD
370
    30
100
AcDbLine
 10
18.42894997141026
 20
15.36783049288877
 30
0.0
 11
18.14205914928245
 21
14.41007455054636
 31
0.0
  0
LINE
  5
A27
330
19
100
AcDbEntity
  8
DD
370
    30
100
AcDbLine
 10
22.49699439325265
 20
15.63482654911444
 30
0.0
 11
21.59563305803752
 21
15.94706727425474
 31
0.0
  0
LINE
  5
A28
330
19
100
AcDbEntity
  8
DD
370
    30
100
AcDbLine
 10
18.67467471465459
 20
15.04342580340009
 30
0.0
 11
20.65203026978899
 21
15.0434258034001
 31
0.0
  0
LINE
  5
A29
330
19
100
AcDbEntity
  8
DD
370
    30
100
AcDbLine
 10
20.65203026978899
 20
15.49710737668349
 30
0.0
 11
20.65203026978899
 21
14.27104292202604
 31
0.0
  0
LINE
  5
A2A
330
19
100
AcDbEntity
  8
DD
370
    30
100
AcDbLine
 10
20.65203026978899
 20
14.27104292202604
 30
0.0
 11
20.81802053441952
 21
14.27104292202604
 31
0.0
  0
LINE
  5
A2B
330
19
100
AcDbEntity
  8
DD
370
    30
100
AcDbLine
 10
20.65203026978899
 20
15.49710737668349
 30
0.0
 11
20.81802053441952
 21
15.49710737668349
 31
0.0
  0
LINE
  5
A2C
330
19
100
AcDbEntity
  8
DD
370
    30
100
AcDbLine
 10
21.39018394659304
 20
16.06517751035476
 30
0.0
 11
20.81802053441952
 21
16.18328774645476
 31
0.0
  0
LINE
  5
A2D
330
19
100
AcDbEntity
  8
DD
370
    30
100
AcDbLine
 10
21.39018394659304
 20
15.94706727425476
 30
0.0
 11
21.59563305803752
 21
15.94706727425476
 31
0.0
  0
LINE
  5
A2E
330
19
100
AcDbEntity
  8
DD
370
    30
100
AcDbLine
 10
22.05494419319416
 20
15.78795723003247
 30
0.0
 11
22.05494419319416
 21
15.7158014098471
 31
0.0
  0
ARC
  5
A2F
330
19
100
AcDbEntity
  8
DD
370
    30
100
AcDbCircle
 10
13.94565240351949
 20
13.32484981166329
 30
0.0
 40
8.829921220111152
100
AcDbArc
 50
10.10000272425021
 51
14.74694350700283
  0
ARC
  5
A30
330
19
100
AcDbEntity
  8
DD
370
    30
100
AcDbCircle
 10
22.46720925401298
 20
15.55870897105755
 30
0.0
 40
0.0817376303104961
100
AcDbArc
 50
14.68912017936802
 51
68.62937773064349
  0
LINE
  5
A31
330
19
100
AcDbEntity
  8
DD
370
    30
100
AcDbLine
 10
22.47864153670372
 20
15.57828156951759
 30
0.0
 11
22.05494419319416
 21
15.7158014098471
 31
0.0
  0
ARC
  5
A32
330
19
100
AcDbEntity
  8
DD
370
    30
100
AcDbCircle
 10
22.46720925401298
 20
15.55870897105755
 30
0.0
 40
0.0222888114734961
100
AcDbArc
 50
38.25522805139818
 51
68.62937773064349
  0
ARC
  5
A33
330
19
100
AcDbEntity
  8
DD
370
    30
100
AcDbCircle
 10
13.94565240351949
 20
13.32484981166329
 30
0.0
 40
8.891224442844025
100
AcDbArc
 50
10.10000272425021
 51
14.68912017936802
  0
ARC
  5
A34
330
19
100
AcDbEntity
  8
DD
370
    30
100
AcDbCircle
 10
26.91556097335993
 20
15.7073261968604
 30
0.0
 40
0.080314960548
100
AcDbArc
 50
90.0
 51
180.0
  0
LINE
  5
A35
330
19
100
AcDbEntity
  8
DD
370
    30
100
AcDbLine
 10
26.83521885789283
 20
16.47577237370449
 30
0.0
 11
26.83521885789283
 21
14.88407514935477
 31
0.0
  0
LINE
  5
A36
330
19
100
AcDbEntity
  8
DD
370
    30
100
AcDbLine
 10
26.83521885789283
 20
16.47577237370449
 30
0.0
 11
26.83521885789283
 21
14.88407514935477
 31
0.0
  0
ARC
  5
A37
330
19
100
AcDbEntity
  8
DD
370
    30
100
AcDbCircle
 10
26.91553381844086
 20
16.47577237370449
 30
0.0
 40
0.080314960548
100
AcDbArc
 50
90.0
 51
180.0
  0
LINE
  5
A38
330
19
100
AcDbEntity
  8
DD
370
    30
100
AcDbLine
 10
26.91553381844076
 20
16.55608733425247
 30
0.0
 11
26.91553381844086
 21
16.06120399797517
 31
0.0
  0
LINE
  5
A39
330
19
100
AcDbEntity
  8
DD
370
    30
100
AcDbLine
 10
26.91553381844086
 20
16.55608733425247
 30
0.0
 11
26.91553381844086
 21
16.06091068300617
 31
0.0
  0
LINE
  5
A3A
330
19
100
AcDbEntity
  8
DD
370
    30
100
AcDbLine
 10
26.92356531449557
 20
15.96832711675277
 30
0.0
 11
26.92356531449557
 21
15.94021688056095
 31
0.0
  0
LINE
  5
A3B
330
19
100
AcDbEntity
  8
DD
370
    30
100
AcDbLine
 10
26.83521885789283
 20
15.80803068537868
 30
0.0
 11
26.83521885789283
 21
15.96029562069795
 31
0.0
  0
ARC
  5
A3C
330
19
100
AcDbEntity
  8
DD
370
    30
100
AcDbCircle
 10
26.93561255857779
 20
16.07661095716693
 30
0.0
 40
0.020078740137
100
AcDbArc
 50
180.0
 51
255.0000000000056
  0
ARC
  5
A3D
330
19
100
AcDbEntity
  8
DD
370
    30
100
AcDbCircle
 10
26.93561255857779
 20
16.06436865730868
 30
0.0
 40
0.020078740137
100
AcDbArc
 50
180.0
 51
255.0000000000056
  0
ARC
  5
A3E
330
19
100
AcDbEntity
  8
DD
370
    30
100
AcDbCircle
 10
28.28088814775683
 20
14.88407514935477
 30
0.0
 40
1.181102360999999
100
AcDbArc
 50
314.2462924910542
 51
225.7537075089411
  0
ARC
  5
A3F
330
19
100
AcDbEntity
  8
DD
370
    30
100
AcDbCircle
 10
28.28088814775683
 20
14.88407514935477
 30
0.0
 40
1.0629921249
100
AcDbArc
 50
320.829629769492
 51
219.1703702305001
  0
ARC
  5
A40
330
19
100
AcDbEntity
  8
DD
370
    30
100
AcDbCircle
 10
28.28088814775683
 20
14.88407514935477
 30
0.0
 40
1.299212597099999
100
AcDbArc
 50
309.3690366124429
 51
230.6309633875523
  0
LINE
  5
A42
330
19
100
AcDbEntity
  8
DD
370
    30
100
AcDbLine
 10
29.1049953607872
 20
14.88407514935477
 30
0.0
 11
29.1049953607872
 21
10.9050327609853
 31
0.0
  0
LINE
  5
A43
330
19
100
AcDbEntity
  8
DD
370
    30
100
AcDbLine
 10
27.55979433635517
 20
14.88407514935477
 30
0.0
 11
27.55979433635517
 21
10.9050327609853
 31
0.0
  0
LINE
  5
A44
330
19
100
AcDbEntity
  8
DD
370
    30
100
AcDbLine
 10
29.0019819591584
 20
14.88407514935477
 30
0.0
 11
29.0019819591584
 21
10.9050327609853
 31
0.0
  0
LINE
  5
A45
330
19
100
AcDbEntity
  8
DD
370
    30
100
AcDbLine
 10
27.45678093472637
 20
14.88407514935477
 30
0.0
 11
27.45678093472637
 21
10.9050327609853
 31
0.0
  0
LINE
  5
A46
330
19
100
AcDbEntity
  8
DD
370
    30
100
AcDbLine
 10
29.72655743762084
 20
13.29003855984861
 30
0.0
 11
29.72655743762084
 21
14.88407514935477
 31
0.0
  0
LINE
  5
A47
330
19
100
AcDbEntity
  8
DD
370
    30
100
AcDbLine
 10
29.72655743762084
 20
13.29003855984861
 30
0.0
 11
29.72655743762084
 21
14.88407514935477
 31
0.0
  0
LINE
  5
A48
330
19
100
AcDbEntity
  8
DD
370
    30
100
AcDbLine
 10
29.72658459253992
 20
15.7073261968604
 30
0.0
 11
29.72658459253992
 21
14.06086950562641
 31
0.0
  0
LINE
  5
A49
330
19
100
AcDbEntity
  8
DD
370
    30
100
AcDbLine
 10
27.95124526254467
 20
15.52541114013545
 30
0.0
 11
27.95124526254467
 21
13.12710386346693
 31
0.0
  0
LINE
  5
A4A
330
19
100
AcDbEntity
  8
DD
370
    30
100
AcDbLine
 10
28.610531032969
 20
15.5254111401355
 30
0.0
 11
28.610531032969
 21
13.12710386346693
 31
0.0
  0
ARC
  5
A4B
330
19
100
AcDbEntity
  8
DD
370
    30
100
AcDbCircle
 10
28.28088814775683
 20
10.9050327609853
 30
0.0
 40
0.721093811401599
100
AcDbArc
 50
180.0
 51
0.0
  0
ARC
  5
A4C
330
19
100
AcDbEntity
  8
DD
370
    30
100
AcDbCircle
 10
28.28088814775683
 20
10.9050327609853
 30
0.0
 40
0.8241072130303994
100
AcDbArc
 50
180.0
 51
0.0
  0
ARC
  5
A4D
330
19
100
AcDbEntity
  8
DD
370
    30
100
AcDbCircle
 10
27.70145858803697
 20
11.12990318160812
 30
0.0
 40
0.20078740137
100
AcDbArc
 50
224.9999999999956
 51
225.1265283488521
  0
ARC
  5
A4E
330
19
100
AcDbEntity
  8
DD
370
    30
100
AcDbCircle
 10
28.28088814775683
 20
13.12710386346693
 30
0.0
 40
0.3296428852121616
100
AcDbArc
 50
180.0
 51
0.0
  0
LINE
  5
A4F
330
19
100
AcDbEntity
  8
DD
370
    30
100
AcDbLine
 10
27.45678093472637
 20
13.00981506534401
 30
0.0
 11
27.28039610808357
 21
13.18619989198681
 31
0.0
  0
ARC
  5
A50
330
19
100
AcDbEntity
  8
DD
370
    30
100
AcDbCircle
 10
27.19663618035881
 20
13.24988107957459
 30
0.0
 40
0.040157480274
100
AcDbArc
 50
180.0
 51
270.0
  0
LINE
  5
A51
330
19
100
AcDbEntity
  8
DD
370
    30
100
AcDbLine
 10
27.15647870008484
 20
13.24988107957459
 30
0.0
 11
27.15647870008484
 21
13.39043226053359
 31
0.0
  0
ARC
  5
A52
330
19
100
AcDbEntity
  8
DD
370
    30
100
AcDbCircle
 10
27.22360485484931
 20
13.1294086387526
 30
0.0
 40
0.080314960548
100
AcDbArc
 50
44.9999999999956
 51
90.0
  0
ARC
  5
A53
330
19
100
AcDbEntity
  8
DD
370
    30
100
AcDbCircle
 10
27.39742358172883
 20
13.71750034739505
 30
0.0
 40
0.120472440822
100
AcDbArc
 50
66.93961710862073
 51
299.518517515107
  0
LINE
  5
A54
330
19
100
AcDbEntity
  8
DD
370
    30
100
AcDbLine
 10
27.29338808802971
 20
13.65675312483802
 30
0.0
 11
27.45590638739844
 21
13.81927142420676
 31
0.0
  0
ARC
  5
A55
330
19
100
AcDbEntity
  8
DD
370
    30
100
AcDbCircle
 10
27.39742358172883
 20
13.71750034739505
 30
0.0
 40
0.1505905510275
100
AcDbArc
 50
89.8260365038616
 51
293.2138364036336
  0
LINE
  5
A56
330
19
100
AcDbEntity
  8
DD
370
    30
100
AcDbLine
 10
27.33580212160914
 20
13.61398027856618
 30
0.0
 11
27.45678093472637
 21
13.73495909168339
 31
0.0
  0
LINE
  5
A57
330
19
100
AcDbEntity
  8
DD
370
    30
100
AcDbLine
 10
27.01994326715322
 20
13.78777593787457
 30
0.0
 11
27.01994326715322
 21
13.73492272819901
 31
0.0
  0
LINE
  5
A58
330
19
100
AcDbEntity
  8
DD
370
    30
100
AcDbLine
 10
27.01994326715322
 20
13.74716502805726
 30
0.0
 11
27.01994326715322
 21
13.98050914130112
 31
0.0
  0
ARC
  5
A59
330
19
100
AcDbEntity
  8
DD
370
    30
100
AcDbCircle
 10
27.01191177109841
 20
13.75332781173397
 30
0.0
 40
0.0080314960548
100
AcDbArc
 50
284.9999999999944
 51
0.0
  0
LINE
  5
A5A
330
19
100
AcDbEntity
  8
DD
370
    30
100
AcDbLine
 10
27.01994326715322
 20
13.73492272819901
 30
0.0
 11
26.97863769545552
 21
13.73492272819901
 31
0.0
  0
ARC
  5
A5B
330
19
100
AcDbEntity
  8
DD
370
    30
100
AcDbCircle
 10
26.99986452701619
 20
13.75032968739074
 30
0.0
 40
0.020078740137
100
AcDbArc
 50
284.9999999999944
 51
0.0
  0
LINE
  5
A5C
330
19
100
AcDbEntity
  8
DD
370
    30
100
AcDbLine
 10
26.98781728293408
 20
13.87612239447736
 30
0.0
 11
27.01994326715322
 21
13.87612239447736
 31
0.0
  0
LINE
  5
A5D
330
19
100
AcDbEntity
  8
DD
370
    30
100
AcDbLine
 10
26.98781728293397
 20
13.87612239447736
 30
0.0
 11
26.98781728293397
 21
13.96011961333085
 31
0.0
  0
LINE
  5
A5E
330
19
100
AcDbEntity
  8
DD
370
    30
100
AcDbLine
 10
27.0038802750436
 20
13.87612239447736
 30
0.0
 11
27.0038802750436
 21
13.97250034713496
 31
0.0
  0
LINE
  5
A5F
330
19
100
AcDbEntity
  8
DD
370
    30
100
AcDbLine
 10
27.01994326715322
 20
13.87612239447736
 30
0.0
 11
27.01994326715322
 21
13.98053184318975
 31
0.0
  0
ARC
  5
A60
330
19
100
AcDbEntity
  8
DD
370
    30
100
AcDbCircle
 10
26.99986452701619
 20
13.78777593787457
 30
0.0
 40
0.020078740137
100
AcDbArc
 50
0.0
 51
90.0
  0
LINE
  5
A61
330
19
100
AcDbEntity
  8
DD
370
    30
100
AcDbLine
 10
27.01994326715322
 20
13.78777593787457
 30
0.0
 11
27.01994326715322
 21
13.87612239447736
 31
0.0
  0
LINE
  5
A62
330
19
100
AcDbEntity
  8
DD
370
    30
100
AcDbLine
 10
26.98781728293408
 20
13.79982318195676
 30
0.0
 11
26.98781728293408
 21
13.98050914130112
 31
0.0
  0
LINE
  5
A63
330
19
100
AcDbEntity
  8
DD
370
    30
100
AcDbLine
 10
29.21448543251692
 20
13.9805545450784
 30
0.0
 11
29.64626963199189
 21
13.9805545450784
 31
0.0
  0
LINE
  5
A64
330
19
100
AcDbEntity
  8
DD
370
    30
100
AcDbLine
 10
29.64624247707281
 20
13.20972359930058
 30
0.0
 11
29.1049953607872
 21
13.2097235993006
 31
0.0
  0
ARC
  5
A65
330
19
100
AcDbEntity
  8
DD
370
    30
100
AcDbCircle
 10
29.16435271378484
 20
13.71750034739505
 30
0.0
 40
0.120472440822
100
AcDbArc
 50
240.4814824848618
 51
86.70121262293237
  0
LINE
  5
A66
330
19
100
AcDbEntity
  8
DD
370
    30
100
AcDbLine
 10
29.1049953607872
 20
13.7014312655395
 30
0.0
 11
29.2250999363418
 21
13.82153584109418
 31
0.0
  0
LINE
  5
A67
330
19
100
AcDbEntity
  8
DD
370
    30
100
AcDbLine
 10
29.10273125366515
 20
13.61398027856618
 30
0.0
 11
29.26787278261367
 21
13.77912180751467
 31
0.0
  0
ARC
  5
A68
330
19
100
AcDbEntity
  8
DD
370
    30
100
AcDbCircle
 10
29.16435271378484
 20
13.71750034739505
 30
0.0
 40
0.1505905510275
100
AcDbArc
 50
246.786163596339
 51
75.78421809600809
  0
LINE
  5
A69
330
19
100
AcDbEntity
  8
DD
370
    30
100
AcDbLine
 10
29.64624247707281
 20
13.2097235993006
 30
0.0
 11
29.64624247707281
 21
13.70378164140086
 31
0.0
  0
LINE
  5
A6A
330
19
100
AcDbEntity
  8
DD
370
    30
100
AcDbLine
 10
29.64624247707281
 20
13.2097235993006
 30
0.0
 11
29.64624247707281
 21
13.6915393415426
 31
0.0
  0
ARC
  5
A6B
330
19
100
AcDbEntity
  8
DD
370
    30
100
AcDbCircle
 10
29.64624247707281
 20
13.29003855984861
 30
0.0
 40
0.080314960548
100
AcDbArc
 50
270.0
 51
0.0
  0
ARC
  5
A6C
330
19
100
AcDbEntity
  8
DD
370
    30
100
AcDbCircle
 10
29.36514011515487
 20
13.24988107957462
 30
0.0
 40
0.040157480274
100
AcDbArc
 50
270.0
 51
0.0
  0
LINE
  5
A6D
330
19
100
AcDbEntity
  8
DD
370
    30
100
AcDbLine
 10
29.40529759542883
 20
13.24988107957462
 30
0.0
 11
29.40529759542883
 21
13.39043226053361
 31
0.0
  0
ARC
  5
A6E
330
19
100
AcDbEntity
  8
DD
370
    30
100
AcDbCircle
 10
29.64626963199189
 20
14.06086950562641
 30
0.0
 40
0.080314960548
100
AcDbArc
 50
270.0
 51
0.0
  0
LINE
  5
A6F
330
19
100
AcDbEntity
  8
DD
370
    30
100
AcDbLine
 10
29.57395901257959
 20
13.86997141303343
 30
0.0
 11
29.72655743762084
 21
13.86997141303343
 31
0.0
  0
LINE
  5
A70
330
19
100
AcDbEntity
  8
DD
370
    30
100
AcDbLine
 10
29.72655743762084
 20
13.96011961333085
 30
0.0
 11
29.57395901257959
 21
13.96011961333085
 31
0.0
  0
LINE
  5
A71
330
19
100
AcDbEntity
  8
DD
370
    30
100
AcDbLine
 10
29.72655743762084
 20
13.87612239447736
 30
0.0
 11
29.54183302836044
 21
13.87612239447736
 31
0.0
  0
LINE
  5
A72
330
19
100
AcDbEntity
  8
DD
370
    30
100
AcDbLine
 10
29.72655743762084
 20
13.79982318195676
 30
0.0
 11
29.54183302836034
 21
13.79982318195676
 31
0.0
  0
LINE
  5
A73
330
19
100
AcDbEntity
  8
DD
370
    30
100
AcDbLine
 10
29.72655743762084
 20
13.80785467801158
 30
0.0
 11
29.56191176849737
 21
13.80785467801158
 31
0.0
  0
LINE
  5
A74
330
19
100
AcDbEntity
  8
DD
370
    30
100
AcDbLine
 10
29.54183302836044
 20
13.78777593787457
 30
0.0
 11
29.54183302836044
 21
13.75032968739074
 31
0.0
  0
LINE
  5
A75
330
19
100
AcDbEntity
  8
DD
370
    30
100
AcDbLine
 10
29.54183302836034
 20
13.74716502805726
 30
0.0
 11
29.54183302836034
 21
13.98051004404808
 31
0.0
  0
LINE
  5
A76
330
19
100
AcDbEntity
  8
DD
370
    30
100
AcDbLine
 10
29.54183302836034
 20
13.74716502805726
 30
0.0
 11
29.63136049728495
 21
13.72317621505853
 31
0.0
  0
ARC
  5
A77
330
19
100
AcDbEntity
  8
DD
370
    30
100
AcDbCircle
 10
29.54986452441515
 20
13.75355773671361
 30
0.0
 40
0.0080314960548
100
AcDbArc
 50
180.0
 51
255.0000000000056
  0
LINE
  5
A78
330
19
100
AcDbEntity
  8
DD
370
    30
100
AcDbLine
 10
29.54183302836034
 20
13.74716502805726
 30
0.0
 11
29.54743267635509
 21
13.74716502805726
 31
0.0
  0
ARC
  5
A79
330
19
100
AcDbEntity
  8
DD
370
    30
100
AcDbCircle
 10
29.62616373693578
 20
13.70378164140086
 30
0.0
 40
0.020078740137
100
AcDbArc
 50
0.0
 51
75.00000000000555
  0
ARC
  5
A7A
330
19
100
AcDbEntity
  8
DD
370
    30
100
AcDbCircle
 10
29.56191176849737
 20
13.75032968739076
 30
0.0
 40
0.020078740137
100
AcDbArc
 50
180.0
 51
255.0000000000056
  0
ARC
  5
A7B
330
19
100
AcDbEntity
  8
DD
370
    30
100
AcDbCircle
 10
29.62616373693578
 20
13.6915393415426
 30
0.0
 40
0.020078740137
100
AcDbArc
 50
0.0
 51
75.00000000000555
  0
LINE
  5
A7C
330
19
100
AcDbEntity
  8
DD
370
    30
100
AcDbLine
 10
29.63136049728495
 20
13.71093391520027
 30
0.0
 11
29.5567150081483
 21
13.73093511373307
 31
0.0
  0
LINE
  5
A7D
330
19
100
AcDbEntity
  8
DD
370
    30
100
AcDbLine
 10
29.57395901257959
 20
13.87612239447736
 30
0.0
 11
29.54183302836034
 21
13.87612239447736
 31
0.0
  0
LINE
  5
A7E
330
19
100
AcDbEntity
  8
DD
370
    30
100
AcDbLine
 10
29.54893105536282
 20
13.87612239447736
 30
0.0
 11
29.54893105536282
 21
13.97250034713496
 31
0.0
  0
LINE
  5
A7F
330
19
100
AcDbEntity
  8
DD
370
    30
100
AcDbLine
 10
29.57395901257959
 20
13.87612239447736
 30
0.0
 11
29.57395901257959
 21
13.96011961333085
 31
0.0
  0
LINE
  5
A80
330
19
100
AcDbEntity
  8
DD
370
    30
100
AcDbLine
 10
29.54183302836044
 20
13.87612239447736
 30
0.0
 11
29.54183302836044
 21
13.98051004404808
 31
0.0
  0
LINE
  5
A81
330
19
100
AcDbEntity
  8
DD
370
    30
100
AcDbLine
 10
29.638210981018
 20
13.79982318195676
 30
0.0
 11
29.638210981018
 21
13.82793341814856
 31
0.0
  0
LINE
  5
A82
330
19
100
AcDbEntity
  8
DD
370
    30
100
AcDbLine
 10
29.638210981018
 20
13.82793341814856
 30
0.0
 11
29.57395901257959
 21
13.82793341814856
 31
0.0
  0
ARC
  5
A83
330
19
100
AcDbEntity
  8
DD
370
    30
100
AcDbCircle
 10
29.56191176849737
 20
13.78777593787457
 30
0.0
 40
0.020078740137
100
AcDbArc
 50
90.0
 51
180.0
  0
LINE
  5
A84
330
19
100
AcDbEntity
  8
DD
370
    30
100
AcDbLine
 10
29.54183302836044
 20
13.78777593787457
 30
0.0
 11
29.54183302836044
 21
13.87612239447736
 31
0.0
  0
LINE
  5
A85
330
19
100
AcDbEntity
  8
DD
370
    30
100
AcDbLine
 10
29.57395901257959
 20
13.79982318195676
 30
0.0
 11
29.57395901257959
 21
13.980509766352
 31
0.0
  0
LINE
  5
A86
330
19
100
AcDbEntity
  8
DD
370
    30
100
AcDbLine
 10
29.72655743762084
 20
13.96011961333085
 30
0.0
 11
29.72655743762084
 21
13.80785467801158
 31
0.0
  0
LINE
  5
A88
330
19
100
AcDbEntity
  8
DD
370
    30
100
AcDbLine
 10
28.54191176953775
 20
16.67655977507451
 30
0.0
 11
28.46561255701723
 21
16.67655977507451
 31
0.0
  0
LINE
  5
A89
330
19
100
AcDbEntity
  8
DD
370
    30
100
AcDbLine
 10
28.60357494207537
 20
16.89885286870805
 30
0.0
 11
28.28433311493356
 21
16.57961104156626
 31
0.0
  0
LINE
  5
A8A
330
19
100
AcDbEntity
  8
DD
370
    30
100
AcDbLine
 10
29.64624247707281
 20
16.55608733425252
 30
0.0
 11
28.28088814775683
 21
16.5560873342525
 31
0.0
  0
ARC
  5
A8B
330
19
100
AcDbEntity
  8
DD
370
    30
100
AcDbCircle
 10
28.28088814775683
 20
15.48322694917595
 30
0.0
 40
0.3323310664652189
100
AcDbArc
 50
7.29246938505001
 51
172.70753061495
  0
LINE
  5
A8C
330
19
100
AcDbEntity
  8
DD
370
    30
100
AcDbLine
 10
27.95124526254467
 20
14.78106174772597
 30
0.0
 11
28.610531032969
 21
14.78106174772597
 31
0.0
  0
LINE
  5
A8D
330
19
100
AcDbEntity
  8
DD
370
    30
100
AcDbLine
 10
27.95124526254467
 20
14.67804834609717
 30
0.0
 11
28.610531032969
 21
14.67804834609717
 31
0.0
  0
LINE
  5
A8E
330
19
100
AcDbEntity
  8
DD
370
    30
100
AcDbLine
 10
27.95124526254467
 20
14.57503494446835
 30
0.0
 11
28.610531032969
 21
14.57503494446835
 31
0.0
  0
LINE
  5
A8F
330
19
100
AcDbEntity
  8
DD
370
    30
100
AcDbLine
 10
27.95124526254467
 20
14.47202154283956
 30
0.0
 11
28.610531032969
 21
14.47202154283956
 31
0.0
  0
ARC
  5
A90
330
19
100
AcDbEntity
  8
DD
370
    30
100
AcDbCircle
 10
28.28088814775683
 20
14.88407514935477
 30
0.0
 40
0.7210938114016035
100
AcDbArc
 50
297.2028944121961
 51
90.0
  0
ARC
  5
A91
330
19
100
AcDbEntity
  8
DD
370
    30
100
AcDbCircle
 10
28.28088814775683
 20
14.88407514935477
 30
0.0
 40
0.7210938114016035
100
AcDbArc
 50
90.0
 51
242.7971055877748
  0
LINE
  5
A92
330
19
100
AcDbEntity
  8
DD
370
    30
100
AcDbLine
 10
27.59821098309874
 20
16.5560873342525
 30
0.0
 11
28.28088814775683
 21
16.5560873342525
 31
0.0
  0
ARC
  5
A93
330
19
100
AcDbEntity
  8
DD
370
    30
100
AcDbCircle
 10
27.59821098309874
 20
16.51592985397851
 30
0.0
 40
0.040157480274
100
AcDbArc
 50
0.0
 51
90.0
  0
ARC
  5
A94
330
19
100
AcDbEntity
  8
DD
370
    30
100
AcDbCircle
 10
27.19663618035881
 20
16.51592985397851
 30
0.0
 40
0.040157480274
100
AcDbArc
 50
90.0
 51
180.0
  0
LINE
  5
A95
330
19
100
AcDbEntity
  8
DD
370
    30
100
AcDbLine
 10
27.29338808802971
 20
15.98990272875747
 30
0.0
 11
27.45817080428579
 21
16.1546854450136
 31
0.0
  0
LINE
  5
A96
330
19
100
AcDbEntity
  8
DD
370
    30
100
AcDbLine
 10
27.33580212160914
 20
15.9471298824856
 30
0.0
 11
27.50094365055765
 21
16.11227141143412
 31
0.0
  0
ARC
  5
A97
330
19
100
AcDbEntity
  8
DD
370
    30
100
AcDbCircle
 10
27.39742358172883
 20
16.05064995131447
 30
0.0
 40
0.120472440822
100
AcDbArc
 50
322.5334209725283
 51
293.060382891409
  0
ARC
  5
A98
330
19
100
AcDbEntity
  8
DD
370
    30
100
AcDbCircle
 10
27.39742358172883
 20
16.05064995131447
 30
0.0
 40
0.1505905510275
100
AcDbArc
 50
345.4198403677838
 51
270.1739634961384
  0
LINE
  5
A99
330
19
100
AcDbEntity
  8
DD
370
    30
100
AcDbLine
 10
27.15647870008474
 20
16.51592985397851
 30
0.0
 11
27.15647870008474
 21
16.37537867301951
 31
0.0
  0
LINE
  5
A9A
330
19
100
AcDbEntity
  8
DD
370
    30
100
AcDbLine
 10
27.01994326715322
 20
15.98037436083496
 30
0.0
 11
27.01994326715322
 21
15.89202790423217
 31
0.0
  0
LINE
  5
A9B
330
19
100
AcDbEntity
  8
DD
370
    30
100
AcDbLine
 10
27.01994326715322
 20
16.03322757051052
 30
0.0
 11
26.97863769545552
 21
16.03322757051052
 31
0.0
  0
LINE
  5
A9C
330
19
100
AcDbEntity
  8
DD
370
    30
100
AcDbLine
 10
27.01994326715322
 20
15.98037436083496
 30
0.0
 11
27.01994326715322
 21
16.03322757051052
 31
0.0
  0
LINE
  5
A9D
330
19
100
AcDbEntity
  8
DD
370
    30
100
AcDbLine
 10
26.98781728293397
 20
15.89202790423217
 30
0.0
 11
26.98781728293397
 21
15.80803068537868
 31
0.0
  0
LINE
  5
A9E
330
19
100
AcDbEntity
  8
DD
370
    30
100
AcDbLine
 10
27.01994326715322
 20
15.89202790423217
 30
0.0
 11
27.01994326715322
 21
15.78761845551978
 31
0.0
  0
ARC
  5
A9F
330
19
100
AcDbEntity
  8
DD
370
    30
100
AcDbCircle
 10
27.01191177109841
 20
16.01482248697557
 30
0.0
 40
0.0080314960548
100
AcDbArc
 50
0.0
 51
75.00000000000555
  0
LINE
  5
AA0
330
19
100
AcDbEntity
  8
DD
370
    30
100
AcDbLine
 10
27.0038802750436
 20
15.89202790423217
 30
0.0
 11
27.0038802750436
 21
15.79564995157457
 31
0.0
  0
LINE
  5
AA1
330
19
100
AcDbEntity
  8
DD
370
    30
100
AcDbLine
 10
26.98781728293408
 20
15.79564995157457
 30
0.0
 11
27.01994326715322
 21
15.79564995157457
 31
0.0
  0
LINE
  5
AA2
330
19
100
AcDbEntity
  8
DD
370
    30
100
AcDbLine
 10
26.98781728293408
 20
15.89202790423217
 30
0.0
 11
27.01994326715322
 21
15.89202790423217
 31
0.0
  0
LINE
  5
AA3
330
19
100
AcDbEntity
  8
DD
370
    30
100
AcDbLine
 10
26.98781728293408
 20
15.96832711675277
 30
0.0
 11
26.98781728293408
 21
15.78764115740841
 31
0.0
  0
LINE
  5
AA4
330
19
100
AcDbEntity
  8
DD
370
    30
100
AcDbLine
 10
27.01994326715322
 20
16.02098527065226
 30
0.0
 11
27.01994326715322
 21
15.78764115740841
 31
0.0
  0
LINE
  5
AA5
330
19
100
AcDbEntity
  8
DD
370
    30
100
AcDbLine
 10
27.01994326715322
 20
15.78761845551978
 30
0.0
 11
27.28552820339677
 21
15.78762075122825
 31
0.0
  0
LINE
  5
AA6
330
19
100
AcDbEntity
  8
DD
370
    30
100
AcDbLine
 10
27.01994326715322
 20
15.78761845551978
 30
0.0
 11
27.34731283405808
 21
15.78761845551978
 31
0.0
  0
ARC
  5
AA7
330
19
100
AcDbEntity
  8
DD
370
    30
100
AcDbCircle
 10
26.99986452701619
 20
15.98037436083496
 30
0.0
 40
0.020078740137
100
AcDbArc
 50
270.0
 51
0.0
  0
ARC
  5
AA8
330
19
100
AcDbEntity
  8
DD
370
    30
100
AcDbCircle
 10
26.99986452701619
 20
16.01782061131879
 30
0.0
 40
0.020078740137
100
AcDbArc
 50
0.0
 51
75.00000000000555
  0
LINE
  5
AA9
330
19
100
AcDbEntity
  8
DD
370
    30
100
AcDbLine
 10
27.63836846337281
 20
16.51592985397851
 30
0.0
 11
27.63836846337281
 21
16.37537867301948
 31
0.0
  0
ARC
  5
AAA
330
19
100
AcDbEntity
  8
DD
370
    30
100
AcDbCircle
 10
28.48167554912686
 20
16.51592985397851
 30
0.0
 40
0.040157480274
100
AcDbArc
 50
0.0
 51
90.0
  0
ARC
  5
AAB
330
19
100
AcDbEntity
  8
DD
370
    30
100
AcDbCircle
 10
28.08010074638681
 20
16.51592985397851
 30
0.0
 40
0.040157480274
100
AcDbArc
 50
90.0
 51
180.0
  0
LINE
  5
AAC
330
19
100
AcDbEntity
  8
DD
370
    30
100
AcDbLine
 10
28.03994326611275
 20
16.51592985397851
 30
0.0
 11
28.03994326611285
 21
16.37537867301951
 31
0.0
  0
LINE
  5
AAD
330
19
100
AcDbEntity
  8
DD
370
    30
100
AcDbLine
 10
27.88734484107161
 20
16.45970938159489
 30
0.0
 11
27.88734484107161
 21
16.17942232468525
 31
0.0
  0
LINE
  5
AAE
330
19
100
AcDbEntity
  8
DD
370
    30
100
AcDbLine
 10
27.86726610093458
 20
16.44364638948529
 30
0.0
 11
27.86726610093458
 21
16.24987475855977
 31
0.0
  0
ARC
  5
AAF
330
19
100
AcDbEntity
  8
DD
370
    30
100
AcDbCircle
 10
27.87529759698939
 20
16.45970938159489
 30
0.0
 40
0.0120472440822
100
AcDbArc
 50
0.0
 51
90.0
  0
ARC
  5
AB0
330
19
100
AcDbEntity
  8
DD
370
    30
100
AcDbCircle
 10
27.85923460487986
 20
16.44364638948529
 30
0.0
 40
0.0080314960548
100
AcDbArc
 50
0.0
 51
90.0
  0
LINE
  5
AB1
330
19
100
AcDbEntity
  8
DD
370
    30
100
AcDbLine
 10
27.79096688841405
 20
16.45970938159489
 30
0.0
 11
27.79096688841405
 21
16.14449878668277
 31
0.0
  0
LINE
  5
AB2
330
19
100
AcDbEntity
  8
DD
370
    30
100
AcDbLine
 10
27.81104562855098
 20
16.44364638948529
 30
0.0
 11
27.81104562855098
 21
16.24987475855977
 31
0.0
  0
ARC
  5
AB3
330
19
100
AcDbEntity
  8
DD
370
    30
100
AcDbCircle
 10
27.80301413249617
 20
16.45970938159489
 30
0.0
 40
0.0120472440822
100
AcDbArc
 50
90.0
 51
180.0
  0
ARC
  5
AB4
330
19
100
AcDbEntity
  8
DD
370
    30
100
AcDbCircle
 10
27.8190771246058
 20
16.44364638948529
 30
0.0
 40
0.0080314960548
100
AcDbArc
 50
90.0
 51
180.0
  0
ARC
  5
AB5
330
19
100
AcDbEntity
  8
DD
370
    30
100
AcDbCircle
 10
27.83915586474283
 20
16.141004281931
 30
0.0
 40
0.060236220411
100
AcDbArc
 50
36.86989764583751
 51
143.1301023541625
  0
ARC
  5
AB6
330
19
100
AcDbEntity
  8
DD
370
    30
100
AcDbCircle
 10
27.83915586474283
 20
16.141004281931
 30
0.0
 40
0.0461811023151
100
AcDbArc
 50
45.90449272832787
 51
174.5432761267358
  0
ARC
  5
AB7
330
19
100
AcDbEntity
  8
DD
370
    30
100
AcDbCircle
 10
27.83915586474283
 20
16.141004281931
 30
0.0
 40
0.1124409447672
100
AcDbArc
 50
64.62306647483885
 51
115.3769335251611
  0
LINE
  5
AB8
330
19
100
AcDbEntity
  8
DD
370
    30
100
AcDbLine
 10
27.87529759698939
 20
16.47175662567709
 30
0.0
 11
27.80301413249617
 21
16.47175662567709
 31
0.0
  0
LINE
  5
AB9
330
19
100
AcDbEntity
  8
DD
370
    30
100
AcDbLine
 10
27.85923460487986
 20
16.45167788554011
 30
0.0
 11
27.8190771246058
 21
16.45167788554011
 31
0.0
  0
LINE
  5
ABA
330
19
100
AcDbEntity
  8
DD
370
    30
100
AcDbLine
 10
28.52183302940082
 20
16.51592985397851
 30
0.0
 11
28.52183302940082
 21
16.37537867301948
 31
0.0
  0
LINE
  5
ABB
330
19
100
AcDbEntity
  8
DD
370
    30
100
AcDbLine
 10
27.80075304634268
 20
16.5560873342525
 30
0.0
 11
27.87755868314288
 21
16.5560873342525
 31
0.0
  0
LINE
  5
ABC
330
19
100
AcDbEntity
  8
DD
370
    30
100
AcDbLine
 10
28.46561255701723
 20
16.67655977507451
 30
0.0
 11
28.46561255701723
 21
16.5560873342525
 31
0.0
  0
ARC
  5
ABD
330
19
100
AcDbEntity
  8
DD
370
    30
100
AcDbCircle
 10
28.22754186169941
 20
16.6364022948005
 30
0.0
 40
0.080314960548
100
AcDbArc
 50
270.0
 51
315.0000000000044
  0
ARC
  5
ABE
330
19
100
AcDbEntity
  8
DD
370
    30
100
AcDbCircle
 10
29.64626963199189
 20
15.7073261968604
 30
0.0
 40
0.080314960548
100
AcDbArc
 50
0.0
 51
90.0
  0
LINE
  5
ABF
330
19
100
AcDbEntity
  8
DD
370
    30
100
AcDbLine
 10
29.72655743762084
 20
16.47577237370449
 30
0.0
 11
29.72655743762084
 21
14.88407514935477
 31
0.0
  0
LINE
  5
AC0
330
19
100
AcDbEntity
  8
DD
370
    30
100
AcDbLine
 10
29.72655743762084
 20
16.47577237370449
 30
0.0
 11
29.72655743762084
 21
14.88407514935477
 31
0.0
  0
ARC
  5
AC1
330
19
100
AcDbEntity
  8
DD
370
    30
100
AcDbCircle
 10
29.33817144066426
 20
16.6364022948005
 30
0.0
 40
0.080314960548
100
AcDbArc
 50
224.9999999999956
 51
270.0
  0
LINE
  5
AC2
330
19
100
AcDbEntity
  8
DD
370
    30
100
AcDbLine
 10
29.54183302836044
 20
15.78761845551978
 30
0.0
 11
29.31889528997324
 21
15.78761845551978
 31
0.0
  0
LINE
  5
AC3
330
19
100
AcDbEntity
  8
DD
370
    30
100
AcDbLine
 10
29.21444510208927
 20
15.78763742472978
 30
0.0
 11
29.64626963199189
 21
15.78764115740841
 31
0.0
  0
ARC
  5
AC4
330
19
100
AcDbEntity
  8
DD
370
    30
100
AcDbCircle
 10
28.96356531241482
 20
16.51592985397848
 30
0.0
 40
0.040157480274
100
AcDbArc
 50
90.0
 51
180.0
  0
LINE
  5
AC5
330
19
100
AcDbEntity
  8
DD
370
    30
100
AcDbLine
 10
28.92340783214086
 20
16.51592985397848
 30
0.0
 11
28.92340783214086
 21
16.37537867301948
 31
0.0
  0
LINE
  5
AC6
330
19
100
AcDbEntity
  8
DD
370
    30
100
AcDbLine
 10
28.77080940709961
 20
16.45970938159489
 30
0.0
 11
28.77080940709961
 21
16.16096719028361
 31
0.0
  0
LINE
  5
AC7
330
19
100
AcDbEntity
  8
DD
370
    30
100
AcDbLine
 10
28.75073066696258
 20
16.44364638948529
 30
0.0
 11
28.75073066696258
 21
16.24987475855977
 31
0.0
  0
ARC
  5
AC8
330
19
100
AcDbEntity
  8
DD
370
    30
100
AcDbCircle
 10
28.75876216301739
 20
16.45970938159489
 30
0.0
 40
0.0120472440822
100
AcDbArc
 50
0.0
 51
90.0
  0
LINE
  5
AC9
330
19
100
AcDbEntity
  8
DD
370
    30
100
AcDbLine
 10
28.72262043077084
 20
16.52484368345676
 30
0.0
 11
28.72262043077084
 21
16.17763368618083
 31
0.0
  0
LINE
  5
ACA
330
19
100
AcDbEntity
  8
DD
370
    30
100
AcDbLine
 10
28.67443145444196
 20
16.45970938159489
 30
0.0
 11
28.67443145444196
 21
16.19231432371264
 31
0.0
  0
LINE
  5
ACB
330
19
100
AcDbEntity
  8
DD
370
    30
100
AcDbLine
 10
28.69451019457899
 20
16.44364638948529
 30
0.0
 11
28.69451019457899
 21
16.24987475855977
 31
0.0
  0
LINE
  5
ACC
330
19
100
AcDbEntity
  8
DD
370
    30
100
AcDbLine
 10
28.72262043077084
 20
16.17763368618083
 30
0.0
 11
28.72262043077084
 21
16.19120113227348
 31
0.0
  0
ARC
  5
ACD
330
19
100
AcDbEntity
  8
DD
370
    30
100
AcDbCircle
 10
28.70254169063381
 20
16.44364638948529
 30
0.0
 40
0.0080314960548
100
AcDbArc
 50
90.0
 51
180.0
  0
LINE
  5
ACE
330
19
100
AcDbEntity
  8
DD
370
    30
100
AcDbLine
 10
28.74269917090777
 20
16.45167788554011
 30
0.0
 11
28.70254169063381
 21
16.45167788554011
 31
0.0
  0
ARC
  5
ACF
330
19
100
AcDbEntity
  8
DD
370
    30
100
AcDbCircle
 10
28.68647869852418
 20
16.45970938159489
 30
0.0
 40
0.0120472440822
100
AcDbArc
 50
90.0
 51
180.0
  0
ARC
  5
AD0
330
19
100
AcDbEntity
  8
DD
370
    30
100
AcDbCircle
 10
28.72262043077084
 20
16.141004281931
 30
0.0
 40
0.0461811023151
100
AcDbArc
 50
29.7295394730866
 51
113.2829971281081
  0
ARC
  5
AD1
330
19
100
AcDbEntity
  8
DD
370
    30
100
AcDbCircle
 10
28.72262043077084
 20
16.141004281931
 30
0.0
 40
0.060236220411
100
AcDbArc
 50
36.86989764583751
 51
127.2862948882234
  0
ARC
  5
AD2
330
19
100
AcDbEntity
  8
DD
370
    30
100
AcDbCircle
 10
28.72262043077084
 20
16.141004281931
 30
0.0
 40
0.1124409447672
100
AcDbArc
 50
64.62306647483885
 51
115.3769335251611
  0
ARC
  5
AD3
330
19
100
AcDbEntity
  8
DD
370
    30
100
AcDbCircle
 10
28.74269917090787
 20
16.44364638948529
 30
0.0
 40
0.0080314960548
100
AcDbArc
 50
0.0
 51
90.0
  0
LINE
  5
AD4
330
19
100
AcDbEntity
  8
DD
370
    30
100
AcDbLine
 10
28.75876216301739
 20
16.47175662567709
 30
0.0
 11
28.68647869852418
 21
16.47175662567709
 31
0.0
  0
LINE
  5
AD5
330
19
100
AcDbEntity
  8
DD
370
    30
100
AcDbLine
 10
29.12372269104633
 20
15.96812131986668
 30
0.0
 11
29.26787278261367
 21
16.11227141143409
 31
0.0
  0
ARC
  5
AD6
330
19
100
AcDbEntity
  8
DD
370
    30
100
AcDbCircle
 10
29.16435271378484
 20
16.05064995131445
 30
0.0
 40
0.120472440822
100
AcDbArc
 50
273.2987873770676
 51
193.7696653779146
  0
LINE
  5
AD7
330
19
100
AcDbEntity
  8
DD
370
    30
100
AcDbLine
 10
29.07428438609369
 20
16.00386989476543
 30
0.0
 11
29.2250999363418
 21
16.15468544501357
 31
0.0
  0
ARC
  5
AD8
330
19
100
AcDbEntity
  8
DD
370
    30
100
AcDbCircle
 10
29.16435271378484
 20
16.05064995131447
 30
0.0
 40
0.1505905510275
100
AcDbArc
 50
284.2157819039919
 51
182.8526708509994
  0
ARC
  5
AD9
330
19
100
AcDbEntity
  8
DD
370
    30
100
AcDbCircle
 10
28.82016022720274
 20
16.75687473562249
 30
0.0
 40
0.20078740137
100
AcDbArc
 50
44.9999999999956
 51
90.0
  0
LINE
  5
ADA
330
19
100
AcDbEntity
  8
0
  6
CENTER
370
    30
100
AcDbLine
 10
28.61243697236295
 20
16.7588826096362
 30
0.0
 11
28.95327633000071
 21
16.7588826096362
 31
0.0
  0
ARC
  5
ADB
330
19
100
AcDbEntity
  8
DD
370
    30
100
AcDbCircle
 10
28.74555307516093
 20
16.75687473562249
 30
0.0
 40
0.20078740137
100
AcDbArc
 50
90.0
 51
135.0000000000044
  0
ARC
  5
ADC
330
19
100
AcDbEntity
  8
DD
370
    30
100
AcDbCircle
 10
28.78285665118183
 20
16.79904008991021
 30
0.0
 40
0.1064173227261
100
AcDbArc
 50
0.0
 51
180.0
  0
LINE
  5
ADD
330
19
100
AcDbEntity
  8
DD
370
    30
100
AcDbLine
 10
28.82016022720274
 20
16.95766213699252
 30
0.0
 11
28.74555307516093
 21
16.95766213699249
 31
0.0
  0
LINE
  5
ADE
330
19
100
AcDbEntity
  8
DD
370
    30
100
AcDbLine
 10
28.54191176953775
 20
16.67655977507451
 30
0.0
 11
28.54191176953775
 21
16.5560873342525
 31
0.0
  0
ARC
  5
ADF
330
19
100
AcDbEntity
  8
DD
370
    30
100
AcDbCircle
 10
28.78285665118183
 20
16.71872512936221
 30
0.0
 40
0.1064173227261
100
AcDbArc
 50
180.0
 51
0.0
  0
LINE
  5
AE0
330
19
100
AcDbEntity
  8
0
  6
CENTER
370
    30
100
AcDbLine
 10
28.78285665118183
 20
16.95967001100619
 30
0.0
 11
28.78285665118183
 21
16.5580952082662
 31
0.0
  0
LINE
  5
AE1
330
19
100
AcDbEntity
  8
DD
370
    30
100
AcDbLine
 10
28.67643932845566
 20
16.79904008991021
 30
0.0
 11
28.67643932845566
 21
16.71872512936221
 31
0.0
  0
LINE
  5
AE2
330
19
100
AcDbEntity
  8
DD
370
    30
100
AcDbLine
 10
28.88927397390791
 20
16.79904008991021
 30
0.0
 11
28.88927397390791
 21
16.71872512936221
 31
0.0
  0
LINE
  5
AE3
330
19
100
AcDbEntity
  8
DD
370
    30
100
AcDbLine
 10
29.10010074534644
 20
16.67655977507451
 30
0.0
 11
29.10010074534644
 21
16.5560873342525
 31
0.0
  0
LINE
  5
AE4
330
19
100
AcDbEntity
  8
DD
370
    30
100
AcDbLine
 10
29.02380153282582
 20
16.67655977507449
 30
0.0
 11
29.02380153282582
 21
16.5560873342525
 31
0.0
  0
LINE
  5
AE5
330
19
100
AcDbEntity
  8
DD
370
    30
100
AcDbLine
 10
29.02380153282582
 20
16.67655977507449
 30
0.0
 11
29.10010074534644
 21
16.67655977507451
 31
0.0
  0
LINE
  5
AE6
330
19
100
AcDbEntity
  8
DD
370
    30
100
AcDbLine
 10
28.96213836028829
 20
16.89885286870805
 30
0.0
 11
29.28138018743
 21
16.57961104156626
 31
0.0
  0
ARC
  5
AE7
330
19
100
AcDbEntity
  8
DD
370
    30
100
AcDbCircle
 10
29.36514011515486
 20
16.51592985397848
 30
0.0
 40
0.040157480274
100
AcDbArc
 50
0.0
 51
90.0
  0
ARC
  5
AE8
330
19
100
AcDbEntity
  8
DD
370
    30
100
AcDbCircle
 10
29.64624247707281
 20
16.47577237370449
 30
0.0
 40
0.080314960548
100
AcDbArc
 50
0.0
 51
90.0
  0
LINE
  5
AE9
330
19
100
AcDbEntity
  8
DD
370
    30
100
AcDbLine
 10
29.64624247707281
 20
16.5560873342525
 30
0.0
 11
29.64624247707281
 21
16.07661095716693
 31
0.0
  0
LINE
  5
AEA
330
19
100
AcDbEntity
  8
DD
370
    30
100
AcDbLine
 10
29.64624247707281
 20
16.5560873342525
 30
0.0
 11
29.64624247707281
 21
16.06436865730868
 31
0.0
  0
LINE
  5
AEB
330
19
100
AcDbEntity
  8
DD
370
    30
100
AcDbLine
 10
29.72655743762084
 20
15.96029562069798
 30
0.0
 11
29.56191176849737
 21
15.96029562069798
 31
0.0
  0
LINE
  5
AEC
330
19
100
AcDbEntity
  8
DD
370
    30
100
AcDbLine
 10
29.72655743762084
 20
15.89202790423217
 30
0.0
 11
29.54183302836044
 21
15.89202790423217
 31
0.0
  0
LINE
  5
AED
330
19
100
AcDbEntity
  8
DD
370
    30
100
AcDbLine
 10
29.72655743762084
 20
15.80803068537868
 30
0.0
 11
29.57395901257959
 21
15.80803068537868
 31
0.0
  0
LINE
  5
AEE
330
19
100
AcDbEntity
  8
DD
370
    30
100
AcDbLine
 10
29.57395901257959
 20
15.89817888567612
 30
0.0
 11
29.72655743762084
 21
15.89817888567612
 31
0.0
  0
LINE
  5
AEF
330
19
100
AcDbEntity
  8
DD
370
    30
100
AcDbLine
 10
29.72655743762084
 20
15.96832711675277
 30
0.0
 11
29.54183302836034
 21
15.96832711675277
 31
0.0
  0
LINE
  5
AF0
330
19
100
AcDbEntity
  8
DD
370
    30
100
AcDbLine
 10
29.40529759542883
 20
16.51592985397848
 30
0.0
 11
29.40529759542883
 21
16.37537867301948
 31
0.0
  0
ARC
  5
AF1
330
19
100
AcDbEntity
  8
DD
370
    30
100
AcDbCircle
 10
29.62616373693578
 20
16.07661095716693
 30
0.0
 40
0.020078740137
100
AcDbArc
 50
284.9999999999944
 51
0.0
  0
ARC
  5
AF2
330
19
100
AcDbEntity
  8
DD
370
    30
100
AcDbCircle
 10
29.62616373693578
 20
16.06436865730868
 30
0.0
 40
0.020078740137
100
AcDbArc
 50
284.9999999999944
 51
0.0
  0
LINE
  5
AF3
330
19
100
AcDbEntity
  8
DD
370
    30
100
AcDbLine
 10
29.54183302836044
 20
15.98037436083496
 30
0.0
 11
29.54183302836044
 21
15.89202790423217
 31
0.0
  0
LINE
  5
AF4
330
19
100
AcDbEntity
  8
DD
370
    30
100
AcDbLine
 10
29.54183302836044
 20
15.98037436083496
 30
0.0
 11
29.54183302836044
 21
16.01782061131879
 31
0.0
  0
ARC
  5
AF5
330
19
100
AcDbEntity
  8
DD
370
    30
100
AcDbCircle
 10
29.56191176849737
 20
16.01782061131879
 30
0.0
 40
0.020078740137
100
AcDbArc
 50
104.9999999999944
 51
180.0
  0
ARC
  5
AF6
330
19
100
AcDbEntity
  8
DD
370
    30
100
AcDbCircle
 10
29.56191176849737
 20
15.98037436083496
 30
0.0
 40
0.020078740137
100
AcDbArc
 50
180.0
 51
270.0
  0
LINE
  5
AF7
330
19
100
AcDbEntity
  8
DD
370
    30
100
AcDbLine
 10
29.57395901257959
 20
15.89202790423217
 30
0.0
 11
29.57395901257959
 21
15.80803068537868
 31
0.0
  0
LINE
  5
AF8
330
19
100
AcDbEntity
  8
DD
370
    30
100
AcDbLine
 10
29.54183302836044
 20
15.89202790423217
 30
0.0
 11
29.54183302836044
 21
15.78764025466145
 31
0.0
  0
LINE
  5
AF9
330
19
100
AcDbEntity
  8
DD
370
    30
100
AcDbLine
 10
29.638210981018
 20
15.94021688056097
 30
0.0
 11
29.57395901257959
 21
15.94021688056097
 31
0.0
  0
LINE
  5
AFA
330
19
100
AcDbEntity
  8
DD
370
    30
100
AcDbLine
 10
29.638210981018
 20
15.96832711675277
 30
0.0
 11
29.638210981018
 21
15.94021688056097
 31
0.0
  0
LINE
  5
AFB
330
19
100
AcDbEntity
  8
DD
370
    30
100
AcDbLine
 10
29.54183302836034
 20
16.02098527065226
 30
0.0
 11
29.54743267635509
 21
16.02098527065226
 31
0.0
  0
ARC
  5
AFC
330
19
100
AcDbEntity
  8
DD
370
    30
100
AcDbCircle
 10
29.54986452441515
 20
16.01459256199595
 30
0.0
 40
0.0080314960548
100
AcDbArc
 50
104.9999999999944
 51
180.0
  0
LINE
  5
AFD
330
19
100
AcDbEntity
  8
DD
370
    30
100
AcDbLine
 10
29.54893105536282
 20
15.89202790423217
 30
0.0
 11
29.54893105536282
 21
15.79564995157457
 31
0.0
  0
LINE
  5
AFE
330
19
100
AcDbEntity
  8
DD
370
    30
100
AcDbLine
 10
29.57395901257959
 20
15.79564995157457
 30
0.0
 11
29.54183302836034
 21
15.79564995157457
 31
0.0
  0
LINE
  5
AFF
330
19
100
AcDbEntity
  8
DD
370
    30
100
AcDbLine
 10
29.57395901257959
 20
15.89202790423217
 30
0.0
 11
29.54183302836034
 21
15.89202790423217
 31
0.0
  0
LINE
  5
B00
330
19
100
AcDbEntity
  8
DD
370
    30
100
AcDbLine
 10
29.57395901257959
 20
15.96832711675277
 30
0.0
 11
29.57395901257959
 21
15.78764053235753
 31
0.0
  0
LINE
  5
B01
330
19
100
AcDbEntity
  8
DD
370
    30
100
AcDbLine
 10
29.54183302836034
 20
16.02098527065226
 30
0.0
 11
29.54183302836034
 21
15.78764025466145
 31
0.0
  0
LINE
  5
B02
330
19
100
AcDbEntity
  8
DD
370
    30
100
AcDbLine
 10
29.63136049728495
 20
16.05721638350926
 30
0.0
 11
29.5567150081483
 21
16.03721518497646
 31
0.0
  0
LINE
  5
B03
330
19
100
AcDbEntity
  8
DD
370
    30
100
AcDbLine
 10
29.54183302836034
 20
16.02098527065226
 30
0.0
 11
29.63136049728495
 21
16.044974083651
 31
0.0
  0
LINE
  5
B04
330
19
100
AcDbEntity
  8
DD
370
    30
100
AcDbLine
 10
29.72655743762084
 20
15.80803068537868
 30
0.0
 11
29.72655743762084
 21
15.96029562069798
 31
0.0
  0
LINE
  5
C65
330
19
100
AcDbEntity
  8
0
  6
CENTER2
100
AcDbLine
 10
27.54269917213183
 20
6.538795283803544
 30
0.0
 11
29.01907712338183
 21
5.062417332553543
 31
0.0
  0
LINE
  5
C66
330
19
100
AcDbEntity
  8
0
  6
CENTER2
100
AcDbLine
 10
28.28088814775683
 20
16.7793779871296
 30
0.0
 11
28.28088814775683
 21
9.84695917020802
 31
0.0
  0
LINE
  5
C67
330
19
100
AcDbEntity
  8
0
  6
CENTER2
100
AcDbLine
 10
26.70011908419113
 20
14.88407514935477
 30
0.0
 11
29.86165721132253
 21
14.88407514935477
 31
0.0
  0
LINE
  5
C68
330
19
100
AcDbEntity
  8
0
  6
CENTER2
100
AcDbLine
 10
22.91980472537982
 20
14.88407514935477
 30
0.0
 11
12.70706728068327
 21
14.88407514935476
 31
0.0
  0
DIMENSION
  5
C79
330
19
100
AcDbEntity
  8
0
100
AcDbDimension
  2
*D26
 10
3.718301574777342
 20
14.19509877210477
 30
0.0
 11
3.71830157477734
 21
14.88407514935477
 31
0.0
 70
    32
 71
     5
 42
34.99999996430015
  3
Outline Drawings
100
AcDbAlignedDimension
 13
4.689908448987997
 23
15.57305152660477
 33
0.0
 14
4.689908448987997
 24
14.19509877210476
 34
0.0
 50
90.0
100
AcDbRotatedDimension
  0
DIMENSION
  5
C88
330
19
100
AcDbEntity
  8
0
100
AcDbDimension
  2
*D27
 10
8.426350059150422
 20
17.58171446557973
 30
0.0
 11
9.072011723543328
 21
17.58171446557973
 31
0.0
 70
    32
 71
     5
 42
24.99999997450002
  3
Outline Drawings
100
AcDbAlignedDimension
 13
7.442098091650422
 23
13.17616311342844
 33
0.0
 14
8.426350059150422
 24
16.94036952783863
 34
0.0
100
AcDbRotatedDimension
  0
DIMENSION
  5
C97
330
19
100
AcDbEntity
  8
0
100
AcDbDimension
  2
*D28
 10
8.896759976843725
 20
13.03368145045476
 30
0.0
 11
8.896759976843723
 21
14.88407514935477
 31
0.0
 70
    32
 71
     5
 42
93.99999990412002
  3
Outline Drawings
100
AcDbAlignedDimension
 13
8.545402794473725
 23
16.73446884825476
 33
0.0
 14
7.610066509265244
 24
13.03368145045476
 34
0.0
 50
90.0
100
AcDbRotatedDimension
  0
DIMENSION
  5
CA6
330
19
100
AcDbEntity
  8
0
100
AcDbDimension
  2
*D29
 10
12.82192335969507
 20
12.17717806658349
 30
0.0
 11
14.33767024841324
 21
12.17717806658349
 31
0.0
 70
    32
 71
     5
 42
76.99994194688281
  3
Outline Drawings
100
AcDbAlignedDimension
 13
15.85341713713141
 23
14.48569851424147
 33
0.0
 14
12.82192335969507
 24
12.8113469641873
 34
0.0
100
AcDbRotatedDimension
  0
DIMENSION
  5
CB5
330
19
100
AcDbEntity
  8
0
100
AcDbDimension
  2
*D30
 10
20.81802053441952
 20
11.04382206381301
 30
0.0
 11
16.8199719470573
 21
11.04382206381301
 31
0.0
 70
    32
  1
300 mm [11.811 in] \PMAX ENCLOSURE DEPTH
 71
     5
 42
203.1008682380009
  3
Outline Drawings
100
AcDbAlignedDimension
 13
12.82192335969507
 23
12.8113469641873
 33
0.0
 14
20.81802053441952
 24
13.58486255225477
 34
0.0
100
AcDbRotatedDimension
1001
ACAD
1000
DSTYLE
1002
{
1070
   170
1070
     0
1002
}
  0
DIMENSION
  5
D0C
330
19
100
AcDbEntity
  8
0
100
AcDbDimension
  2
*D31
 10
11.73587202742711
 20
13.20972359930061
 30
0.0
 11
11.7358720274271
 21
14.88290546677655
 31
0.0
 70
    32
 71
     5
 42
84.99763886777781
  3
Outline Drawings
100
AcDbAlignedDimension
 13
12.82192335969507
 23
16.55608733425249
 33
0.0
 14
12.82192335969508
 24
13.2097235993006
 34
0.0
 50
90.0
100
AcDbRotatedDimension
  0
DIMENSION
  5
D1B
330
19
100
AcDbEntity
  8
0
100
AcDbDimension
  2
*D32
 10
22.69909106722924
 20
17.31060902704307
 30
0.0
 11
21.67556066850911
 21
17.31060902704307
 31
0.0
 70
    32
 71
     5
 42
51.99534425498232
  3
Outline Drawings
100
AcDbAlignedDimension
 13
20.65203026978899
 23
15.49710737668349
 33
0.0
 14
22.69909106722924
 24
14.88407514935452
 34
0.0
100
AcDbRotatedDimension
  0
DIMENSION
  5
D2A
330
19
100
AcDbEntity
  8
0
100
AcDbDimension
  2
*D33
 10
23.66129838243724
 20
10.08092554795491
 30
0.0
 11
23.66129838243724
 21
13.13210664720484
 31
0.0
 70
    32
 71
     5
 42
154.9999998418963
  3
Outline Drawings
100
AcDbAlignedDimension
 13
20.81802053441952
 23
16.18328774645477
 33
0.0
 14
22.53561580660822
 24
10.08092554795491
 34
0.0
 50
90.0
100
AcDbRotatedDimension
  0
DIMENSION
  5
D39
330
19
100
AcDbEntity
  8
0
100
AcDbDimension
  2
*D34
 10
29.58010074485683
 20
17.71257373660142
 30
0.0
 11
28.28088814775683
 21
17.71257373660142
 31
0.0
 70
    32
 71
     5
 42
65.99999993267992
  3
Outline Drawings
100
AcDbAlignedDimension
 13
26.98167555065683
 23
14.88407514935477
 33
0.0
 14
29.58010074485683
 24
14.88407514935477
 34
0.0
100
AcDbRotatedDimension
  0
DIMENSION
  5
D48
330
19
100
AcDbEntity
  8
0
100
AcDbDimension
  2
*D35
 10
29.01907712338183
 20
7.434568187154869
 30
0.0
 11
28.28088814775682
 21
7.434568187154869
 31
0.0
 70
    32
  1
<>[]
 71
     5
 42
37.49999996175011
  3
Outline Drawings
100
AcDbAlignedDimension
 13
27.54269917213183
 23
6.732322686851643
 33
0.0
 14
29.01907712338183
 24
6.626513199667018
 34
0.0
100
AcDbRotatedDimension
1001
ACAD
1000
DSTYLE
1002
{
1070
   271
1070
     1
1002
}
  0
DIMENSION
  5
D57
330
19
100
AcDbEntity
  8
0
100
AcDbDimension
  2
*D36
 10
29.73040842946272
 20
5.062417332553544
 30
0.0
 11
29.73040842946272
 21
5.800606308178549
 31
0.0
 70
    32
  1
<>[]
 71
     5
 42
37.49999996175
  3
Outline Drawings
100
AcDbAlignedDimension
 13
29.10151713771101
 23
6.538795283803544
 33
0.0
 14
29.20187895590665
 24
5.062417332553544
 34
0.0
 50
90.0
100
AcDbRotatedDimension
1001
ACAD
1000
DSTYLE
1002
{
1070
   271
1070
     1
1002
}
  0
LEADER
  5
D89
330
19
100
AcDbEntity
  8
0
100
AcDbLeader
  3
Outline Drawings
 73
     0
 75
     1
 40
0.1839290586630287
 41
1.880791268758526
 76
     4
 10
4.728184914390764
 20
14.19509877210476
 30
0.0
 10
4.601292963647438
 20
13.54038615710401
 30
0.0
 10
4.27071872690567
 20
13.40854115459358
 30
0.0
 10
4.14571872690567
 20
13.40854115459358
 30
0.0
340
D8A
213
0.0
223
0.09
233
0.0
1001
ACAD
1000
DSTYLE
1002
{
1070
   147
1040
0.09
1070
    77
1070
     0
1002
}
  0
MTEXT
  5
D8A
102
{ACAD_REACTORS
330
D89
102
}
330
19
100
AcDbEntity
  8
0
100
AcDbMText
 10
4.05571872690567
 20
13.31854115459358
 30
0.0
 40
0.18
 41
1.916918985199263
 71
     9
 72
     1
  1
\A1;35 mm DIN RAIL
  7
outline drawings
 73
     1
 44
1.0
1001
ACAD
1000
MTEXTBEGIN
1070
    73
1070
     1
1070
    44
1040
1.0
1070
    74
1070
     0
1000
MTEXTEND
  0
LEADER
  5
D8B
330
19
100
AcDbEntity
  8
0
100
AcDbLeader
  3
Outline Drawings
 73
     0
 40
0.4893315143246931
 41
1.333669849931787
 76
     3
 10
7.407991392455715
 20
12.93515098611466
 30
0.0
 10
7.184246821771523
 20
12.291386283221
 30
0.0
 10
6.93424895314439
 20
12.23029045035905
 30
0.0
340
D8C
213
0.0
223
0.09
233
0.0
1001
ACAD
1000
DSTYLE
1002
{
1070
   147
1040
0.09
1070
    77
1070
     0
1002
}
  0
MTEXT
  5
D8C
102
{ACAD_REACTORS
330
D8B
102
}
330
19
100
AcDbEntity
  8
0
100
AcDbMText
 10
6.84424895314439
 20
12.14029045035905
 30
0.0
 40
0.18
 41
1.558369374828689
 71
     9
 72
     1
  1
\A1;TO SUIT A M4 SCREW
  7
outline drawings
 73
     1
 44
1.0
1001
ACAD
1000
MTEXTBEGIN
1070
    73
1070
     1
1070
    44
1040
1.0
1070
    74
1070
     0
1000
MTEXTEND
  0
LEADER
  5
D8D
330
19
100
AcDbEntity
  8
0
100
AcDbLeader
  3
Outline Drawings
 73
     0
 40
0.4893315143246931
 41
1.801964529331514
 76
     3
 10
27.43944946177781
 20
6.419885457206587
 30
0.0
 10
27.06995318012274
 20
6.161958580160618
 30
0.0
 10
26.55730929724847
 20
6.042370807121589
 30
0.0
340
D8E
213
0.0
223
0.09
233
0.0
1001
ACAD
1000
DSTYLE
1002
{
1070
   147
1040
0.09
1070
    77
1070
     0
1002
}
  0
MTEXT
  5
D8E
102
{ACAD_REACTORS
330
D8D
102
}
330
19
100
AcDbEntity
  8
0
100
AcDbMText
 10
26.46730929724847
 20
5.952370807121589
 30
0.0
 40
0.18
 41
2.13999994277211
 71
     9
 72
     1
  1
\A1;SUITABLE FOR M4 SCREW
  7
outline drawings
 73
     1
 44
1.0
1001
ACAD
1000
MTEXTBEGIN
1070
    73
1070
     1
1070
    44
1040
1.0
1070
    74
1070
     0
1000
MTEXTEND
  0
LEADER
  5
D8F
330
19
100
AcDbEntity
  8
0
100
AcDbLeader
  3
Outline Drawings
 73
     0
 40
0.1862619372442019
 41
2.116412005457025
 76
     3
 10
15.74189257192025
 20
15.46792874174488
 30
0.0
 10
16.19811803517037
 20
16.62314817518533
 30
0.0
 10
16.45570045868563
 20
16.62314817518533
 30
0.0
340
D90
213
0.0
223
-0.09
233
0.0
1001
ACAD
1000
DSTYLE
1002
{
1070
   147
1040
0.09
1070
    77
1070
     0
1002
}
  0
MTEXT
  5
D90
102
{ACAD_REACTORS
330
D8F
102
}
330
19
100
AcDbEntity
  8
0
100
AcDbMText
 10
16.54570045868563
 20
16.71314817518533
 30
0.0
 40
0.18
 41
2.305063523326825
 71
     1
 72
     1
  1
\A1;LOCKING SCREW
  7
outline drawings
 73
     1
 44
1.0
1001
ACAD
1000
MTEXTBEGIN
1070
    73
1070
     1
1070
    44
1040
1.0
1070
    74
1070
     0
1000
MTEXTEND
  0
LINE
  5
109E
330
19
100
AcDbEntity
  8
10
100
AcDbLine
 10
0.5000000293787004
 20
21.49999997647868
 30
0.0
 11
33.50000002937868
 21
21.49999997647868
 31
0.0
  0
LINE
  5
109F
330
19
100
AcDbEntity
  8
10
100
AcDbLine
 10
0.5000000293786862
 20
0.4999999764786774
 30
0.0
 11
33.50000002937868
 21
0.4999999764786569
 31
0.0
  0
LINE
  5
10A0
330
19
100
AcDbEntity
  8
10
100
AcDbLine
 10
0.5000000293787004
 20
21.49999997647868
 30
0.0
 11
0.5000000293786862
 21
0.4999999764786783
 31
0.0
  0
CIRCLE
  5
10A1
330
19
100
AcDbEntity
  8
10
 62
     1
100
AcDbCircle
 10
0.5000000293786791
 20
0.4999999764786765
 30
0.0
 40
0.283176754747501
  0
LINE
  5
10A2
330
19
100
AcDbEntity
  8
10
100
AcDbLine
 10
0.0000000293786862
 20
-0.0000000235213236
 30
0.0
 11
0.5000000293786862
 21
-0.0000000235213244
 31
0.0
  0
LINE
  5
10A3
330
19
100
AcDbEntity
  8
10
100
AcDbLine
 10
0.0000000293786933
 20
0.4999999764786765
 30
0.0
 11
0.0000000293786862
 21
-0.0000000235213236
 31
0.0
  0
LINE
  5
10A4
330
19
100
AcDbEntity
  8
10
100
AcDbLine
 10
0.0000000293786862
 20
21.99999997647868
 30
0.0
 11
0.5000000293786862
 21
21.99999997647868
 31
0.0
  0
LINE
  5
10A5
330
19
100
AcDbEntity
  8
10
100
AcDbLine
 10
0.0000000293786862
 20
21.99999997647868
 30
0.0
 11
0.0000000293786933
 21
21.49999997647868
 31
0.0
  0
LINE
  5
10A6
330
19
100
AcDbEntity
  8
10
100
AcDbLine
 10
33.50000002937868
 20
21.49999997647868
 30
0.0
 11
33.50000002937868
 21
0.4999999764786569
 31
0.0
  0
LINE
  5
10A7
330
19
100
AcDbEntity
  8
10
100
AcDbLine
 10
33.50000002937868
 20
-0.0000000235213209
 30
0.0
 11
34.00000002937869
 21
-0.0000000235213209
 31
0.0
  0
LINE
  5
10A8
330
19
100
AcDbEntity
  8
10
100
AcDbLine
 10
34.00000002937868
 20
0.4999999764786783
 30
0.0
 11
34.00000002937869
 21
-0.0000000235213209
 31
0.0
  0
LINE
  5
10A9
330
19
100
AcDbEntity
  8
10
100
AcDbLine
 10
33.50000002937868
 20
21.99999997647868
 30
0.0
 11
34.00000002937871
 21
21.99999997647868
 31
0.0
  0
LINE
  5
10AA
330
19
100
AcDbEntity
  8
10
100
AcDbLine
 10
34.00000002937869
 20
21.99999997647868
 30
0.0
 11
34.00000002937868
 21
21.49999997647868
 31
0.0
  0
INSERT
  5
1123
330
19
100
AcDbEntity
  8
0
100
AcDbBlockReference
 66
     1
  2
Title Block
 10
26.50000002140035
 20
0.4999999818693315
 30
0.0
  0
ATTRIB
  5
1124
330
1123
100
AcDbEntity
  8
0
100
AcDbText
 10
29.15106279067219
 20
0.8158430476019251
 30
0.0
 40
0.125
  1
P. DAMESIMO
  7
c3controls
 11
29.15106279067219
 21
0.8783430476019251
 31
0.0
100
AcDbAttribute
  2
NAME
 70
     0
 74
     2
  0
ATTRIB
  5
1125
330
1123
100
AcDbEntity
  8
0
100
AcDbText
 10
28.54562937461905
 20
1.666592913831872
 30
0.0
 40
0.125
  1

  7
c3controls
100
AcDbAttribute
  2
DESCRIPTION
 70
     0
  0
ATTRIB
  5
1126
330
1123
100
AcDbEntity
  8
0
100
AcDbText
 10
31.44961392916803
 20
0.5394471522661864
 30
0.0
 40
0.25
  1
60D10104
  7
c3controls
 72
     1
 11
32.25554844485698
 21
0.6644471522661864
 31
0.0
100
AcDbAttribute
  2
XX#XXXXX
 70
     0
 74
     2
  0
ATTRIB
  5
1127
330
1123
100
AcDbEntity
  8
0
100
AcDbText
 10
30.53893200494167
 20
0.56575559687513
 30
0.0
 40
0.125
  1
1:1
  7
c3controls
 72
     1
 11
30.6603081986661
 21
0.62825559687513
 31
0.0
100
AcDbAttribute
  2
1:1
 70
     0
 74
     2
  0
ATTRIB
  5
1128
330
1123
100
AcDbEntity
  8
0
100
AcDbText
 10
28.92716964602287
 20
0.5631452061430427
 30
0.0
 40
0.125
  1
02-27-2006
  7
c3controls
 72
     1
 11
29.37379311123433
 21
0.6256452061430427
 31
0.0
100
AcDbAttribute
  2
DATE
 70
     0
 74
     2
  0
ATTRIB
  5
1129
330
1123
100
AcDbEntity
  8
0
100
AcDbText
 10
26.50000002937868
 20
0.4999999818693315
 30
0.0
 40
0.125
  1

  7
c3controls
100
AcDbAttribute
  2
OUTLINE_DRAWING
 70
     1
  0
SEQEND
  5
112A
330
1123
100
AcDbEntity
  8
0
  0
MTEXT
  5
112E
330
19
100
AcDbEntity
  8
0
100
AcDbMText
 10
28.54295995493544
 20
1.791249858947594
 30
0.0
 40
0.12
 41
4.910849006870421
 71
     1
 72
     5
  1
80 - 125 AMP PANEL MOUNTED DISCONNECT SWITCH WITH LPH HANDLE MECHANISM OUTLINE DIMENSION DRAWING
  7
outline drawings
 73
     1
 44
1.0
1001
ACAD
1000
MTEXTBEGIN
1070
    73
1070
     1
1070
    44
1040
1.0
1070
    74
1070
     0
1000
MTEXTEND
  0
MTEXT
  5
113C
330
19
100
AcDbEntity
  8
0
100
AcDbMText
 10
28.48932515631282
 20
4.447811836454093
 30
0.0
 40
0.1875
 41
4.479362027538627
 71
     5
 72
     5
  1
LPH MOUNTING HOLES
  7
outline drawings
 73
     1
 44
1.0
1001
ACAD
1000
MTEXTBEGIN
1070
    73
1070
     1
1070
    44
1040
1.0
1070
    74
1070
     0
1000
MTEXTEND
  0
VIEWPORT
  5
BA
102
{ACAD_XDICTIONARY
360
116D
102
}
330
16
100
AcDbEntity
 67
     1
  8
0
100
AcDbViewport
 10
5.249999639556164
 20
6.140308632623733
 30
0.0
 40
11.99666166085311
 41
13.27361724380106
 68
     1
 69
     1
 12
5.249999639556164
 22
6.140308632623733
 13
0.0
 23
0.0
 14
0.5
 24
0.5
 15
0.5
 25
0.5
 16
0.0
 26
0.0
 36
1.0
 17
0.0
 27
0.0
 37
0.0
 42
50.0
 43
0.0
 44
0.0
 45
13.27361724380106
 50
0.0
 51
0.0
 72
   100
 90
    32800
  1

281
     0
 71
     1
 74
     0
110
0.0
120
0.0
130
0.0
111
1.0
121
0.0
131
0.0
112
0.0
122
1.0
132
0.0
 79
     0
146
0.0
  0
ENDSEC
  0
SECTION
  2
OBJECTS
  0
DICTIONARY
  5
C
330
0
100
AcDbDictionary
281
     1
  3
ACAD_COLOR
350
3F8
  3
ACAD_GROUP
350
D
  3
ACAD_IMAGE_DICT
350
F00
  3
ACAD_IMAGE_VARS
350
F15
  3
ACAD_LAYOUT
350
150
  3
ACAD_MATERIAL
350
3F7
  3
ACAD_MLINESTYLE
350
E
  3
ACAD_PLOTSETTINGS
350
151
  3
ACAD_PLOTSTYLENAME
350
14E
  3
ACAD_TABLESTYLE
350
3F9
  3
ACDBHEADERROUNDTRIPXREC
350
116C
  3
ACDBVARIABLEDICTIONARY
350
FA
  3
AcmDictionary
350
189
  3
AMG
350
158
  3
AMGSNAPSETTINGS
350
1BA
  3
DWGPROPS
350
116B
  3
MAPISURF_MODULE
350
2A1
  0
DICTIONARY
  5
44C
330
2
100
AcDbDictionary
280
     1
281
     1
  3
ACAD_LAYERSTATES
360
44D
  0
DICTIONARY
  5
11F
330
19
100
AcDbDictionary
280
     1
281
     1
  3
ACAD_INDEX
360
120
  3
ACAD_SORTENTS
360
112B
  0
DICTIONARY
  5
E20
330
E1F
100
AcDbDictionary
280
     1
281
     1
  3
ACAD_SORTENTS
360
E21
  0
DICTIONARY
  5
E41
330
E40
100
AcDbDictionary
280
     1
281
     1
  0
DICTIONARY
  5
EFC
330
E6D
100
AcDbDictionary
280
     1
281
     1
  3
ACAD_SORTENTS
360
EFD
  0
DICTIONARY
  5
1172
330
E24
100
AcDbDictionary
280
     1
281
     1
  3
ACAD_MTEXT_RT
360
1173
  0
IMAGEDEF_REACTOR
  5
E3E
330
E3D
100
AcDbRasterImageDefReactor
 90
        2
330
E3D
  0
DICTIONARY
  5
1174
330
E44
100
AcDbDictionary
280
     1
281
     1
  3
ACAD_MTEXT_RT
360
1175
  0
IMAGEDEF_REACTOR
  5
E59
330
E58
100
AcDbRasterImageDefReactor
 90
        2
330
E58
  0
DICTIONARY
  5
116D
330
BA
100
AcDbDictionary
280
     1
281
     1
  3
ACAD_XREC_ROUNDTRIP
360
116E
  0
DICTIONARY
  5
3F8
102
{ACAD_REACTORS
330
C
102
}
330
C
100
AcDbDictionary
281
     1
  0
DICTIONARY
  5
D
102
{ACAD_REACTORS
330
C
102
}
330
C
100
AcDbDictionary
281
     1
  0
DICTIONARY
  5
F00
102
{ACAD_REACTORS
330
C
102
}
330
C
100
AcDbDictionary
281
     1
  3
c3 logo
350
F01
  3
c3 logo B_C_D Size Title Block Image
350
F02
  0
RASTERVARIABLES
  5
F15
102
{ACAD_REACTORS
330
C
102
}
330
C
100
AcDbRasterVariables
 90
        0
 70
     1
 71
     1
 72
     5
  0
DICTIONARY
  5
150
102
{ACAD_REACTORS
330
C
102
}
330
C
100
AcDbDictionary
281
     1
  3
Layout1
350
153
  3
Model
350
152
  0
DICTIONARY
  5
3F7
102
{ACAD_REACTORS
330
C
102
}
330
C
100
AcDbDictionary
281
     1
  0
DICTIONARY
  5
E
102
{ACAD_REACTORS
330
C
102
}
330
C
100
AcDbDictionary
281
     1
  3
STANDARD
350
1C
  0
DICTIONARY
  5
151
102
{ACAD_REACTORS
330
C
102
}
330
C
100
AcDbDictionary
281
     1
  0
ACDBDICTIONARYWDFLT
  5
14E
102
{ACAD_REACTORS
330
C
102
}
330
C
100
AcDbDictionary
281
     1
  3
Normal
350
14F
100
AcDbDictionaryWithDefault
340
14F
  0
DICTIONARY
  5
3F9
102
{ACAD_REACTORS
330
C
102
}
330
C
100
AcDbDictionary
281
     1
  3
Standard
350
3FA
  0
DICTIONARY
  5
116C
102
{ACAD_REACTORS
330
C
102
}
330
C
100
AcDbDictionary
281
     1
  0
DICTIONARY
  5
FA
102
{ACAD_REACTORS
330
C
102
}
330
C
100
AcDbDictionary
281
     1
  3
CTABLESTYLE
350
429
  3
DIMASSOC
350
3F5
  3
INDEXCTL
350
FB
  3
PROJECTNAME
350
1169
  0
DICTIONARY
  5
189
102
{ACAD_REACTORS
330
C
102
}
330
C
100
AcDbDictionary
281
     1
  3
AcmStdDictionary
350
2C1
  3
AMDTSECTSYM_ARROWCOLOR
350
402
  0
DICTIONARY
  5
158
102
{ACAD_REACTORS
330
C
102
}
330
C
100
AcDbDictionary
281
     1
  3
AcMgSettings
350
159
  0
DICTIONARY
  5
1BA
102
{ACAD_REACTORS
330
C
102
}
330
C
100
AcDbDictionary
281
     1
  3
DIMENSION
350
1BE
  3
FEA
350
1BD
  3
HATCH
350
1BB
  3
SYMBOLS
350
1BC
  0
XRECORD
  5
116B
102
{ACAD_REACTORS
330
C
102
}
330
C
100
AcDbXrecord
280
     1
  1
DWGPROPS COOKIE
  2

  3

  4

  6

  7

  8

  9

300
AmdtFileType=84
301
=
302
=
303
=
304
=
305
=
306
=
307
=
308
=
309
=
 40
0.0365188888888889
 41
2453796.345401759
 42
2453796.470127628
  1

 90
        1
  0
DICTIONARY
  5
44D
102
{ACAD_REACTORS
330
44C
102
}
330
44C
100
AcDbDictionary
281
     1
  0
DICTIONARY
  5
120
102
{ACAD_REACTORS
330
11F
102
}
330
11F
100
AcDbDictionary
281
     1
  3
*A1
350
121
  0
SORTENTSTABLE
  5
112B
102
{ACAD_REACTORS
330
11F
102
}
330
11F
100
AcDbSortentsTable
330
19
331
A1A
  5
A1A
331
A51
  5
A51
331
9A4
  5
9A4
331
9DB
  5
9DB
331
92E
  5
92E
331
965
  5
965
331
A90
  5
A90
331
A98
  5
A98
331
ACF
  5
ACF
331
A22
  5
A22
331
A59
  5
A59
331
9AC
  5
9AC
331
9E3
  5
9E3
331
96D
  5
96D
331
AA0
  5
AA0
331
AD7
  5
AD7
331
9EB
  5
9EB
331
A2A
  5
A2A
331
A61
  5
A61
331
93E
  5
93E
331
975
  5
975
331
8FF
  5
8FF
331
9B4
  5
9B4
331
D8F
  5
D8F
331
A69
  5
A69
331
AA8
  5
AA8
331
ADF
  5
ADF
331
9BC
  5
9BC
331
9F3
  5
9F3
331
946
  5
946
331
97D
  5
97D
331
907
  5
907
331
A32
  5
A32
331
AE7
  5
AE7
331
A3A
  5
A3A
331
A71
  5
A71
331
9C4
  5
9C4
331
9FB
  5
9FB
331
94E
  5
94E
331
985
  5
985
331
AB0
  5
AB0
331
90F
  5
90F
331
AB8
  5
AB8
331
AEF
  5
AEF
331
A03
  5
A03
331
A42
  5
A42
331
98D
  5
98D
331
9CC
  5
9CC
331
A79
  5
A79
331
917
  5
917
331
956
  5
956
331
D48
  5
D48
331
AC0
  5
AC0
331
AF7
  5
AF7
331
A0B
  5
A0B
331
A4A
  5
A4A
331
95E
  5
95E
331
995
  5
995
331
9D4
  5
9D4
331
A81
  5
A81
331
A89
  5
A89
331
A13
  5
A13
331
99D
  5
99D
331
AFF
  5
AFF
331
109F
  5
109F
331
10A7
  5
10A7
331
A91
  5
A91
331
AC8
  5
AC8
331
9A5
  5
9A5
331
9DC
  5
9DC
331
92F
  5
92F
331
966
  5
966
331
A1B
  5
A1B
331
A52
  5
A52
331
A5A
  5
A5A
331
9AD
  5
9AD
331
9E4
  5
9E4
331
96E
  5
96E
331
A99
  5
A99
331
AD0
  5
AD0
331
AD8
  5
AD8
331
A2B
  5
A2B
331
A62
  5
A62
331
9B5
  5
9B5
331
9EC
  5
9EC
331
900
  5
900
331
93F
  5
93F
331
976
  5
976
331
AA1
  5
AA1
331
AA9
  5
AA9
331
AE0
  5
AE0
331
D39
  5
D39
331
A33
  5
A33
331
A6A
  5
A6A
331
9BD
  5
9BD
331
9F4
  5
9F4
331
947
  5
947
331
97E
  5
97E
331
D90
  5
D90
331
908
  5
908
331
AB1
  5
AB1
331
AE8
  5
AE8
331
9FC
  5
9FC
331
A3B
  5
A3B
331
A72
  5
A72
331
94F
  5
94F
331
986
  5
986
331
9C5
  5
9C5
331
A7A
  5
A7A
331
AB9
  5
AB9
331
9CD
  5
9CD
331
A04
  5
A04
331
957
  5
957
331
98E
  5
98E
331
A43
  5
A43
331
AF0
  5
AF0
331
AF8
  5
AF8
331
A4B
  5
A4B
331
A82
  5
A82
331
996
  5
996
331
9D5
  5
9D5
331
95F
  5
95F
331
A0C
  5
A0C
331
AC1
  5
AC1
331
B00
  5
B00
331
A14
  5
A14
331
99E
  5
99E
331
A8A
  5
A8A
331
10A0
  5
10A0
331
928
  5
928
331
AC9
  5
AC9
331
A1C
  5
A1C
331
A53
  5
A53
331
9A6
  5
9A6
331
9DD
  5
9DD
331
930
  5
930
331
967
  5
967
331
A92
  5
A92
331
A9A
  5
A9A
331
AD1
  5
AD1
331
D2A
  5
D2A
331
A5B
  5
A5B
331
96F
  5
96F
331
9AE
  5
9AE
331
9E5
  5
9E5
331
8F9
  5
8F9
331
938
  5
938
331
D89
  5
D89
331
10A8
  5
10A8
331
AA2
  5
AA2
331
AD9
  5
AD9
331
9B6
  5
9B6
331
9ED
  5
9ED
331
940
  5
940
331
977
  5
977
331
901
  5
901
331
A2C
  5
A2C
331
A63
  5
A63
331
A6B
  5
A6B
331
AAA
  5
AAA
331
AE1
  5
AE1
331
9BE
  5
9BE
331
9F5
  5
9F5
331
97F
  5
97F
331
A34
  5
A34
331
948
  5
948
331
909
  5
909
331
AE9
  5
AE9
331
A3C
  5
A3C
331
A73
  5
A73
331
9C6
  5
9C6
331
9FD
  5
9FD
331
950
  5
950
331
987
  5
987
331
AB2
  5
AB2
331
ABA
  5
ABA
331
AF1
  5
AF1
331
A05
  5
A05
331
A44
  5
A44
331
98F
  5
98F
331
9CE
  5
9CE
331
A7B
  5
A7B
331
919
  5
919
331
958
  5
958
331
A83
  5
A83
331
AC2
  5
AC2
331
A0D
  5
A0D
331
A4C
  5
A4C
331
AF9
  5
AF9
331
997
  5
997
331
9D6
  5
9D6
331
A8B
  5
A8B
331
A15
  5
A15
331
99F
  5
99F
331
B01
  5
B01
331
D1B
  5
D1B
331
10A1
  5
10A1
331
960
  5
960
331
929
  5
929
331
A93
  5
A93
331
ACA
  5
ACA
331
9A7
  5
9A7
331
9DE
  5
9DE
331
931
  5
931
331
A1D
  5
A1D
331
A54
  5
A54
331
A25
  5
A25
331
A5C
  5
A5C
331
9AF
  5
9AF
331
9E6
  5
9E6
331
939
  5
939
331
970
  5
970
331
A9B
  5
A9B
331
8FA
  5
8FA
331
AD2
  5
AD2
331
10A9
  5
10A9
331
ADA
  5
ADA
331
D8A
  5
D8A
331
A2D
  5
A2D
331
A64
  5
A64
331
9B7
  5
9B7
331
9EE
  5
9EE
331
902
  5
902
331
941
  5
941
331
978
  5
978
331
AA3
  5
AA3
331
C65
  5
C65
331
AAB
  5
AAB
331
AE2
  5
AE2
331
A35
  5
A35
331
A6C
  5
A6C
331
9BF
  5
9BF
331
9F6
  5
9F6
331
980
  5
980
331
90A
  5
90A
331
949
  5
949
331
AB3
  5
AB3
331
AEA
  5
AEA
331
9C7
  5
9C7
331
9FE
  5
9FE
331
951
  5
951
331
988
  5
988
331
A3D
  5
A3D
331
A74
  5
A74
331
AF2
  5
AF2
331
A7C
  5
A7C
331
ABB
  5
ABB
331
9CF
  5
9CF
331
A06
  5
A06
331
91A
  5
91A
331
959
  5
959
331
990
  5
990
331
A45
  5
A45
331
AFA
  5
AFA
331
A4D
  5
A4D
331
A84
  5
A84
331
998
  5
998
331
9D7
  5
9D7
331
A0E
  5
A0E
331
AC3
  5
AC3
331
B02
  5
B02
331
D0C
  5
D0C
331
A16
  5
A16
331
A8C
  5
A8C
331
10A2
  5
10A2
331
9A0
  5
9A0
331
961
  5
961
331
A94
  5
A94
331
ACB
  5
ACB
331
A1E
  5
A1E
331
A55
  5
A55
331
9A8
  5
9A8
331
9DF
  5
9DF
331
932
  5
932
331
969
  5
969
331
A9C
  5
A9C
331
AD3
  5
AD3
331
A5D
  5
A5D
331
971
  5
971
331
9B0
  5
9B0
331
9E7
  5
9E7
331
8FB
  5
8FB
331
93A
  5
93A
331
D8B
  5
D8B
331
10AA
  5
10AA
331
AA4
  5
AA4
331
ADB
  5
ADB
331
9B8
  5
9B8
331
9EF
  5
9EF
331
942
  5
942
331
979
  5
979
331
903
  5
903
331
A2E
  5
A2E
331
A65
  5
A65
331
C66
  5
C66
331
A36
  5
A36
331
A6D
  5
A6D
331
9F7
  5
9F7
331
AAC
  5
AAC
331
AE3
  5
AE3
331
9C0
  5
9C0
331
94A
  5
94A
331
981
  5
981
331
90B
  5
90B
331
AEB
  5
AEB
331
A3E
  5
A3E
331
A75
  5
A75
331
989
  5
989
331
9C8
  5
9C8
331
9FF
  5
9FF
331
AB4
  5
AB4
331
CB5
  5
CB5
331
ABC
  5
ABC
331
AF3
  5
AF3
331
A07
  5
A07
331
A46
  5
A46
331
991
  5
991
331
9D0
  5
9D0
331
A7D
  5
A7D
331
91B
  5
91B
331
95A
  5
95A
331
A85
  5
A85
331
AC4
  5
AC4
331
A0F
  5
A0F
331
999
  5
999
331
A4E
  5
A4E
331
923
  5
923
331
AFB
  5
AFB
331
B03
  5
B03
331
A8D
  5
A8D
331
A17
  5
A17
331
10A3
  5
10A3
331
9D8
  5
9D8
331
962
  5
962
331
9A1
  5
9A1
331
A95
  5
A95
331
ACC
  5
ACC
331
9A9
  5
9A9
331
9E0
  5
9E0
331
933
  5
933
331
96A
  5
96A
331
A1F
  5
A1F
331
A56
  5
A56
331
A27
  5
A27
331
A5E
  5
A5E
331
9B1
  5
9B1
331
9E8
  5
9E8
331
93B
  5
93B
331
972
  5
972
331
A9D
  5
A9D
331
8FC
  5
8FC
331
AD4
  5
AD4
331
AA5
  5
AA5
331
ADC
  5
ADC
331
A2F
  5
A2F
331
A66
  5
A66
331
9B9
  5
9B9
331
9F0
  5
9F0
331
943
  5
943
331
97A
  5
97A
331
D8C
  5
D8C
331
C67
  5
C67
331
AAD
  5
AAD
331
AE4
  5
AE4
331
A37
  5
A37
331
A6E
  5
A6E
331
1123
  5
1123
331
CA6
  5
CA6
331
982
  5
982
331
9C1
  5
9C1
331
90C
  5
90C
331
94B
  5
94B
331
9F8
  5
9F8
331
AB5
  5
AB5
331
AEC
  5
AEC
331
9C9
  5
9C9
331
A00
  5
A00
331
98A
  5
98A
331
A3F
  5
A3F
331
914
  5
914
331
A76
  5
A76
331
AF4
  5
AF4
331
A47
  5
A47
331
A7E
  5
A7E
331
A08
  5
A08
331
ABD
  5
ABD
331
95B
  5
95B
331
992
  5
992
331
AFC
  5
AFC
331
A4F
  5
A4F
331
A86
  5
A86
331
99A
  5
99A
331
924
  5
924
331
A10
  5
A10
331
AC5
  5
AC5
331
B04
  5
B04
331
A8E
  5
A8E
331
10A4
  5
10A4
331
A18
  5
A18
331
9A2
  5
9A2
331
9D9
  5
9D9
331
963
  5
963
331
A96
  5
A96
331
ACD
  5
ACD
331
A20
  5
A20
331
A57
  5
A57
331
9AA
  5
9AA
331
9E1
  5
9E1
331
96B
  5
96B
331
A9E
  5
A9E
331
AD5
  5
AD5
331
9E9
  5
9E9
331
A28
  5
A28
331
A5F
  5
A5F
331
93C
  5
93C
331
973
  5
973
331
8FD
  5
8FD
331
9B2
  5
9B2
331
D8D
  5
D8D
331
C97
  5
C97
331
AA6
  5
AA6
331
ADD
  5
ADD
331
9BA
  5
9BA
331
9F1
  5
9F1
331
944
  5
944
331
97B
  5
97B
331
905
  5
905
331
A30
  5
A30
331
A67
  5
A67
331
C68
  5
C68
331
A6F
  5
A6F
331
AAE
  5
AAE
331
AE5
  5
AE5
331
A38
  5
A38
331
9C2
  5
9C2
331
9F9
  5
9F9
331
94C
  5
94C
331
983
  5
983
331
90D
  5
90D
331
AB6
  5
AB6
331
AED
  5
AED
331
A40
  5
A40
331
A77
  5
A77
331
98B
  5
98B
331
9CA
  5
9CA
331
915
  5
915
331
954
  5
954
331
A01
  5
A01
331
ABE
  5
ABE
331
AF5
  5
AF5
331
A48
  5
A48
331
993
  5
993
331
9D2
  5
9D2
331
A7F
  5
A7F
331
95C
  5
95C
331
A11
  5
A11
331
AC6
  5
AC6
331
99B
  5
99B
331
925
  5
925
331
AFD
  5
AFD
331
A8F
  5
A8F
331
10A5
  5
10A5
331
9DA
  5
9DA
331
A19
  5
A19
331
A50
  5
A50
331
92D
  5
92D
331
964
  5
964
331
9A3
  5
9A3
331
C88
  5
C88
331
A58
  5
A58
331
A97
  5
A97
331
ACE
  5
ACE
331
9AB
  5
9AB
331
9E2
  5
9E2
331
96C
  5
96C
331
A21
  5
A21
331
A29
  5
A29
331
A60
  5
A60
331
9B3
  5
9B3
331
9EA
  5
9EA
331
93D
  5
93D
331
974
  5
974
331
A9F
  5
A9F
331
8FE
  5
8FE
331
AD6
  5
AD6
331
AA7
  5
AA7
331
ADE
  5
ADE
331
A31
  5
A31
331
A68
  5
A68
331
9BB
  5
9BB
331
9F2
  5
9F2
331
906
  5
906
331
945
  5
945
331
97C
  5
97C
331
D8E
  5
D8E
331
AAF
  5
AAF
331
AE6
  5
AE6
331
9FA
  5
9FA
331
A39
  5
A39
331
A70
  5
A70
331
94D
  5
94D
331
984
  5
984
331
90E
  5
90E
331
9C3
  5
9C3
331
A78
  5
A78
331
9CB
  5
9CB
331
A02
  5
A02
331
AB7
  5
AB7
331
AEE
  5
AEE
331
955
  5
955
331
98C
  5
98C
331
AF6
  5
AF6
331
C79
  5
C79
331
A49
  5
A49
331
A80
  5
A80
331
994
  5
994
331
9D3
  5
9D3
331
91E
  5
91E
331
95D
  5
95D
331
A0A
  5
A0A
331
ABF
  5
ABF
331
AC7
  5
AC7
331
AFE
  5
AFE
331
A88
  5
A88
331
D57
  5
D57
331
99C
  5
99C
331
A12
  5
A12
331
109E
  5
109E
331
10A6
  5
10A6
  0
SORTENTSTABLE
  5
E21
102
{ACAD_REACTORS
330
E20
102
}
330
E20
100
AcDbSortentsTable
330
E1F
  0
SORTENTSTABLE
  5
EFD
102
{ACAD_REACTORS
330
EFC
102
}
330
EFC
100
AcDbSortentsTable
330
E6D
  0
XRECORD
  5
1173
102
{ACAD_REACTORS
330
1172
102
}
330
1172
100
AcDbXrecord
280
     1
 40
303599.0
  1
{\fArial|b0|i0|c0|p34;P.O. BOX 496^IBEAVER, PA 15009^I\C256;www.c3controls.com}
  0
XRECORD
  5
1175
102
{ACAD_REACTORS
330
1174
102
}
330
1174
100
AcDbXrecord
280
     1
 40
190720.0
  1
P.O. BOX 496^IBEAVER, PA 15009^I{\C256;www.c3controls.com}
  0
XRECORD
  5
116E
102
{ACAD_REACTORS
330
116D
102
}
330
116D
100
AcDbXrecord
280
     1
102
SHADEPLOT
 70
     0
  0
IMAGEDEF
  5
F01
102
{ACAD_REACTORS
330
F00
102
}
330
F00
100
AcDbRasterImageDef
 90
        0
  1
\\SBSSERVER\DfsRoot\Home\pdamesimo\My Pictures\c3 logo.bmp
 10
297.0
 20
60.0
 11
0.264550269889837
 21
0.264550269889837
280
     1
281
     2
  0
IMAGEDEF
  5
F02
102
{ACAD_REACTORS
330
E3E
330
F00
330
E59
102
}
330
F00
100
AcDbRasterImageDef
 90
        0
  1
K:\Archive- EngrDwgs\Borders\Title Blocks\c3 logo B,C,D Size Title Block Image.bmp
 10
383.0
 20
81.0
 11
0.264550269889837
 21
0.264550269889837
280
     1
281
     2
  0
LAYOUT
  5
153
102
{ACAD_XDICTIONARY
360
44F
102
}
102
{ACAD_REACTORS
330
150
102
}
330
150
100
AcDbPlotSettings
  1

  2
none_device
  4
Letter_(8.50_x_11.00_Inches)
  6

 40
6.349999904632568
 41
6.349999904632568
 42
6.350006103515625
 43
6.350006103515625
 44
215.8999938964844
 45
279.3999938964844
 46
0.0
 47
0.0
 48
0.0
 49
0.0
140
0.0
141
0.0
142
1.0
143
1.0
 70
   688
 72
     0
 73
     1
 74
     5
  7

 75
     0
147
1.0
148
0.0
149
0.0
100
AcDbLayout
  1
Layout1
 70
     1
 71
     1
 10
-0.2500002402958907
 20
-0.2499999962453767
 11
10.74999951940821
 21
8.249999763458731
 12
0.0
 22
0.0
 32
0.0
 14
1.000000000000000E+20
 24
1.000000000000000E+20
 34
1.000000000000000E+20
 15
-1.000000000000000E+20
 25
-1.000000000000000E+20
 35
-1.000000000000000E+20
146
0.0
 13
0.0
 23
0.0
 33
0.0
 16
1.0
 26
0.0
 36
0.0
 17
0.0
 27
1.0
 37
0.0
 76
     0
330
16
331
BA
  0
LAYOUT
  5
152
102
{ACAD_XDICTIONARY
360
116F
102
}
102
{ACAD_REACTORS
330
150
102
}
330
150
100
AcDbPlotSettings
  1

  2
\\NOVIBDC\HPLJ4-TPUB
  4

  6

 40
0.0
 41
0.0
 42
0.0
 43
0.0
 44
0.0
 45
0.0
 46
0.0
 47
0.0
 48
0.0
 49
0.0
140
0.0
141
0.0
142
1.0
143
1.0
 70
  1712
 72
     0
 73
     0
 74
     0
  7

 75
     0
147
1.0
148
0.0
149
0.0
100
AcDbLayout
  1
Model
 70
     1
 71
     0
 10
0.0
 20
0.0
 11
12.0
 21
9.0
 12
0.0
 22
0.0
 32
0.0
 14
0.0
 24
0.0
 34
0.0
 15
0.0
 25
0.0
 35
0.0
146
0.0
 13
0.0
 23
0.0
 33
0.0
 16
1.0
 26
0.0
 36
0.0
 17
0.0
 27
1.0
 37
0.0
 76
     0
330
19
  0
MLINESTYLE
  5
1C
102
{ACAD_REACTORS
330
E
102
}
330
E
100
AcDbMlineStyle
  2
STANDARD
 70
     0
  3

 62
     0
 51
90.0
 52
90.0
 71
     2
 49
0.5
 62
   256
  6
BYLAYER
 49
-0.5
 62
   256
  6
BYLAYER
  0
ACDBPLACEHOLDER
  5
14F
102
{ACAD_REACTORS
330
14E
102
}
330
14E
  0
TABLESTYLE
  5
3FA
102
{ACAD_REACTORS
330
3F9
102
}
330
3F9
100
AcDbTableStyle
  3
Standard
 70
     0
 71
     0
 40
0.06
 41
0.06
280
     0
281
     0
  7
STANDARD
140
0.18
170
     2
 62
     0
 63
     7
283
     0
274
    -2
284
     1
 64
     0
275
    -2
285
     1
 65
     0
276
    -2
286
     1
 66
     0
277
    -2
287
     1
 67
     0
278
    -2
288
     1
 68
     0
279
    -2
289
     1
 69
     0
  7
STANDARD
140
0.25
170
     5
 62
     0
 63
     7
283
     0
274
    -2
284
     1
 64
     0
275
    -2
285
     1
 65
     0
276
    -2
286
     1
 66
     0
277
    -2
287
     1
 67
     0
278
    -2
288
     1
 68
     0
279
    -2
289
     1
 69
     0
  7
STANDARD
140
0.18
170
     5
 62
     0
 63
     7
283
     0
274
    -2
284
     1
 64
     0
275
    -2
285
     1
 65
     0
276
    -2
286
     1
 66
     0
277
    -2
287
     1
 67
     0
278
    -2
288
     1
 68
     0
279
    -2
289
     1
 69
     0
  0
DICTIONARYVAR
  5
429
102
{ACAD_REACTORS
330
FA
102
}
330
FA
100
DictionaryVariables
280
     0
  1
STANDARD
  0
DICTIONARYVAR
  5
3F5
102
{ACAD_REACTORS
330
FA
102
}
330
FA
100
DictionaryVariables
280
     0
  1
1
  0
DICTIONARYVAR
  5
FB
102
{ACAD_REACTORS
330
FA
102
}
330
FA
100
DictionaryVariables
280
     0
  1
1
  0
DICTIONARYVAR
  5
1169
102
{ACAD_REACTORS
330
FA
102
}
330
FA
100
DictionaryVariables
280
     0
  1

  0
DICTIONARY
  5
2C1
102
{ACAD_REACTORS
330
189
102
}
330
189
100
AcDbDictionary
281
     1
  0
XRECORD
  5
402
102
{ACAD_REACTORS
330
189
102
}
330
189
100
AcDbXrecord
280
     1
 90
-1023410169
  0
DICTIONARY
  5
159
102
{ACAD_REACTORS
330
158
102
}
330
158
100
AcDbDictionary
281
     1
  3
DWGSETTINGS
350
15A
  3
Shaft
350
375
  3
TRANSSETTINGS
350
166
  0
ACAMGFILTERDAT
  5
1BE
102
{ACAD_REACTORS
330
1BA
102
}
330
1BA
100
AcAmgFilterDat
 70
    15
  1
DIMENSION,AMDT_*_DIM
  2
*
  3
*
  4
*
  5
*
290
     1
  0
ACAMGFILTERDAT
  5
1BD
102
{ACAD_REACTORS
330
1BA
102
}
330
1BA
100
AcAmgFilterDat
 70
    15
  1
*
  2
AM_FEA-AM_*
  3
*
  4
*
  5
*
290
     1
  0
ACAMGFILTERDAT
  5
1BB
102
{ACAD_REACTORS
330
1BA
102
}
330
1BA
100
AcAmgFilterDat
 70
    15
  1
HATCH
  2
*
  3
*
  4
*
  5
*
290
     1
  0
ACAMGFILTERDAT
  5
1BC
102
{ACAD_REACTORS
330
1BA
102
}
330
1BA
100
AcAmgFilterDat
 70
    15
  1
ACMFCFRAME,ACMDATUMTARGET,ACMDATUMID,ACMWELDSYM,ACMSURFSYM,ACMFEATID,ACMPARTREF,ACMBALLOON
  2
*
  3
*
  4
*
  5
*
290
     1
  0
LAYER_INDEX
  5
121
102
{ACAD_REACTORS
330
120
102
}
330
120
100
AcDbIndex
 40
2453796.470127628
100
AcDbLayerIndex
  8
0
360
122
 90
       71
  8
DEFPOINTS
360
1131
 90
        4
  8
DD
360
1132
 90
      444
  8
1
360
1133
 90
        0
  8
dim
360
1134
 90
        0
  8
CENTER
360
1135
 90
        0
  8
10
360
1136
 90
       13
  8
L-REV
360
1137
 90
        0
  8
L-INSPECTION
360
1138
 90
        0
  8
L-DIM
360
1139
 90
        0
  8
LREV
360
113A
 90
        0
  0
DICTIONARY
  5
44F
330
153
100
AcDbDictionary
280
     1
281
     1
  3
ACAD_XREC_ROUNDTRIP
360
1171
  3
ADSK_XREC_LAYOUTTHUMBNAIL
360
450
  0
DICTIONARY
  5
116F
330
152
100
AcDbDictionary
280
     1
281
     1
  3
ACAD_XREC_ROUNDTRIP
360
1170
  0
IDBUFFER
  5
122
330
0
100
AcDbIdBuffer
330
C79
330
C88
330
C97
330
CA6
330
CB5
330
D0C
330
D1B
330
D2A
330
D39
330
D48
330
D57
330
D89
330
D8A
330
D8B
330
D8C
330
D8D
330
D8E
330
D8F
330
D90
330
F10
330
1123
330
112E
330
C68
330
113C
330
914
330
915
330
917
330
91A
330
91B
330
91E
330
924
330
925
330
929
330
92D
330
92E
330
92F
330
931
330
932
330
933
330
938
330
939
330
93A
330
93B
330
93C
330
93D
330
93E
330
93F
330
940
330
941
330
943
330
944
330
945
330
946
330
947
330
948
330
949
330
94A
330
94B
330
94C
330
94D
330
94E
330
94F
330
950
330
961
330
96E
330
9EF
330
ADA
330
AE0
330
C65
330
C66
330
C67
  0
IDBUFFER
  5
1131
330
0
100
AcDbIdBuffer
330
928
330
930
330
942
330
951
  0
IDBUFFER
  5
1132
330
0
100
AcDbIdBuffer
330
A35
330
A36
330
A37
330
A38
330
A39
330
A3A
330
A3B
330
A3C
330
A3D
330
A3E
330
A3F
330
A40
330
A42
330
A43
330
A44
330
A45
330
A46
330
A47
330
A48
330
A49
330
A4A
330
A4B
330
A4C
330
A4D
330
A4E
330
A4F
330
A50
330
A51
330
A52
330
A53
330
A54
330
A55
330
A56
330
A57
330
A58
330
A59
330
A5A
330
A5B
330
A5C
330
A5D
330
A5E
330
A5F
330
A60
330
A61
330
A62
330
A63
330
A64
330
A65
330
A66
330
A67
330
A68
330
A69
330
A6A
330
A6B
330
A6C
330
A6D
330
A6E
330
A6F
330
A70
330
A71
330
A72
330
A73
330
A74
330
A75
330
A76
330
A77
330
A78
330
A79
330
A7A
330
A7B
330
A7C
330
A7D
330
A7E
330
A7F
330
A80
330
A81
330
A82
330
A83
330
A84
330
A85
330
A86
330
A88
330
A89
330
A8A
330
A8B
330
A8C
330
A8D
330
A8E
330
A8F
330
A90
330
A91
330
A92
330
A93
330
A94
330
A95
330
A96
330
A97
330
A98
330
A99
330
A9A
330
A9B
330
A9C
330
A9D
330
A9E
330
A9F
330
AA0
330
AA1
330
AA2
330
AA3
330
AA4
330
AA5
330
AA6
330
AA7
330
AA8
330
AA9
330
AAA
330
AAB
330
AAC
330
AAD
330
AAE
330
AAF
330
AB0
330
AB1
330
AB2
330
AB3
330
AB4
330
AB5
330
AB6
330
AB7
330
AB8
330
AB9
330
ABA
330
ABB
330
ABC
330
ABD
330
ABE
330
ABF
330
AC0
330
AC1
330
AC2
330
AC3
330
AC4
330
AC5
330
AC6
330
AC7
330
AC8
330
AC9
330
ACA
330
ACB
330
ACC
330
ACD
330
ACE
330
ACF
330
AD0
330
AD1
330
AD2
330
AD3
330
AD4
330
AD5
330
AD6
330
AD7
330
AD8
330
AD9
330
ADB
330
ADC
330
ADD
330
ADE
330
ADF
330
AE1
330
AE2
330
AE3
330
AE4
330
AE5
330
AE6
330
AE7
330
AE8
330
AE9
330
AEA
330
AEB
330
AEC
330
AED
330
AEE
330
AEF
330
AF0
330
AF1
330
AF2
330
AF3
330
AF4
330
AF5
330
AF6
330
AF7
330
AF8
330
AF9
330
AFA
330
AFB
330
AFC
330
AFD
330
AFE
330
AFF
330
B00
330
B01
330
B02
330
B03
330
B04
330
8F9
330
8FA
330
8FB
330
8FC
330
8FD
330
8FE
330
8FF
330
900
330
901
330
902
330
903
330
905
330
906
330
907
330
908
330
909
330
90A
330
90B
330
90C
330
90D
330
90E
330
90F
330
919
330
923
330
954
330
955
330
956
330
957
330
958
330
959
330
95A
330
95B
330
95C
330
95D
330
95E
330
95F
330
960
330
962
330
963
330
964
330
965
330
966
330
967
330
969
330
96A
330
96B
330
96C
330
96D
330
96F
330
970
330
971
330
972
330
973
330
974
330
975
330
976
330
977
330
978
330
979
330
97A
330
97B
330
97C
330
97D
330
97E
330
97F
330
980
330
981
330
982
330
983
330
984
330
985
330
986
330
987
330
988
330
989
330
98A
330
98B
330
98C
330
98D
330
98E
330
98F
330
990
330
991
330
992
330
993
330
994
330
995
330
996
330
997
330
998
330
999
330
99A
330
99B
330
99C
330
99D
330
99E
330
99F
330
9A0
330
9A1
330
9A2
330
9A3
330
9A4
330
9A5
330
9A6
330
9A7
330
9A8
330
9A9
330
9AA
330
9AB
330
9AC
330
9AD
330
9AE
330
9AF
330
9B0
330
9B1
330
9B2
330
9B3
330
9B4
330
9B5
330
9B6
330
9B7
330
9B8
330
9B9
330
9BA
330
9BB
330
9BC
330
9BD
330
9BE
330
9BF
330
9C0
330
9C1
330
9C2
330
9C3
330
9C4
330
9C5
330
9C6
330
9C7
330
9C8
330
9C9
330
9CA
330
9CB
330
9CC
330
9CD
330
9CE
330
9CF
330
9D0
330
9D2
330
9D3
330
9D4
330
9D5
330
9D6
330
9D7
330
9D8
330
9D9
330
9DA
330
9DB
330
9DC
330
9DD
330
9DE
330
9DF
330
9E0
330
9E1
330
9E2
330
9E3
330
9E4
330
9E5
330
9E6
330
9E7
330
9E8
330
9E9
330
9EA
330
9EB
330
9EC
330
9ED
330
9EE
330
9F0
330
9F1
330
9F2
330
9F3
330
9F4
330
9F5
330
9F6
330
9F7
330
9F8
330
9F9
330
9FA
330
9FB
330
9FC
330
9FD
330
9FE
330
9FF
330
A00
330
A01
330
A02
330
A03
330
A04
330
A05
330
A06
330
A07
330
A08
330
A0A
330
A0B
330
A0C
330
A0D
330
A0E
330
A0F
330
A10
330
A11
330
A12
330
A13
330
A14
330
A15
330
A16
330
A17
330
A18
330
A19
330
A1A
330
A1B
330
A1C
330
A1D
330
A1E
330
A1F
330
A20
330
A21
330
A22
330
A25
330
A27
330
A28
330
A29
330
A2A
330
A2B
330
A2C
330
A2D
330
A2E
330
A2F
330
A30
330
A31
330
A32
330
A33
330
A34
  0
IDBUFFER
  5
1133
330
0
100
AcDbIdBuffer
  0
IDBUFFER
  5
1134
330
0
100
AcDbIdBuffer
  0
IDBUFFER
  5
1135
330
0
100
AcDbIdBuffer
  0
IDBUFFER
  5
1136
330
0
100
AcDbIdBuffer
330
109E
330
109F
330
10A0
330
10A1
330
10A2
330
10A3
330
10A4
330
10A5
330
10A6
330
10A7
330
10A8
330
10A9
330
10AA
  0
IDBUFFER
  5
1137
330
0
100
AcDbIdBuffer
  0
IDBUFFER
  5
1138
330
0
100
AcDbIdBuffer
  0
IDBUFFER
  5
1139
330
0
100
AcDbIdBuffer
  0
IDBUFFER
  5
113A
330
0
100
AcDbIdBuffer
  0
XRECORD
  5
1171
102
{ACAD_REACTORS
330
44F
102
}
330
44F
100
AcDbXrecord
280
     1
102
SHADEPLOT
 70
     0
102
SHADEPLOTRESLEVEL
 70
     2
102
SHADEPLOTCUSTOMDPI
 70
   300
  0
XRECORD
  5
450
102
{ACAD_REACTORS
330
44F
102
}
330
44F
100
AcDbXrecord
280
     1
310
28000000B40000008B0000000100080000000000BC61000000000000000000000001000000000000FFFFFF0000000000FFFFFF000000000000000000000000000000000000000000000000000000000000000000330000006600000099000000CC000000FF00000000330000333300006633000099330000CC330000FF3300
310
0000660000336600006666000099660000CC660000FF66000000990000339900006699000099990000CC990000FF99000000CC000033CC000066CC000099CC0000CCCC0000FFCC000000FF000033FF000066FF000099FF0000CCFF0000FFFF000000003300330033006600330099003300CC003300FF003300003333003333
310
33006633330099333300CC333300FF33330000663300336633006666330099663300CC663300FF66330000993300339933006699330099993300CC993300FF99330000CC330033CC330066CC330099CC3300CCCC3300FFCC330000FF330033FF330066FF330099FF3300CCFF3300FFFF330000006600330066006600660099
310
006600CC006600FF00660000336600333366006633660099336600CC336600FF33660000666600336666006666660099666600CC666600FF66660000996600339966006699660099996600CC996600FF99660000CC660033CC660066CC660099CC6600CCCC6600FFCC660000FF660033FF660066FF660099FF6600CCFF6600
310
FFFF660000009900330099006600990099009900CC009900FF00990000339900333399006633990099339900CC339900FF33990000669900336699006666990099669900CC669900FF66990000999900339999006699990099999900CC999900FF99990000CC990033CC990066CC990099CC9900CCCC9900FFCC990000FF99
310
0033FF990066FF990099FF9900CCFF9900FFFF99000000CC003300CC006600CC009900CC00CC00CC00FF00CC000033CC003333CC006633CC009933CC00CC33CC00FF33CC000066CC003366CC006666CC009966CC00CC66CC00FF66CC000099CC003399CC006699CC009999CC00CC99CC00FF99CC0000CCCC0033CCCC0066CC
310
CC0099CCCC00CCCCCC00FFCCCC0000FFCC0033FFCC0066FFCC0099FFCC00CCFFCC00FFFFCC000000FF003300FF006600FF009900FF00CC00FF00FF00FF000033FF003333FF006633FF009933FF00CC33FF00FF33FF000066FF003366FF006666FF009966FF00CC66FF00FF66FF000099FF003399FF006699FF009999FF00CC
310
99FF00FF99FF0000CCFF0033CCFF0066CCFF0099CCFF00CCCCFF00FFCCFF0000FFFF0033FFFF0066FFFF0099FFFF00CCFFFF00FFFFFF00000000000D0D0D001A1A1A00282828003535350043434300505050005D5D5D006B6B6B00787878008686860093939300A1A1A100AEAEAE00BBBBBB00C9C9C900D6D6D600E4E4E400
310
F1F1F100FFFFFF0000000000000000000000000000000000000000000000000000000000000000000000000000000000E2E2E2E2E2E2E2E2E2E2E2E2E2E2E2E2E2E2E2E2E2E2E2E2E2E2E2E2E2E2E2E2E2E2E2E2E2E2E2E2E2E2E2E2E2E2E2E2E2E2E2E2E2E2E2E2E2E2E2E2E2E2E2E2E2E2E2E2E2E2E2E2E2E2E2E2E2E2E2
310
E2E2E2E2E2E2E2E2E2E2E2E2E2E2E2E2E2E2E2E2E2E2E2E2E2E2E2E2E2E2E2E2E2E2E2E2E2E2E2E2E2E2E2E2E2E2E2E2E2E2E2E2E2E2E2E2E2E2E2E2E2E2E2E2E2E2E2E2E2E2E2E2E2E2E2E2E2E2E2E2E2E2E2E2E2E2E2E2E2E2E2E2E2E2E2E2E2E2E2E2E2E2F5F5F5F5F5F5F5F5F5F5F5F5F5F5F5F5F5F5F5F5F5F5F5F5F5
310
F5F5F5F5F5F5F5F5F5F5F5F5F5F5F5F5F5F5F5F5F5F5F5F5F5F5F5F5F5F5F5F5F5F5F5F5F5F5F5F5F5F5F5F5F5F5F5F5F5F5F5F5F5F5F5F5F5F5F5F5F5F5F5F5F5F5F5F5F5F5F5F5F5F5F5F5F5F5F5F5F5F5F5F5F5F5F5F5F5F5F5F5F5F5F5F5F5F5F5F5F5F5F5F5F5F5F5F5F5F5F5F5F5F5F5F5F5F5F5F5F5F5F5F5F5F5F5
310
F5F5F5F5F5F5F5F5F5F5F5F5F5F5F5F5F5F5F5F5F5F5F5F5F5F5E2E2F5F5F5F5F5F5F5F5F5F5F5F5F5F5F5F5F5F5F5F5F5F5F5F5F5F5F5F5F5F5F5F5F5F5F5F5F5F5F5F5F5F5F5F5F5F5F5F5F5F5F5F5F5F5F5F5F5F5F5F5F5F5F5F5F5F5F5F5F5F5F5F5F5F5F5F5F5F5F5F5F5F5F5F5F5F5F5F5F5F5F5F5F5F5F5F5F5F5F5
310
F5F5F5F5F5F5F5F5F5F5F5F5F5F5F5F5F5F5F5F5F5F5F5F5F5F5F5F5F5F5F5F5F5F5F5F5F5F5F5F5F5F5F5F5F5F5F5F5F5F5F5F5F5F5F5F5F5F5F5F5F5F5F5F5F5F5F5F5F5F5F5F5F5F5F5F5F5F5F5E2E2F5F5F5F5F5F5F5F5F5F5F5F5F5F5F5F5F5F5F5F5F5F5F5F5F5F5F5F5F5F5F5F5F5F5F5F5F5F5F5F5F5F5F5F5F5F5
310
F5F5F5F5F5F5F5F5F5F5F5F5F5F5F5F5F5F5F5F5F5F5F5F5F5F5F5F5F5F5F5F5F5F5F5F5F5F5F5F5F5F5F5F5F5F5F5F5F5F5F5F5F5F5F5F5F5F5F5F5F5F5F5F5F5F5F5F5F5F5F5F5F5F5F5F5F5F5F5F5F5F5F5F5F5F5F5F5F5F5F5F5F5F5F5F5F5F5F5F5F5F5F5F5F5F5F5F5F5F5F5F5F5F5F5F5F5F5F5F5F5F5F5F5F5F5F5
310
F5F5F5F5F5E2E2F5F5F5F5F5F5F5F5F5F5F5F5F5F5F5F5F5F5F5F5F5F5F5F5F5F5F5F5F5F5F5F5F5F5F5F5F5F5F5F5F5F5F5F5F5F5F5F5F5F5F5F5F5F5F5F5F5F5F5F5F5F5F5F5F5F5F5F5F5F5F5F5F5F5F5F5F5F5F5F5F5F5F5F5F5F5F5F5F5F5F5F5F5F5F5F5F5F5F5F5F5F5F5F5F5F5F5F5F5F5F5F5F5F5F5F5F5F5F5F5
310
F5F5F5F5F5F5F5F5F5F5F5F5F5F5F5F5F5F5F5F5F5F5F5F5F5F5F5F5F5F5F5F5F5F5F5F5F5F5F5F5F5F5F5F5F5F5F5F5F5F5F5F5F5F5F5F5F5F5E2E2F5F5F5E2E2E2E2E2E2E2E2F5F5F5F5F5F5F5F5F5E2E2E2E2E2E2E2E2E2E2E2E2E2E2E2E2F5F5F5F5F5F5F5F5F5E2E2E2E2E2E2E2E2E2E2E2E2E2E2E2F5F5F5F5F5F5F5
310
F5F5E2E2E2E2E2E2E2E2E2E2E2E2E2E2E2E2F5F5F5F5F5F5F5F5E2E2E2E2E2E2E2E2E2E2E2E2E2E2E2E2F5F5F5F5F5F5F5F5F5E2E2E2E2E2E2E2E2E2E2E2E2E2E2E2F5F5F5F5F5F5F5F5F5E2E2E2E2E2E2E2E2E2E2E2E2E2E2E2E2F5F5F5F5F5F5F5F5F5E2E2E2E2E2E2E2E2F5F5F5E2E2F5F5F5E2F5F5F5F5F5F5F5F5F5F5
310
F5F5F5F5F5F5F5F5F5F5F5F5F5F5F5F5F5F5F5F5F5F5F5F5F5F5F5F5F5F5F5F5F5F5F5F5F5F5F5F5F5F5F5F5F5F5F5F5F5F5F5F5F5F5F5F5F5F5F5F5F5F5F5F5F5F5F5F5F5F5F5F5F5F5F5F5F5F5F5F5F5F5F5F5F5F5F5F5F5F5F5F5F5F5F5F5F5F5F5F5F5F5F5F5F5F5F5F5F5F5F5F5F5F5F5F5F5F5F5F5F5F5F5F5F5F5F5
310
F5F5F5F5F5F5F5F5F5F5F5F5F5F5F5F5F5F5F5F5F5F5F5F5F5F5F5F5F5F5F5F5F5E2F5F5F5E2E2F5F5F5E2F5F5F5F5F5F5F5F5F5F5F5F5F5F5F5F5F5F5F5F5F5F5F5F5F5F5F5F5F5F5F5F5F5F5F5F5F5F5F5F5F5F5F5F5F5F5F5F5F5F5F5F5F5F5F5F5F5F5F5F5F5F5F5F5F5F5F5F5F5F5F5F5F5F5F5F5F5F5F5F5F5F5F5F5
310
F5F5F5F5F5F5F5F5F5F5F5F5F5F5F5F5F5F5F5F5F5F5F5F5F5F5F5F5F5F5F5F5F5F5F5F5F5F5F5F5F5F5F5F5F5F5F5F5F5F5F5F5F5F5F5F5F5F5F5F5F5F5F5F5F5F5F5F5F5F5F5F5F5F5F5F5F5F5F5F5F5F5F5F5F5F5E2F5F5F5E2E2F5F5F5E2F5F5F5F5F5F5F5F5F5F5F5F5F5F5F5F5F5F5F5F5F5F5F5F5F5F5F5F5F5F5F5
310
F5F5F5F5F5F5F5F5F5F5F5F5F5F5F5F5F5F5F5F5F5F5F5F5F5F5F5F5F5F5F5F5F5F5F5F5F5F5F5F5F5F5F5F5F5F5F5F5F5F5F5F5F5F5F5F5F5F5F5F5F5F5F5F5F5F5F5F5F5F5F5F5F5F5F5F5F5F5F5F5F5F5F5F5F5F5F5F5F5F5F5F5F5F5F5F5F5F5F5F5F5F5F5F5F5F5F5F5F5F5F5F5F5F5F5F5F5F5F5F5F5F5F5F5F5F5F5
310
F5F5F5F5F5F5F5F5F5F5F5F5E2F5F5F5E2E2F5F5F5E2F5F5F5F5F5F5F5F5F5F5F5F5F5F5F5F5F5F5F5F5F5F5F5F5F5F5F5F5F5F5F5F5F5F5F5F5F5F5F5F5F5F5F5F5F5F5F5F5F5F5F5F5F5F5F5F5F5F5F5F5F5F5F5F5F5F5F5F5F5F5F5F5F5F5F5F5F5F5F5F5F5F5F5F5F5F5F5F5F5F5F5F5F5F5F5F5F5F5F5F5F5F5F5F5F5
310
F5F5F5F5F5F5F5F5F5F5F5F5F5F5F5F5F5F5F5F5F5F5F5F5F5F5F5F5F5F5F5F5F5F5F5F5F5F5F5F5F5F5F5F5F5F5F5F5F5F5F5F5F5F5F5F5F5F5F5F5F5F5F5F5F5E2F5F5F5E2E2F5F5F5E2F5F5F5F5F5F5F5F5F5F5F5F5F5F5F5F5F5F5F5F5F5F5F5F5F5F5F5F5F5F5F5F5F5F5F5F5F5F5F5F5F5F5F5F5F5F5F5F5F5F5F5F5
310
F5F5F5F5F5F5F5F5F5F5F5F5F5F5F5F5F5F5F5F5F5F5F5F5F5F5F5F5F5F5F5F5F5F5F5F5F5F5F5F5F5F5F5F5F5F5F5F5F5F5F5F5F5F5F5F5F5F5F5F5F5F5F5F5F5F5F5F5F5F5F5F5F5F5F5F5F5F5F5F5F5F5F5F5F5F5F5F5F5F5F5F5F5F5F5F5F5F5F5F5F5F5F5F5F5F5F5F5F5F5F5F5F5F5F5F5F5F5E2F5F5F5E2E2F5F5F5
310
E2F5F5F5F5F5F5F5F5F5F5F5F5F5F5F5F5F5F5F5F5F5F5F5F5F5F5F5F5F5F5F5F5F5F5F5F5F5F5F5F5F5F5F5F5F5F5F5F5F5F5F5F5F5F5F5F5F5F5F5F5F5F5F5F5F5F5F5F5F5F5F5F5F5F5F5F5F5F5F5F5F5F5F5F5F5F5F5F5F5F5F5F5F5F5F5F5F5F5F5F5F5F5F5F5F5F5F5F5F5F5F5F5F5F5F5F5F5F5F5F5F5F5F5F5F5F5
310
F5F5F5F5F5F5F5F5F5F5F5F5F5F5F5F5F5F5F5F5F5F5F5F5F5F5F5F5F5F5F5F5F5F5F5F5F5F5F5F5F5F5F5F5E2F5F5F5E2E2F5F5F5E2F5F5F5F5F5F5F5F5F5F5F5F5F5F5F5F5F5F5F5F5F5F5F5F5F5F5F5F5F5F5F5F5F5F5F5F5F5F5F5F5F5F5F5F5F5F5F5F5F5F5F5F5F5F5F5F5F5F5F5F5F5F5F5F5F5F5F5F5F5F5F5F5F5
310
F5F5F5F5F5F5F5F5F5F5F5F5F5F5F5F5F5F5F5F5F5F5F5F5F5F5F5F5F5F5F5F5F5F5F5F5F5F5F5F5F5F5F5F5F5F5F5F5F5F5F5F5F5F5F5F5F5F5F5F5F5F5F5F5F5F5F5F5F5F5F5F5F5F5F5F5F5F5F5F5F5F5F5F5F5F5F5F5F5F5F5F5F5F5F5F5F5E2F5F5F5E2E2F5F5F5E2F5F5F5F5F5F5F5F5F5F5F5F5F5F5F5F5F5F5F5F5
310
F5F5F5F5F5F5F5F5F5F5F5F5F5F5F5F5F5F5F5F5F5F5F5F5F5F5F5F5F5F5F5F5F5F5F5F5F5F5F5F5F5F5F5F5F5F5F5F5F5F5F5F5F5F5F5F5F5F5F5F5F5F5F5F5F5F5F5F5F5F5F5F5F5F5F5F5F5F5F5F5F5F5F5F5F5F5F5F5F5F5F5F5F5F5F5F5F5F5F5F5F5F5F5F5F5F5F5F5F5F5F5F5F5F5F5F5F5F5F5F5F5F5F5F5F5F5F5
310
F5F5F5F5F5F5F5F5F5F5F5F5F5F5F5F5F5F5F5F5F5F5F5E2F5F5F5E2E2F5F5F5F5F5F5F5F5F5F5F5F5F5F5F5F5F5F5F5F5F5F5F5F5F5F5F5F5F5F5F5F5F5F5F5F5F5F5F5F5F5F5F5F5F5F5F5F5F5F5F5F5F5F5F5F5F5F5F5F5F5F5F5F5F5F5F5F5F5F5F5F5F5F5F5F5F5F5F5F5F5F5F5F5F5F5F5F5F5F5F5F5F5F5F5F5F5F5
310
F5F5F5F5F5F5F5F5F5F5F5F5F5F5F5F5F5F5F5F5F5F5F5F5F5F5F5F5F5F5F5F5F5F5F5F5F5F5F5F5F5F5F5F5F5F5F5F5F5F5F5F5F5F5F5F5F5F5F5F5F5F5F5F5F5F5F5F5F5F5F5F5F5F5F5F5F5F5F5F5E2E2F5F5F5F5F5F5F5F5F5F5F5F5F5F5F5F5F5F5F5F5F5F5F5F5F5F5F5F5F5F5F5F5F5F5F5F5F5F5F5F5F5F5F5F5F5
310
F5F5F5F5F5F5F5F5F5F5F5F5F5F5F5F5F5F5F5F5F5F5F5F5F5F5F5F5F5F5F5F5F5F5F5F5F5F5F5F5F5F5F5F5F5F5F5F5F5F5F5F5F5F5F5F5F5F5F5F5F5F5F5F5F5F5F5F5F5F5F5F5F5F5F5F5F5F5F5F5F5F5F5F5F5F5F5F5F5F5F5F5F5F5F5F5F5F5F5F5F5F5F5F5F5F5F5F5F5F5F5F5F5F5F5F5F5F5F5F5F5F5F5F5F5F5F5
310
F5F5F5F5F5F5E2E2F5F5F5F5F5F5F5F5F5F5F5F5F5F5F5F5F5F5F5F5F5F5F5F5F5F5F5F5F5F5F5F5F5F5F5F5F5F5F5F5F5F5F5F5F5F5F5F5F5F5F5F5F5F5F5F5F5F5F5F5F5F5F5F5F5F5F5F5F5F5F5F5F5F5F5F5F5F5F5F5F5F5F5F5F5F5F5F5F5F5F5F5F5F5F5F5F5F5F5F5F5F5F5F5F5F5F5F5F5F5F5F5F5F5F5F5F5F5F5
310
F5F5F5F5F5F5F5F5F5F5F5F5F5F5F5F5F5F5F5F5F5F5F5F5F5F5F5F5F5F5F5F5F5F5F5F5F5F5F5F5F5F5F5F5F5F5F5F5F5F5F5F5F5F5F5F5F5F5F5E2E2F5F5F5F5F5F5F5F5F5F5F5F5F5F5F5F5F5F5F5F5F5F5F5F5F5F5F5F5F5F5F5F5F5F5F5F5F5F5F5F5F5F5F5F5F5F5F5F5F5F5F5F5F5F5F5F5F5F5F5F5F5F5F5F5F5F5
310
F5F5F5F5F5F5F5F5F5F5F5F5F5F5F5F5F5F5F5F5F5F5F5F5F5F5F5F5F5F5F5F5F5F5F5F5F5F5F5F5F5F5F5F5F5F5F5F5F5F5F5F5F5F5F5F5F5F5F5F5F5F5F5F5F5F5F5F5F5F5F5F5F5F5F5F5F5F5F5F5F5F5F5F5F5F5F5F5F5F5F5F5F5F5F5F5F5F5F5F5F5F5F5F5F5F5F5F5F5F5F5F5E2E2F5F5F5F5F5F5F5F5F5F5F5F5F5
310
F5F5F5F5F5F5F5F5F5F5F5F5F5F5F5F5F5F5F5F5F5F5F5F5F5F5F5F5F5F5F5F5F5F5F5F5F5F5F5F5F5F5F5F5F5F5F5F5F5F5F5F5F5F5F5F5F5F5F5F5F5F5F5F5F5F5F5F5F5F5F5F5F5F5F5F5F5F5F5F5F5F5F5F5F5F5F5F5F5F5F5F5F5F5F5F5F5F5F5F5F5F5F5F5F5F5F5F5F5F5F5F5F5F5F5F5F5F5F5F5F5F5F5F5F5F5F5
310
F5F5F5F5F5F5F5F5F5F5F5F5F5F5F5F5F5F5F5F5F5F5F5F5F5F5F5F5F5F5F5F5F5F5F5F5F5F5E2E2F5F5F5F5F5F5F5F5F5F5F5F5F5F5F5F5F5F5F5F5F5F5F5F5F5F5F5F5F5F5F5F5F5F5F5F5F5F5F5F5F5F5F5F5F5F5F5F5F5F5F5F5F5F5F5F5F5F5F5F5F5F5F5F5F5F5F5F5F5F5F5F5F5F5F5F5F5F5F5F5F5F5F5F5F5F5F5
310
F5F5F5F5F5F5F5F5F5F5F5F5F5F5F5F5F5F5F5F5F5F5F5F5F5F5F5F5F5F5F5F5F5F5F5F5F5F5F5F5F5F5F5F5F5F5F5F5F5F5F5F5F5F5F5F5F5F5F5F5F5F5F5F5F5F5F5F5F5F5F5F5F5F5F5F5F5F5F5F5F5F5F5F5F5F5F5F5F5F5F5E2E2F5F5F5F5F5F5F5F5F5F5F5F5F5F5F5F5F5F5F5F5F5F5F5F5F5F5F5F5F5F5F5F5F5F5
310
F5F5F5F5F5F5F5F5F5F5F5F5F5F5F5F5F5F5F5F5F5F5F5F5F5F5F5F5F5F5F5F5F5F5F5F5F5F5F5F5F5F5F5F5F5F5F5F5F5F5F5F5F5F5F5F5F5F5F5F5F5F5F5F5F5F5F5F5F5F5F5F5F5F5F5F5F5F5F5F5F5F5F5F5F5F5F5F5F5F5F5F5F5F5F5F5F5F5F5F5F5F5F5F5F5F5F5F5F5F5F5F5F5F5F5F5F5F5F5F5F5F5F5F5F5F5F5
310
F5F5F5F5F5F5F5F5F5F5F5F5F5F5F5F5F5E2E2F5F5F5F5F5F5F5F5F5F5F5F5F5F5F5F5F5F5F5F5F5F5F5F5F5F5F5F5F5F5F5F5F5F5F5F5F5F5F5F5F5F5F5F5F5F5F5F5F5F5F5F5F5F5F5F5F5F5F5F5F5F5F5F5F5F5F5F5F5F5F5F5F5F5F5F5F5F5F5F5F5F5F5F5F5F5F5F5F5F5F5F5F5F5F5F5F5F5F5F5F5F5F5F5F5F5F5F5
310
F5F5F5F5F5F5F5F5F5F5F5F5F5F5F5F5F5F5F5F5F5F5F5F5F5F5F5F5F5F5F5F5F5F5F5F5F5F5F5F5F5F5F5F5F5F5F5F5F5F5F5F5F5F5F5F5F5F5F5F5F5F5F5F5F5F5F5F5F5F5E2E2F5F5F5F5F5F5F5F5F5F5F5F5F5F5F5F5F5F5F5F5F5F5F5F5F5F5F5F5F5F5F5F5F5F5F5F5F5F5F5F5F5F5F5F5F5F5F5F5F5F5F5F5F5F5F5
310
F5F5F5F5F5F5F5F5F5F5F5F5F5F5F5F5F5F5F5F5F5F5F5F5F5F5F5F5F5F5F5F5F5F5F5F5F5F5F5F5F5F5F5F5F5F5F5F5F5F5F5F5F5F5F5F5F5F5F5F5F5F5F5F5F5F5F5F5F5F5F5F5F5F5F5F5F5F5F5F5F5F5F5F5F5F5F5F5F5F5F5F5F5F5F5F5F5F5F5F5F5F5F5F5F5F5F5F5F5F5F5F5F5F5F5F5F5F5F5F5F5F5F5E2E2F5F5
310
F5E2F5F5F5F5F5F5F5F5F5F5F5F5F5F5F5F5F5F5F5F5F5F5F5F5F5F5F5F5F5F5F5F5F5F5F5F5F5F5F5F5F5F5F5F5F5F5F5F5F5F5F5F5F5F5F5F5F5F5F5F5F5F5F5F5F5F5F5F5F5F5F5F5F5F5F5F5F5F5F5F5F5F5F5F5F5F5F5F5F5F5F5F5F5F5F5F5F5F5F5F5F5F5F5F5F5F5F5F5F5F5F5F5F5F5F5F5F5F5F5F5F5F5F5F5F5
310
F5F5F5F5F5F5F5F5F5F5F5F5F5F5F5F5F5F5F5F5F5F5F5F5F5F5F5F5F5F5F5F5F5F5F5F5F5F5F5F5F5F5F5F5F5E2F5F5F5E2E2F5F5F5E2F5F5F5F5F5F5F5F5F5F5F5F5F5F5F5F5F5F5F5F5F5F5F5F5F5F5F5F5F5F5F5F5F5F5F5F5F5F5F5F5F5F5F5F5F5F5F5F5F5F5F5F5F5F5F5F5F5F5F5F5F5F5F5F5F5F5F5F5F5F5F5F5
310
F5F5F5F5F5F5F5F5F5F5F5F5F5F5F5F5F5F5F5F5F5F5F5F5F5F5F5F5F5F5F5F5F5F5F5F5F5F5F5F5F5F5F5F5F5F5F5F5F5F5F5F5F5F5F5F5F5F5F5F5F5F5F5F5F5F5F5F5F5F5F5F5F5F5F5F5F5F5F5F5F5F5F5F5F5F5F5F5F5F5F5F5F5F5F5F5F5F5E2F5F5F5E2E2F5F5F5E2F5F5F5F5F5F5F5F5F5F5F5F5F5F5F5F5F5F5F5
310
F5F5F5F5F5F5F5F5F5F5F5F5F5F5F5F5F5F5F5F5F5F5F5F5F5F5F5F5F5F5F5F5F5F5F5F5F5F5F5F5F5F5F5F5F5F5F5F5F5F5F5F5F5F5F5F5F5F5F5F5F5F5F5F5F5F5F5F5F5F5F5F5F5F5F5F5F5F5F5F5F5F5F5F5F5F5F5F5F5F5F5F5F5F5F5F5F5F5F5F5F5F5F5F5F5F5F5F5F5F5F5F5F5F5F5F5F5F5F5F5F5F5F5F5F5F5F5
310
F5F5F5F5F5F5F5F5F5F5F5F5F5F5F5F5F5F5F5F5F5F5F5F5E2F5F5F5E2E2F5F5F5E2F5F5F5F5F5F5F5F5F5F5F5F5F5F5F5F5F5F5F5F5F5F5F5F5F5F5F5F5F5F5F5F5F5F5F5F5F5F5F5F5F5F5F5F5F5F5F5F5F5F5F5F5F5F5F5F5F5F5F5F5F5F5F5F5F5F5F5F5F5F5F5F5F5F5F5F5F5F5F5F5F5F5F5F5F5F5F5F5F5F5F5F5F5
310
F5F5F5F5F5F5F5F5F5F5F5F5F5F5F5F5F5F5F5F5F5F5F5F5F5F5F5F5F5F5F5F5F5F5F5F5F5F5F5F5F5F5F5F5F5F5F5F5F5F5F5F5F5F5F5F5F5F5F5F5F5F5F5F5F5F5F5F5F5F5F5F5F5F5F5F5F5E2F5F5F5E2E2F5F5F5E2F5F5F5F5F5F5F5F5F5F5F5F5F5F5F5F5F5F5F5F5F5F5F5F5F5F5F5F5F5F5F5F5F5F5F5F5F5F5F5F5
310
F5F5F5F5F5F5F5F5F5F5F5F5F5F5F5F5F5F5F5F5F5F5F5F5F5F5F5F5F5F5F5F5F5F5F5F5F5F5F5F5F5F5F5F5F5F5F5F5F5F5F5F5F5F5F5F5F5F5F5F5F5F5F5F5F5F5F5F5F5F5F5F5F5F5F5F5F5F5F5F5F5F5F5F5F5F5F5F5F5F5F5F5F5F5F5F5F5F5F5F5F5F5F5F5F5F5F5F5F5F5F5F5F5F5F5F5F5F5F5F5F5F5F5F5F5F5F5
310
F5F5F5E2F5F5F5E2E2F5F5F5E2F5F5F5F5F5F5F5F5F5F5F5F5F5F5F5F5F5F5F5F5F5F5F5F5F5F5F5F5F5F5F5F5F5F5F5F5F5F5F5F5F5F5F5F5F5F5F5F5F5F5F5F5F5F5F5F5F5F5F5F5F5F5F5F5F5F5F5F5F5F5F5F5F5F5F5F5F5F5F5F5F5F5F5F5F5F5F5F5F5F5F5F5F5F5F5F5F5F5F5F5F5F5F5F5F5F5F5F5F5F5F5F5F5F5
310
F5F5F5F5F5F5F5F5F5F5F5F5F5F5F5F5F5F5F5F5F5F5F5F5F5F5F5F5F5F5F5F5F5F5F5F5F5F5F5F5F5F5F5F5F5F5F5F5F5F5F5F5F5F5F5F5E2F5F5F5E2E2F5F5F5E2F5F5F5F5F5F5F5F5F5F5F5F5F5F5F5F5F5F5F5F5F5F5F5F5F5F5F5F5F5F5F5F5F5F5F5F5F5F5F5F5F5F5F5F5F5F5F5F5F5F5F5F5F5F5F5F5F5F5F5F5F5
310
F5F5F5F5F5F5F5F5F5F5F5F5F5F5F5F5F5F5F5F5F5F5F5F5F5F5F5F5F5F5F5F5F5F5F5F5F5F5F5F5F5F5F5F5F5F5F5F5F5F5F5F5F5F5F5F5F5F5F5F5F5F5F5F5F5F5F5F5F5F5F5F5F5F5F5F5F5F5F5F5F5F5F5F5F5F5F5F5F5F5F5F5F5F5F5F5F5F5F5F5F5F5F5F5F5F5F5F5F5E2F5F5F5E2E2F5F5F5E2F5F5F5F5F5F5F5F5
310
F5F5F5F5F5F5F5F5F5F5F5F5F5F5F5F5F5F5F5F5F5F5F5F5F5F5F5F5F5F5F5F5F5F5F5F5F5F5F5F5F5F5F5F5F5F5F5F5F5F5F5F5F5F5F5F5F5F5F5F5F5F5F5F5F5F5F5F5F5F5F5F5F5F5F5F5F5F5F5F5F5F5F5F5F5F5F5F5F5F5F5F5F5F5F5F5F5F5F5F5F5F5F5F5F5F5F5F5F5F5F5F5F5F5F5F5F5F5F5F5F5F5F5F5F5F5F5
310
F5F5F5F5F5F5F5F5F5F5F5F5F5F5F5F5F5F5F5F5F5F5F5F5F5F5F5F5F5F5F5F5F5F5F5E2F5F5F5E2E2F5F5F5E2F5F5F5F5F5F5F5F5F5F5F5F5F5F5F5F5F5F5F5F5F5F5F5F5F5F5F5F5F5F5F5F5F5F5F5F5F5F5F5F5F5F5F5F5F5F5F5F5F5F5F5F5F5F5F5F5F5F5F5F5F5F5F5F5F5F5F5F5F5F5F5F5F5F5F5F5F5F5F5F5F5F5
310
F5F5F5F5F5F5F5F5F5F5F5F5F5F5F5F5F5F5F5F5F5F5F5F5F5F5F5F5F5F5F5F5F5F5F5F5F5F5F5F5F5F5F5F5F5F5F5F5F5F5F5F5F5F5F5F5F5F5F5F5F5F5F5F5F5F5F5F5F5F5F5F5F5F5F5F5F5F5F5F5F5F5F5F5F5F5F5F5E2F5F5F5E2E2F5F5F5E2F5F5F5F5F5F5F5F5F5F5F5F5F5F5F5F5F5F5F5F5F5F5F5F5F5F5F5F5F5
310
F5F5F5F5F5F5F5F5F5F5F5F5F5F5F5F5F5F5F5F5F5F5F5F5F5F5F5F5F5F5F5F5F5F5F5F5F5F5F5F5F5F5F5F5F5F5F5F5F5F5F5F5F5F5F5F5F5F5F5F5F5F5F5F5F5F5F5F5F5F5F5F5F5F5F5F5F5F5F5F5F5F5F5F5F5F5F5F5F5F5F5F5F5F5F5F5F5F5F5F5F5F5F5F5F5F5F5F5F5F5F5F5F5F5F5F5F5F5F5F5F5F5F5F5F5F5F5
310
F5F5F5F5F5F5F5F5F5F5F5F5F5F5E2F5F5F5E2E2F5F5F5E2F5F5F5F5F5F5F5F5F5F5F5F5F5F5F5F5F5F5F5F5F5F5F5F5F5F5F5F5F5F5F5F5F5F5F5F5F5F5F5F5F5F5F5F5F5F5F5F5F5F5F5F5F5F5F5F5F5F5F5F5F5F5F5F5F5F5F5F5F5F5F5F5F5F5F5F5F5F5F5F5F5F5F5F5F5F5F5F5F5F5F5F5F5F5F5F5F5F5F5F5F5F5F5
310
F5F5F5F5F5F5F5F5F5F5F5F5F5F5F5F5F5F5F5F5F5F5F5F5F5F5F5F5F5F5F5F5F5F5F5F5F5F5F5F5F5F5F5F5F5F5F5F5F5F5F5F5F5F5F5F5F5F5F5F5F5F5F5F5F5F5F5E2F5F5F5E2E2F5F5F5E2F5F5F5F5F5F5F5F5F5F5F5F5F5F5F5F5F5F5F5F5F5F5F5F5F5F5F5F5F5F5F5F5F5F5F5F5F5F5F5F5F5F5F5F5F5F5F5F5F5F5
310
F5F5F5F5F5F5F5F5F5F5F5F5F5F5F5F5F5F5F5F5F5F5F5F5F5F5F5F5F5F5F5F5F5F5F5F5F5F5F5F5F5F5F5F5F5F5F5F5F5F5F5F5F5F5F5F5F5F5F5F5F5F5F5F5F5F5F5F5F5F5F5F5F5F5F5F5F5F5F5F5F5F5F5F5F5F5F5F5F5F5F5F5F5F5F5F5F5F5F5F5F5F5F5F5F5F5F5F5F5F5F5F5F5F5F5F5F5F5F5F5E2F5F5F5E2E2F5
310
F5F5E2F5F5F5F5F5F5F5F5F5F5F5F5F5F5F5F5F5F5F5F5F5F5F5F5F5F5F5F5F5F5F5F5F5F5F5F5F5F5F5F5F5F5F5F5F5F5F5F5F5F5F5F5F5F5F5F5F5F5F5F5F5F5F5F5F5F5F5F5F5F5F5F5F5F5F5F5F5F5F5F5F5F5F5F5F5F5F5F5F5F5F5F5F5F5F5F5F5F5F5F5F5F5F5F5F5F5F5F5F5F5F5F5F5F5F5F5F5F5F5F5F5F5F5F5
310
F5F5F5F5F5F5F5F5F5F5F5F5F5F5F5F5F5F5F5F5F5F5F5F5F5F5F5F5F5F5F5F5F5F5F5F5F5F5F5F5F5F5F5F5F5F5E2F5F5F5E2E2F5F5F5E2F5F5F5F5F5F5F5F5F5F5F5F5F5F5F5F5F5F5F5F5F5F5F5F5F5F5F5F5F5F5F5F5F5F5F5F5F5F5F5F5F5F5F5F5F5F5F5F5F5F5F5F5F5F5F5F5F5F5F5F5F5F5F5F5F5F5F5F5F5F5F5
310
F5F5F5F5F5F5F5F5F5F5F5F5F5F5F5F5F5F5F5F5F5F5F5F5F5F5F5F5F5F5F5F5F5F5F5F5F5F5F5F5F5F5F5F5F5F5F5F5F5F5F5F5F5F5F5F5F5F5F5F5F5F5F5F5F5F5F5F5F5F5F5F5F5F5F5F5F5F5F5F5F5F5F5F5F5F5F5F5F5F5F5F5F5F5F5F5F5F5F5E2F5F5F5E2E2F5F5F5E2F5F5F5F5F5F5F5F5F5F5F5F5F5F5F5F5F5F5
310
F5F5F5F5F5F5F5F5F5F5F5F5F5F5F5F5F5F5F5F5F5F5F5F5F5F5F5F5F5F5F5F5F5F5F5F5F5F5F5F5F5F5F5F5F5F5F5F5F5F5F5F5F5F5F5F5F5F5F5F5F5F5F5F5F5F5F5F5F5F5F5F5F5F5F5F5F5F5F5F5F5F5F5F5F5F5F5F5F5F5F5F5F5F5F5F5F5F5F5F5F5F5F5F5F5F5F5F5F5F5F5F5F5F5F5F5F5F5F5F5F5F5F5F5F5F5F5
310
F5F5F5F5F5F5F5F5F5F5F5F5F5F5F5F5F5F5F5F5F5F5F5F5F5E2F5F5F5E2E2F5F5F5E2F5F5F5F5F5F5F5F5F5F5F5F5F5F5F5F5F5F5F5F5F5F5F5F5F5F5F5F5F5F5F5F5F5F5F5F5F5F5F5F5F5F5F5F5F5F5F5F5F5F5F5F5F5F5F5F5F5F5F5F5F5F5F5F5F5F5F5F5F5F5F5F5F5F5F5F5F5F5F5F5F5F5F5F5F5F5F5F5F5F5F5F5
310
F5F5F5F5F5F5F5F5F5F5F5F5F5F5F5F5F5F5F5F5F5F5F5F5F5F5F5F5F5F5F5F5F5F5F5F5F5F5F5F5F5F5F5F5F5F5F5F5F5F5F5F5F5F5F5F5F5F5F5F5F5F5F5F5F5F5F5F5F5F5F5F5F5F5F5F5F5F5E2F5F5F5E2E2F5F5F5F5F5F5F5F5F5F5F5F5F5F5F5F5F5F5F5F5F5F5F5F5F5F5F5F5F5F5F5F5F5F5F5F5F5F5F5F5F5F5F5
310
F5F5F5F5F5F5F5F5F5F5F5F5F5F5F5F5F5F5F5F5F5F5F5F5F5F5F5F5F5F5F5F5F5F5F5F5F5F5F5F5F5F5F5F5F5F5F5F5F5F5F5F5F5F5F5F5F5F5F5F5F5F5F5F5F5F5F5F5F5F5F5F5F5F5F5F5F5F5F5F5F5F5F5F5F5F5F5F5F5F5F5F5F5F5F5F5F5F5F5F5F5F5F5F5F5F5F5F5F5F5F5F5F5F5F5F5F5F5F5F5F5F5F5F5F5F5F5
310
F5F5F5F5F5F5F5F5E2E2F5F5F5F5F5F5F5F5F5F5F5F5F5F5F5F5F5F5F5F5F5F5F5F5F5F5F5F5F5F5F5F5F5F5F5F5F5F5F5F5F5F5F5F5F5F5F5F5F5F5F5F5F5F5F5F5F5F5F5F5F5F5F5F5F5F5F5F5F5F5F5F5F5F5F5F5F5F5F5F5F5F5F5F5F5F5F5F5F5F5F5F5F5F5F5F5F5F5F5F5F5F5F5F5F5F5F5F5F5F5F5F5F5F5F5F5F5
310
F5F5F5F5F5F5F5F5F5F5F5F5F5F5F5F5F5F5F5F5F5F5F5F5F5F5F5F5F5F5F5F5F5F5F5F5F5F5F5F5F5F5F5F5F5F5F5F5F5F5F5F5F5F5F5F5F5F5F5F5F5E2E2F5F5F5F5F5F5F5F5F5F5F5F5F5F5F5F5F5F5F5F5F5F5F5F5F5F5F5F5F5F5F5F5F5F5F5F5F5F5F5F5F5F5F5F5F5F5F5F5F5F5F5F5F5F5F5F5F5F5F5F5F5F5F5F5
310
F5F5F5F5F5F5F5F5F5F5F5F5F5F5F5F5F5F5F5F5F5F5F5F5F5F5F5F5F5F5F5F5F5F5F5F5F5F5F5F5F5F5F5F5F5F5F5F5F5F5F5F5F5F5F5F5F5F5F5F5F5F5F5F5F5F5F5F5F5F5F5F5F5F5F5F5F5F5F5F5F5F5F5F5F5F5F5F5F5F5F5F5F5F5F5F5F5F5F5F5F5F5F5F5F5F5F5F5F5F5F5F5F5F5E2E2F5F5F5F5F5F5F5F5F5F5F5
310
F5F5F5F5F5F5F5F5F5F5F5F5F5F5F5F5F5F5F5F5F5F5F5F5F5F5F5F5F5F5F5F5F5F5F5F5F5F5F5F5F5F5F5F5F5F5F5F5F5F5F5F5F5F5F5F5F5F5F5F5F5F5F5F5F5F5F5F5F5F5F5F5F5F5F5F5F5F5F5F5F5F5F5F5F5F5F5F5F5F5F5F5F5F5F5F5F5F5F5F5F5F5F5F5F5F5F5F5F5F5F5F5F5F5F5F5F5F5F5F5F5F5F5F5F5F5F5
310
F5F5F5F5F5F5F5F5F5F5F5F5F5F5F5F5F5F5F5F5F5F5F5F5F5F5F5F5F5F5F5F5F5F5F5F5F5F5F5F5E2E2F5F5F5F5F5F5F5F5F5F5F5F5F5F5F5F5F5F5F5F5F5F5F5F5F5F5F5F5F5F5F5F5F5F5F5F5F5F5F5F5F5F5F5F5F5F5F5F5F5F5F5F5F5F5F5F5F5F5F5F5F5F5F5F5F5F5F5F5F5F5F5F5F5F5F5F5F5F5F5F5F5F5F5F5F5
310
F5F5F5F5F5F5F5F5F5F5F5F5F5F5F5F5F5F5F5F5F5F5F5F5F5F5F5F5F5F5F5F5F5F5F5F5F5F5F5F5F5F5F5F5F5F5F5F5F5F5F5F5F5F5F5F5F5F5F5F5F5F5F5F5F5F5F5F5F5F5F5F5F5F5F5F5F5F5F5F5F5F5F5F5F5F5F5F5F5F5F5F5F5E2E2F5F5F5F5F5F5F5F5F5F5F5F5F5F5F5F5F5F5F5F5F5F5F5F5F5F5F5F5F5F5F5F5
310
F5F5F5F5F5F5F5F5F5F5F5F5F5F5F5F5F5F5F5F5F5F5F5F5F5F5F5F5F5F5F5F5F5F5F5F5F5F5F5F5F5F5F5F5F5F5F5F5F5F5F5F5F5F5F5F5F5F5F5F5F5F5F5F5F5F5F5F5F5F5F5F5F5F5F5F5F5F5F5F5F5F5F5F5F5F5F5F5F5F5F5F5F5F5F5F5F5F5F5F5F5F5F5F5F5F5F5F5F5F5F5F5F5F5F5F5F5F5F5F5F5F5F5F5F5F5F5
310
F5F5F5F5F5F5F5F5F5F5F5F5F5F5F5F5F5F5F5E2E2F5F5F5F5F5F5F5F5F5F5F5F5F5F5F5F5F5F5F5F5F5F5F5F5F5F5F5F5F5F5F5F5F5F5F5F5F5F5F5F5F5F5F5F5F5F5F5F5F5F5F5F5F5F5F5F5F5F5F5F5F5F5F5F5F5F5F5F5F5F5F5F5F5F5F5F5F5F5F5F5F5F5F5F5F5F5F5F5F5F5F5F5F5F5F5F5F5F5F5F5F5F5F5F5F5F5
310
F5F5F5F5F5F5F5F5F5F5F5F5F5F5F5F5F5F5F5F5F5F5F5F5F5F5F5F5F5F5F5F5F5F5F5F5F5F5F5F5F5F5F5F5F5F5F5F5F5F5F5F5F5F5F5F5F5F5F5F5F5F5F5F5F5F5F5F5F5F5F5F5E2E2F5F5F5F5F5F5F5F5F5F5F5F5F5F5F5F5F5F5F5F5F5F5F5F5F5F5F5F5F5F5F5F5F5F5F5F5F5F5F5F5F5F5F5F5F5F5F5F5F5F5F5F5F5
310
F5F5F5F5F5F5F5F5F5F5F5F5F5F5F5F5F5F5F5F5F5F5F5F5F5F5F5F5F5F5F5F5F5F5F5F5F5F5F5F5F5F5F5F5F5F5F5F5F5F5F5F5F5F5F5F5F5F5F5F5F5F5F5F5F5F5F5F5F5F5F5F5F5F5F5F5F5F5F5F5F5F5F5F5F5F5F5F5F5F5F5F5F5F5F5F5F5F5F5F5F5F5F5F5F5F5F5F5F5F5F5F5F5F5F5F5F5F5F5F5F5F5F5F5F5E2E2
310
F5F5F5F5F5F5F5F5F5F5F5F5F5F5F5F5F5F5F5F5F5F5F5F5F5F5F5F5F5F5F5F5F5F5F5F5F5F5F5F5F5F5F5F5F5F5F5F5F5F5F5F5F5F5F5F5F5F5F5F5F5F5F5F5F5F5F5F5F5F5F5F5F5F5F5F5F5F5F5F5F5F5F5F5F5F5F5F5F5F5F5F5F5F5F5F5F5F5F5F5F5F5F5F5F5F5F5F5F5F5F5F5F5F5F5F5F5F5F5F5F5F5F5F5F5F5F5
310
F5F5F5F5F5F5F5F5F5F5F5F5F5F5F5F5F5F5F5F5F5F5F5F5F5F5F5F5F5F5F5F5F5F5F5F5F5F5F5F5F5F5F5F5F5F5F5F5F5F5F5E2E2F5F5F5F5F5F5F5F5F5F5F5F5F5F5F5F5F5F5F5F5F5F5F5F5F5F5F5F5F5F5F5F5F5F5F5F5F5F5F5F5F5F5F5F5F5F5F5F5F5F5F5F5F5F5F5F5F5F5F5F5F5F5F5F5F5F5F5F5F5F5F5F5F5F5
310
F5F5F5F5F5F5F5F5F5F5F5F5F5F5F5F5F5F5F5F5F5F5F5F5F5F5F5F5F5F5F5F5F5F5F5F5F5F5F5F5F5F5F5F5F5F5F5F5F5F5F5F5F5F5F5F5F5F5F5F5F5F5F5F5F5F5F5F5F5F5F5F5F5F5F5F5F5F5F5F5F5F5F5F5F5F5F5F5F5F5F5F5F5F5F5F5F5F5F5F5F5F5F5F5E2E2F5F5F5E2F5F5F5F5F5F5F5F5F5F5F5F5F5F5F5F5F5
310
F5F5F5F5F5F5F5F5F5F5F5F5F5F5F5F5F5F5F5F5F5F5F5F5F5F5F5F5F5F5F5F5F5F5F5F5F5F5F5F5F5F5F5F5F5F5F5F5F5F5F5F5F5F5F5F5F5F5F5F5F5F5F5F5F5F5F5F5F5F5F5F5F5F5F5F5F5F5F5F5F5F5F5F5F5F5F5F5F5F5F5F5F5F5F5F5F5F5F5F5F5F5F5F5F5F5F5F5F5F5F5F5F5F5F5F5F5F5F5F5F5F5F5F5F5F5F5
310
F5F5F5F5F5F5F5F5F5F5F5F5F5F5F5F5F5F5F5F5F5F5F5F5F5F5E2F5F5F5E2E2F5F5F5E2F5F5F5F5F5F5F5F5F5F5F5F5F5F5F5F5F5F5F5F5F5F5F5F5F5F5F5F5F5F5F5F5F5F5F5F5F5F5F5F5F5F5F5F5F5F5F5F5F5F5F5F5F5F5F5F5F5F5F5F5F5F5F5F5F5F5F5F5F5F5F5F5F5F5F5F5F5F5F5F5F5F5F5F5F5F5F5F5F5F5F5
310
F5F5F5F5F5F5F5F5F5F5F5F5F5F5F5F5F5F5F5F5F5F5F5F5F5F5F5F5F5F5F5F5F5F5F5F5F5F5F5F5F5F5F5F5F5F5F5F5F5F5F5F5F5F5F5F5F5F5F5F5F5F5F5F5F5F5F5F5F5F5F5F5F5F5F5F5F5F5F5E2F5F5F5E2E2F5F5F5E2F5F5F5F5F5F5F5F5F5F5F5F5F5F5F5F5F5F5F5F5F5F5F5F5F5F5F5F5F5F5F5F5F5F5F5F5F5F5
310
F5F5F5F5F5F5F5F5F5F5F5F5F5F5F5F5F5F5F5F5F5F5F5F5F5F5F5F5F5F5F5F5F5F5F5F5F5F5F5F5F5F5F5F5F5F5F5F5F5F5F5F5F5F5F5F5F5F5F5F5F5F5F5F5F5F5F5F5F5F5F5F5F5F5F5F5F5F5F5F5F5F5F5F5F5F5F5F5F5F5F5F5F5F5F5F5F5F5F5F5F5F5F5F5F5F5F5F5F5F5F5F5F5F5F5F5F5F5F5F5F5F5F5F5F5F5F5
310
F5F5F5F5F5E2F5F5F5E2E2F5F5F5E2F5F5F5F5F5F5F5F5F5F5F5F5F5F5F5F5F5F5F5F5F5F5F5F5F5F5F5F5F5F5F5F5F5F5F5F5F5F5F5F5F5F5F5F5F5F5F5F5F5F5F5F5F5F5F5F5F5F5F5F5F5F5F5F5F5F5F5F5F5F5F5F5F5F5F5F5F5F5F5F5F5F5F5F5F5F5F5F5F5F5F5F5F5F5F5F5F5F5F5F5F5F5F5F5F5F5F5F5F5F5F5F5
310
F5F5F5F5F5F5F5F5F5F5F5F5F5F5F5F5F5F5F5F5F5F5F5F5F5F5F5F5F5F5F5F5F5F5F5F5F5F5F5F5F5F5F5F5F5F5F5F5F5F5F5F5F5F5F5F5F5F5E2F5F5F5E2E2F5F5F5E2F5F5F5F5F5F5F5F5F5F5F5F5F5F5F5F5F5F5F5F5F5F5F5F5F5F5F5F5F5F5F5F5F5F5F5F5F5F5F5F5F5F5F5F5F5F5F5F5F5F5F5F5F5F5F5F5F5F5F5
310
F5F5F5F5F5F5F5F5F5F5F5F5F5F5F5F5F5F5F5F5F5F5F5F5F5F5F5F5F5F5F5F5F5F5F5F5F5F5F5F5F5F5F5F5F5F5F5F5F5F5F5F5F5F5F5F5F5F5F5F5F5F5F5F5F5F5F5F5F5F5F5F5F5F5F5F5F5F5F5F5F5F5F5F5F5F5F5F5F5F5F5F5F5F5F5F5F5F5F5F5F5F5F5F5F5F5F5F5F5F5F5E2F5F5F5E2E2F5F5F5E2F5F5F5F5F5F5
310
F5F5F5F5F5F5F5F5F5F5F5F5F5F5F5F5F5F5F5F5F5F5F5F5F5F5F5F5F5F5F5F5F5F5F5F5F5F5F5F5F5F5F5F5F5F5F5F5F5F5F5F5F5F5F5F5F5F5F5F5F5F5F5F5F5F5F5F5F5F5F5F5F5F5F5F5F5F5F5F5F5F5F5F5F5F5F5F5F5F5F5F5F5F5F5F5F5F5F5F5F5F5F5F5F5F5F5F5F5F5F5F5F5F5F5F5F5F5F5F5F5F5F5F5F5F5F5
310
F5F5F5F5F5F5F5F5F5F5F5F5F5F5F5F5F5F5F5F5F5F5F5F5F5F5F5F5F5F5F5F5F5F5F5F5F5E2F5F5F5E2E2F5F5F5E2F5F5F5F5F5F5F5F5F5F5F5F5F5F5F5F5F5F5F5F5F5F5F5F5F5F5F5F5F5F5F5F5F5F5F5F5F5F5F5F5F5F5F5F5F5F5F5F5F5F5F5F5F5F5F5F5F5F5F5F5F5F5F5F5F5F5F5F5F5F5F5F5F5F5F5F5F5F5F5F5
310
F5F5F5F5F5F5F5F5F5F5F5F5F5F5F5F5F5F5F5F5F5F5F5F5F5F5F5F5F5F5F5F5F5F5F5F5F5F5F5F5F5F5F5F5F5F5F5F5F5F5F5F5F5F5F5F5F5F5F5F5F5F5F5F5F5F5F5F5F5F5F5F5F5F5F5F5F5F5F5F5F5F5F5F5F5F5F5F5F5F5E2F5F5F5E2E2F5F5F5E2F5F5F5F5F5F5F5F5F5F5F5F5F5F5F5F5F5F5F5F5F5F5F5F5F5F5F5
310
F5F5F5F5F5F5F5F5F5F5F5F5F5F5F5F5F5F5F5F5F5F5F5F5F5F5F5F5F5F5F5F5F5F5F5F5F5F5F5F5F5F5F5F5F5F5F5F5F5F5F5F5F5F5F5F5F5F5F5F5F5F5F5F5F5F5F5F5F5F5F5F5F5F5F5F5F5F5F5F5F5F5F5F5F5F5F5F5F5F5F5F5F5F5F5F5F5F5F5F5F5F5F5F5F5F5F5F5F5F5F5F5F5F5F5F5F5F5F5F5F5F5F5F5F5F5F5
310
F5F5F5F5F5F5F5F5F5F5F5F5F5F5F5F5E2F5F5F5E2E2F5F5F5E2F5F5F5F5F5F5F5F5F5F5F5F5F5F5F5F5F5F5F5F5F5F5F5F5F5F5F5F5F5F5F5F5F5F5F5F5F5F5F5F5F5F5F5F5F5F5F5F5F5F5F5F5F5F5F5F5F5F5F5F5F5F5F5F5F5F5F5F5F5F5F5F5F5F5F5F5F5F5F5F5F5F5F5F5F5F5F5F5F5F5F5F5F5F5F5F5F5F5F5F5F5
310
F5F5F5F5F5F5F5F5F5F5F5F5F5F5F5F5F5F5F5F5F5F5F5F5F5F5F5F5F5F5F5F5F5F5F5F5F5F5F5F5F5F5F5F5F5F5F5F5F5F5F5F5F5F5F5F5F5F5F5F5F5F5F5F5F5F5F5F5F5E2F5F5F5E2E2F5F5F5E2F5F5F5F5F5F5F5F5F5F5F5F5F5F5F5F5F5F5F5F5F5F5F5F5F5F5F5F5F5F5F5F5F5F5F5F5F5F5F5F5F5F5F5F5F5F5F5F5
310
F5F5F5F5F5F5F5F5F5F5F5F5F5F5F5F5F5F5F5F5F5F5F5F5F5F5F5F5F5F5F5F5F5F5F5F5F5F5F5F5F5F5F5F5F5F5F5F5F5F5F5F5F5F5F5F5F5F5F5F5F5F5F5F5F5F5F5F5F5F5F5F5F5F5F5F5F5F5F5F5F5F5F5F5F5F5F5F5F5F5F5F5F5F5F5F5F5F5F5F5F5F5F5F5F5F5F5F5F5F5F5F5F5F5F5F5F5F5F5F5F5F5E2F5F5F5E2
310
E2F5F5F5E2F5F5F5F5F5F5F5F5F5F5F5F5F5F5F5F5F5F5F5F5F5F5F5F5F5F5F5F5F5F5F5F5F5F5F5F5F5F5F5F5F5F5F5F5F5F5F5F5F5F5F5F5F5F5F5F5F5F5F5F5F5F5F5F5F5F5F5F5F5F5F5F5F5F5F5F5F5F5F5F5F5F5F5F5F5F5F5F5F5F5F5F5F5F5F5F5F5F5F5F5F5F5F5F5F5F5F5F5F5F5F5F5F5F5F5F5F5F5F5F5F5F5
310
F5F5F5F5F5F5F5F5F5F5F5F5F5F5F5F5F5F5F5F5F5F5F5F5F5F5F5F5F5F5F5F5F5F5F5F5F5F5F5F5F5F5F5F5F5F5F5F5E2F5F5F5E2E2F5F5F5E2F5F5F5F5F5F5F5F5F5F5F5F5F5F5F5F5F5F5F5F5F5F5F5F5F5F5F5F5F5F5F5F5F5F5F5F5F5F5F5F5F5F5F5F5F5F5F5F5F5F5F5F5F5F5F5F5F5F5F5F5F5F5F5F5F5F5F5F5F5
310
F5F5F5F5F5F5F5F5F5F5F5F5F5F5F5F5F5F5F5F5F5F5F5F5F5F5F5F5F5F5F5F5F5F5F5F5F5F5F5F5F5F5F5F5F5F5F5F5F5F5F5F5F5F5F5F5F5F5F5F5F5F5F5F5F5F5F5F5F5F5F5F5F5F5F5F5F5F5F5F5F5F5F5F5F5F5F5F5F5F5F5F5F5F5F5F5F5F5F5F5F5E2F5F5F5E2E2F5F5F5E2F5F5F5F5F5F5F5F5F5F5F5F5F5F5F5F5
310
F5F5F5F5F5F5F5F5F5F5F5F5F5F5F5F5F5F5F5F5F5F5F5F5F5F5F5F5F5F5F5F5F5F5F5F5F5F5F5F5F5F5F5F5F5F5F5F5F5F5F5F5F5F5F5F5F5F5F5F5F5F5F5F5F5F5F5F5F5F5F5F5F5F5F5F5F5F5F5F5F5F5F5F5F5F5F5F5F5F5F5F5F5F5F5F5F5F5F5F5F5F5F5F5F5F5F5F5F5F5F5F5F5F5F5F5F5F5F5F5F5F5F5F5F5F5F5
310
F5F5F5F5F5F5F5F5F5F5F5F5F5F5F5F5F5F5F5F5F5F5F5F5F5F5F5E2F5F5F5E2E2F5F5F5E2F5F5F5F5F5F5F5F5F5F5F5F5F5F5F5F5F5F5F5F5F5F5F5F5F5F5F5F5F5F5F5F5F5F5F5F5F5F5F5F5F5F5F5F5F5F5F5F5F5F5F5F5F5F5F5F5F5F5F5F5F5F5F5F5F5F5F5F5F5F5F5F5F5F5F5F5F5F5F5F5F5F5F5F5F5F5F5F5F5F5
310
F5F5F5F5F5F5F5F5F5F5F5F5F5F5F5F5F5F5F5F5F5F5F5F5F5F5F5F5F5F5F5F5F5F5F5F5F5F5F5F5F5F5F5F5F5F5F5F5F5F5F5F5F5F5F5F5F5F5F5F5F5F5F5F5F5F5F5F5F5F5F5F5F5F5F5F5F5F5F5F5E2F5F5F5E2E2F5F5F5E2F5F5F5F5F5F5F5F5F5F5F5F5F5F5F5F5F5F5F5F5F5F5F5F5F5F5F5F5F5F5F5F5F5F5F5F5F5
310
F5F5F5F5F5F5F5F5F5F5F5F5F5F5F5F5F5F5F5F5F5F5F5F5F5F5F5F5F5F5F5F5F5F5F5F5F5F5F5F5F5F5F5F5F5F5F5F5F5F5F5F5F5F5F5F5F5F5F5F5F5F5F5F5F5F5F5F5F5F5F5F5F5F5F5F5F5F5F5F5F5F5F5F5F5F5F5F5F5F5F5F5F5F5F5F5F5F5F5F5F5F5F5F5F5F5F5F5F5F5F5F5F5F5F5F5F5F5F5F5F5F5F5F5F5F5F5
310
F5F5F5F5F5F5E2F5F5F5E2E2F5F5F5E2F5F5F5F5F5F5F5F5F5F5F5F5F5F5F5F5F5F5F5F5F5F5F5F5F5F5F5F5F5F5F5F5F5F5F5F5F5F5F5F5F5F5F5F5F5F5F5F5F5F5F5F5F5F5F5F5F5F5F5F5F5F5F5F5F5F5F5F5F5F5F5F5F5F5F5F5F5F5F5F5F5F5F5F5F5F5F5F5F5F5F5F5F5F5F5F5F5F5F5F5F5F5F5F5F5F5F5F5F5F5F5
310
F5F5F5F5F5F5F5F5F5F5F5F5F5F5F5F5F5F5F5F5F5F5F5F5F5F5F5F5F5F5F5F5F5F5F5F5F5F5F5F5F5F5F5F5F5F5F5F5F5F5F5F5F5F5F5F5F5F5F5E2F5F5F5E2E2F5F5F5F5F5F5F5F5F5F5F5F5F5F5F5F5F5F5F5F5F5F5F5F5F5F5F5F5F5F5F5F5F5F5F5F5F5F5F5F5F5F5F5F5F5F5F5F5F5F5F5F5F5F5F5F5F5F5F5F5F5F5
310
F5F5F5F5F5F5F5F5F5F5F5F5F5F5F5F5F5F5F5F5F5F5F5F5F5F5F5F5F5F5F5F5F5F5F5F5F5F5F5F5F5F5F5F5F5F5F5F5F5F5F5F5F5F5F5F5F5F5F5F5F5F5F5F5F5F5F5F5F5F5F5F5F5F5F5F5F5F5F5F5F5F5F5F5F5F5F5F5F5F5F5F5F5F5F5F5F5F5F5F5F5F5F5F5F5F5F5F5F5F5F5F5F5F5F5F5E2E2F5F5F5F5F5F5F5F5F5
310
F5F5F5F5F5F5F5F5F5F5F5F5F5F5F5F5F5F5F5F5F5F5F5F5F5F5F5F5F5F5F5F5F5F5F5F5F5F5F5F5F5F5F5F5F5F5F5F5F5F5F5F5F5F5F5F5F5F5F5F5F5F5F5F5F5F5F5F5F5F5F5F5F5F5F5F5F5F5F5F5F5F5F5F5F5F5F5F5F5F5F5F5F5F5F5F5F5F5F5F5F5F5F5F5F5F5F5F5F5F5F5F5F5F5F5F5F5F5F5F5F5F5F5F5F5F5F5
310
F5F5F5F5F5F5F5F5F5F5F5F5F5F5F5F5F5F5F5F5F5F5F5F5F5F5F5F5F5F5F5F5F5F5F5F5F5F5F5F5F5F5E2E2F5F5F5F5F5F5F5F5F5F5F5F5F5F5F5F5F5F5F5F5F5F5F5F5F5F5F5F5F5F5F5F5F5F5F5F5F5F5F5F5F5F5F5F5F5F5F5F5F5F5F5F5F5F5F5F5F5F5F5F5F5F5F5F5F5F5F5F5F5F5F5F5F5F5F5F5F5F5F5F5F5F5F5
310
F5F5F5F5F5F5F5F5F5F5F5F5F5F5F5F5F5F5F5F5F5F5F5F5F5F5F5F5F5F5F5F5F5F5F5F5F5F5F5F5F5F5F5F5F5F5F5F5F5F5F5F5F5F5F5F5F5F5F5F5F5F5F5F5F5F5F5F5F5F5F5F5F5F5F5F5F5F5F5F5F5F5F5F5F5F5F5F5F5F5F5F5F5F5F5E2E2F5F5F5F5F5F5F5F5F5F5F5F5F5F5F5F5F5F5F5F5F5F5F5F5F5F5F5F5F5F5
310
F5F5F5F5F5F5F5F5F5F5F5F5F5F5F5F5F5F5F5F5F5F5F5F5F5F5F5F5F5F5F5F5F5F5F5F5F5F5F5F5F5F5F5F5F5F5F5F5F5F5F5F5F5F5F5F5F5F5F5F5F5F5F5F5F5F5F5F5F5F5F5F5F5F5F5F5F5F5F5F5F5F5F5F5F5F5F5F5F5F5F5F5F5F5F5F5F5F5F5F5F5F5F5F5F5F5F5F5F5F5F5F5F5F5F5F5F5F5F5F5F5F5F5F5F5F5F5
310
F5F5F5F5F5F5F5F5F5F5F5F5F5F5F5F5F5F5F5F5F5E2E2F5F5F5F5F5F5F5F5F5F5F5F5F5F5F5F5F5F5F5F5F5F5F5F5F5F5F5F5F5F5F5F5F5F5F5F5F5F5F5F5F5F5F5F5F5F5F5F5F5F5F5F5F5F5F5F5F5F5F5F5F5F5F5F5F5F5F5F5F5F5F5F5F5F5F5F5F5F5F5F5F5F5F5F5F5F5F5F5F5F5F5F5F5F5F5F5F5F5F5F5F5F5F5F5
310
F5F5F5F5F5F5F5F5F5F5F5F5F5F5F5F5F5F5F5F5F5F5F5F5F5F5F5F5F5F5F5F5F5F5F5F5F5F5F5F5F5F5F5F5F5F5F5F5F5F5F5F5F5F5F5F5F5F5F5F5F5F5F5F5F5F5F5F5F5F5F5F5F5F5E2E2F5F5F5F5F5F5F5F5F5F5F5F5F5F5F5F5F5F5F5F5F5F5F5F5F5F5F5F5F5F5F5F5F5F5F5F5F5F5F5F5F5F5F5F5F5F5F5F5F5F5F5
310
F5F5F5F5F5F5F5F5F5F5F5F5F5F5F5F5F5F5F5F5F5F5F5F5F5F5F5F5F5F5F5F5F5F5F5F5F5F5F5F5F5F5F5F5F5F5F5F5F5F5F5F5F5F5F5F5F5F5F5F5F5F5F5F5F5F5F5F5F5F5F5F5F5F5F5F5F5F5F5F5F5F5F5F5F5F5F5F5F5F5F5F5F5F5F5F5F5F5F5F5F5F5F5F5F5F5F5F5F5F5F5F5F5F5F5F5F5F5F5F5F5F5F5F5F5F5F5
310
E2E2F5F5F5F5F5F5F5F5F5F5F5F5F5F5F5F5F5F5F5F5F5F5F5F5F5F5F5F5F5F5F5F5F5F5F5F5F5F5F5F5F5F5F5F5F5F5F5F5F5F5F5F5F5F5F5F5F5F5F5F5F5F5F5F5F5F5F5F5F5F5F5F5F5F5F5F5F5F5F5F5F5F5F5F5F5F5F5F5F5F5F5F5F5F5F5F5F5F5F5F5F5F5F5F5F5F5F5F5F5F5F5F5F5F5F5F5F5F5F5F5F5F5F5F5F5
310
F5F5F5F5F5F5F5F5F5F5F5F5F5F5F5F5F5F5F5F5F5F5F5F5F5F5F5F5F5F5F5F5F5F5F5F5F5F5F5F5F5F5F5F5F5F5F5F5F5F5F5F5F5E2E2F5F5F5F5F5F5F5F5F5F5F5F5F5F5F5F5F5F5F5F5F5F5F5F5F5F5F5F5F5F5F5F5F5F5F5F5F5F5F5F5F5F5F5F5F5F5F5F5F5F5F5F5F5F5F5F5F5F5F5F5F5F5F5F5F5F5F5F5F5F5F5F5
310
F5F5F5F5F5F5F5F5F5F5F5F5F5F5F5F5F5F5F5F5F5F5F5F5F5F5F5F5F5F5F5F5F5F5F5F5F5F5F5F5F5F5F5F5F5F5F5F5F5F5F5F5F5F5F5F5F5F5F5F5F5F5F5F5F5F5F5F5F5F5F5F5F5F5F5F5F5F5F5F5F5F5F5F5F5F5F5F5F5F5F5F5F5F5F5F5F5F5F5F5F5F5F5F5F5F5E2E2F5F5F5F5F5F5F5F5F5F5F5F5F5F5F5F5F5F5F5
310
F5F5F5F5F5F5F5F5F5F5F5F5F5F5F5F5F5F5F5F5F5F5F5F5F5F5F5F5F5F5F5F5F5F5F5F5F5F5F5F5F5F5F5F5F5F5F5F5F5F5F5F5F5F5F5F5F5F5F5F5F5F5F5F5F5F5F5F5F5F5F5F5F5F5F5F5F5F5F5F5F5F5F5F5F5F5F5F5F5F5F5F5F5F5F5F5F5F5F5F5F5F5F5F5F5F5F5F5F5F5F5F5F5F5F5F5F5F5F5F5F5F5F5F5F5F5F5
310
F5F5F5F5F5F5F5F5F5F5F5F5F5F5F5F5F5F5F5F5F5F5F5F5F5F5F5F5F5F5F5F5E2E2F5F5F5E2F5F5F5F5F5F5F5F5F5F5F5F5F5F5F5F5F5F5F5F5F5F5F5F5F5F5F5F5F5F5F5F5F5F5F5F5F5F5F5F5F5F5F5F5F5F5F5F5F5F5F5F5F5F5F5F5F5F5F5F5F5F5F5F5F5F5F5F5F5F5F5F5F5F5F5F5F5F5F5F5F5F5F5F5F5F5F5F5F5
310
F5F5F5F5F5F5F5F5F5F5F5F5F5F5F5F5F5F5F5F5F5F5F5F5F5F5F5F5F5F5F5F5F5F5F5F5F5F5F5F5F5F5F5F5F5F5F5F5F5F5F5F5F5F5F5F5F5F5F5F5F5F5F5F5F5F5F5F5F5F5F5F5F5F5F5F5F5F5F5F5F5E2F5F5F5E2E2F5F5F5E2F5F5F5F5F5F5F5F5F5F5F5F5F5F5F5F5F5F5F5F5F5F5F5F5F5F5F5F5F5F5F5F5F5F5F5F5
310
F5F5F5F5F5F5F5F5F5F5F5F5F5F5F5F5F5F5F5F5F5F5F5F5F5F5F5F5F5F5F5F5F5F5F5F5F5F5F5F5F5F5F5F5F5F5F5F5F5F5F5F5F5F5F5F5F5F5F5F5F5F5F5F5F5F5F5F5F5F5F5F5F5F5F5F5F5F5F5F5F5F5F5F5F5F5F5F5F5F5F5F5F5F5F5F5F5F5F5F5F5F5F5F5F5F5F5F5F5F5F5F5F5F5F5F5F5F5F5F5F5F5F5F5F5F5F5
310
F5F5F5F5F5F5F5E2F5F5F5E2E2F5F5F5E2F5F5F5F5F5F5F5F5F5F5F5F5F5F5F5F5F5F5F5F5F5F5F5F5F5F5F5F5F5F5F5F5F5F5F5F5F5F5F5F5F5F5F5F5F5F5F5F5F5F5F5F5F5F5F5F5F5F5F5F5F5F5F5F5F5F5F5F5F5F5F5F5F5F5F5F5F5F5F5F5F5F5F5F5F5F5F5F5F5F5F5F5F5F5F5F5F5F5F5F5F5F5F5F5F5F5F5F5F5F5
310
F5F5F5F5F5F5F5F5F5F5F5F5F5F5F5F5F5F5F5F5F5F5F5F5F5F5F5F5F5F5F5F5F5F5F5F5F5F5F5F5F5F5F5F5F5F5F5F5F5F5F5F5F5F5F5F5F5F5F5F5E2F5F5F5E2E2F5F5F5E2F5F5F5F5F5F5F5F5F5F5F5F5F5F5F5F5F5F5F5F5F5F5F5F5F5F5F5F5F5F5F5F5F5F5F5F5F5F5F5F5F5F5F5F5F5F5F5F5F5F5F5F5F5F5F5F5F5
310
F5F5F5F5F5F5F5F5F5F5F5F5F5F5F5F5F5F5F5F5F5F5F5F5F5F5F5F5F5F5F5F5F5F5F5F5F5F5F5F5F5F5F5F5F5F5F5F5F5F5F5F5F5F5F5F5F5F5F5F5F5F5F5F5F5F5F5F5F5F5F5F5F5F5F5F5F5F5F5F5F5F5F5F5F5F5F5F5F5F5F5F5F5F5F5F5F5F5F5F5F5F5F5F5F5F5F5F5F5F5F5F5F5E2F5F5F5E2E2F5F5F5E2F5F5F5F5
310
F5F5F5F5F5F5F5F5F5F5F5F5F5F5F5F5F5F5F5F5F5F5F5F5F5F5F5F5F5F5F5F5F5F5F5F5F5F5F5F5F5F5F5F5F5F5F5F5F5F5F5F5F5F5F5F5F5F5F5F5F5F5F5F5F5F5F5F5F5F5F5F5F5F5F5F5F5F5F5F5F5F5F5F5F5F5F5F5F5F5F5F5F5F5F5F5F5F5F5F5F5F5F5F5F5F5F5F5F5F5F5F5F5F5F5F5F5F5F5F5F5F5F5F5F5F5F5
310
F5F5F5F5F5F5F5F5F5F5F5F5F5F5F5F5F5F5F5F5F5F5F5F5F5F5F5F5F5F5F5F5F5F5F5F5F5F5F5E2F5F5F5E2E2F5F5F5E2F5F5F5F5F5F5F5F5F5F5F5F5F5F5F5F5F5F5F5F5F5F5F5F5F5F5F5F5F5F5F5F5F5F5F5F5F5F5F5F5F5F5F5F5F5F5F5F5F5F5F5F5F5F5F5F5F5F5F5F5F5F5F5F5F5F5F5F5F5F5F5F5F5F5F5F5F5F5
310
F5F5F5F5F5F5F5F5F5F5F5F5F5F5F5F5F5F5F5F5F5F5F5F5F5F5F5F5F5F5F5F5F5F5F5F5F5F5F5F5F5F5F5F5F5F5F5F5F5F5F5F5F5F5F5F5F5F5F5F5F5F5F5F5F5F5F5F5F5F5F5F5F5F5F5F5F5F5F5F5F5F5F5F5F5F5F5F5F5F5F5F5E2F5F5F5E2E2F5F5F5E2F5F5F5F5F5F5F5F5F5F5F5F5F5F5F5F5F5F5F5F5F5F5F5F5F5
310
F5F5F5F5F5F5F5F5F5F5F5F5F5F5F5F5F5F5F5F5F5F5F5F5F5F5F5F5F5F5F5F5F5F5F5F5F5F5F5F5F5F5F5F5F5F5F5F5F5F5F5F5F5F5F5F5F5F5F5F5F5F5F5F5F5F5F5F5F5F5F5F5F5F5F5F5F5F5F5F5F5F5F5F5F5F5F5F5F5F5F5F5F5F5F5F5F5F5F5F5F5F5F5F5F5F5F5F5F5F5F5F5F5F5F5F5F5F5F5F5F5F5F5F5F5F5F5
310
F5F5F5F5F5F5F5F5F5F5F5F5F5F5F5F5F5F5E2F5F5F5E2E2F5F5F5E2F5F5F5F5F5F5F5F5F5F5F5F5F5F5F5F5F5F5F5F5F5F5F5F5F5F5F5F5F5F5F5F5F5F5F5F5F5F5F5F5F5F5F5F5F5F5F5F5F5F5F5F5F5F5F5F5F5F5F5F5F5F5F5F5F5F5F5F5F5F5F5F5F5F5F5F5F5F5F5F5F5F5F5F5F5F5F5F5F5F5F5F5F5F5F5F5F5F5F5
310
F5F5F5F5F5F5F5F5F5F5F5F5F5F5F5F5F5F5F5F5F5F5F5F5F5F5F5F5F5F5F5F5F5F5F5F5F5F5F5F5F5F5F5F5F5F5F5F5F5F5F5F5F5F5F5F5F5F5F5F5F5F5F5F5F5F5F5F5F5F5F5E2F5F5F5E2E2F5F5F5E2F5F5F5F5F5F5F5F5F5F5F5F5F5F5F5F5F5F5F5F5F5F5F5F5F5F5F5F5F5F5F5F5F5F5F5F5F5F5F5F5F5F5F5F5F5F5
310
F5F5F5F5F5F5F5F5F5F5F5F5F5F5F5F5F5F5F5F5F5F5F5F5F5F5F5F5F5F5F5F5F5F5F5F5F5F5F5F5F5F5F5F5F5F5F5F5F5F5F5F5F5F5F5F5F5F5F5F5F5F5F5F5F5F5F5F5F5F5F5F5F5F5F5F5F5F5F5F5F5F5F5F5F5F5F5F5F5F5F5F5F5F5F5F5F5F5F5F5F5F5F5F5F5F5F5F5F5F5F5F5F5F5F5F5F5F5F5F5F5F5F5F5E2F5F5
310
F5E2E2F5F5F5E2F5F5F5F5F5F5F5F5F5F5F5F5F5F5F5F5F5F5F5F5F5F5F5F5F5F5F5F5F5F5F5F5F5F5F5F5F5F5F5F5F5F5F5F5F5F5F5F5F5F5F5F5F5F5F5F5F5F5F5F5F5F5F5F5F5F5F5F5F5F5F5F5F5F5F5F5F5F5F5F5F5F5F5F5F5F5F5F5F5F5F5F5F5F5F5F5F5F5F5F5F5F5F5F5F5F5F5F5F5F5F5F5F5F5F5F5F5F5F5F5
310
F5F5F5F5F5F5F5F5F5F5F5F5F5F5F5F5F5F5F5F5F5F5F5F5F5F5F5F5F5F5F5F5F5F5F5F5F5F5F5F5F5F5F5F5F5F5F5F5F5F5E2F5F5F5E2E2F5F5F5E2F5F5F5F5F5F5F5F5F5F5F5F5F5F5F5F5F5F5F5F5F5F5F5F5F5F5F5F5F5F5F5F5F5F5F5F5F5F5F5F5F5F5F5F5F5F5F5F5F5F5F5F5F5F5F5F5F5F5F5F5F5F5F5F5F5F5F5
310
F5F5F5F5F5F5F5F5F5F5F5F5F5F5F5F5F5F5F5F5F5F5F5F5F5F5F5F5F5F5F5F5F5F5F5F5F5F5F5F5F5F5F5F5F5F5F5F5F5F5F5F5F5F5F5F5F5F5F5F5F5F5F5F5F5F5F5F5F5F5F5F5F5F5F5F5F5F5F5F5F5F5F5F5F5F5F5F5F5F5F5F5F5F5F5F5F5F5F5F5F5F5F5E2F5F5F5E2E2F5F5F5E2F5F5F5F5F5F5F5F5F5F5F5F5F5F5
310
F5F5F5F5F5F5F5F5F5F5F5F5F5F5F5F5F5F5F5F5F5F5F5F5F5F5F5F5F5F5F5F5F5F5F5F5F5F5F5F5F5F5F5F5F5F5F5F5F5F5F5F5F5F5F5F5F5F5F5F5F5F5F5F5F5F5F5F5F5F5F5F5F5F5F5F5F5F5F5F5F5F5F5F5F5F5F5F5F5F5F5F5F5F5F5F5F5F5F5F5F5F5F5F5F5F5F5F5F5F5F5F5F5F5F5F5F5F5F5F5F5F5F5F5F5F5F5
310
F5F5F5F5F5F5F5F5F5F5F5F5F5F5F5F5F5F5F5F5F5F5F5F5F5F5F5F5F5E2F5F5F5E2E2F5F5F5E2F5F5F5F5F5F5F5F5F5F5F5F5F5F5F5F5F5F5F5F5F5F5F5F5F5F5F5F5F5F5F5F5F5F5F5F5F5F5F5F5F5F5F5F5F5F5F5F5F5F5F5F5F5F5F5F5F5F5F5F5F5F5F5F5F5F5F5F5F5F5F5F5F5F5F5F5F5F5F5F5F5F5F5F5F5F5F5F5
310
F5F5F5F5F5F5F5F5F5F5F5F5F5F5F5F5F5F5F5F5F5F5F5F5F5F5F5F5F5F5F5F5F5F5F5F5F5F5F5F5F5F5F5F5F5F5F5F5F5F5F5F5F5F5F5F5F5F5F5F5F5F5F5F5F5F5F5F5F5F5F5F5F5F5F5F5F5F5F5F5F5F5E2F5F5F5E2E2F5F5F5E2F5F5F5F5F5F5F5F5F5F5F5F5F5F5F5F5F5F5F5F5F5F5F5F5F5F5F5F5F5F5F5F5F5F5F5
310
F5F5F5F5F5F5F5F5F5F5F5F5F5F5F5F5F5F5F5F5F5F5F5F5F5F5F5F5F5F5F5F5F5F5F5F5F5F5F5F5F5F5F5F5F5F5F5F5F5F5F5F5F5F5F5F5F5F5F5F5F5F5F5F5F5F5F5F5F5F5F5F5F5F5F5F5F5F5F5F5F5F5F5F5F5F5F5F5F5F5F5F5F5F5F5F5F5F5F5F5F5F5F5F5F5F5F5F5F5F5F5F5F5F5F5F5F5F5F5F5F5F5F5F5F5F5F5
310
F5F5F5F5F5F5F5F5E2F5F5F5E2E2F5F5F5E2F5F5F5F5F5F5F5F5F5F5F5F5F5F5F5F5F5F5F5F5F5F5F5F5F5F5F5F5F5F5F5F5F5F5F5F5F5F5F5F5F5F5F5F5F5F5F5F5F5F5F5F5F5F5F5F5F5F5F5F5F5F5F5F5F5F5F5F5F5F5F5F5F5F5F5F5F5F5F5F5F5F5F5F5F5F5F5F5F5F5F5F5F5F5F5F5F5F5F5F5F5F5F5F5F5F5F5F5F5
310
F5F5F5F5F5F5F5F5F5F5F5F5F5F5F5F5F5F5F5F5F5F5F5F5F5F5F5F5F5F5F5F5F5F5F5F5F5F5F5F5F5F5F5F5F5F5F5F5F5F5F5F5F5F5F5F5F5F5F5F5F5E2F5F5F5E2E2F5F5F5E2F5F5F5F5F5F5F5F5F5F5F5F5F5F5F5F5F5F5F5F5F5F5F5F5F5F5F5F5F5F5F5F5F5F5F5F5F5F5F5F5F5F5F5F5F5F5F5F5F5F5F5F5F5F5F5F5
310
F5F5F5F5F5F5F5F5F5F5F5F5F5F5F5F5F5F5F5F5F5F5F5F5F5F5F5F5F5F5F5F5F5F5F5F5F5F5F5F5F5F5F5F5F5F5F5F5F5F5F5F5F5F5F5F5F5F5F5F5F5F5F5F5F5F5F5F5F5F5F5F5F5F5F5F5F5F5F5F5F5F5F5F5F5F5F5F5F5F5F5F5F5F5F5F5F5F5F5F5F5F5F5F5F5F5F5F5F5F5F5F5F5F5E2F5F5F5E2E2F5F5F5F5F5F5F5
310
F5F5F5F5F5F5F5F5F5F5F5F5F5F5F5F5F5F5F5F5F5F5F5F5F5F5F5F5F5F5F5F5F5F5F5F5F5F5F5F5F5F5F5F5F5F5F5F5F5F5F5F5F5F5F5F5F5F5F5F5F5F5F5F5F5F5F5F5F5F5F5F5F5F5F5F5F5F5F5F5F5F5F5F5F5F5F5F5F5F5F5F5F5F5F5F5F5F5F5F5F5F5F5F5F5F5F5F5F5F5F5F5F5F5F5F5F5F5F5F5F5F5F5F5F5F5F5
310
F5F5F5F5F5F5F5F5F5F5F5F5F5F5F5F5F5F5F5F5F5F5F5F5F5F5F5F5F5F5F5F5F5F5F5F5F5F5F5F5F5F5F5F5E2E2F5F5F5F5F5F5F5F5F5F5F5F5F5F5F5F5F5F5F5F5F5F5F5F5F5F5F5F5F5F5F5F5F5F5F5F5F5F5F5F5F5F5F5F5F5F5F5F5F5F5F5F5F5F5F5F5F5F5F5F5F5F5F5F5F5F5F5F5F5F5F5F5F5F5F5F5F5F5F5F5F5
310
F5F5F5F5F5F5F5F5F5F5F5F5F5F5F5F5F5F5F5F5F5F5F5F5F5F5F5F5F5F5F5F5F5F5F5F5F5F5F5F5F5F5F5F5F5F5F5F5F5F5F5F5F5F5F5F5F5F5F5F5F5F5F5F5F5F5F5F5F5F5F5F5F5F5F5F5F5F5F5F5F5F5F5F5F5F5F5F5F5F5F5F5F5F5F5F5F5E2E2F5F5F5F5F5F5F5F5F5F5F5F5F5F5F5F5F5F5F5F5F5F5F5F5F5F5F5F5
310
F5F5F5F5F5F5F5F5F5F5F5F5F5F5F5F5F5F5F5F5F5F5F5F5F5F5F5F5F5F5F5F5F5F5F5F5F5F5F5F5F5F5F5F5F5F5F5F5F5F5F5F5F5F5F5F5F5F5F5F5F5F5F5F5F5F5F5F5F5F5F5F5F5F5F5F5F5F5F5F5F5F5F5F5F5F5F5F5F5F5F5F5F5F5F5F5F5F5F5F5F5F5F5F5F5F5F5F5F5F5F5F5F5F5F5F5F5F5F5F5F5F5F5F5F5F5F5
310
F5F5F5F5F5F5F5F5F5F5F5F5F5F5F5F5F5F5F5F5F5F5F5E2E2F5F5F5F5F5F5F5F5F5F5F5F5F5F5F5F5F5F5F5F5F5F5F5F5F5F5F5F5F5F5F5F5F5F5F5F5F5F5F5F5F5F5F5F5F5F5F5F5F5F5F5F5F5F5F5F5F5F5F5F5F5F5F5F5F5F5F5F5F5F5F5F5F5F5F5F5F5F5F5F5F5F5F5F5F5F5F5F5F5F5F5F5F5F5F5F5F5F5F5F5F5F5
310
F5F5F5F5F5F5F5F5F5F5F5F5F5F5F5F5F5F5F5F5F5F5F5F5F5F5F5F5F5F5F5F5F5F5F5F5F5F5F5F5F5F5F5F5F5F5F5F5F5F5F5F5F5F5F5F5F5F5F5F5F5F5F5F5F5F5F5F5F5F5F5F5F5F5F5F5E2E2F5F5F5F5F5F5F5F5F5F5F5F5F5F5F5F5F5F5F5F5F5F5F5F5F5F5F5F5F5F5F5F5F5F5F5F5F5F5F5F5F5F5F5F5F5F5F5F5F5
310
F5F5F5F5F5F5F5F5F5F5F5F5F5F5F5F5F5F5F5F5F5F5F5F5F5F5F5F5F5F5F5F5F5F5F5F5F5F5F5F5F5F5F5F5F5F5F5F5F5F5F5F5F5F5F5F5F5F5F5F5F5F5F5F5F5F5F5F5F5F5F5F5F5F5F5F5F5F5F5F5F5F5F5F5F5F5F5F5F5F5F5F5F5F5F5F5F5F5F5F5F5F5F5F5F5F5F5F5F5F5F5F5F5F5F5F5F5F5F5F5F5F5F5F5F5F5F5
310
F5F5E2E2F5F5F5F5F5F5F5F5F5F5F5F5F5F5F5F5F5F5F5F5F5F5F5F5F5F5F5F5F5F5F5F5F5F5F5F5F5F5F5F5F5F5F5F5F5F5F5F5F5F5F5F5F5F5F5F5F5F5F5F5F5F5F5F5F5F5F5F5F5F5F5F5F5F5F5F5F5F5F5F5F5F5F5F5F5F5F5F5F5F5F5F5F5F5F5F5F5F5F5F5F5F5F5F5F5F5F5F5F5F5F5F5F5F5F5F5F5F5F5F5F5F5F5
310
F5F5F5F5F5F5F5F5F5F5F5F5F5F5F5F5F5F5F5F5F5F5F5F5F5F5F5F5F5F5F5F5F5F5F5F5F5F5F5F5F5F5F5F5F5F5F5F5F5F5F5F5F5F5F5E2E2F5F5F5F5F5F5F5F5F5F5F5F5F5F5F5F5F5F5F5F5F5F5F5F5F5F5F5F5F5F5F5F5F5F5F5F5F5F5F5F5F5F5F5F5F5F5F5F5F5F5F5F5F5F5F5F5F5F5F5F5F5F5F5F5F5F5F5F5F5F5
310
F5F5F5F5F5F5F5F5F5F5F5F5F5F5F5F5F5F5F5F5F5F5F5F5F5F5F5F5F5F5F5F5F5F5F5F5F5F5F5F5F5F5F5F5F5F5F5F5F5F5F5F5F5F5F5F5F5F5F5F5F5F5F5F5F5F5F5F5F5F5F5F5F5F5F5F5F5F5F5F5F5F5F5F5F5F5F5F5F5F5F5F5F5F5F5F5F5F5F5F5F5F5F5F5F5F5F5F5E2E2F5F5F5F5F5F5F5F5F5F5F5F5F5F5F5F5F5
310
F5F5F5F5F5F5F5F5F5F5F5F5F5F5F5F5F5F5F5F5F5F5F5F5F5F5F5F5F5F5F5F5F5F5F5F5F5F5F5F5F5F5F5F5F5F5F5F5F5F5F5F5F5F5F5F5F5F5F5F5F5F5F5F5F5F5F5F5F5F5F5F5F5F5F5F5F5F5F5F5F5F5F5F5F5F5F5F5F5F5F5F5F5F5F5F5F5F5F5F5F5F5F5F5F5F5F5F5F5F5F5F5F5F5F5F5F5F5F5F5F5F5F5F5F5F5F5
310
F5F5F5F5F5F5F5F5F5F5F5F5F5F5F5F5F5F5F5F5F5F5F5F5F5F5F5F5F5F5F5F5F5F5E2E2F5F5F5F5F5F5F5F5F5F5F5F5F5F5F5F5F5F5F5F5F5F5F5F5F5F5F5F5F5F5F5F5F5F5F5F5F5F5F5F5F5F5F5F5F5F5F5F5F5F5F5F5F5F5F5F5F5F5F5F5F5F5F5F5F5F5F5F5F5F5F5F5F5F5F5F5F5F5F5F5F5F5F5F5F5F5F5F5F5F5F5
310
F5F5F5F5F5F5F5F5F5F5F5F5F5F5F5F5F5F5F5F5F5F5F5F5F5F5F5F5F5F5F5F5F5F5F5F5F5F5F5F5F5F5F5F5F5F5F5F5F5F5F5F5F5F5F5F5F5F5F5F5F5F5F5F5F5F5F5F5F5F5F5F5F5F5F5F5F5F5F5F5F5F5F5F5F5F5F5E2E2F5F5F5F5F5F5F5F5F5F5F5F5F5F5F5F5F5F5F5F5F5F5F5F5F5F5F5F5F5F5F5F5F5F5F5F5F5F5
310
F5F5F5F5F5F5F5F5F5F5F5F5F5F5F5F5F5F5F5F5F5F5F5F5F5F5F5F5F5F5F5F5F5F5F5F5F5F5F5F5F5F5F5F5F5F5F5F5F5F5F5F5F5F5F5F5F5F5F5F5F5F5F5F5F5F5F5F5F5F5F5F5F5F5F5F5F5F5F5F5F5F5F5F5F5F5F5F5F5F5F5F5F5F5F5F5F5F5F5F5F5F5F5F5F5F5F5F5F5F5F5F5F5F5F5F5F5F5F5F5F5F5F5F5F5F5F5
310
F5F5F5F5F5F5F5F5F5F5F5F5F5E2E2F5F5F5E2F5F5F5F5F5F5F5F5F5F5F5F5F5F5F5F5F5F5F5F5F5F5F5F5F5F5F5F5F5F5F5F5F5F5F5F5F5F5F5F5F5F5F5F5F5F5F5F5F5F5F5F5F5F5F5F5F5F5F5F5F5F5F5F5F5F5F5F5F5F5F5F5F5F5F5F5F5F5F5F5F5F5F5F5F5F5F5F5F5F5F5F5F5F5F5F5F5F5F5F5F5F5F5F5F5F5F5F5
310
F5F5F5F5F5F5F5F5F5F5F5F5F5F5F5F5F5F5F5F5F5F5F5F5F5F5F5F5F5F5F5F5F5F5F5F5F5F5F5F5F5F5F5F5F5F5F5F5F5F5F5F5F5F5F5F5F5F5F5F5F5F5E2F5F5F5E2E2F5F5F5E2F5F5F5F5F5F5F5F5F5F5F5F5F5F5F5F5F5F5F5F5F5F5F5F5F5F5F5F5F5F5F5F5F5F5F5F5F5F5F5F5F5F5F5F5F5F5F5F5F5F5F5F5F5F5F5
310
F5F5F5F5F5F5F5F5F5F5F5F5F5F5F5F5F5F5F5F5F5F5F5F5F5F5F5F5F5F5F5F5F5F5F5F5F5F5F5F5F5F5F5F5F5F5F5F5F5F5F5F5F5F5F5F5F5F5F5F5F5F5F5F5F5F5F5F5F5F5F5F5F5F5F5F5F5F5F5F5F5F5F5F5F5F5F5F5F5F5F5F5F5F5F5F5F5F5F5F5F5F5F5F5F5F5F5F5F5F5F5F5F5F5F5E2F5F5F5E2E2F5F5F5E2F5F5
310
F5F5F5F5F5F5F5F5F5F5F5F5F5F5F5F5F5F5F5F5F5F5F5F5F5F5F5F5F5F5F5F5F5F5F5F5F5F5F5F5F5F5F5F5F5F5F5F5F5F5F5F5F5F5F5F5F5F5F5F5F5F5F5F5F5F5F5F5F5F5F5F5F5F5F5F5F5F5F5F5F5F5F5F5F5F5F5F5F5F5F5F5F5F5F5F5F5F5F5F5F5F5F5F5F5F5F5F5F5F5F5F5F5F5F5F5F5F5F5F5F5F5F5F5F5F5F5
310
F5F5F5F5F5F5F5F5F5F5F5F5F5F5F5F5F5F5F5F5F5F5F5F5F5F5F5F5F5F5F5F5F5F5F5F5F5F5F5F5F5E2F5F5F5E2E2F5F5F5E2F5F5F5F5F5F5F5F5F5F5F5F5F5F5F5F5F5F5F5F5F5F5F5F5F5F5F5F5F5F5F5F5F5F5F5F5F5F5F5F5F5F5F5F5F5F5F5F5F5F5F5F5F5F5F5F5F5F5F5F5F5F5F5F5F5F5F5F5F5F5F5F5F5F5F5F5
310
F5F5F5F5F5F5F5F5F5F5F5F5F5F5F5F5F5F5F5F5F5F5F5F5F5F5F5F5F5F5F5F5F5F5F5F5F5F5F5F5F5F5F5F5F5F5F5F5F5F5F5F5F5F5F5F5F5F5F5F5F5F5F5F5F5F5F5F5F5F5F5F5F5F5F5F5F5F5F5F5F5F5F5F5F5F5F5F5F5F5F5F5F5F5E2F5F5F5E2E2F5F5F5E2F5F5F5F5F5F5F5F5F5F5F5F5F5F5F5F5F5F5F5F5F5F5F5
310
F5F5F5F5F5F5F5F5F5F5F5F5F5F5F5F5F5F5F5F5F5F5F5F5F5F5F5F5F5F5F5F5F5F5F5F5F5F5F5F5F5F5F5F5F5F5F5F5F5F5F5F5F5F5F5F5F5F5F5F5F5F5F5F5F5F5F5F5F5F5F5F5F5F5F5F5F5F5F5F5F5F5F5F5F5F5F5F5F5F5F5F5F5F5F5F5F5F5F5F5F5F5F5F5F5F5F5F5F5F5F5F5F5F5F5F5F5F5F5F5F5F5F5F5F5F5F5
310
F5F5F5F5F5F5F5F5F5F5F5F5F5F5F5F5F5F5F5F5E2F5F5F5E2E2F5F5F5E2F5F5F5F5F5F5F5F5F5F5F5F5F5F5F5F5F5F5F5F5F5F5F5F5F5F5F5F5F5F5F5F5F5F5F5F5F5F5F5F5F5F5F5F5F5F5F5F5F5F5F5F5F5F5F5F5F5F5F5F5F5F5F5F5F5F5F5F5F5F5F5F5F5F5F5F5F5F5F5F5F5F5F5F5F5F5F5F5F5F5F5F5F5F5F5F5F5
310
F5F5F5F5F5F5F5F5F5F5F5F5F5F5F5F5F5F5F5F5F5F5F5F5F5F5F5F5F5F5F5F5F5F5F5F5F5F5F5F5F5F5F5F5F5F5F5F5F5F5F5F5F5F5F5F5F5F5F5F5F5F5F5F5F5F5F5F5F5F5F5F5F5E2F5F5F5E2E2F5F5F5E2F5F5F5F5F5F5F5F5F5F5F5F5F5F5F5F5F5F5F5F5F5F5F5F5F5F5F5F5F5F5F5F5F5F5F5F5F5F5F5F5F5F5F5F5
310
F5F5F5F5F5F5F5F5F5F5F5F5F5F5F5F5F5F5F5F5F5F5F5F5F5F5F5F5F5F5F5F5F5F5F5F5F5F5F5F5F5F5F5F5F5F5F5F5F5F5F5F5F5F5F5F5F5F5F5F5F5F5F5F5F5F5F5F5F5F5F5F5F5F5F5F5F5F5F5F5F5F5F5F5F5F5F5F5F5F5F5F5F5F5F5F5F5F5F5F5F5F5F5F5F5F5F5F5F5F5F5F5F5F5F5F5F5F5F5F5F5F5F5F5F5F5E2
310
F5F5F5E2E2F5F5F5E2F5F5F5F5F5F5F5F5F5F5F5F5F5F5F5F5F5F5F5F5F5F5F5F5F5F5F5F5F5F5F5F5F5F5F5F5F5F5F5F5F5F5F5F5F5F5F5F5F5F5F5F5F5F5F5F5F5F5F5F5F5F5F5F5F5F5F5F5F5F5F5F5F5F5F5F5F5F5F5F5F5F5F5F5F5F5F5F5F5F5F5F5F5F5F5F5F5F5F5F5F5F5F5F5F5F5F5F5F5F5F5F5F5F5F5F5F5F5
310
F5F5F5F5F5F5F5F5F5F5F5F5F5F5F5F5F5F5F5F5F5F5F5F5F5F5F5F5F5F5F5F5F5F5F5F5F5F5F5F5F5F5F5F5F5F5F5F5F5F5F5F5E2F5F5F5E2E2F5F5F5E2F5F5F5F5F5F5F5F5F5F5F5F5F5F5F5F5F5F5F5F5F5F5F5F5F5F5F5F5F5F5F5F5F5F5F5F5F5F5F5F5F5F5F5F5F5F5F5F5F5F5F5F5F5F5F5F5F5F5F5F5F5F5F5F5F5
310
F5F5F5F5F5F5F5F5F5F5F5F5F5F5F5F5F5F5F5F5F5F5F5F5F5F5F5F5F5F5F5F5F5F5F5F5F5F5F5F5F5F5F5F5F5F5F5F5F5F5F5F5F5F5F5F5F5F5F5F5F5F5F5F5F5F5F5F5F5F5F5F5F5F5F5F5F5F5F5F5F5F5F5F5F5F5F5F5F5F5F5F5F5F5F5F5F5F5F5F5F5F5F5F5F5E2F5F5F5E2E2F5F5F5E2F5F5F5F5F5F5F5F5F5F5F5F5
310
F5F5F5F5F5F5F5F5F5F5F5F5F5F5F5F5F5F5F5F5F5F5F5F5F5F5F5F5F5F5F5F5F5F5F5F5F5F5F5F5F5F5F5F5F5F5F5F5F5F5F5F5F5F5F5F5F5F5F5F5F5F5F5F5F5F5F5F5F5F5F5F5F5F5F5F5F5F5F5F5F5F5F5F5F5F5F5F5F5F5F5F5F5F5F5F5F5F5F5F5F5F5F5F5F5F5F5F5F5F5F5F5F5F5F5F5F5F5F5F5F5F5F5F5F5F5F5
310
F5F5F5F5F5F5F5F5F5F5F5F5F5F5F5F5F5F5F5F5F5F5F5F5F5F5F5F5F5F5F5E2F5F5F5E2E2F5F5F5E2F5F5F5F5F5F5F5F5F5F5F5F5F5F5F5F5F5F5F5F5F5F5F5F5F5F5F5F5F5F5F5F5F5F5F5F5F5F5F5F5F5F5F5F5F5F5F5F5F5F5F5F5F5F5F5F5F5F5F5F5F5F5F5F5F5F5F5F5F5F5F5F5F5F5F5F5F5F5F5F5F5F5F5F5F5F5
310
F5F5F5F5F5F5F5F5F5F5F5F5F5F5F5F5F5F5F5F5F5F5F5F5F5F5F5F5F5F5F5F5F5F5F5F5F5F5F5F5F5F5F5F5F5F5F5F5F5F5F5F5F5F5F5F5F5F5F5F5F5F5F5F5F5F5F5F5F5F5F5F5F5F5F5F5F5F5F5F5F5F5F5F5E2F5F5F5E2E2F5F5F5E2F5F5F5F5F5F5F5F5F5F5F5F5F5F5F5F5F5F5F5F5F5F5F5F5F5F5F5F5F5F5F5F5F5
310
F5F5F5F5F5F5F5F5F5F5F5F5F5F5F5F5F5F5F5F5F5F5F5F5F5F5F5F5F5F5F5F5F5F5F5F5F5F5F5F5F5F5F5F5F5F5F5F5F5F5F5F5F5F5F5F5F5F5F5F5F5F5F5F5F5F5F5F5F5F5F5F5F5F5F5F5F5F5F5F5F5F5F5F5F5F5F5F5F5F5F5F5F5F5F5F5F5F5F5F5F5F5F5F5F5F5F5F5F5F5F5F5F5F5F5F5F5F5F5F5F5F5F5F5F5F5F5
310
F5F5F5F5F5F5F5F5F5F5E2F5F5F5E2E2F5F5F5E2F5F5F5F5F5F5F5F5F5F5F5F5F5F5F5F5F5F5F5F5F5F5F5F5F5F5F5F5F5F5F5F5F5F5F5F5F5F5F5F5F5F5F5F5F5F5F5F5F5F5F5F5F5F5F5F5F5F5F5F5F5F5F5F5F5F5F5F5F5F5F5F5F5F5F5F5F5F5F5F5F5F5F5F5F5F5F5F5F5F5F5F5F5F5F5F5F5F5F5F5F5F5F5F5F5F5F5
310
F5F5F5F5F5F5F5F5F5F5F5F5F5F5F5F5F5F5F5F5F5F5F5F5F5F5F5F5F5F5F5F5F5F5F5F5F5F5F5F5F5F5F5F5F5F5F5F5F5F5F5F5F5F5F5F5F5F5F5F5F5F5F5E2F5F5F5E2E2F5F5F5E2F5F5F5F5F5F5F5F5F5F5F5F5F5F5F5F5F5F5F5F5F5F5F5F5F5F5F5F5F5F5F5F5F5F5F5F5F5F5F5F5F5F5F5F5F5F5F5F5F5F5F5F5F5F5
310
F5F5F5F5F5F5F5F5F5F5F5F5F5F5F5F5F5F5F5F5F5F5F5F5F5F5F5F5F5F5F5F5F5F5F5F5F5F5F5F5F5F5F5F5F5F5F5F5F5F5F5F5F5F5F5F5F5F5F5F5F5F5F5F5F5F5F5F5F5F5F5F5F5F5F5F5F5F5F5F5F5F5F5F5F5F5F5F5F5F5F5F5F5F5F5F5F5F5F5F5F5F5F5F5F5F5F5F5F5F5F5F5F5F5F5F5E2F5F5F5E2E2F5F5F5E2F5
310
F5F5F5F5F5F5F5F5F5F5F5F5F5F5F5F5F5F5F5F5F5F5F5F5F5F5F5F5F5F5F5F5F5F5F5F5F5F5F5F5F5F5F5F5F5F5F5F5F5F5F5F5F5F5F5F5F5F5F5F5F5F5F5F5F5F5F5F5F5F5F5F5F5F5F5F5F5F5F5F5F5F5F5F5F5F5F5F5F5F5F5F5F5F5F5F5F5F5F5F5F5F5F5F5F5F5F5F5F5F5F5F5F5F5F5F5F5F5F5F5F5F5F5F5F5F5F5
310
F5F5F5F5F5F5F5F5F5F5F5F5F5F5F5F5F5F5F5F5F5F5F5F5F5F5F5F5F5F5F5F5F5F5F5F5F5F5F5F5F5F5E2F5F5F5E2E2F5F5F5E2F5F5F5F5F5F5F5F5F5F5F5F5F5F5F5F5F5F5F5F5F5F5F5F5F5F5F5F5F5F5F5F5F5F5F5F5F5F5F5F5F5F5F5F5F5F5F5F5F5F5F5F5F5F5F5F5F5F5F5F5F5F5F5F5F5F5F5F5F5F5F5F5F5F5F5
310
F5F5F5F5F5F5F5F5F5F5F5F5F5F5F5F5F5F5F5F5F5F5F5F5F5F5F5F5F5F5F5F5F5F5F5F5F5F5F5F5F5F5F5F5F5F5F5F5F5F5F5F5F5F5F5F5F5F5F5F5F5F5F5F5F5F5F5F5F5F5F5F5F5F5F5F5F5F5F5F5F5F5F5F5F5F5F5F5F5F5F5F5F5F5F5E2F5F5F5E2E2F5F5F5F5F5F5F5F5F5F5F5F5F5F5F5F5F5F5F5F5F5F5F5F5F5F5
310
F5F5F5F5F5F5F5F5F5F5F5F5F5F5F5F5F5F5F5F5F5F5F5F5F5F5F5F5F5F5F5F5F5F5F5F5F5F5F5F5F5F5F5F5F5F5F5F5F5F5F5F5F5F5F5F5F5F5F5F5F5F5F5F5F5F5F5F5F5F5F5F5F5F5F5F5F5F5F5F5F5F5F5F5F5F5F5F5F5F5F5F5F5F5F5F5F5F5F5F5F5F5F5F5F5F5F5F5F5F5F5F5F5F5F5F5F5F5F5F5F5F5F5F5F5F5F5
310
F5F5F5F5F5F5F5F5F5F5F5F5F5F5F5F5F5F5F5F5F5F5F5F5F5E2E2F5F5F5F5F5F5F5F5F5F5F5F5F5F5F5F5F5F5F5F5F5F5F5F5F5F5F5F5F5F5F5F5F5F5F5F5F5F5F5F5F5F5F5F5F5F5F5F5F5F5F5F5F5F5F5F5F5F5F5F5F5F5F5F5F5F5F5F5F5F5F5F5F5F5F5F5F5F5F5F5F5F5F5F5F5F5F5F5F5F5F5F5F5F5F5F5F5F5F5F5
310
F5F5F5F5F5F5F5F5F5F5F5F5F5F5F5F5F5F5F5F5F5F5F5F5F5F5F5F5F5F5F5F5F5F5F5F5F5F5F5F5F5F5F5F5F5F5F5F5F5F5F5F5F5F5F5F5F5F5F5F5F5F5F5F5F5F5F5F5F5F5F5F5F5F5F5F5F5F5E2E2F5F5F5F5F5F5F5F5F5F5F5F5F5F5F5F5F5F5F5F5F5F5F5F5F5F5F5F5F5F5F5F5F5F5F5F5F5F5F5F5F5F5F5F5F5F5F5
310
F5F5F5F5F5F5F5F5F5F5F5F5F5F5F5F5F5F5F5F5F5F5F5F5F5F5F5F5F5F5F5F5F5F5F5F5F5F5F5F5F5F5F5F5F5F5F5F5F5F5F5F5F5F5F5F5F5F5F5F5F5F5F5F5F5F5F5F5F5F5F5F5F5F5F5F5F5F5F5F5F5F5F5F5F5F5F5F5F5F5F5F5F5F5F5F5F5F5F5F5F5F5F5F5F5F5F5F5F5F5F5F5F5F5F5F5F5F5F5F5F5F5F5F5F5F5F5
310
F5F5F5F5E2E2F5F5F5F5F5F5F5F5F5F5F5F5F5F5F5F5F5F5F5F5F5F5F5F5F5F5F5F5F5F5F5F5F5F5F5F5F5F5F5F5F5F5F5F5F5F5F5F5F5F5F5F5F5F5F5F5F5F5F5F5F5F5F5F5F5F5F5F5F5F5F5F5F5F5F5F5F5F5F5F5F5F5F5F5F5F5F5F5F5F5F5F5F5F5F5F5F5F5F5F5F5F5F5F5F5F5F5F5F5F5F5F5F5F5F5F5F5F5F5F5F5
310
F5F5F5F5F5F5F5F5F5F5F5F5F5F5F5F5F5F5F5F5F5F5F5F5F5F5F5F5F5F5F5F5F5F5F5F5F5F5F5F5F5F5F5F5F5F5F5F5F5F5F5F5F5F5F5F5F5E2E2F5F5F5F5F5F5F5F5F5F5F5F5F5F5F5F5F5F5F5F5F5F5F5F5F5F5F5F5F5F5F5F5F5F5F5F5F5F5F5F5F5F5F5F5F5F5F5F5F5F5F5F5F5F5F5F5F5F5F5F5F5F5F5F5F5F5F5F5
310
F5F5F5F5F5F5F5F5F5F5F5F5F5F5F5F5F5F5F5F5F5F5F5F5F5F5F5F5F5F5F5F5F5F5F5F5F5F5F5F5F5F5F5F5F5F5F5F5F5F5F5F5F5F5F5F5F5F5F5F5F5F5F5F5F5F5F5F5F5F5F5F5F5F5F5F5F5F5F5F5F5F5F5F5F5F5F5F5F5F5F5F5F5F5F5F5F5F5F5F5F5F5F5F5F5F5F5F5F5F5E2E2F5F5F5F5F5F5F5F5F5F5F5F5F5F5F5
310
F5F5F5F5F5F5F5F5F5F5F5F5F5F5F5F5F5F5F5F5F5F5F5F5F5F5F5F5F5F5F5F5F5F5F5F5F5F5F5F5F5F5F5F5F5F5F5F5F5F5F5F5F5F5F5F5F5F5F5F5F5F5F5F5F5F5F5F5F5F5F5F5F5F5F5F5F5F5F5F5F5F5F5F5F5F5F5F5F5F5F5F5F5F5F5F5F5F5F5F5F5F5F5F5F5F5F5F5F5F5F5F5F5F5F5F5F5F5F5F5F5F5F5F5F5F5F5
310
F5F5F5F5F5F5F5F5F5F5F5F5F5F5F5F5F5F5F5F5F5F5F5F5F5F5F5F5F5F5F5F5F5F5F5F5E2E2F5F5F5F5F5F5F5F5F5F5F5F5F5F5F5F5F5F5F5F5F5F5F5F5F5F5F5F5F5F5F5F5F5F5F5F5F5F5F5F5F5F5F5F5F5F5F5F5F5F5F5F5F5F5F5F5F5F5F5F5F5F5F5F5F5F5F5F5F5F5F5F5F5F5F5F5F5F5F5F5F5F5F5F5F5F5F5F5F5
310
F5F5F5F5F5F5F5F5F5F5F5F5F5F5F5F5F5F5F5F5F5F5F5F5F5F5F5F5F5F5F5F5F5F5F5F5F5F5F5F5F5F5F5F5F5F5F5F5F5F5F5F5F5F5F5F5F5F5F5F5F5F5F5F5F5F5F5F5F5F5F5F5F5F5F5F5F5F5F5F5F5F5F5F5F5F5F5F5F5E2E2F5F5F5F5F5F5F5F5F5F5F5F5F5F5F5F5F5F5F5F5F5F5F5F5F5F5F5F5F5F5F5F5F5F5F5F5
310
F5F5F5F5F5F5F5F5F5F5F5F5F5F5F5F5F5F5F5F5F5F5F5F5F5F5F5F5F5F5F5F5F5F5F5F5F5F5F5F5F5F5F5F5F5F5F5F5F5F5F5F5F5F5F5F5F5F5F5F5F5F5F5F5F5F5F5F5F5F5F5F5F5F5F5F5F5F5F5F5F5F5F5F5F5F5F5F5F5F5F5F5F5F5F5F5F5F5F5F5F5F5F5F5F5F5F5F5F5F5F5F5F5F5F5F5F5F5F5F5F5F5F5F5F5F5F5
310
F5F5F5F5F5F5F5F5F5F5F5F5F5F5F5E2E2F5F5F5F5F5F5F5F5F5F5F5F5F5F5F5F5F5F5F5F5F5F5F5F5F5F5F5F5F5F5F5F5F5F5F5F5F5F5F5F5F5F5F5F5F5F5F5F5F5F5F5F5F5F5F5F5F5F5F5F5F5F5F5F5F5F5F5F5F5F5F5F5F5F5F5F5F5F5F5F5F5F5F5F5F5F5F5F5F5F5F5F5F5F5F5F5F5F5F5F5F5F5F5F5F5F5F5F5F5F5
310
F5F5F5F5F5F5F5F5F5F5F5F5F5F5F5F5F5F5F5F5F5F5F5F5F5F5F5F5F5F5F5F5F5F5F5F5F5F5F5F5F5F5F5F5F5F5F5F5F5F5F5F5F5F5F5F5F5F5F5F5F5F5F5F5F5F5F5F5E2E2F5F5F5E2F5F5F5F5F5F5F5F5F5F5F5F5F5F5F5F5F5F5F5F5F5F5F5F5F5F5F5F5F5F5F5F5F5F5F5F5F5F5F5F5F5F5F5F5F5F5F5F5F5F5F5F5F5
310
F5F5F5F5F5F5F5F5F5F5F5F5F5F5F5F5F5F5F5F5F5F5F5F5F5F5F5F5F5F5F5F5F5F5F5F5F5F5F5F5F5F5F5F5F5F5F5F5F5F5F5F5F5F5F5F5F5F5F5F5F5F5F5F5F5F5F5F5F5F5F5F5F5F5F5F5F5F5F5F5F5F5F5F5F5F5F5F5F5F5F5F5F5F5F5F5F5F5F5F5F5F5F5F5F5F5F5F5F5F5F5F5F5F5F5F5F5E2F5F5F5E2E2F5F5F5E2
310
F5F5F5F5F5F5F5F5F5F5F5F5F5F5F5F5F5F5F5F5F5F5F5F5F5F5F5F5F5F5F5F5F5F5F5F5F5F5F5F5F5F5F5F5F5F5F5F5F5F5F5F5F5F5F5F5F5F5F5F5F5F5F5F5F5F5F5F5F5F5F5F5F5F5F5F5F5F5F5F5F5F5F5F5F5F5F5F5F5F5F5F5F5F5F5F5F5F5F5F5F5F5F5F5F5F5F5F5F5F5F5F5F5F5F5F5F5F5F5F5F5F5F5F5F5F5F5
310
F5F5F5F5F5F5F5F5F5F5F5F5F5F5F5F5F5F5F5F5F5F5F5F5F5F5F5F5F5F5F5F5F5F5F5F5F5F5F5F5F5F5F5E2F5F5F5E2E2F5F5F5E2F5F5F5F5F5F5F5F5F5F5F5F5F5F5F5F5F5F5F5F5F5F5F5F5F5F5F5F5F5F5F5F5F5F5F5F5F5F5F5F5F5F5F5F5F5F5F5F5F5F5F5F5F5F5F5F5F5F5F5F5F5F5F5F5F5F5F5F5F5F5F5F5F5F5
310
F5F5F5F5F5F5F5F5F5F5F5F5F5F5F5F5F5F5F5F5F5F5F5F5F5F5F5F5F5F5F5F5F5F5F5F5F5F5F5F5F5F5F5F5F5F5F5F5F5F5F5F5F5F5F5F5F5F5F5F5F5F5F5F5F5F5F5F5F5F5F5F5F5F5F5F5F5F5F5F5F5F5F5F5F5F5F5F5F5F5F5F5F5F5F5F5E2F5F5F5E2E2F5F5F5E2F5F5F5F5F5F5F5F5F5F5F5F5F5F5F5F5F5F5F5F5F5
310
F5F5F5F5F5F5F5F5F5F5F5F5F5F5F5F5F5F5F5F5F5F5F5F5F5F5F5F5F5F5F5F5F5F5F5F5F5F5F5F5F5F5F5F5F5F5F5F5F5F5F5F5F5F5F5F5F5F5F5F5F5F5F5F5F5F5F5F5F5F5F5F5F5F5F5F5F5F5F5F5F5F5F5F5F5F5F5F5F5F5F5F5F5F5F5F5F5F5F5F5F5F5F5F5F5F5F5F5F5F5F5F5F5F5F5F5F5F5F5F5F5F5F5F5F5F5F5
310
F5F5F5F5F5F5F5F5F5F5F5F5F5F5F5F5F5F5F5F5F5F5E2F5F5F5E2E2F5F5F5E2F5F5F5F5F5F5F5F5F5F5F5F5F5F5F5F5F5F5F5F5F5F5F5F5F5F5F5F5F5F5F5F5F5F5F5F5F5F5F5F5F5F5F5F5F5F5F5F5F5F5F5F5F5F5F5F5F5F5F5F5F5F5F5F5F5F5F5F5F5F5F5F5F5F5F5F5F5F5F5F5F5F5F5F5F5F5F5F5F5F5F5F5F5F5F5
310
F5F5F5F5F5F5F5F5F5F5F5F5F5F5F5F5F5F5F5F5F5F5F5F5F5F5F5F5F5F5F5F5F5F5F5F5F5F5F5F5F5F5F5F5F5F5F5F5F5F5F5F5F5F5F5F5F5F5F5F5F5F5F5F5F5F5F5F5F5F5F5F5F5F5F5E2F5F5F5E2E2F5F5F5E2F5F5F5F5F5F5F5F5F5F5F5F5F5F5F5F5F5F5F5F5F5F5F5F5F5F5F5F5F5F5F5F5F5F5F5F5F5F5F5F5F5F5
310
F5F5F5F5F5F5F5F5F5F5F5F5F5F5F5F5F5F5F5F5F5F5F5F5F5F5F5F5F5F5F5F5F5F5F5F5F5F5F5F5F5F5F5F5F5F5F5F5F5F5F5F5F5F5F5F5F5F5F5F5F5F5F5F5F5F5F5F5F5F5F5F5F5F5F5F5F5F5F5F5F5F5F5F5F5F5F5F5F5F5F5F5F5F5F5F5F5F5F5F5F5F5F5F5F5F5F5F5F5F5F5F5F5F5F5F5F5F5F5F5F5F5F5F5F5F5F5
310
F5E2F5F5F5E2E2F5F5F5E2F5F5F5F5F5F5F5F5F5F5F5F5F5F5F5F5F5F5F5F5F5F5F5F5F5F5F5F5F5F5F5F5F5F5F5F5F5F5F5F5F5F5F5F5F5F5F5F5F5F5F5F5F5F5F5F5F5F5F5F5F5F5F5F5F5F5F5F5F5F5F5F5F5F5F5F5F5F5F5F5F5F5F5F5F5F5F5F5F5F5F5F5F5F5F5F5F5F5F5F5F5F5F5F5F5F5F5F5F5F5F5F5F5F5F5F5
310
F5F5F5F5F5F5F5F5F5F5F5F5F5F5F5F5F5F5F5F5F5F5F5F5F5F5F5F5F5F5F5F5F5F5F5F5F5F5F5F5F5F5F5F5F5F5F5F5F5F5F5F5F5F5E2F5F5F5E2E2F5F5F5E2F5F5F5F5F5F5F5F5F5F5F5F5F5F5F5F5F5F5F5F5F5F5F5F5F5F5F5F5F5F5F5F5F5F5F5F5F5F5F5F5F5F5F5F5F5F5F5F5F5F5F5F5F5F5F5F5F5F5F5F5F5F5F5
310
F5F5F5F5F5F5F5F5F5F5F5F5F5F5F5F5F5F5F5F5F5F5F5F5F5F5F5F5F5F5F5F5F5F5F5F5F5F5F5F5F5F5F5F5F5F5F5F5F5F5F5F5F5F5F5F5F5F5F5F5F5F5F5F5F5F5F5F5F5F5F5F5F5F5F5F5F5F5F5F5F5F5F5F5F5F5F5F5F5F5F5F5F5F5F5F5F5F5F5F5F5F5F5F5F5F5F5E2F5F5F5E2E2F5F5F5E2E2E2E2E2E2E2E2F5F5F5
310
F5F5F5F5F5F5E2E2E2E2E2E2E2E2E2E2E2E2E2E2E2E2F5F5F5F5F5F5F5F5F5E2E2E2E2E2E2E2E2E2E2E2E2E2E2E2F5F5F5F5F5F5F5F5F5E2E2E2E2E2E2E2E2E2E2E2E2E2E2E2E2F5F5F5F5F5F5F5F5E2E2E2E2E2E2E2E2E2E2E2E2E2E2E2E2F5F5F5F5F5F5F5F5F5E2E2E2E2E2E2E2E2E2E2E2E2E2E2E2F5F5F5F5F5F5F5F5
310
F5E2E2E2E2E2E2E2E2E2E2E2E2E2E2E2E2F5F5F5F5F5F5F5F5F5E2E2E2E2E2E2E2E2F5F5F5E2E2F5F5F5F5F5F5F5F5F5F5F5F5F5F5F5F5F5F5F5F5F5F5F5F5F5F5F5F5F5F5F5F5F5F5F5F5F5F5F5F5F5F5F5F5F5F5F5F5F5F5F5F5F5F5F5F5F5F5F5F5F5F5F5F5F5F5F5F5F5F5F5F5F5F5F5F5F5F5F5F5F5F5F5F5F5F5F5F5
310
F5F5F5F5F5F5F5F5F5F5F5F5F5F5F5F5F5F5F5F5F5F5F5F5F5F5F5F5F5F5F5F5F5F5F5F5F5F5F5F5F5F5F5F5F5F5F5F5F5F5F5F5F5F5F5F5F5F5F5F5F5F5F5F5F5F5F5F5F5F5F5F5F5F5F5F5F5F5F5F5F5F5F5F5F5F5F5F5F5F5E2E2F5F5F5F5F5F5F5F5F5F5F5F5F5F5F5F5F5F5F5F5F5F5F5F5F5F5F5F5F5F5F5F5F5F5F5
310
F5F5F5F5F5F5F5F5F5F5F5F5F5F5F5F5F5F5F5F5F5F5F5F5F5F5F5F5F5F5F5F5F5F5F5F5F5F5F5F5F5F5F5F5F5F5F5F5F5F5F5F5F5F5F5F5F5F5F5F5F5F5F5F5F5F5F5F5F5F5F5F5F5F5F5F5F5F5F5F5F5F5F5F5F5F5F5F5F5F5F5F5F5F5F5F5F5F5F5F5F5F5F5F5F5F5F5F5F5F5F5F5F5F5F5F5F5F5F5F5F5F5F5F5F5F5F5
310
F5F5F5F5F5F5F5F5F5F5F5F5F5F5F5F5E2E2F5F5F5F5F5F5F5F5F5F5F5F5F5F5F5F5F5F5F5F5F5F5F5F5F5F5F5F5F5F5F5F5F5F5F5F5F5F5F5F5F5F5F5F5F5F5F5F5F5F5F5F5F5F5F5F5F5F5F5F5F5F5F5F5F5F5F5F5F5F5F5F5F5F5F5F5F5F5F5F5F5F5F5F5F5F5F5F5F5F5F5F5F5F5F5F5F5F5F5F5F5F5F5F5F5F5F5F5F5
310
F5F5F5F5F5F5F5F5F5F5F5F5F5F5F5F5F5F5F5F5F5F5F5F5F5F5F5F5F5F5F5F5F5F5F5F5F5F5F5F5F5F5F5F5F5F5F5F5F5F5F5F5F5F5F5F5F5F5F5F5F5F5F5F5F5F5F5F5F5E2E2F5F5F5F5F5F5F5F5F5F5F5F5F5F5F5F5F5F5F5F5F5F5F5F5F5F5F5F5F5F5F5F5F5F5F5F5F5F5F5F5F5F5F5F5F5F5F5F5F5F5F5F5F5F5F5F5
310
F5F5F5F5F5F5F5F5F5F5F5F5F5F5F5F5F5F5F5F5F5F5F5F5F5F5F5F5F5F5F5F5F5F5F5F5F5F5F5F5F5F5F5F5F5F5F5F5F5F5F5F5F5F5F5F5F5F5F5F5F5F5F5F5F5F5F5F5F5F5F5F5F5F5F5F5F5F5F5F5F5F5F5F5F5F5F5F5F5F5F5F5F5F5F5F5F5F5F5F5F5F5F5F5F5F5F5F5F5F5F5F5F5F5F5F5F5F5F5F5F5F5E2E2E2E2E2
310
E2E2E2E2E2E2E2E2E2E2E2E2E2E2E2E2E2E2E2E2E2E2E2E2E2E2E2E2E2E2E2E2E2E2E2E2E2E2E2E2E2E2E2E2E2E2E2E2E2E2E2E2E2E2E2E2E2E2E2E2E2E2E2E2E2E2E2E2E2E2E2E2E2E2E2E2E2E2E2E2E2E2E2E2E2E2E2E2E2E2E2E2E2E2E2E2E2E2E2E2E2E2E2E2E2E2E2E2E2E2E2E2E2E2E2E2E2E2E2E2E2E2E2E2E2E2E2
310
E2E2E2E2E2E2E2E2E2E2E2E2E2E2E2E2E2E2E2E2E2E2E2E2E2E2E2E2E2E2E2E2E2E2E2E2E2E2E2E2E2E2E2E2E2E2E2E2E2
  0
XRECORD
  5
1170
102
{ACAD_REACTORS
330
116F
102
}
330
116F
100
AcDbXrecord
280
     1
102
SHADEPLOT
 70
     0
102
SHADEPLOTRESLEVEL
 70
     2
102
SHADEPLOTCUSTOMDPI
 70
   300
  0
ENDSEC
  0
EOF
