  0
SECTION
  2
HEADER
  9
$ACADVER
  1
AC1015
  9
$ACADMAINTVER
 70
    20
  9
$DWGCODEPAGE
  3
ANSI_1252
  9
$INSBASE
 10
0.0
 20
0.0
 30
0.0
  9
$EXTMIN
 10
0.0
 20
-0.0000000000000067
 30
0.0
  9
$EXTMAX
 10
11.00000000000012
 20
8.500000000000001
 30
0.0
  9
$LIMMIN
 10
0.0
 20
0.0
  9
$LIMMAX
 10
17.0
 20
11.0
  9
$ORTHOMODE
 70
     1
  9
$REGENMODE
 70
     1
  9
$FILLMODE
 70
     1
  9
$QTEXTMODE
 70
     0
  9
$MIRRTEXT
 70
     1
  9
$LTSCALE
 40
1.0
  9
$ATTMODE
 70
     1
  9
$TEXTSIZE
 40
0.12
  9
$TRACEWID
 40
0.05
  9
$TEXTSTYLE
  7
outline drawings
  9
$CLAYER
  8
0
  9
$CELTYPE
  6
BYLAYER
  9
$CECOLOR
 62
   256
  9
$CELTSCALE
 40
1.0
  9
$DISPSILH
 70
     0
  9
$DIMSCALE
 40
1.0
  9
$DIMASZ
 40
0.125
  9
$DIMEXO
 40
0.0625
  9
$DIMDLI
 40
0.38
  9
$DIMRND
 40
0.0
  9
$DIMDLE
 40
0.0
  9
$DIMEXE
 40
0.18
  9
$DIMTP
 40
0.0
  9
$DIMTM
 40
0.0
  9
$DIMTXT
 40
0.18
  9
$DIMCEN
 40
0.09
  9
$DIMTSZ
 40
0.0
  9
$DIMTOL
 70
     0
  9
$DIMLIM
 70
     0
  9
$DIMTIH
 70
     1
  9
$DIMTOH
 70
     1
  9
$DIMSE1
 70
     0
  9
$DIMSE2
 70
     0
  9
$DIMTAD
 70
     0
  9
$DIMZIN
 70
     0
  9
$DIMBLK
  1

  9
$DIMASO
 70
     1
  9
$DIMSHO
 70
     1
  9
$DIMPOST
  1
 mm\X
  9
$DIMAPOST
  1
 in
  9
$DIMALT
 70
     1
  9
$DIMALTD
 70
     2
  9
$DIMALTF
 40
0.0393700787
  9
$DIMLFAC
 40
25.4
  9
$DIMTOFL
 70
     0
  9
$DIMTVP
 40
0.0
  9
$DIMTIX
 70
     0
  9
$DIMSOXD
 70
     0
  9
$DIMSAH
 70
     0
  9
$DIMBLK1
  1

  9
$DIMBLK2
  1

  9
$DIMSTYLE
  2
Outline Drawings
  9
$DIMCLRD
 70
     0
  9
$DIMCLRE
 70
     0
  9
$DIMCLRT
 70
     0
  9
$DIMTFAC
 40
1.0
  9
$DIMGAP
 40
0.09
  9
$DIMJUST
 70
     0
  9
$DIMSD1
 70
     0
  9
$DIMSD2
 70
     0
  9
$DIMTOLJ
 70
     1
  9
$DIMTZIN
 70
     0
  9
$DIMALTZ
 70
     0
  9
$DIMALTTZ
 70
     0
  9
$DIMUPT
 70
     0
  9
$DIMDEC
 70
     0
  9
$DIMTDEC
 70
     0
  9
$DIMALTU
 70
     2
  9
$DIMALTTD
 70
     2
  9
$DIMTXSTY
  7
outline drawings
  9
$DIMAUNIT
 70
     0
  9
$DIMADEC
 70
     0
  9
$DIMALTRND
 40
0.0
  9
$DIMAZIN
 70
     0
  9
$DIMDSEP
 70
    46
  9
$DIMATFIT
 70
     3
  9
$DIMFRAC
 70
     0
  9
$DIMLDRBLK
  1

  9
$DIMLUNIT
 70
     2
  9
$DIMLWD
 70
    -2
  9
$DIMLWE
 70
    -2
  9
$DIMTMOVE
 70
     0
  9
$LUNITS
 70
     2
  9
$LUPREC
 70
     4
  9
$SKETCHINC
 40
0.1
  9
$FILLETRAD
 40
0.125
  9
$AUNITS
 70
     0
  9
$AUPREC
 70
     0
  9
$MENU
  1
.
  9
$ELEVATION
 40
0.0
  9
$PELEVATION
 40
0.0
  9
$THICKNESS
 40
0.0
  9
$LIMCHECK
 70
     0
  9
$CHAMFERA
 40
0.125
  9
$CHAMFERB
 40
0.125
  9
$CHAMFERC
 40
1.0
  9
$CHAMFERD
 40
0.0
  9
$SKPOLY
 70
     1
  9
$TDCREATE
 40
2453847.568726574
  9
$TDUCREATE
 40
2453847.735393241
  9
$TDUPDATE
 40
2453854.489649502
  9
$TDUUPDATE
 40
2453854.656316169
  9
$TDINDWG
 40
0.0062030440
  9
$TDUSRTIMER
 40
0.0062030440
  9
$USRTIMER
 70
     1
  9
$ANGBASE
 50
0.0
  9
$ANGDIR
 70
     0
  9
$PDMODE
 70
     0
  9
$PDSIZE
 40
0.0
  9
$PLINEWID
 40
0.0
  9
$SPLFRAME
 70
     0
  9
$SPLINETYPE
 70
     6
  9
$SPLINESEGS
 70
     8
  9
$HANDSEED
  5
C7E
  9
$SURFTAB1
 70
     6
  9
$SURFTAB2
 70
     6
  9
$SURFTYPE
 70
     6
  9
$SURFU
 70
     6
  9
$SURFV
 70
     6
  9
$UCSBASE
  2

  9
$UCSNAME
  2

  9
$UCSORG
 10
0.0
 20
0.0
 30
0.0
  9
$UCSXDIR
 10
1.0
 20
0.0
 30
0.0
  9
$UCSYDIR
 10
0.0
 20
1.0
 30
0.0
  9
$UCSORTHOREF
  2

  9
$UCSORTHOVIEW
 70
     0
  9
$UCSORGTOP
 10
0.0
 20
0.0
 30
0.0
  9
$UCSORGBOTTOM
 10
0.0
 20
0.0
 30
0.0
  9
$UCSORGLEFT
 10
0.0
 20
0.0
 30
0.0
  9
$UCSORGRIGHT
 10
0.0
 20
0.0
 30
0.0
  9
$UCSORGFRONT
 10
0.0
 20
0.0
 30
0.0
  9
$UCSORGBACK
 10
0.0
 20
0.0
 30
0.0
  9
$PUCSBASE
  2

  9
$PUCSNAME
  2

  9
$PUCSORG
 10
0.0
 20
0.0
 30
0.0
  9
$PUCSXDIR
 10
1.0
 20
0.0
 30
0.0
  9
$PUCSYDIR
 10
0.0
 20
1.0
 30
0.0
  9
$PUCSORTHOREF
  2

  9
$PUCSORTHOVIEW
 70
     0
  9
$PUCSORGTOP
 10
0.0
 20
0.0
 30
0.0
  9
$PUCSORGBOTTOM
 10
0.0
 20
0.0
 30
0.0
  9
$PUCSORGLEFT
 10
0.0
 20
0.0
 30
0.0
  9
$PUCSORGRIGHT
 10
0.0
 20
0.0
 30
0.0
  9
$PUCSORGFRONT
 10
0.0
 20
0.0
 30
0.0
  9
$PUCSORGBACK
 10
0.0
 20
0.0
 30
0.0
  9
$USERI1
 70
     0
  9
$USERI2
 70
     0
  9
$USERI3
 70
     0
  9
$USERI4
 70
     0
  9
$USERI5
 70
     0
  9
$USERR1
 40
0.0
  9
$USERR2
 40
0.0
  9
$USERR3
 40
0.0
  9
$USERR4
 40
0.0
  9
$USERR5
 40
0.0
  9
$WORLDVIEW
 70
     1
  9
$SHADEDGE
 70
     3
  9
$SHADEDIF
 70
    70
  9
$TILEMODE
 70
     1
  9
$MAXACTVP
 70
    48
  9
$PINSBASE
 10
0.0
 20
0.0
 30
0.0
  9
$PLIMCHECK
 70
     0
  9
$PEXTMIN
 10
1.000000000000000E+20
 20
1.000000000000000E+20
 30
1.000000000000000E+20
  9
$PEXTMAX
 10
-1.000000000000000E+20
 20
-1.000000000000000E+20
 30
-1.000000000000000E+20
  9
$PLIMMIN
 10
-0.2500002402958907
 20
-0.2499999962453767
  9
$PLIMMAX
 10
10.74999951940821
 20
8.249999763458731
  9
$UNITMODE
 70
     0
  9
$VISRETAIN
 70
     1
  9
$PLINEGEN
 70
     0
  9
$PSLTSCALE
 70
     1
  9
$TREEDEPTH
 70
  3020
  9
$CMLSTYLE
  2
STANDARD
  9
$CMLJUST
 70
     0
  9
$CMLSCALE
 40
1.0
  9
$PROXYGRAPHICS
 70
     1
  9
$MEASUREMENT
 70
     0
  9
$CELWEIGHT
370
    -1
  9
$ENDCAPS
280
     0
  9
$JOINSTYLE
280
     0
  9
$LWDISPLAY
290
     0
  9
$INSUNITS
 70
     1
  9
$HYPERLINKBASE
  1

  9
$STYLESHEET
  1

  9
$XEDIT
290
     1
  9
$CEPSNTYPE
380
     0
  9
$PSTYLEMODE
290
     1
  9
$FINGERPRINTGUID
  2
{6632CD21-FE18-475E-9E74-A2E9759AAF1D}
  9
$VERSIONGUID
  2
{8DBBBAFB-4640-476B-9602-9FD520C96CE7}
  9
$EXTNAMES
290
     1
  9
$PSVPSCALE
 40
0.0
  9
$OLESTARTUP
290
     0
  0
ENDSEC
  0
SECTION
  2
CLASSES
  0
CLASS
  1
ACMESTATEMGR
  2
AcMeStateMgr
  3
AcMeServices
 90
        0
280
     0
281
     0
  0
CLASS
  1
ACMESCOPE
  2
AcMeScope
  3
AcMeServices
 90
        0
280
     0
281
     0
  0
CLASS
  1
ACMECOMMANDHISTORY
  2
AcMeCommandHistory
  3
AcMeServices
 90
        0
280
     0
281
     0
  0
CLASS
  1
ACRFINSADJUSTERMGR
  2
AcRfInsAdjusterMgr
  3
AcMeServices
 90
        0
280
     0
281
     0
  0
CLASS
  1
ACMEDRAWINGMAN
  2
AcMeDrawingMan
  3
AcMeServices
 90
        0
280
     0
281
     0
  0
CLASS
  1
AMATTR
  2
AcMeAttribute
  3
AcMeServices
 90
    32768
280
     0
281
     0
  0
CLASS
  1
ACMEBOMCOLUMN
  2
AcMeBOMColumn
  3
AcMeServices
 90
    32768
280
     0
281
     0
  0
CLASS
  1
ACMEBOMCONF
  2
AcMeBOMConf
  3
AcMeServices
 90
    32768
280
     0
281
     0
  0
CLASS
  1
ACMEBOMTABLE
  2
AcMeBOMTable
  3
AcMeServices
 90
    32768
280
     0
281
     0
  0
CLASS
  1
ACMEBOMENTRY
  2
AcMeBOMEntry
  3
AcMeServices
 90
    32768
280
     0
281
     0
  0
CLASS
  1
ACMEVIEW
  2
AcMeView
  3
AcMeServices
 90
    32768
280
     0
281
     0
  0
CLASS
  1
ACGREFMASTER
  2
AcGrefMaster
  3
AcAttribServices
 90
        0
280
     0
281
     0
  0
CLASS
  1
AMIMASTER
  2
AmiMaster
  3
AmiServices
 90
        0
280
     0
281
     0
  0
CLASS
  1
ACASGREFMASTER
  2
AcAsGrefMaster
  3
AutoSurfResolverServices
 90
        0
280
     0
281
     0
  0
CLASS
  1
ADAPPL
  2
AcAdAppl
  3
DesignerServices
 90
        0
280
     0
281
     0
  0
CLASS
  1
DEPMGR
  2
AcAdDepMgr
  3
DesignerServices
 90
        0
280
     0
281
     0
  0
CLASS
  1
PARAMMGR
  2
AcAdParamMgr
  3
DesignerServices
 90
        0
280
     0
281
     0
  0
CLASS
  1
PARAMSCOPE
  2
AcAdParamScope
  3
DesignerServices
 90
        0
280
     0
281
     0
  0
CLASS
  1
ACIMSYSVARMAN
  2
AcImSysVarManager
  3
AcMeServices
 90
        0
280
     0
281
     0
  0
CLASS
  1
ACIMINTSYSVAR
  2
AcImIntSysVar
  3
AcMeServices
 90
        0
280
     0
281
     0
  0
CLASS
  1
ACIMREALSYSVAR
  2
AcImRealSysVar
  3
AcMeServices
 90
        0
280
     0
281
     0
  0
CLASS
  1
ACIMSTRSYSVAR
  2
AcImStrSysVar
  3
AcMeServices
 90
        0
280
     0
281
     0
  0
CLASS
  1
NAMEDAPPL
  2
AcAdNamedAppl
  3
DesignerServices
 90
        0
280
     0
281
     0
  0
CLASS
  1
ADHNTMPLT
  2
AdHoleNoteTemplateMgr
  3
DesignerServices
 90
    32768
280
     0
281
     0
  0
CLASS
  1
AM_HNTEMPLATE_MGR_NAME
  2
AdHoleNoteTemplateMgrName
  3
DesignerServices
 90
    32768
280
     0
281
     0
  0
CLASS
  1
ACADGREFMODULE
  2
AcAdGrefModule
  3
AdGrefServices
 90
        0
280
     0
281
     0
  0
CLASS
  1
AM_DRAWING_MGR
  2
AcDmDwgMgr
  3
AcMechDwgViewMgmt
 90
        0
280
     0
281
     0
  0
CLASS
  1
AM_DWG_DOCUMENT
  2
AcDmDwgDocument
  3
AcMechDwgViewMgmt
 90
        0
280
     0
281
     0
  0
CLASS
  1
AM_DWG_SHEET
  2
AcDmSheet
  3
AcMechDwgViewMgmt
 90
        0
280
     0
281
     0
  0
CLASS
  1
AM_VIEWDIMPARMAP
  2
AcDmViewDimParMap
  3
AcMechDwgViewMgmt
 90
        0
280
     0
281
     0
  0
CLASS
  1
AM_DWGMGR_NAME
  2
AcDmDwgMgrName
  3
AcMechDwgViewMgmt
 90
        0
280
     0
281
     0
  0
CLASS
  1
ACAMPROJECT
  2
AcAmProject
  3
DesignerAssemblies
 90
        0
280
     0
281
     0
  0
CLASS
  1
ACAMGRCOMPSET
  2
AcAmGrCompSet
  3
DesignerAssemblies
 90
    32768
280
     0
281
     0
  0
CLASS
  1
ACAMGRCOMPDEFSET
  2
AcAmGrCompDefSet
  3
DesignerAssemblies
 90
        0
280
     0
281
     0
  0
CLASS
  1
ACAMGRCOMPDEF
  2
AcAmGrCompDef
  3
DesignerAssemblies
 90
        0
280
     0
281
     0
  0
CLASS
  1
ACCMCONTEXT
  2
AcCmContext
  3
DesignerAssemblies
 90
        0
280
     0
281
     0
  0
CLASS
  1
ACAMCOMPDEF
  2
AcAmCompDef
  3
DesignerAssemblies
 90
        0
280
     0
281
     0
  0
CLASS
  1
ACAMCOMPDEFMGR
  2
AcAmCompDefMgr
  3
DesignerAssemblies
 90
        0
280
     0
281
     0
  0
CLASS
  1
AMCONTEXTMGR
  2
AcAmContextMgr
  3
DesignerAssemblies
 90
        0
280
     0
281
     0
  0
CLASS
  1
ACAMCONTEXTMODELER
  2
AcAmContextModeler
  3
DesignerAssemblies
 90
        0
280
     0
281
     0
  0
CLASS
  1
ACDMVIEWGEOM
  2
AcDmViewGeometry
  3
AcMechDwgViewMgmt
 90
        0
280
     0
281
     1
  0
CLASS
  1
CBROWSERAPPOBJECT
  2
CBrowserAppObject
  3
McadcomServices
 90
        0
280
     0
281
     0
  0
CLASS
  1
IM_STATIC_MAN
  2
AcImStaticVarManager
  3
AcMeServices
 90
        0
280
     0
281
     0
  0
CLASS
  1
ASAPP
  2
AcAsAppObject
  3
AutoSurfServices
 90
        0
280
     0
281
     0
  0
CLASS
  1
ACIMDBLSTATICVAR
  2
AcImDblStaticVar
  3
AcMeServices
 90
        0
280
     0
281
     0
  0
CLASS
  1
ACIMSTRSTATICVAR
  2
AcImStrStaticVar
  3
AcMeServices
 90
        0
280
     0
281
     0
  0
CLASS
  1
ACIMINTSTATICVAR
  2
AcImIntStaticVar
  3
AcMeServices
 90
        0
280
     0
281
     0
  0
CLASS
  1
CATALOGSTATE
  2
AcAmCatalogState
  3
DesignerAssemblies
 90
        0
280
     0
281
     0
  0
CLASS
  1
DM_PLACEHOLDER
  2
AcDmSelsetPlaceholder
  3
AcMechDwgViewMgmt
 90
        0
280
     0
281
     0
  0
CLASS
  1
DICTIONARYVAR
  2
AcDbDictionaryVar
  3
ObjectDBX Classes
 90
        0
280
     0
281
     0
  0
CLASS
  1
ACMSTANDARDJIS
  2
AcmStandardJIS
  3
"Amdt_StdImp|Product Description: AutoCAD Mechanical 2004 DX|Company: Autodesk"
 90
    32768
280
     0
281
     0
  0
CLASS
  1
ACMSTANDARDANSI
  2
AcmStandardANSI
  3
"Amdt_StdImp|Product Description: AutoCAD Mechanical 2004 DX|Company: Autodesk"
 90
        0
280
     0
281
     0
  0
CLASS
  1
ACMSTANDARDBSI
  2
AcmStandardBSI
  3
"Amdt_StdImp|Product Description: AutoCAD Mechanical 2004 DX|Company: Autodesk"
 90
    32768
280
     0
281
     0
  0
CLASS
  1
ACMSTANDARDDIN
  2
AcmStandardDIN
  3
"Amdt_StdImp|Product Description: AutoCAD Mechanical 2004 DX|Company: Autodesk"
 90
    32768
280
     0
281
     0
  0
CLASS
  1
ACMSTANDARDISO
  2
AcmStandardISO
  3
"Amdt_StdImp|Product Description: AutoCAD Mechanical 2004 DX|Company: Autodesk"
 90
    32768
280
     0
281
     0
  0
CLASS
  1
LAYER_INDEX
  2
AcDbLayerIndex
  3
ObjectDBX Classes
 90
        0
280
     0
281
     0
  0
CLASS
  1
IDBUFFER
  2
AcDbIdBuffer
  3
ObjectDBX Classes
 90
        0
280
     0
281
     0
  0
CLASS
  1
ACDBDICTIONARYWDFLT
  2
AcDbDictionaryWithDefault
  3
ObjectDBX Classes
 90
        0
280
     0
281
     0
  0
CLASS
  1
ACDBPLACEHOLDER
  2
AcDbPlaceHolder
  3
ObjectDBX Classes
 90
        0
280
     0
281
     0
  0
CLASS
  1
LAYOUT
  2
AcDbLayout
  3
ObjectDBX Classes
 90
        0
280
     0
281
     0
  0
CLASS
  1
ACME_DOCUMENT
  2
AcMeDbDoc
  3
AcMeServices
 90
        0
280
     0
281
     0
  0
CLASS
  1
AMGSETTINGSOBJ
  2
AmgSettingsObj
  3
"AcadM|Product Description: AutoCAD Mechanical 2000|Company: Autodesk"
 90
        0
280
     0
281
     0
  0
CLASS
  1
AMGOBJPROPCFG
  2
AmgObjPropCfg
  3
"AmgLay|Product Description: AutoCAD Mechanical 2000|Company: Autodesk"
 90
        1
280
     0
281
     0
  0
CLASS
  1
ACDBENTITYCACHE
  2
AcMeEntityCache
  3
AcMeServices
 90
        0
280
     0
281
     0
  0
CLASS
  1
GSMANAGER
  2
AcMeGSManager
  3
AcMeServices
 90
        0
280
     0
281
     0
  0
CLASS
  1
AMDTINTERNALREACTOR
  2
AmdtInternalReactor
  3
AcMeServices
 90
        0
280
     0
281
     0
  0
CLASS
  1
ACME_DATABASE
  2
AcMeDbDatabase
  3
AcMeServices
 90
        0
280
     0
281
     0
  0
CLASS
  1
ACGREFACADMASTER
  2
AcGrefacadMaster
  3
AcGrefServices
 90
        0
280
     0
281
     0
  0
CLASS
  1
AMDTMENUSTATEMGR
  2
AmdtMenuStateMgr
  3
McadcomServices
 90
        0
280
     0
281
     0
  0
CLASS
  1
AMDTMCOMMENUSTATE
  2
AmdtMcomMenuState
  3
McadcomServices
 90
        0
280
     0
281
     0
  0
CLASS
  1
MAPIADMODULE
  2
MApiAdModule
  3
MApiAdServices
 90
        0
280
     0
281
     0
  0
CLASS
  1
AMDTDMMENUSTATE
  2
AmdtDmMenuState
  3
AcMechDwgViewMgmt
 90
        0
280
     0
281
     0
  0
CLASS
  1
AMDTADMENUSTATE
  2
AmdtAdMenuState
  3
DesignerServices
 90
        0
280
     0
281
     0
  0
CLASS
  1
AMDTAMMENUSTATE
  2
AmdtAmMenuState
  3
DesignerAssemblies
 90
        0
280
     0
281
     0
  0
CLASS
  1
ACMDATADICTIONARY
  2
AcmDataDictionary
  3
"AcmSymBB|Product Description: AutoCAD Mechanical 2004 DX|Company: Autodesk"
 90
        0
280
     0
281
     0
  0
CLASS
  1
ACMDATAENTRYBLOCK
  2
AcmDataEntryBlock
  3
"AcmSymBB|Product Description: AutoCAD Mechanical 2004 DX|Company: Autodesk"
 90
        0
280
     0
281
     0
  0
CLASS
  1
AMDTBROWSERDBTAB
  2
AmdtBrowserDbTab
  3
McadcomServices
 90
        0
280
     0
281
     0
  0
CLASS
  1
ACAMGFILTERDAT
  2
AcAmgFilterDat
  3
"AcadM|Product Description: AutoCAD Mechanical 2000|Company: Autodesk"
 90
        0
280
     0
281
     0
  0
CLASS
  1
MAPIAMMOUDLE
  2
MApiAmModule
  3
MApiAmServices
 90
        0
280
     0
281
     0
  0
CLASS
  1
AMDTMAPISURFMOUDULE
  2
AmdtMApiSurfModule
  3
MApiSurfServices
 90
        0
280
     0
281
     0
  0
CLASS
  1
ACMSURFSTANDARDANSI
  2
AcmSurfTextStdANSI
  3
"Amdt_StdImp|Product Description: AutoCAD Mechanical 2004 DX|Company: Autodesk"
 90
        0
280
     0
281
     0
  0
CLASS
  1
ACMFCFSTANDARDANSI
  2
AcmFCFStdANSI
  3
"Amdt_StdImp|Product Description: AutoCAD Mechanical 2004 DX|Company: Autodesk"
 90
        0
280
     0
281
     0
  0
CLASS
  1
ACMWELDSTANDARDANSI
  2
AcmWeldingStdANSI
  3
"Amdt_StdImp|Product Description: AutoCAD Mechanical 2004 DX|Company: Autodesk"
 90
        0
280
     0
281
     0
  0
CLASS
  1
ACMIDSTANDARDANSI
  2
AcmIdStdANSI
  3
"Amdt_StdImp|Product Description: AutoCAD Mechanical 2004 DX|Company: Autodesk"
 90
        0
280
     0
281
     0
  0
CLASS
  1
ACMDATUMSTANDARDANSI
  2
AcmDatumStdANSI
  3
"Amdt_StdImp|Product Description: AutoCAD Mechanical 2004 DX|Company: Autodesk"
 90
        0
280
     0
281
     0
  0
CLASS
  1
ACMBOMSTANDARDANSI
  2
AcmBOMStdANSI
  3
"Amdt_StdImp|Product Description: AutoCAD Mechanical 2004 DX|Company: Autodesk"
 90
        0
280
     0
281
     0
  0
CLASS
  1
ACAMGLAYSTD
  2
AcAmgLayStd
  3
"AcAmgLayStd|Product Description: AutoCAD Mechanical 2000|Company: Autodesk"
 90
        0
280
     0
281
     0
  0
CLASS
  1
ACAMGDIMSTD
  2
AcAmgDimStd
  3
"AcAmgDimStd|Product Description: AutoCAD Mechanical 2000|Company: Autodesk"
 90
        0
280
     0
281
     0
  0
CLASS
  1
ACAMGTITLESTD
  2
AcAmgTitleStd
  3
"TITLEAPP"
 90
        0
280
     0
281
     0
  0
CLASS
  1
ACMDETAILSTANDARDANSI
  2
AmdtDetailSymStdANSI
  3
"Amdt_StdImp|Product Description: AutoCAD Mechanical 2004 DX|Company: Autodesk"
 90
        0
280
     0
281
     0
  0
CLASS
  1
ACMSECTIONSTANDARDANSI
  2
AmdtSectionSymStdANSI
  3
"Amdt_StdImp|Product Description: AutoCAD Mechanical 2004 DX|Company: Autodesk"
 90
        0
280
     0
281
     0
  0
CLASS
  1
ACMCENTERLINESTANDARDANSI
  2
AmdtCenterLineStdANSI
  3
"Amdt_StdImp|Product Description: AutoCAD Mechanical 2004 DX|Company: Autodesk"
 90
        0
280
     0
281
     0
  0
CLASS
  1
ACMTHREADLINESTANDARDANSI
  2
AmdtThreadLineStdANSI
  3
"Amdt_StdImp|Product Description: AutoCAD Mechanical 2004 DX|Company: Autodesk"
 90
        0
280
     0
281
     0
  0
CLASS
  1
ACMSURFSTANDARDBSI
  2
AcmSurfTextStdBSI
  3
"Amdt_StdImp|Product Description: AutoCAD Mechanical 2004 DX|Company: Autodesk"
 90
    32768
280
     0
281
     0
  0
CLASS
  1
ACMFCFSTANDARDBSI
  2
AcmFCFStdBSI
  3
"Amdt_StdImp|Product Description: AutoCAD Mechanical 2004 DX|Company: Autodesk"
 90
    32768
280
     0
281
     0
  0
CLASS
  1
ACMWELDSTANDARDBSI
  2
AcmWeldingStdBSI
  3
"Amdt_StdImp|Product Description: AutoCAD Mechanical 2004 DX|Company: Autodesk"
 90
    32768
280
     0
281
     0
  0
CLASS
  1
ACMIDSTANDARDBSI
  2
AcmIdStdBSI
  3
"Amdt_StdImp|Product Description: AutoCAD Mechanical 2004 DX|Company: Autodesk"
 90
    32768
280
     0
281
     0
  0
CLASS
  1
ACMDATUMSTANDARDBSI
  2
AcmDatumStdBSI
  3
"Amdt_StdImp|Product Description: AutoCAD Mechanical 2004 DX|Company: Autodesk"
 90
    32768
280
     0
281
     0
  0
CLASS
  1
ACMBOMSTANDARDBSI
  2
AcmBOMStdBSI
  3
"Amdt_StdImp|Product Description: AutoCAD Mechanical 2004 DX|Company: Autodesk"
 90
    32768
280
     0
281
     0
  0
CLASS
  1
ACMDETAILSTANDARDBSI
  2
AmdtDetailSymStdBSI
  3
"Amdt_StdImp|Product Description: AutoCAD Mechanical 2004 DX|Company: Autodesk"
 90
    32768
280
     0
281
     0
  0
CLASS
  1
ACMSECTIONSTANDARDBSI
  2
AmdtSectionSymStdBSI
  3
"Amdt_StdImp|Product Description: AutoCAD Mechanical 2004 DX|Company: Autodesk"
 90
    32768
280
     0
281
     0
  0
CLASS
  1
ACMCENTERLINESTANDARDBSI
  2
AmdtCenterLineStdBSI
  3
"Amdt_StdImp|Product Description: AutoCAD Mechanical 2004 DX|Company: Autodesk"
 90
    32768
280
     0
281
     0
  0
CLASS
  1
ACMTHREADLINESTANDARDBSI
  2
AmdtThreadLineStdBSI
  3
"Amdt_StdImp|Product Description: AutoCAD Mechanical 2004 DX|Company: Autodesk"
 90
    32768
280
     0
281
     0
  0
CLASS
  1
AMDTEDGESTANDARDDIN
  2
AmdtEdgeStdDIN
  3
"Amdt_StdImp|Product Description: AutoCAD Mechanical 2004 DX|Company: Autodesk"
 90
    32768
280
     0
281
     0
  0
CLASS
  1
ACMSURFSTANDARDDIN
  2
AcmSurfTextStdDIN
  3
"Amdt_StdImp|Product Description: AutoCAD Mechanical 2004 DX|Company: Autodesk"
 90
    32768
280
     0
281
     0
  0
CLASS
  1
ACMFCFSTANDARDDIN
  2
AcmFCFStdDIN
  3
"Amdt_StdImp|Product Description: AutoCAD Mechanical 2004 DX|Company: Autodesk"
 90
    32768
280
     0
281
     0
  0
CLASS
  1
ACMWELDSTANDARDDIN
  2
AcmWeldingStdDIN
  3
"Amdt_StdImp|Product Description: AutoCAD Mechanical 2004 DX|Company: Autodesk"
 90
    32768
280
     0
281
     0
  0
CLASS
  1
ACMIDSTANDARDDIN
  2
AcmIdStdDIN
  3
"Amdt_StdImp|Product Description: AutoCAD Mechanical 2004 DX|Company: Autodesk"
 90
    32768
280
     0
281
     0
  0
CLASS
  1
ACMDATUMSTANDARDDIN
  2
AcmDatumStdDIN
  3
"Amdt_StdImp|Product Description: AutoCAD Mechanical 2004 DX|Company: Autodesk"
 90
    32768
280
     0
281
     0
  0
CLASS
  1
ACMBOMSTANDARDDIN
  2
AcmBOMStdDIN
  3
"Amdt_StdImp|Product Description: AutoCAD Mechanical 2004 DX|Company: Autodesk"
 90
    32768
280
     0
281
     0
  0
CLASS
  1
ACMDETAILSTANDARDDIN
  2
AmdtDetailSymStdDIN
  3
"Amdt_StdImp|Product Description: AutoCAD Mechanical 2004 DX|Company: Autodesk"
 90
    32768
280
     0
281
     0
  0
CLASS
  1
ACMSECTIONSTANDARDDIN
  2
AmdtSectionSymStdDIN
  3
"Amdt_StdImp|Product Description: AutoCAD Mechanical 2004 DX|Company: Autodesk"
 90
    32768
280
     0
281
     0
  0
CLASS
  1
ACMCENTERLINESTANDARDDIN
  2
AmdtCenterLineStdDIN
  3
"Amdt_StdImp|Product Description: AutoCAD Mechanical 2004 DX|Company: Autodesk"
 90
    32768
280
     0
281
     0
  0
CLASS
  1
ACMTHREADLINESTANDARDDIN
  2
AmdtThreadLineStdDIN
  3
"Amdt_StdImp|Product Description: AutoCAD Mechanical 2004 DX|Company: Autodesk"
 90
    32768
280
     0
281
     0
  0
CLASS
  1
ACMSURFSTANDARDISO
  2
AcmSurfTextStdISO
  3
"Amdt_StdImp|Product Description: AutoCAD Mechanical 2004 DX|Company: Autodesk"
 90
    32768
280
     0
281
     0
  0
CLASS
  1
ACMFCFSTANDARDISO
  2
AcmFCFStdISO
  3
"Amdt_StdImp|Product Description: AutoCAD Mechanical 2004 DX|Company: Autodesk"
 90
    32768
280
     0
281
     0
  0
CLASS
  1
ACMWELDSTANDARDISO
  2
AcmWeldingStdISO
  3
"Amdt_StdImp|Product Description: AutoCAD Mechanical 2004 DX|Company: Autodesk"
 90
    32768
280
     0
281
     0
  0
CLASS
  1
ACMIDSTANDARDISO
  2
AcmIdStdISO
  3
"Amdt_StdImp|Product Description: AutoCAD Mechanical 2004 DX|Company: Autodesk"
 90
    32768
280
     0
281
     0
  0
CLASS
  1
ACMDATUMSTANDARDISO
  2
AcmDatumStdISO
  3
"Amdt_StdImp|Product Description: AutoCAD Mechanical 2004 DX|Company: Autodesk"
 90
    32768
280
     0
281
     0
  0
CLASS
  1
ACMBOMSTANDARDISO
  2
AcmBOMStdISO
  3
"Amdt_StdImp|Product Description: AutoCAD Mechanical 2004 DX|Company: Autodesk"
 90
    32768
280
     0
281
     0
  0
CLASS
  1
AMDTEDGESTANDARDISO
  2
AmdtEdgeStdISO
  3
"Amdt_StdImp|Product Description: AutoCAD Mechanical 2004 DX|Company: Autodesk"
 90
    32768
280
     0
281
     0
  0
CLASS
  1
ACMDETAILSTANDARDISO
  2
AmdtDetailSymStdISO
  3
"Amdt_StdImp|Product Description: AutoCAD Mechanical 2004 DX|Company: Autodesk"
 90
    32768
280
     0
281
     0
  0
CLASS
  1
ACMSECTIONSTANDARDISO
  2
AmdtSectionSymStdISO
  3
"Amdt_StdImp|Product Description: AutoCAD Mechanical 2004 DX|Company: Autodesk"
 90
    32768
280
     0
281
     0
  0
CLASS
  1
ACMCENTERLINESTANDARDISO
  2
AmdtCenterLineStdISO
  3
"Amdt_StdImp|Product Description: AutoCAD Mechanical 2004 DX|Company: Autodesk"
 90
    32768
280
     0
281
     0
  0
CLASS
  1
ACMTHREADLINESTANDARDISO
  2
AmdtThreadLineStdISO
  3
"Amdt_StdImp|Product Description: AutoCAD Mechanical 2004 DX|Company: Autodesk"
 90
    32768
280
     0
281
     0
  0
CLASS
  1
ACMSURFSTANDARDJIS
  2
AcmSurfTextStdJIS
  3
"Amdt_StdImp|Product Description: AutoCAD Mechanical 2004 DX|Company: Autodesk"
 90
    32768
280
     0
281
     0
  0
CLASS
  1
ACMFCFSTANDARDJIS
  2
AcmFCFStdJIS
  3
"Amdt_StdImp|Product Description: AutoCAD Mechanical 2004 DX|Company: Autodesk"
 90
    32768
280
     0
281
     0
  0
CLASS
  1
ACMWELDSTANDARDJIS
  2
AcmWeldingStdJIS
  3
"Amdt_StdImp|Product Description: AutoCAD Mechanical 2004 DX|Company: Autodesk"
 90
    32768
280
     0
281
     0
  0
CLASS
  1
ACMIDSTANDARDJIS
  2
AcmIdStdJIS
  3
"Amdt_StdImp|Product Description: AutoCAD Mechanical 2004 DX|Company: Autodesk"
 90
    32768
280
     0
281
     0
  0
CLASS
  1
ACMDATUMSTANDARDJIS
  2
AcmDatumStdJIS
  3
"Amdt_StdImp|Product Description: AutoCAD Mechanical 2004 DX|Company: Autodesk"
 90
    32768
280
     0
281
     0
  0
CLASS
  1
ACMBOMSTANDARDJIS
  2
AcmBOMStdJIS
  3
"Amdt_StdImp|Product Description: AutoCAD Mechanical 2004 DX|Company: Autodesk"
 90
    32768
280
     0
281
     0
  0
CLASS
  1
ACMDETAILSTANDARDJIS
  2
AmdtDetailSymStdJIS
  3
"Amdt_StdImp|Product Description: AutoCAD Mechanical 2004 DX|Company: Autodesk"
 90
    32768
280
     0
281
     0
  0
CLASS
  1
ACMSECTIONSTANDARDJIS
  2
AmdtSectionSymStdJIS
  3
"Amdt_StdImp|Product Description: AutoCAD Mechanical 2004 DX|Company: Autodesk"
 90
    32768
280
     0
281
     0
  0
CLASS
  1
ACMCENTERLINESTANDARDJIS
  2
AmdtCenterLineStdJIS
  3
"Amdt_StdImp|Product Description: AutoCAD Mechanical 2004 DX|Company: Autodesk"
 90
    32768
280
     0
281
     0
  0
CLASS
  1
ACMTHREADLINESTANDARDJIS
  2
AmdtThreadLineStdJIS
  3
"Amdt_StdImp|Product Description: AutoCAD Mechanical 2004 DX|Company: Autodesk"
 90
    32768
280
     0
281
     0
  0
CLASS
  1
ACMNOTESTANDARDANSI
  2
AmdtNoteStdANSI
  3
"Amdt_StdImp|Product Description: AutoCAD Mechanical 2004 DX|Company: Autodesk"
 90
        0
280
     0
281
     0
  0
CLASS
  1
ACAMGHOLECHARTSTDANSI
  2
AcAmgHoleChartStdANSI
  3
ACMSYMBB_MODULE_NAME
 90
        0
280
     0
281
     0
  0
CLASS
  1
TABLESTYLE
  2
AcDbTableStyle
  3
ObjectDBX Classes
 90
     2047
280
     0
281
     0
  0
CLASS
  1
AMDTNOTETEMPLATEDB
  2
AmdtNoteTemplateDB
  3
AMDT_STDIMP_MODULE_NAME
 90
        0
280
     0
281
     0
  0
CLASS
  1
VAACXREFPANELOBJECT
  2
VaAcXREFPanelObject
  3
VAAC_ADDIN
 90
        0
280
     0
281
     0
  0
CLASS
  1
VAACIMAGEINVENTORY
  2
VaAcImageInventory
  3
VAAC_ADDIN
 90
        0
280
     0
281
     0
  0
CLASS
  1
IMAGE
  2
AcDbRasterImage
  3
ISM
 90
      127
280
     0
281
     1
  0
CLASS
  1
IMAGEDEF_REACTOR
  2
AcDbRasterImageDefReactor
  3
ISM
 90
        1
280
     0
281
     0
  0
CLASS
  1
IMAGEDEF
  2
AcDbRasterImageDef
  3
ISM
 90
        0
280
     0
281
     0
  0
CLASS
  1
RASTERVARIABLES
  2
AcDbRasterVariables
  3
ISM
 90
        0
280
     0
281
     0
  0
CLASS
  1
SORTENTSTABLE
  2
AcDbSortentsTable
  3
ObjectDBX Classes
 90
        0
280
     0
281
     0
  0
ENDSEC
  0
SECTION
  2
TABLES
  0
TABLE
  2
VPORT
  5
8
330
0
100
AcDbSymbolTable
 70
     3
  0
VPORT
  5
C6E
330
8
100
AcDbSymbolTableRecord
100
AcDbViewportTableRecord
  2
*Active
 70
     0
 10
0.0
 20
0.0
 11
1.0
 21
1.0
 12
5.500045812455991
 22
4.249961877183475
 13
0.0
 23
0.0
 14
0.125
 24
0.125
 15
1.0
 25
1.0
 16
0.0
 26
0.0
 36
1.0
 17
0.0
 27
0.0
 37
0.0
 40
8.543965472975305
 41
1.387234042553191
 42
50.0
 43
0.0
 44
0.0
 50
0.0
 51
0.0
 71
     0
 72
   100
 73
     1
 74
     1
 75
     0
 76
     0
 77
     0
 78
     0
281
     0
 65
     0
110
0.0
120
0.0
130
0.0
111
1.0
121
0.0
131
0.0
112
0.0
122
1.0
132
0.0
 79
     0
146
0.0
  0
ENDTAB
  0
TABLE
  2
LTYPE
  5
5
330
0
100
AcDbSymbolTable
 70
    36
  0
LTYPE
  5
13
330
5
100
AcDbSymbolTableRecord
100
AcDbLinetypeTableRecord
  2
BYBLOCK
 70
     0
  3

 72
    65
 73
     0
 40
0.0
  0
LTYPE
  5
14
330
5
100
AcDbSymbolTableRecord
100
AcDbLinetypeTableRecord
  2
BYLAYER
 70
     0
  3

 72
    65
 73
     0
 40
0.0
  0
LTYPE
  5
15
330
5
100
AcDbSymbolTableRecord
100
AcDbLinetypeTableRecord
  2
CONTINUOUS
 70
     0
  3
Solid line
 72
    65
 73
     0
 40
0.0
  0
LTYPE
  5
8C
330
5
100
AcDbSymbolTableRecord
100
AcDbLinetypeTableRecord
  2
HIDDEN
 70
     0
  3
__ __ __ __ __ __ __ __ __ __ __ __ __ __ __ __
 72
    65
 73
     2
 40
0.375
 49
0.25
 74
     0
 49
-0.125
 74
     0
  0
LTYPE
  5
8E
330
5
100
AcDbSymbolTableRecord
100
AcDbLinetypeTableRecord
  2
PHANTOM2
 70
     0
  3
___ _ _ ___ _ _ ___ _ _ ___ _ _ ___ _ _ ___ _ _
 72
    65
 73
     6
 40
1.25
 49
0.625
 74
     0
 49
-0.125
 74
     0
 49
0.125
 74
     0
 49
-0.125
 74
     0
 49
0.125
 74
     0
 49
-0.125
 74
     0
  0
LTYPE
  5
99
330
5
100
AcDbSymbolTableRecord
100
AcDbLinetypeTableRecord
  2
CENTER
 70
     0
  3
____ _ ____ _ ____ _ ____ _ ____ _ ____ _ ____ 
 72
    65
 73
     4
 40
2.0
 49
1.25
 74
     0
 49
-0.25
 74
     0
 49
0.25
 74
     0
 49
-0.25
 74
     0
  0
LTYPE
  5
F2
330
5
100
AcDbSymbolTableRecord
100
AcDbLinetypeTableRecord
  2
ASULTYPE
 70
     0
  3
Solid line
 72
    65
 73
     2
 40
3.0
 49
2.5
 74
     0
 49
0.5
 74
     0
  0
LTYPE
  5
F3
330
5
100
AcDbSymbolTableRecord
100
AcDbLinetypeTableRecord
  2
ASVLTYPE
 70
     0
  3
__ __ __ __ __ __ __ __ __ __ __ __ __ __ __ __ __ __ __ __ __
 72
    65
 73
     2
 40
0.75
 49
0.5
 74
     0
 49
-0.25
 74
     0
  0
LTYPE
  5
15C
330
5
100
AcDbSymbolTableRecord
100
AcDbLinetypeTableRecord
  2
AM_ISO02W050
 70
     0
  3
__ __ __ __ __ __ __ __ __ __ __ __ __ __ __
 72
    65
 73
     2
 40
7.5
 49
6.0
 74
     0
 49
-1.5
 74
     0
  0
LTYPE
  5
15D
330
5
100
AcDbSymbolTableRecord
100
AcDbLinetypeTableRecord
  2
AM_ISO08W050
 70
     0
  3
____ . ____ . ____ . ____ . ____ . ____ . ____
 72
    65
 73
     4
 40
18.0
 49
12.0
 74
     0
 49
-1.5
 74
     0
 49
3.0
 74
     0
 49
-1.5
 74
     0
  0
LTYPE
  5
15E
330
5
100
AcDbSymbolTableRecord
100
AcDbLinetypeTableRecord
  2
AM_ISO09W050
 70
     0
  3
_____ . . _____ . . _____ . . ____ .. ____
 72
    65
 73
     6
 40
22.5
 49
12.0
 74
     0
 49
-1.5
 74
     0
 49
3.0
 74
     0
 49
-1.5
 74
     0
 49
3.0
 74
     0
 49
-1.5
 74
     0
  0
LTYPE
  5
15F
330
5
100
AcDbSymbolTableRecord
100
AcDbLinetypeTableRecord
  2
AM_ISO02W050x2
 70
     0
  3
 _ _ _ _ _ _ _ _ _ _ _ _
 72
    65
 73
     2
 40
3.75
 49
3.0
 74
     0
 49
-0.75
 74
     0
  0
LTYPE
  5
160
330
5
100
AcDbSymbolTableRecord
100
AcDbLinetypeTableRecord
  2
AM_ISO08W050x2
 70
     0
  3
__ . __ . __ . __ . __ . __
 72
    65
 73
     4
 40
9.0
 49
6.0
 74
     0
 49
-0.75
 74
     0
 49
1.5
 74
     0
 49
-0.75
 74
     0
  0
LTYPE
  5
163
330
5
100
AcDbSymbolTableRecord
100
AcDbLinetypeTableRecord
  2
amzigzag
 70
     0
  3
/\/-/\/-/\/-/\/-/\/-/\/
 72
    65
 73
     2
 40
11.0001
 49
0.0001
 74
     4
 75
   135
340
162
 46
0.04
 50
0.0
 44
0.0
 45
0.0
 49
-11.0
 74
     0
  0
LTYPE
  5
164
330
5
100
AcDbSymbolTableRecord
100
AcDbLinetypeTableRecord
  2
HIDDEN2
 70
     0
  3
Hidden (.5x) _ _ _ _ _ _ _ _ _ _ _ _ _ _ _ _ _
 72
    65
 73
     2
 40
0.1875
 49
0.125
 74
     0
 49
-0.0625
 74
     0
  0
LTYPE
  5
165
330
5
100
AcDbSymbolTableRecord
100
AcDbLinetypeTableRecord
  2
CENTER2
 70
     0
  3
Center (.5x) ___ _ ___ _ ___ _ ___ _ ___ _ ___
 72
    65
 73
     4
 40
1.125
 49
0.75
 74
     0
 49
-0.125
 74
     0
 49
0.125
 74
     0
 49
-0.125
 74
     0
  0
LTYPE
  5
2A6
330
5
100
AcDbSymbolTableRecord
100
AcDbLinetypeTableRecord
  2
Amconstr
 70
     0
  3
_______________________
 72
    65
 73
     2
 40
9999.0
 49
9999.0
 74
     0
 49
0.0
 74
     0
  0
LTYPE
  5
2B1
330
5
100
AcDbSymbolTableRecord
100
AcDbLinetypeTableRecord
  2
Amzigzag2
 70
     0
  3
/\/-/\/-/\/-/\/-/\/-/\/
 72
    65
 73
     2
 40
0.4401
 49
0.0001
 74
     4
 75
   135
340
162
 46
0.0016
 50
0.0
 44
0.0
 45
0.0
 49
-0.4400000000000001
 74
     0
  0
LTYPE
  5
2B2
330
5
100
AcDbSymbolTableRecord
100
AcDbLinetypeTableRecord
  2
AM_DIN_F_W050
 70
     0
  3
__ __ __ __ __ __ __ __ __ __ __ __ __ __ __
 72
    65
 73
     2
 40
6.25
 49
4.75
 74
     0
 49
-1.5
 74
     0
  0
LTYPE
  5
2B3
330
5
100
AcDbSymbolTableRecord
100
AcDbLinetypeTableRecord
  2
AM_DIN_G_W050
 70
     0
  3
____ . ____ . ____ . ____ . ____ . ____ . ____
 72
    65
 73
     4
 40
13.75
 49
9.75
 74
     0
 49
-1.5
 74
     0
 49
1.0
 74
     0
 49
-1.5
 74
     0
  0
LTYPE
  5
2B4
330
5
100
AcDbSymbolTableRecord
100
AcDbLinetypeTableRecord
  2
AM_DIN_K_W050
 70
     0
  3
_____ . . _____ . . _____ . . ____ .. ____
 72
    65
 73
     6
 40
16.25
 49
9.75
 74
     0
 49
-1.5
 74
     0
 49
1.0
 74
     0
 49
-1.5
 74
     0
 49
1.0
 74
     0
 49
-1.5
 74
     0
  0
LTYPE
  5
2B5
330
5
100
AcDbSymbolTableRecord
100
AcDbLinetypeTableRecord
  2
AM_DIN_G_W050x2
 70
     0
  3
__ . __ . __ . __ . __ . __
 72
    65
 73
     4
 40
6.875
 49
4.75
 74
     0
 49
-0.875
 74
     0
 49
0.375
 74
     0
 49
-0.875
 74
     0
  0
LTYPE
  5
2B6
330
5
100
AcDbSymbolTableRecord
100
AcDbLinetypeTableRecord
  2
AM_DIN_F_W050x2
 70
     0
  3
 _ _ _ _ _ _ _ _ _ _ _ _
 72
    65
 73
     2
 40
3.125
 49
2.25
 74
     0
 49
-0.875
 74
     0
  0
LTYPE
  5
2CC
330
5
100
AcDbSymbolTableRecord
100
AcDbLinetypeTableRecord
  2
ACANSTGBM
 70
     0
  3
__ . . __ . .
 72
    65
 73
     6
 40
9.0
 49
4.0
 74
     0
 49
-1.0
 74
     0
 49
1.0
 74
     0
 49
-1.0
 74
     0
 49
1.0
 74
     0
 49
-1.0
 74
     0
  0
LTYPE
  5
2CD
330
5
100
AcDbSymbolTableRecord
100
AcDbLinetypeTableRecord
  2
ACANSTGLM
 70
     0
  3
_ _ _ _ _
 72
    65
 73
     2
 40
3.0
 49
2.0
 74
     0
 49
-1.0
 74
     0
  0
LTYPE
  5
2E5
330
5
100
AcDbSymbolTableRecord
100
AcDbLinetypeTableRecord
  2
ACBSWELD
 70
     0
  3
_ _ _ _ _
 72
    65
 73
     2
 40
2.0
 49
2.0
 74
     0
 49
-1.0
 74
     0
  0
LTYPE
  5
2E8
330
5
100
AcDbSymbolTableRecord
100
AcDbLinetypeTableRecord
  2
ACBSITGB
 70
     0
  3
__ . . __ . .
 72
    65
 73
     6
 40
9.0
 49
4.0
 74
     0
 49
-1.0
 74
     0
 49
1.0
 74
     0
 49
-1.0
 74
     0
 49
1.0
 74
     0
 49
-1.0
 74
     0
  0
LTYPE
  5
2E9
330
5
100
AcDbSymbolTableRecord
100
AcDbLinetypeTableRecord
  2
ACBSITGL
 70
     0
  3
_ _ _ _ _
 72
    65
 73
     2
 40
3.0
 49
2.0
 74
     0
 49
-1.0
 74
     0
  0
LTYPE
  5
300
330
5
100
AcDbSymbolTableRecord
100
AcDbLinetypeTableRecord
  2
ACDINWELD
 70
     0
  3
_ _ _ _ _
 72
    65
 73
     2
 40
2.0
 49
2.0
 74
     0
 49
-1.0
 74
     0
  0
LTYPE
  5
303
330
5
100
AcDbSymbolTableRecord
100
AcDbLinetypeTableRecord
  2
ACDINTGB
 70
     0
  3
__ . . __ . .
 72
    65
 73
     6
 40
9.0
 49
4.0
 74
     0
 49
-1.0
 74
     0
 49
1.0
 74
     0
 49
-1.0
 74
     0
 49
1.0
 74
     0
 49
-1.0
 74
     0
  0
LTYPE
  5
304
330
5
100
AcDbSymbolTableRecord
100
AcDbLinetypeTableRecord
  2
ACDINTGL
 70
     0
  3
_ _ _ _ _
 72
    65
 73
     2
 40
3.0
 49
2.0
 74
     0
 49
-1.0
 74
     0
  0
LTYPE
  5
31A
330
5
100
AcDbSymbolTableRecord
100
AcDbLinetypeTableRecord
  2
ACISOWELD
 70
     0
  3
_ _ _ _ _
 72
    65
 73
     2
 40
2.0
 49
2.0
 74
     0
 49
-1.0
 74
     0
  0
LTYPE
  5
31D
330
5
100
AcDbSymbolTableRecord
100
AcDbLinetypeTableRecord
  2
ACISOTGB
 70
     0
  3
__ . . __ . .
 72
    65
 73
     6
 40
9.0
 49
4.0
 74
     0
 49
-1.0
 74
     0
 49
1.0
 74
     0
 49
-1.0
 74
     0
 49
1.0
 74
     0
 49
-1.0
 74
     0
  0
LTYPE
  5
31E
330
5
100
AcDbSymbolTableRecord
100
AcDbLinetypeTableRecord
  2
ACISOTGL
 70
     0
  3
_ _ _ _ _
 72
    65
 73
     2
 40
3.0
 49
2.0
 74
     0
 49
-1.0
 74
     0
  0
LTYPE
  5
337
330
5
100
AcDbSymbolTableRecord
100
AcDbLinetypeTableRecord
  2
ACJISTGB
 70
     0
  3
__ . . __ . .
 72
    65
 73
     6
 40
9.0
 49
4.0
 74
     0
 49
-1.0
 74
     0
 49
1.0
 74
     0
 49
-1.0
 74
     0
 49
1.0
 74
     0
 49
-1.0
 74
     0
  0
LTYPE
  5
338
330
5
100
AcDbSymbolTableRecord
100
AcDbLinetypeTableRecord
  2
ACJISTGL
 70
     0
  3
_ _ _ _ _
 72
    65
 73
     2
 40
3.0
 49
2.0
 74
     0
 49
-1.0
 74
     0
  0
LTYPE
  5
3A6
330
5
100
AcDbSymbolTableRecord
100
AcDbLinetypeTableRecord
  2
ACANSTGB
 70
     0
  3
__ . . __ . .
 72
    65
 73
     6
 40
0.35433070866
 49
0.15748031496
 74
     0
 49
-0.03937007874
 74
     0
 49
0.03937007874
 74
     0
 49
-0.03937007874
 74
     0
 49
0.03937007874
 74
     0
 49
-0.03937007874
 74
     0
  0
LTYPE
  5
3A7
330
5
100
AcDbSymbolTableRecord
100
AcDbLinetypeTableRecord
  2
ACANSTGL
 70
     0
  3
_ _ _ _ _
 72
    65
 73
     2
 40
0.11811023622
 49
0.07874015748
 74
     0
 49
-0.03937007874
 74
     0
  0
ENDTAB
  0
TABLE
  2
LAYER
  5
2
102
{ACAD_XDICTIONARY
360
44C
102
}
330
0
100
AcDbSymbolTable
 70
     7
  0
LAYER
  5
F
330
2
100
AcDbSymbolTableRecord
100
AcDbLayerTableRecord
  2
0
 70
     0
 62
     7
  6
CONTINUOUS
370
    -3
390
14F
  0
LAYER
  5
76F
330
2
100
AcDbSymbolTableRecord
100
AcDbLayerTableRecord
  2
10
 70
     0
 62
     7
  6
CONTINUOUS
370
    -3
390
14F
  0
LAYER
  5
770
330
2
100
AcDbSymbolTableRecord
100
AcDbLayerTableRecord
  2
L-REV
 70
     0
 62
     4
  6
CONTINUOUS
370
    -3
390
14F
  0
LAYER
  5
771
330
2
100
AcDbSymbolTableRecord
100
AcDbLayerTableRecord
  2
L1
 70
     0
 62
     7
  6
CONTINUOUS
370
    -3
390
14F
  0
LAYER
  5
772
330
2
100
AcDbSymbolTableRecord
100
AcDbLayerTableRecord
  2
Defpoints
 70
     0
 62
     7
  6
CONTINUOUS
290
     0
370
    -3
390
14F
  0
LAYER
  5
7F8
330
2
100
AcDbSymbolTableRecord
100
AcDbLayerTableRecord
  2
dm
 70
     0
 62
     7
  6
CONTINUOUS
370
     9
390
14F
  0
LAYER
  5
A19
330
2
100
AcDbSymbolTableRecord
100
AcDbLayerTableRecord
  2
4
 70
     0
 62
     7
  6
CONTINUOUS
370
    -3
390
14F
  0
ENDTAB
  0
TABLE
  2
STYLE
  5
3
330
0
100
AcDbSymbolTable
 70
    18
  0
STYLE
  5
10
330
3
100
AcDbSymbolTableRecord
100
AcDbTextStyleTableRecord
  2
STANDARD
 70
     0
 40
0.0
 41
1.0
 50
0.0
 71
     0
 42
0.12
  3
ROMANS.SHX
  4

  0
STYLE
  5
11D
330
3
100
AcDbSymbolTableRecord
100
AcDbTextStyleTableRecord
  2
ADESK1
 70
     0
 40
0.0
 41
1.0
 50
0.0
 71
     0
 42
0.12
  3
romans.shx
  4

  0
STYLE
  5
162
330
3
100
AcDbSymbolTableRecord
100
AcDbTextStyleTableRecord
  2

 70
     1
 40
0.0
 41
1.0
 50
0.0
 71
     0
 42
0.12
  3
ltypeshp.shx
  4

  0
STYLE
  5
2C5
330
3
100
AcDbSymbolTableRecord
100
AcDbTextStyleTableRecord
  2
ACANSTSI
 70
     0
 40
1.0
 41
1.0
 50
0.0
 71
     0
 42
3.5
  3
romans.shx
  4

  0
STYLE
  5
2C8
330
3
100
AcDbSymbolTableRecord
100
AcDbTextStyleTableRecord
  2
ACANSGDT
 70
     0
 40
0.0
 41
1.0
 50
0.0
 71
     0
 42
3.5
  3
amgdt.shx
  4

  0
STYLE
  5
2E0
330
3
100
AcDbSymbolTableRecord
100
AcDbTextStyleTableRecord
  2
ACBSITS
 70
     0
 40
1.0
 41
1.0
 50
0.0
 71
     0
 42
3.5
  3
isocp.shx
  4

  0
STYLE
  5
2E3
330
3
100
AcDbSymbolTableRecord
100
AcDbTextStyleTableRecord
  2
ACBSIGDT
 70
     0
 40
0.0
 41
1.0
 50
0.0
 71
     0
 42
3.5
  3
amgdt.shx
  4

  0
STYLE
  5
2FA
330
3
100
AcDbSymbolTableRecord
100
AcDbTextStyleTableRecord
  2
ACDINTS
 70
     0
 40
1.0
 41
1.0
 50
0.0
 71
     0
 42
3.5
  3
isocp.shx
  4

  0
STYLE
  5
2FE
330
3
100
AcDbSymbolTableRecord
100
AcDbTextStyleTableRecord
  2
ACDINGDT
 70
     0
 40
0.0
 41
1.0
 50
0.0
 71
     0
 42
3.5
  3
amgdt.shx
  4

  0
STYLE
  5
315
330
3
100
AcDbSymbolTableRecord
100
AcDbTextStyleTableRecord
  2
ACISOTS
 70
     0
 40
1.0
 41
1.0
 50
0.0
 71
     0
 42
3.5
  3
isocp.shx
  4

  0
STYLE
  5
318
330
3
100
AcDbSymbolTableRecord
100
AcDbTextStyleTableRecord
  2
ACISOGDT
 70
     0
 40
0.0
 41
1.0
 50
0.0
 71
     0
 42
3.5
  3
amgdt.shx
  4

  0
STYLE
  5
330
330
3
100
AcDbSymbolTableRecord
100
AcDbTextStyleTableRecord
  2
ACJISTS
 70
     0
 40
1.0
 41
1.0
 50
0.0
 71
     0
 42
3.5
  3
isocp.shx
  4
bigfont.shx
  0
STYLE
  5
333
330
3
100
AcDbSymbolTableRecord
100
AcDbTextStyleTableRecord
  2
ACJISGDT
 70
     0
 40
0.0
 41
1.0
 50
0.0
 71
     0
 42
3.5
  3
amgdt.shx
  4

  0
STYLE
  5
39B
330
3
100
AcDbSymbolTableRecord
100
AcDbTextStyleTableRecord
  2
ACANSTS
 70
     0
 40
1.0
 41
1.0
 50
0.0
 71
     0
 42
0.12
  3
romans.shx
  4

  0
STYLE
  5
4CF
330
3
100
AcDbSymbolTableRecord
100
AcDbTextStyleTableRecord
  2
USER1
 70
     0
 40
0.0
 41
1.0
 50
0.0
 71
     0
 42
0.12
  3
TXT.SHX
  4

  0
STYLE
  5
4D0
330
3
100
AcDbSymbolTableRecord
100
AcDbTextStyleTableRecord
  2
USER2
 70
     0
 40
0.0
 41
1.0
 50
0.0
 71
     0
 42
0.12
  3
SIMPLEX.SHX
  4

  0
STYLE
  5
4D1
330
3
100
AcDbSymbolTableRecord
100
AcDbTextStyleTableRecord
  2
USER3
 70
     0
 40
0.0
 41
1.0
 50
0.0
 71
     0
 42
0.12
  3
ITALIC.SHX
  4

  0
STYLE
  5
5AB
330
3
100
AcDbSymbolTableRecord
100
AcDbTextStyleTableRecord
  2
outline drawings
 70
     0
 40
0.0
 41
1.0
 50
0.0
 71
     0
 42
0.12
  3
ARIAL.TTF
  4

1001
ACAD
1000
Arial
1071
       34
  0
ENDTAB
  0
TABLE
  2
VIEW
  5
6
330
0
100
AcDbSymbolTable
 70
     3
  0
VIEW
  5
193
330
6
100
AcDbSymbolTableRecord
100
AcDbViewTableRecord
  2
AMDTVIEW1
 70
     0
 40
11.38251346627189
 10
7.263840830449827
 20
5.691256733135946
 41
14.52768166089965
 11
0.0
 21
0.0
 31
1.0
 12
0.0
 22
0.0
 32
0.0
 42
50.0
 43
0.0
 44
0.0
 50
0.0
 71
     0
281
     0
 72
     0
  0
VIEW
  5
194
330
6
100
AcDbSymbolTableRecord
100
AcDbViewTableRecord
  2
AMDTVIEW2
 70
     0
 40
11.38251346627189
 10
7.263840830449827
 20
5.691256733135946
 41
14.52768166089965
 11
0.0
 21
0.0
 31
1.0
 12
0.0
 22
0.0
 32
0.0
 42
50.0
 43
0.0
 44
0.0
 50
0.0
 71
     0
281
     0
 72
     0
  0
VIEW
  5
195
330
6
100
AcDbSymbolTableRecord
100
AcDbViewTableRecord
  2
AMDTVIEW3
 70
     0
 40
11.38251346627189
 10
7.263840830449827
 20
5.691256733135946
 41
14.52768166089965
 11
0.0
 21
0.0
 31
1.0
 12
0.0
 22
0.0
 32
0.0
 42
50.0
 43
0.0
 44
0.0
 50
0.0
 71
     0
281
     0
 72
     0
  0
ENDTAB
  0
TABLE
  2
UCS
  5
7
330
0
100
AcDbSymbolTable
 70
     0
  0
ENDTAB
  0
TABLE
  2
APPID
  5
9
330
0
100
AcDbSymbolTable
 70
    15
  0
APPID
  5
11
330
9
100
AcDbSymbolTableRecord
100
AcDbRegAppTableRecord
  2
ACAD
 70
     0
  0
APPID
  5
9C
330
9
100
AcDbSymbolTableRecord
100
AcDbRegAppTableRecord
  2
AD_DRAW
 70
     0
  0
APPID
  5
B6
330
9
100
AcDbSymbolTableRecord
100
AcDbRegAppTableRecord
  2
DESIGNERASSEMBLIES
 70
     0
  0
APPID
  5
BD
330
9
100
AcDbSymbolTableRecord
100
AcDbRegAppTableRecord
  2
MCAD_NO_VIS
 70
     0
  0
APPID
  5
F4
330
9
100
AcDbSymbolTableRecord
100
AcDbRegAppTableRecord
  2
ASURF_PCURVE_APPNAME
 70
     0
  0
APPID
  5
168
330
9
100
AcDbSymbolTableRecord
100
AcDbRegAppTableRecord
  2
ACAD_TEMP_GRAPHIC
 70
     0
  0
APPID
  5
172
330
9
100
AcDbSymbolTableRecord
100
AcDbRegAppTableRecord
  2
ACATTRIBSERVICES
 70
     0
  0
APPID
  5
18F
330
9
100
AcDbSymbolTableRecord
100
AcDbRegAppTableRecord
  2
ACADM_DIM_EDIT
 70
     0
  0
APPID
  5
19D
330
9
100
AcDbSymbolTableRecord
100
AcDbRegAppTableRecord
  2
GENIUS_GENDIM_13
 70
     0
  0
APPID
  5
19E
330
9
100
AcDbSymbolTableRecord
100
AcDbRegAppTableRecord
  2
GENIUS_GENDTOL_13
 70
     0
  0
APPID
  5
19F
330
9
100
AcDbSymbolTableRecord
100
AcDbRegAppTableRecord
  2
GENIUS_GE3DTOL_13
 70
     0
  0
APPID
  5
2A2
330
9
100
AcDbSymbolTableRecord
100
AcDbRegAppTableRecord
  2
AMG_3D2D_5.0
 70
     0
  0
APPID
  5
3EE
330
9
100
AcDbSymbolTableRecord
100
AcDbRegAppTableRecord
  2
AMDT_DM_ADJ
 70
     0
  0
APPID
  5
4D3
330
9
100
AcDbSymbolTableRecord
100
AcDbRegAppTableRecord
  2
ACAD_DSTYLE_DIMTEXT_FILL
 70
     0
  0
APPID
  5
773
330
9
100
AcDbSymbolTableRecord
100
AcDbRegAppTableRecord
  2
ACAD_PSEXT
 70
     0
  0
ENDTAB
  0
TABLE
  2
DIMSTYLE
  5
A
330
0
100
AcDbSymbolTable
 70
    36
100
AcDbDimStyleTable
 71
     6
340
606
340
1D
340
2D3
340
322
340
308
340
2ED
  0
DIMSTYLE
105
1D
330
A
100
AcDbSymbolTableRecord
100
AcDbDimStyleTableRecord
  2
STANDARD
 70
     0
340
10
  0
DIMSTYLE
105
2D3
330
A
100
AcDbSymbolTableRecord
100
AcDbDimStyleTableRecord
  2
AM_ANSI
 70
     0
  4
mm
 41
0.1
 42
0.05
 43
0.5
 44
0.1
 47
0.1
 48
0.1
 78
     7
 79
     2
140
0.12
141
0.0
146
0.71
147
0.06
176
   256
177
   256
178
     2
274
     4
284
     7
340
10
371
    -1
372
    -1
  0
DIMSTYLE
105
2D4
330
A
100
AcDbSymbolTableRecord
100
AcDbDimStyleTableRecord
  2
AM_ANSI$3
 70
     0
  4
mm
 41
0.1
 42
0.05
 43
0.5
 44
0.1
 47
0.1
 48
0.1
 78
     7
 79
     2
140
0.12
141
0.0
146
0.71
147
0.06
176
   256
177
   256
178
     2
274
     4
284
     7
288
     1
289
     0
340
10
371
    -1
372
    -1
  0
DIMSTYLE
105
2D5
330
A
100
AcDbSymbolTableRecord
100
AcDbDimStyleTableRecord
  2
AM_ANSI$4
 70
     0
  4
mm
 41
0.1
 42
0.05
 43
0.5
 44
0.1
 47
0.1
 48
0.1
 78
     7
 79
     2
140
0.12
141
0.0
146
0.71
147
0.06
176
   256
177
   256
178
     2
274
     4
284
     7
288
     1
289
     0
340
10
371
    -1
372
    -1
  0
DIMSTYLE
105
2D6
330
A
100
AcDbSymbolTableRecord
100
AcDbDimStyleTableRecord
  2
AM_ANSI$7
 70
     0
  4
mm
 41
0.1
 42
0.05
 43
0.5
 44
0.1
 47
0.1
 48
0.1
 78
     7
 79
     2
140
0.24
141
0.0
146
0.71
147
0.06
176
   256
177
   256
178
     2
274
     4
284
     7
340
10
371
    -1
372
    -1
  0
DIMSTYLE
105
2D7
330
A
100
AcDbSymbolTableRecord
100
AcDbDimStyleTableRecord
  2
AM_ANSI$SF
 70
     0
  4
mm
 41
0.1
 42
0.05
 43
0.5
 44
0.1
 47
0.1
 48
0.1
 75
     1
 76
     1
 78
     7
 79
     2
140
0.12
141
0.0
146
0.71
147
0.06
176
   256
177
   256
178
     2
274
     4
284
     7
340
10
371
    -1
372
    -1
  0
DIMSTYLE
105
2D8
330
A
100
AcDbSymbolTableRecord
100
AcDbDimStyleTableRecord
  2
AM_ANSI$SH
 70
     0
  4
mm
 41
0.1
 42
0.05
 43
0.5
 44
0.1
 47
0.1
 48
0.1
 75
     1
 76
     1
 78
     7
 79
     2
140
0.12
141
0.0
146
0.71
147
0.06
173
     1
176
   256
177
   256
178
     2
274
     4
284
     7
340
10
371
    -1
372
    -1
  0
DIMSTYLE
105
2ED
330
A
100
AcDbSymbolTableRecord
100
AcDbDimStyleTableRecord
  2
AM_BSI
 70
     0
  4
mm
 41
0.1574803149606299
 42
0.05
 43
0.5
 44
0.1
 47
0.1
 48
0.1
 73
     0
 74
     0
 77
     1
 78
     7
 79
     2
140
0.12
141
0.0
146
0.71
147
0.06
172
     1
176
   256
177
   256
178
     2
274
     4
283
     0
284
     7
340
10
371
    -1
372
    -1
  0
DIMSTYLE
105
2EE
330
A
100
AcDbSymbolTableRecord
100
AcDbDimStyleTableRecord
  2
AM_BSI$3
 70
     0
  4
mm
 41
0.1574803149606299
 42
0.05
 43
0.5
 44
0.1
 47
0.1
 48
0.1
 73
     0
 77
     1
 78
     7
 79
     2
140
0.12
141
0.0
146
0.71
147
0.06
176
   256
177
   256
178
     2
274
     4
283
     0
284
     7
288
     1
289
     0
340
10
371
    -1
372
    -1
  0
DIMSTYLE
105
2EF
330
A
100
AcDbSymbolTableRecord
100
AcDbDimStyleTableRecord
  2
AM_BSI$4
 70
     0
  4
mm
 41
0.1574803149606299
 42
0.05
 43
0.5
 44
0.1
 47
0.1
 48
0.1
 73
     0
 77
     1
 78
     7
 79
     2
140
0.12
141
0.0
146
0.71
147
0.06
176
   256
177
   256
178
     2
274
     4
283
     0
284
     7
288
     1
289
     0
340
10
371
    -1
372
    -1
  0
DIMSTYLE
105
2F0
330
A
100
AcDbSymbolTableRecord
100
AcDbDimStyleTableRecord
  2
AM_BSI$6
 70
     0
  4
mm
 41
0.1574803149606299
 42
0.05
 43
0.5
 44
0.1
 47
0.1
 48
0.1
 73
     0
 74
     0
 78
     7
 79
     2
140
0.12
141
0.0
146
0.71
147
0.06
172
     1
176
   256
177
   256
178
     2
274
     4
283
     0
284
     7
340
10
371
    -1
372
    -1
  0
DIMSTYLE
105
2F1
330
A
100
AcDbSymbolTableRecord
100
AcDbDimStyleTableRecord
  2
AM_BSI$7
 70
     0
  4
mm
 41
0.1
 42
0.05
 43
0.5
 44
0.1
 47
0.1
 48
0.1
 73
     0
 74
     0
 77
     1
 78
     7
 79
     2
140
0.24
141
0.0
146
0.71
147
0.06
172
     1
176
   256
177
   256
178
     2
274
     4
283
     0
284
     7
340
10
371
    -1
372
    -1
  0
DIMSTYLE
105
2F2
330
A
100
AcDbSymbolTableRecord
100
AcDbDimStyleTableRecord
  2
AM_BSI$SF
 70
     0
  4
mm
 41
0.1574803149606299
 42
0.05
 43
0.5
 44
0.1
 47
0.1
 48
0.1
 73
     0
 74
     0
 75
     1
 76
     1
 77
     1
 78
     7
 79
     2
140
0.12
141
0.0
146
0.71
147
0.06
172
     1
176
   256
177
   256
178
     2
274
     4
283
     0
284
     7
340
10
371
    -1
372
    -1
  0
DIMSTYLE
105
2F3
330
A
100
AcDbSymbolTableRecord
100
AcDbDimStyleTableRecord
  2
AM_BSI$SH
 70
     0
  4
mm
 41
0.1574803149606299
 42
0.05
 43
0.5
 44
0.1
 47
0.1
 48
0.1
 73
     0
 74
     0
 75
     1
 76
     1
 77
     1
 78
     7
 79
     2
140
0.12
141
0.0
144
2.0
146
0.71
147
0.06
172
     1
173
     1
176
   256
177
   256
178
     2
274
     4
283
     0
284
     7
340
10
371
    -1
372
    -1
  0
DIMSTYLE
105
308
330
A
100
AcDbSymbolTableRecord
100
AcDbDimStyleTableRecord
  2
AM_DIN
 70
     0
  4
mm
 41
0.1
 42
0.05
 43
0.5
 44
0.1
 47
0.1
 48
0.1
 73
     0
 74
     0
 77
     1
 78
     7
 79
     2
140
0.12
141
0.0
146
0.71
147
0.06
172
     1
176
   256
177
   256
178
     2
274
     4
283
     0
284
     7
340
10
371
    -1
372
    -1
  0
DIMSTYLE
105
309
330
A
100
AcDbSymbolTableRecord
100
AcDbDimStyleTableRecord
  2
AM_DIN$3
 70
     0
  4
mm
 41
0.1
 42
0.05
 43
0.5
 44
0.1
 47
0.1
 48
0.1
 73
     0
 77
     1
 78
     7
 79
     2
140
0.12
141
0.0
146
0.71
147
0.06
176
   256
177
   256
178
     2
274
     4
283
     0
284
     7
288
     1
289
     0
340
10
371
    -1
372
    -1
  0
DIMSTYLE
105
30A
330
A
100
AcDbSymbolTableRecord
100
AcDbDimStyleTableRecord
  2
AM_DIN$4
 70
     0
  4
mm
 41
0.1
 42
0.05
 43
0.5
 44
0.1
 47
0.1
 48
0.1
 73
     0
 77
     1
 78
     7
 79
     2
140
0.12
141
0.0
146
0.71
147
0.06
176
   256
177
   256
178
     2
274
     4
283
     0
284
     7
288
     1
289
     0
340
10
371
    -1
372
    -1
  0
DIMSTYLE
105
30B
330
A
100
AcDbSymbolTableRecord
100
AcDbDimStyleTableRecord
  2
AM_DIN$6
 70
     0
  4
mm
 41
0.1
 42
0.05
 43
0.5
 44
0.1
 47
0.1
 48
0.1
 73
     0
 74
     0
 78
     7
 79
     2
140
0.12
141
0.0
146
0.71
147
0.06
172
     1
176
   256
177
   256
178
     2
274
     4
283
     0
284
     7
340
10
371
    -1
372
    -1
  0
DIMSTYLE
105
30C
330
A
100
AcDbSymbolTableRecord
100
AcDbDimStyleTableRecord
  2
AM_DIN$7
 70
     0
  4
mm
 41
0.1
 42
0.05
 43
0.5
 44
0.1
 47
0.1
 48
0.1
 73
     0
 74
     0
 77
     1
 78
     7
 79
     2
140
0.24
141
0.0
146
0.71
147
0.06
172
     1
176
   256
177
   256
178
     2
274
     4
283
     0
284
     7
340
10
371
    -1
372
    -1
  0
DIMSTYLE
105
30D
330
A
100
AcDbSymbolTableRecord
100
AcDbDimStyleTableRecord
  2
AM_DIN$SF
 70
     0
  4
mm
 41
0.1
 42
0.05
 43
0.5
 44
0.1
 47
0.1
 48
0.1
 73
     0
 74
     0
 75
     1
 76
     1
 77
     1
 78
     7
 79
     2
140
0.12
141
0.0
146
0.71
147
0.06
172
     1
176
   256
177
   256
178
     2
274
     4
283
     0
284
     7
340
10
371
    -1
372
    -1
  0
DIMSTYLE
105
30E
330
A
100
AcDbSymbolTableRecord
100
AcDbDimStyleTableRecord
  2
AM_DIN$SH
 70
     0
  4
mm
 41
0.1
 42
0.05
 43
0.5
 44
0.1
 47
0.1
 48
0.1
 73
     0
 74
     0
 75
     1
 76
     1
 77
     1
 78
     7
 79
     2
140
0.12
141
0.0
144
2.0
146
0.71
147
0.06
172
     1
173
     1
176
   256
177
   256
178
     2
274
     4
283
     0
284
     7
340
10
371
    -1
372
    -1
  0
DIMSTYLE
105
322
330
A
100
AcDbSymbolTableRecord
100
AcDbDimStyleTableRecord
  2
AM_ISO
 70
     0
  4
mm
 41
0.1
 42
0.05
 43
0.5
 44
0.1
 47
0.1
 48
0.1
 73
     0
 74
     0
 77
     1
 78
     7
 79
     2
140
0.12
141
0.0
146
0.71
147
0.06
172
     1
176
   256
177
   256
178
     2
274
     4
283
     0
284
     7
340
10
371
    -1
372
    -1
  0
DIMSTYLE
105
323
330
A
100
AcDbSymbolTableRecord
100
AcDbDimStyleTableRecord
  2
AM_ISO$3
 70
     0
  4
mm
 41
0.1
 42
0.05
 43
0.5
 44
0.1
 47
0.1
 48
0.1
 73
     0
 77
     1
 78
     7
 79
     2
140
0.12
141
0.0
146
0.71
147
0.06
176
   256
177
   256
178
     2
274
     4
283
     0
284
     7
288
     1
289
     0
340
10
371
    -1
372
    -1
  0
DIMSTYLE
105
324
330
A
100
AcDbSymbolTableRecord
100
AcDbDimStyleTableRecord
  2
AM_ISO$4
 70
     0
  4
mm
 41
0.1
 42
0.05
 43
0.5
 44
0.1
 47
0.1
 48
0.1
 73
     0
 77
     1
 78
     7
 79
     2
140
0.12
141
0.0
146
0.71
147
0.06
176
   256
177
   256
178
     2
274
     4
283
     0
284
     7
288
     1
289
     0
340
10
371
    -1
372
    -1
  0
DIMSTYLE
105
325
330
A
100
AcDbSymbolTableRecord
100
AcDbDimStyleTableRecord
  2
AM_ISO$6
 70
     0
  4
mm
 41
0.1
 42
0.05
 43
0.5
 44
0.1
 47
0.1
 48
0.1
 73
     0
 74
     0
 78
     7
 79
     2
140
0.12
141
0.0
146
0.71
147
0.06
172
     1
176
   256
177
   256
178
     2
274
     4
283
     0
284
     7
340
10
371
    -1
372
    -1
  0
DIMSTYLE
105
326
330
A
100
AcDbSymbolTableRecord
100
AcDbDimStyleTableRecord
  2
AM_ISO$7
 70
     0
  4
mm
 41
0.1
 42
0.05
 43
0.5
 44
0.1
 47
0.1
 48
0.1
 73
     0
 74
     0
 77
     1
 78
     7
 79
     2
140
0.24
141
0.0
146
0.71
147
0.06
172
     1
176
   256
177
   256
178
     2
274
     4
283
     0
284
     7
340
10
371
    -1
372
    -1
  0
DIMSTYLE
105
327
330
A
100
AcDbSymbolTableRecord
100
AcDbDimStyleTableRecord
  2
AM_ISO$SF
 70
     0
  4
mm
 41
0.1
 42
0.05
 43
0.5
 44
0.1
 47
0.1
 48
0.1
 73
     0
 74
     0
 75
     1
 76
     1
 77
     1
 78
     7
 79
     2
140
0.12
141
0.0
146
0.71
147
0.06
172
     1
176
   256
177
   256
178
     2
274
     4
283
     0
284
     7
340
10
371
    -1
372
    -1
  0
DIMSTYLE
105
328
330
A
100
AcDbSymbolTableRecord
100
AcDbDimStyleTableRecord
  2
AM_ISO$SH
 70
     0
  4
mm
 41
0.1
 42
0.05
 43
0.5
 44
0.1
 47
0.1
 48
0.1
 73
     0
 74
     0
 75
     1
 76
     1
 77
     1
 78
     7
 79
     2
140
0.12
141
0.0
144
2.0
146
0.71
147
0.06
172
     1
173
     1
176
   256
177
   256
178
     2
274
     4
283
     0
284
     7
340
10
371
    -1
372
    -1
  0
DIMSTYLE
105
33C
330
A
100
AcDbSymbolTableRecord
100
AcDbDimStyleTableRecord
  2
AM_JIS
 70
     0
  4
mm
 41
0.1
 42
0.05
 43
0.5
 44
0.1
 47
0.1
 48
0.1
 73
     0
 74
     0
 77
     3
 78
     7
 79
     2
140
0.12
141
0.0
146
0.71
147
0.06
172
     1
176
   256
177
   256
178
     2
274
     4
283
     0
284
     7
340
10
371
    -1
372
    -1
  0
DIMSTYLE
105
33D
330
A
100
AcDbSymbolTableRecord
100
AcDbDimStyleTableRecord
  2
AM_JIS$3
 70
     0
  4
mm
 41
0.1
 42
0.05
 43
0.5
 44
0.1
 47
0.1
 48
0.1
 73
     0
 77
     3
 78
     7
 79
     2
140
0.12
141
0.0
146
0.71
147
0.06
176
   256
177
   256
178
     2
274
     4
283
     0
284
     7
288
     1
289
     0
340
10
371
    -1
372
    -1
  0
DIMSTYLE
105
33E
330
A
100
AcDbSymbolTableRecord
100
AcDbDimStyleTableRecord
  2
AM_JIS$4
 70
     0
  4
mm
 41
0.1
 42
0.05
 43
0.5
 44
0.1
 47
0.1
 48
0.1
 73
     0
 77
     3
 78
     7
 79
     2
140
0.12
141
0.0
146
0.71
147
0.06
176
   256
177
   256
178
     2
274
     4
283
     0
284
     7
288
     1
289
     0
340
10
371
    -1
372
    -1
  0
DIMSTYLE
105
33F
330
A
100
AcDbSymbolTableRecord
100
AcDbDimStyleTableRecord
  2
AM_JIS$6
 70
     0
  4
mm
 41
0.1
 42
0.05
 43
0.5
 44
0.1
 47
0.1
 48
0.1
 73
     0
 74
     0
 78
     7
 79
     2
140
0.12
141
0.0
146
0.71
147
0.06
172
     1
176
   256
177
   256
178
     2
274
     4
283
     0
284
     7
340
10
371
    -1
372
    -1
  0
DIMSTYLE
105
340
330
A
100
AcDbSymbolTableRecord
100
AcDbDimStyleTableRecord
  2
AM_JIS$7
 70
     0
  4
mm
 41
0.1
 42
0.05
 43
0.5
 44
0.1
 47
0.1
 48
0.1
 73
     0
 74
     0
 77
     3
 78
     7
 79
     2
140
0.24
141
0.0
146
0.71
147
0.06
172
     1
176
   256
177
   256
178
     2
274
     4
283
     0
284
     7
340
10
371
    -1
372
    -1
  0
DIMSTYLE
105
341
330
A
100
AcDbSymbolTableRecord
100
AcDbDimStyleTableRecord
  2
AM_JIS$SF
 70
     0
  4
mm
 41
0.1
 42
0.05
 43
0.5
 44
0.1
 47
0.1
 48
0.1
 73
     0
 74
     0
 75
     1
 76
     1
 77
     3
 78
     7
 79
     2
140
0.12
141
0.0
146
0.71
147
0.06
172
     1
176
   256
177
   256
178
     2
274
     4
283
     0
284
     7
340
10
371
    -1
372
    -1
  0
DIMSTYLE
105
342
330
A
100
AcDbSymbolTableRecord
100
AcDbDimStyleTableRecord
  2
AM_JIS$SH
 70
     0
  4
mm
 41
0.1
 42
0.05
 43
0.5
 44
0.1
 47
0.1
 48
0.1
 73
     0
 74
     0
 75
     1
 76
     1
 77
     3
 78
     7
 79
     2
140
0.12
141
0.0
144
2.0
146
0.71
147
0.06
172
     1
173
     1
176
   256
177
   256
178
     2
274
     4
283
     0
284
     7
340
10
371
    -1
372
    -1
  0
DIMSTYLE
105
606
102
{ACAD_REACTORS
330
BBC
330
BCC
330
BDB
330
BEA
330
BFA
330
C09
102
}
330
A
100
AcDbSymbolTableRecord
100
AcDbDimStyleTableRecord
  2
Outline Drawings
 70
     0
  3
 mm\X
  4
 in
 41
0.125
143
0.0393700787
144
25.4
170
     1
271
     0
272
     0
340
5AB
  0
ENDTAB
  0
TABLE
  2
BLOCK_RECORD
  5
1
330
0
100
AcDbSymbolTable
 70
    18
  0
BLOCK_RECORD
  5
19
102
{ACAD_XDICTIONARY
360
11F
102
}
330
1
100
AcDbSymbolTableRecord
100
AcDbBlockTableRecord
  2
*MODEL_SPACE
340
152
  0
BLOCK_RECORD
  5
16
330
1
100
AcDbSymbolTableRecord
100
AcDbBlockTableRecord
  2
*PAPER_SPACE
340
153
  0
BLOCK_RECORD
  5
2A7
330
1
100
AcDbSymbolTableRecord
100
AcDbBlockTableRecord
  2
_Open30
340
0
  0
BLOCK_RECORD
  5
2AD
330
1
100
AcDbSymbolTableRecord
100
AcDbBlockTableRecord
  2
GENAXEH
340
0
  0
BLOCK_RECORD
  5
644
330
1
100
AcDbSymbolTableRecord
100
AcDbBlockTableRecord
  2
A$C708B5813
340
0
102
{BLKREFS
331
689
331
69C
102
}
  0
BLOCK_RECORD
  5
687
330
1
100
AcDbSymbolTableRecord
100
AcDbBlockTableRecord
  2
A$C2BF30918
340
0
102
{BLKREFS
331
6C5
102
}
  0
BLOCK_RECORD
  5
68B
330
1
100
AcDbSymbolTableRecord
100
AcDbBlockTableRecord
  2
A$C0832103F
340
0
  0
BLOCK_RECORD
  5
706
330
1
100
AcDbSymbolTableRecord
100
AcDbBlockTableRecord
  2
A$C5A7A0274
340
0
102
{BLKREFS
331
76A
102
}
  0
BLOCK_RECORD
  5
745
330
1
100
AcDbSymbolTableRecord
100
AcDbBlockTableRecord
  2
A$C497D351A
340
0
  0
BLOCK_RECORD
  5
774
102
{ACAD_XDICTIONARY
360
7EC
102
}
330
1
100
AcDbSymbolTableRecord
100
AcDbBlockTableRecord
  2
STD50006-8X11
340
0
1001
ACAD
1000
DesignCenter Data
1002
{
1070
     1
1070
     1
1002
}
  0
BLOCK_RECORD
  5
9EB
330
1
100
AcDbSymbolTableRecord
100
AcDbBlockTableRecord
  2
k
340
0
310
28000000200000002000000001000800000000000004000000000000000000000000000000000000000000004000000080000000FF000000002000004020000080200000FF200000004000004040000080400000FF400000006000004060000080600000FF600000008000004080000080800000FF80000000A0000040A000
310
0080A00000FFA0000000C0000040C0000080C00000FFC0000000FF000040FF000080FF0000FFFF0000000020004000200080002000FF002000002020004020200080202000FF202000004020004040200080402000FF402000006020004060200080602000FF602000008020004080200080802000FF80200000A0200040A0
310
200080A02000FFA0200000C0200040C0200080C02000FFC0200000FF200040FF200080FF2000FFFF2000000040004000400080004000FF004000002040004020400080204000FF204000004040004040400080404000FF404000006040004060400080604000FF604000008040004080400080804000FF80400000A0400040
310
A0400080A04000FFA0400000C0400040C0400080C04000FFC0400000FF400040FF400080FF4000FFFF4000000060004000600080006000FF006000002060004020600080206000FF206000004060004040600080406000FF406000006060004060600080606000FF606000008060004080600080806000FF80600000A06000
310
40A0600080A06000FFA0600000C0600040C0600080C06000FFC0600000FF600040FF600080FF6000FFFF6000000080004000800080008000FF008000002080004020800080208000FF208000004080004040800080408000FF408000006080004060800080608000FF608000008080004080800080808000FF80800000A080
310
0040A0800080A08000FFA0800000C0800040C0800080C08000FFC0800000FF800040FF800080FF8000FFFF80000000A0004000A0008000A000FF00A0000020A0004020A0008020A000FF20A0000040A0004040A0008040A000FF40A0000060A0004060A0008060A000FF60A0000080A0004080A0008080A000FF80A00000A0
310
A00040A0A00080A0A000FFA0A00000C0A00040C0A00080C0A000FFC0A00000FFA00040FFA00080FFA000FFFFA0000000C0004000C0008000C000FF00C0000020C0004020C0008020C000FF20C0000040C0004040C0008040C000FF40C0000060C0004060C0008060C000FF60C0000080C0004080C0008080C000FF80C00000
310
A0C00040A0C00080A0C000FFA0C00000C0C00040C0C00080C0C000FFC0C00000FFC00040FFC00080FFC000FFFFC0000000FF004000FF008000FF00FF00FF000020FF004020FF008020FF00FF20FF000040FF004040FF008040FF00FF40FF000060FF004060FF008060FF00FF60FF000080FF004080FF008080FF00FF80FF00
310
00A0FF0040A0FF0080A0FF00FFA0FF0000C0FF0040C0FF0080C0FF00FFC0FF0000FFFF0040FFFF0080FFFF00FFFFFF0000000000000000000000000000000000000000000000000000000000000000000000000000000000000000000000000000000000000000000000000000000000000000000000000000000000000000
310
00000000000000000000000000000000000000000000000000000000000000000000000000000000000000000000000000000000000000000000000000000000000000000000000000000000000000000000000000000000000000000000000000000000000000000000000000000000000000000000000000000000000000
310
000000000000000000000000000000000000000000000000000000000000000000000000000000000000000000000000000000000000000000000000000000000000000000000000000000000000000000000000007F7F7F7F7F7F7F7F7F7F7F7F7F7F7F7F7F7F7F7F7F7F7F7F7F7F00000000007F7F7F7F7F7F7F7F7F7F7F
310
7F7F7F7F7F7F7F7F7F7F7F7F7F7F7F7F7F0000007F7F7F0000000000000000000000000000000000000000000000007F7F7F00007F007F0000000000000000000000000000000000000000000000007F007F00007F007F0000000000000000000000000000000000000000000000007F007F00007F007F0000000000000000
310
000000000000000000000000000000007F007F0000007F7F7F7F7F0000000000000000000000000000000000000000007F007F0000007F7F00007F0000000000000000000000000000000000000000007F007F000000007F7F7F7F0000000000000000000000000000000000000000007F007F000000000000000000000000
310
00000000000000000000000000000000007F007F00000000000000000000000000000000000000000000000000000000007F007F00000000000000000000000000000000000000000000000000000000007F7F7F0000000000000000000000000000000000000000007F7F7F7F7F7F7F7F7F7F000000000000000000000000
310
000000000000000000007F7F7F7F7F7F7F7F7F000000000000000000000000000000000000000000000000000000000000000000000000000000000000000000000000000000000000000000000000000000000000000000000000000000000000000000000000000000000000000000000000000000000000000000000000
310
00000000000000000000000000000000000000000000000000000000000000000000000000000000000000000000000000000000000000000000000000000000000000000000000000000000000000000000000000000000000000000000000000000000000000000000000000000000000000000000000000000000000000
310
0000000000000000000000000000000000000000000000000000000000000000000000000000000000000000000000000000000000000000
102
{BLKREFS
331
A24
102
}
  0
BLOCK_RECORD
  5
A02
102
{ACAD_XDICTIONARY
360
A03
102
}
330
1
100
AcDbSymbolTableRecord
100
AcDbBlockTableRecord
  2
A$C09817B0B
340
0
102
{BLKREFS
331
A23
102
}
  0
BLOCK_RECORD
  5
BBD
330
1
100
AcDbSymbolTableRecord
100
AcDbBlockTableRecord
  2
*D12
340
0
  0
BLOCK_RECORD
  5
BCD
330
1
100
AcDbSymbolTableRecord
100
AcDbBlockTableRecord
  2
*D13
340
0
  0
BLOCK_RECORD
  5
BDC
330
1
100
AcDbSymbolTableRecord
100
AcDbBlockTableRecord
  2
*D14
340
0
  0
BLOCK_RECORD
  5
BEB
330
1
100
AcDbSymbolTableRecord
100
AcDbBlockTableRecord
  2
*D15
340
0
  0
BLOCK_RECORD
  5
BFB
330
1
100
AcDbSymbolTableRecord
100
AcDbBlockTableRecord
  2
*D16
340
0
  0
BLOCK_RECORD
  5
C0A
330
1
100
AcDbSymbolTableRecord
100
AcDbBlockTableRecord
  2
*D17
340
0
  0
ENDTAB
  0
ENDSEC
  0
SECTION
  2
BLOCKS
  0
BLOCK
  5
1A
330
19
100
AcDbEntity
  8
0
100
AcDbBlockBegin
  2
*MODEL_SPACE
 70
     0
 10
0.0
 20
0.0
 30
0.0
  3
*MODEL_SPACE
  1

  0
ENDBLK
  5
1B
330
19
100
AcDbEntity
  8
0
100
AcDbBlockEnd
  0
BLOCK
  5
17
330
16
100
AcDbEntity
 67
     1
  8
0
100
AcDbBlockBegin
  2
*PAPER_SPACE
 70
     0
 10
0.0
 20
0.0
 30
0.0
  3
*PAPER_SPACE
  1

  0
ENDBLK
  5
18
330
16
100
AcDbEntity
 67
     1
  8
0
100
AcDbBlockEnd
  0
BLOCK
  5
2AB
330
2A7
100
AcDbEntity
  8
0
100
AcDbBlockBegin
  2
_Open30
 70
     0
 10
0.0
 20
0.0
 30
0.0
  3
_Open30
  1

  0
LINE
  5
2A8
330
2A7
100
AcDbEntity
  8
0
  6
ByBlock
 62
     0
370
    -2
100
AcDbLine
 10
-1.0
 20
0.26794919
 30
0.0
 11
0.0
 21
0.0
 31
0.0
  0
LINE
  5
2A9
330
2A7
100
AcDbEntity
  8
0
  6
ByBlock
 62
     0
370
    -2
100
AcDbLine
 10
0.0
 20
0.0
 30
0.0
 11
-1.0
 21
-0.26794919
 31
0.0
  0
LINE
  5
2AA
330
2A7
100
AcDbEntity
  8
0
  6
ByBlock
 62
     0
370
    -2
100
AcDbLine
 10
0.0
 20
0.0
 30
0.0
 11
-1.0
 21
0.0
 31
0.0
  0
ENDBLK
  5
2AC
330
2A7
100
AcDbEntity
  8
0
100
AcDbBlockEnd
  0
BLOCK
  5
2AF
330
2AD
100
AcDbEntity
  8
0
100
AcDbBlockBegin
  2
GENAXEH
 70
     0
 10
0.0
 20
0.0
 30
0.0
  3
GENAXEH
  1

  0
LINE
  5
2AE
330
2AD
100
AcDbEntity
  8
0
100
AcDbLine
 10
-1.0
 20
0.0
 30
0.0
 11
1.0
 21
0.0
 31
0.0
  0
ENDBLK
  5
2B0
330
2AD
100
AcDbEntity
  8
0
100
AcDbBlockEnd
  0
BLOCK
  5
645
330
644
100
AcDbEntity
  8
0
100
AcDbBlockBegin
  2
A$C708B5813
 70
     0
 10
0.0
 20
0.0
 30
0.0
  3
A$C708B5813
  1

  0
LINE
  5
646
330
644
100
AcDbEntity
  8
10
100
AcDbLine
 10
0.2399999692803618
 20
0.2640315084226485
 30
0.0
 11
0.2436013672279564
 21
0.2661107764971518
 31
0.0
  0
CIRCLE
  5
647
330
644
100
AcDbEntity
  8
10
100
AcDbCircle
 10
0.2399999692803618
 20
0.2640315084226485
 30
0.0
 40
0.0041585361490064
  0
ARC
  5
648
330
644
100
AcDbEntity
  8
10
100
AcDbCircle
 10
0.2399999692803512
 20
0.2871255191902322
 30
0.0
 40
0.01
100
AcDbArc
 50
240.0
 51
300.0000000000008
  0
ARC
  5
649
330
644
100
AcDbEntity
  8
10
100
AcDbCircle
 10
0.2399999692803618
 20
0.529612632249878
 30
0.0
 40
0.01
100
AcDbArc
 50
60.00000000000078
 51
119.9999999999996
  0
ARC
  5
64A
330
644
100
AcDbEntity
  8
10
100
AcDbCircle
 10
0.2399999692511088
 20
0.3949160812035983
 30
0.0
 40
0.01
100
AcDbArc
 50
239.9999999674645
 51
300.0000000465846
  0
ARC
  5
64B
330
644
100
AcDbEntity
  8
10
100
AcDbCircle
 10
0.2393667475655192
 20
0.4214564796978131
 30
0.0
 40
0.01
100
AcDbArc
 50
60.0
 51
119.9999999818938
  0
LINE
  5
64C
330
644
100
AcDbEntity
  8
10
100
AcDbLine
 10
0.0249999692803549
 20
0.3997088216822098
 30
0.0
 11
0.2349999692803522
 21
0.2784652651523878
 31
0.0
  0
LINE
  5
64D
330
644
100
AcDbEntity
  8
10
100
AcDbLine
 10
-0.0000000307196402
 20
0.3737280595686747
 30
0.0
 11
-0.0000000307196366
 21
0.1312409465090325
 31
0.0
  0
LINE
  5
64E
330
644
100
AcDbEntity
  8
10
100
AcDbLine
 10
0.0149999692803604
 20
0.3823883136065191
 30
0.0
 11
0.2249999692803613
 21
0.2611447570767011
 31
0.0
  0
LINE
  5
64F
330
644
100
AcDbEntity
  8
10
100
AcDbLine
 10
0.2399999692803618
 20
0.2640315084226485
 30
0.0
 11
0.2399999692803618
 21
0.2598729722736421
 31
0.0
  0
LINE
  5
650
330
644
100
AcDbEntity
  8
10
100
AcDbLine
 10
0.2363985713327672
 20
0.2661107764971531
 30
0.0
 11
0.2399999692803618
 21
0.2640315084226485
 31
0.0
  0
LINE
  5
651
330
644
100
AcDbEntity
  8
10
100
AcDbLine
 10
0.2299999692803709
 20
0.1139204384333419
 30
0.0
 11
0.1356921705519909
 21
0.168369071415853
 31
0.0
  0
LINE
  5
652
330
644
100
AcDbEntity
  8
10
100
AcDbLine
 10
0.2299999692803674
 20
0.1370144492009269
 30
0.0
 11
0.1366506043749744
 21
0.1909097301577374
 31
0.0
  0
LINE
  5
653
330
644
100
AcDbEntity
  8
10
100
AcDbLine
 10
0.2299999692803709
 20
0.113920438433345
 30
0.0
 11
0.2299999692803674
 21
0.0099973899792092
 31
0.0
  0
LINE
  5
654
330
644
100
AcDbEntity
  8
10
100
AcDbLine
 10
0.2299999692803638
 20
0.2524845030388567
 30
0.0
 11
0.2299999692803674
 21
0.1370144492009304
 31
0.0
  0
ARC
  5
655
330
644
100
AcDbEntity
  8
10
100
AcDbCircle
 10
0.1266506043749622
 20
0.1726410827766105
 30
0.0
 40
0.01
100
AcDbArc
 50
239.9999999999996
 51
334.709932108123
  0
LINE
  5
656
330
644
100
AcDbEntity
  8
10
100
AcDbLine
 10
0.1366506043749744
 20
0.1909097301577414
 30
0.0
 11
0.1366506043749673
 21
0.1985892220820524
 31
0.0
  0
LINE
  5
657
330
644
100
AcDbEntity
  8
10
100
AcDbLine
 10
0.1216506043749632
 20
0.1639808287387661
 30
0.0
 11
0.0983493341857553
 21
0.177433823354967
 31
0.0
  0
ARC
  5
658
330
644
100
AcDbEntity
  8
10
100
AcDbCircle
 10
0.1266506043749658
 20
0.1985892220820524
 30
0.0
 40
0.01
100
AcDbArc
 50
0.0
 51
59.99999999999917
  0
LINE
  5
659
330
644
100
AcDbEntity
  8
10
100
AcDbLine
 10
0.1316506043749648
 20
0.2072494761198969
 30
0.0
 11
0.1083493341857533
 21
0.2207024707360996
 31
0.0
  0
ARC
  5
65A
330
644
100
AcDbEntity
  8
10
100
AcDbCircle
 10
0.1033493341857543
 20
0.1860940773928115
 30
0.0
 40
0.01
100
AcDbArc
 50
180.0
 51
240.0
  0
LINE
  5
65B
330
644
100
AcDbEntity
  8
10
100
AcDbLine
 10
0.0933493341857528
 20
0.1860940773928115
 30
0.0
 11
0.0933493341857528
 21
0.2120422166982552
 31
0.0
  0
ARC
  5
65C
330
644
100
AcDbEntity
  8
10
100
AcDbCircle
 10
0.1033493341857543
 20
0.2120422166982552
 30
0.0
 40
0.01
100
AcDbArc
 50
60.0
 51
180.0
  0
ARC
  5
65D
330
644
100
AcDbEntity
  8
10
100
AcDbCircle
 10
0.009999969280365
 20
0.1312409465090325
 30
0.0
 40
0.01
100
AcDbArc
 50
180.0000000000007
 51
240.0000000000003
  0
LINE
  5
65E
330
644
100
AcDbEntity
  8
10
100
AcDbLine
 10
0.0049999692803659
 20
0.1225806924711881
 30
0.0
 11
0.2149999692803668
 21
0.0013371359413648
 31
0.0
  0
ARC
  5
65F
330
644
100
AcDbEntity
  8
10
100
AcDbCircle
 10
0.2199999692803658
 20
0.0099973899792092
 30
0.0
 40
0.01
100
AcDbArc
 50
240.0
 51
0.0
  0
ARC
  5
660
330
644
100
AcDbEntity
  8
10
100
AcDbCircle
 10
0.2199999692803622
 20
0.2524845030388567
 30
0.0
 40
0.01
100
AcDbArc
 50
0.0000000000007124
 51
60.00000000000078
  0
LINE
  5
661
330
644
100
AcDbEntity
  8
10
100
AcDbLine
 10
0.0249999692803549
 20
0.4170293297578988
 30
0.0
 11
0.2349999692803628
 21
0.5382728862877224
 31
0.0
  0
ARC
  5
662
330
644
100
AcDbEntity
  8
10
100
AcDbCircle
 10
0.0299999692803539
 20
0.4083690757200542
 30
0.0
 40
0.01
100
AcDbArc
 50
119.9999999999997
 51
240.0000000000002
  0
LINE
  5
663
330
644
100
AcDbEntity
  8
10
100
AcDbLine
 10
0.2349999692461928
 20
0.3862558271685934
 30
0.0
 11
0.2116986990911549
 21
0.3997088217818918
 31
0.0
  0
LINE
  5
664
330
644
100
AcDbEntity
  8
10
100
AcDbLine
 10
0.2116986990911549
 20
0.4170293298575807
 30
0.0
 11
0.2343667475682558
 21
0.4301167337372376
 31
0.0
  0
ARC
  5
665
330
644
100
AcDbEntity
  8
10
100
AcDbCircle
 10
0.2166986990911539
 20
0.4083690758197364
 30
0.0
 40
0.01
100
AcDbArc
 50
119.9999999999999
 51
240.0
  0
ARC
  5
666
330
644
100
AcDbEntity
  8
10
100
AcDbCircle
 10
0.0099999692803614
 20
0.3737280595686747
 30
0.0
 40
0.01
100
AcDbArc
 50
60.00000000000071
 51
180.0
  0
LINE
  5
667
330
644
100
AcDbEntity
  8
10
100
AcDbLine
 10
0.2449999692803502
 20
0.2784652651523878
 30
0.0
 11
0.4549999692803617
 21
0.399708821682216
 31
0.0
  0
LINE
  5
668
330
644
100
AcDbEntity
  8
10
100
AcDbLine
 10
0.2599999692803685
 20
0.2640315084226534
 30
0.0
 11
0.4499999692803557
 21
0.3737280595686805
 31
0.0
  0
ARC
  5
669
330
644
100
AcDbEntity
  8
10
100
AcDbCircle
 10
0.4599999692803573
 20
0.3564075514929916
 30
0.0
 40
0.02
100
AcDbArc
 50
0.0000000000006997
 51
119.9999999999999
  0
LINE
  5
66A
330
644
100
AcDbEntity
  8
10
100
AcDbLine
 10
0.3853226110081884
 20
0.1920490020623578
 30
0.0
 11
0.4799999692803604
 21
0.2467110003469632
 31
0.0
  0
LINE
  5
66B
330
644
100
AcDbEntity
  8
10
100
AcDbLine
 10
0.3860173827363553
 20
0.2155441394742277
 30
0.0
 11
0.4799999692803567
 21
0.269805011114542
 31
0.0
  0
ARC
  5
66C
330
644
100
AcDbEntity
  8
10
100
AcDbCircle
 10
0.3766506043749799
 20
0.2120422166982596
 30
0.0
 40
0.01
100
AcDbArc
 50
20.49907611913283
 51
120.0000000000061
  0
LINE
  5
66D
330
644
100
AcDbEntity
  8
10
100
AcDbLine
 10
0.3853226110081849
 20
0.192049002062356
 30
0.0
 11
0.3853226110081813
 21
0.1857245431213443
 31
0.0
  0
LINE
  5
66E
330
644
100
AcDbEntity
  8
10
100
AcDbLine
 10
0.4799999692803604
 20
0.2467110003469597
 30
0.0
 11
0.4799999692803639
 21
0.1370144492009322
 31
0.0
  0
LINE
  5
66F
330
644
100
AcDbEntity
  8
10
100
AcDbLine
 10
0.4799999692803567
 20
0.3564075514929921
 30
0.0
 11
0.4799999692803567
 21
0.2698050111145451
 31
0.0
  0
ARC
  5
670
330
644
100
AcDbEntity
  8
10
100
AcDbCircle
 10
0.3533493341857579
 20
0.1722355030579732
 30
0.0
 40
0.01
100
AcDbArc
 50
180.0
 51
301.5450923819967
  0
LINE
  5
671
330
644
100
AcDbEntity
  8
10
100
AcDbLine
 10
0.3805543054044094
 20
0.1772022562366846
 30
0.0
 11
0.358581028581991
 21
0.1637132161733139
 31
0.0
  0
LINE
  5
672
330
644
100
AcDbEntity
  8
10
100
AcDbLine
 10
0.3433493341857599
 20
0.1793627247739491
 30
0.0
 11
0.3433493341857563
 21
0.1722355030579732
 31
0.0
  0
ARC
  5
673
330
644
100
AcDbEntity
  8
10
100
AcDbCircle
 10
0.3753226110081798
 20
0.1857245431213443
 30
0.0
 40
0.01
100
AcDbArc
 50
301.5450923819923
 51
0.0
  0
LINE
  5
674
330
644
100
AcDbEntity
  8
10
100
AcDbLine
 10
0.3483493341857553
 20
0.2072494761198902
 30
0.0
 11
0.3716506043749774
 21
0.2207024707361036
 31
0.0
  0
ARC
  5
675
330
644
100
AcDbEntity
  8
10
100
AcDbCircle
 10
0.3533493341857579
 20
0.1985892220820467
 30
0.0
 40
0.01
100
AcDbArc
 50
120.0000000000091
 51
180.0
  0
LINE
  5
676
330
644
100
AcDbEntity
  8
10
100
AcDbLine
 10
0.3433493341857599
 20
0.1793627247739509
 30
0.0
 11
0.3433493341857563
 21
0.1985892220820467
 31
0.0
  0
ARC
  5
677
330
644
100
AcDbEntity
  8
10
100
AcDbCircle
 10
0.2699999692803701
 20
0.2467110003469646
 30
0.0
 40
0.02
100
AcDbArc
 50
120.0000000000001
 51
180.0000000000027
  0
LINE
  5
678
330
644
100
AcDbEntity
  8
10
100
AcDbLine
 10
0.2499999692803705
 20
0.2467110003469637
 30
0.0
 11
0.2499999692803705
 21
0.0273178980548985
 31
0.0
  0
ARC
  5
679
330
644
100
AcDbEntity
  8
10
100
AcDbCircle
 10
0.2699999692803701
 20
0.0273178980548989
 30
0.0
 40
0.02
100
AcDbArc
 50
180.0000000000015
 51
300.0000000000004
  0
LINE
  5
67A
330
644
100
AcDbEntity
  8
10
100
AcDbLine
 10
0.2799999692803716
 20
0.0099973899792101
 30
0.0
 11
0.4699999692803658
 21
0.1196939411252429
 31
0.0
  0
ARC
  5
67B
330
644
100
AcDbEntity
  8
10
100
AcDbCircle
 10
0.4599999692803644
 20
0.1370144492009317
 30
0.0
 40
0.02
100
AcDbArc
 50
300.0000000000004
 51
0.0000000000017175
  0
ARC
  5
67C
330
644
100
AcDbEntity
  8
10
100
AcDbCircle
 10
0.2699999692803594
 20
0.2467110003469637
 30
0.0
 40
0.02
100
AcDbArc
 50
120.0000000000008
 51
180.0000000000007
  0
ARC
  5
67D
330
644
100
AcDbEntity
  8
10
100
AcDbCircle
 10
0.4499999692803627
 20
0.4083690757200606
 30
0.0
 40
0.01
100
AcDbArc
 50
300.0000000000008
 51
60.00000000000074
  0
LINE
  5
67E
330
644
100
AcDbEntity
  8
10
100
AcDbLine
 10
0.3599999691803148
 20
0.4718776053886781
 30
0.0
 11
0.4549999692803617
 21
0.417029329757905
 31
0.0
  0
LINE
  5
67F
330
644
100
AcDbEntity
  8
10
100
AcDbLine
 10
0.2449999692803608
 20
0.5382728862877224
 30
0.0
 11
0.3399999691803188
 21
0.4834246107724695
 31
0.0
  0
LINE
  5
680
330
644
100
AcDbEntity
  8
10
100
AcDbLine
 10
0.2660173827513717
 20
0.4176167338147875
 30
0.0
 11
0.3599999691803148
 21
0.4718776053886781
 31
0.0
  0
LINE
  5
681
330
644
100
AcDbEntity
  8
10
100
AcDbLine
 10
0.2460173826459275
 20
0.429163739137699
 30
0.0
 11
0.3399999691803188
 21
0.4834246107724695
 31
0.0
  0
LINE
  5
682
330
644
100
AcDbEntity
  8
10
100
AcDbLine
 10
0.2460173826459311
 20
0.4291637391376977
 30
0.0
 11
0.2443667475655182
 21
0.4301167337356575
 31
0.0
  0
LINE
  5
683
330
644
100
AcDbEntity
  8
10
100
AcDbLine
 10
0.267668017831781
 20
0.4166637392168293
 30
0.0
 11
0.2660173827513788
 21
0.417616733814787
 31
0.0
  0
LINE
  5
684
330
644
100
AcDbEntity
  8
10
100
AcDbLine
 10
0.2449999692581493
 20
0.3862558271698191
 30
0.0
 11
0.2676680178317312
 21
0.3993432311411684
 31
0.0
  0
ARC
  5
685
330
644
100
AcDbEntity
  8
10
100
AcDbCircle
 10
0.2626680178317322
 20
0.408003485179013
 30
0.0
 40
0.01
100
AcDbArc
 50
299.9999999999999
 51
59.99999999968121
  0
ENDBLK
  5
686
330
644
100
AcDbEntity
  8
0
100
AcDbBlockEnd
  0
BLOCK
  5
688
330
687
100
AcDbEntity
  8
0
100
AcDbBlockBegin
  2
A$C2BF30918
 70
     0
 10
0.0
 20
0.0
 30
0.0
  3
A$C2BF30918
  1

  0
INSERT
  5
689
330
687
100
AcDbEntity
  8
10
100
AcDbBlockReference
  2
A$C708B5813
 10
0.0000000098500248
 20
-0.0001119937962062
 30
0.0
 41
0.75
 42
0.75
 43
0.75
  0
ENDBLK
  5
68A
330
687
100
AcDbEntity
  8
0
100
AcDbBlockEnd
  0
BLOCK
  5
68C
330
68B
100
AcDbEntity
  8
0
100
AcDbBlockBegin
  2
A$C0832103F
 70
     0
 10
0.0
 20
0.0
 30
0.0
  3
A$C0832103F
  1

  0
MTEXT
  5
68D
330
68B
100
AcDbEntity
  8
10
 62
     7
100
AcDbMText
 10
2.082241661529446
 20
-3.025881151812108
 30
0.9200000000000001
 40
0.16
 41
3.80968
 71
     1
 72
     5
  1
CONTROL CONCEPTS CORP.
 73
     1
 44
1.0
1001
ACAD
1000
MTEXTBEGIN
1070
    73
1070
     1
1070
    44
1040
1.0
1070
    74
1070
     0
1000
MTEXTEND
  0
MTEXT
  5
68E
330
68B
100
AcDbEntity
  8
10
100
AcDbMText
 10
5.499092001902988
 20
4.334063748274236
 30
0.9200000000000001
 40
0.100000008
 41
2.4400001952
 71
     2
 72
     5
  1
Description
  7
ACANSTS
 73
     1
 44
1.0
1001
ACAD
1000
MTEXTBEGIN
1070
    73
1070
     1
1070
    44
1040
1.0
1070
    74
1070
     0
1000
MTEXTEND
  0
MTEXT
  5
68F
330
68B
100
AcDbEntity
  8
10
100
AcDbMText
 10
6.530968288450296
 20
4.060492297817092
 30
0.9200000000000001
 40
0.100000008
 41
0.0
 71
     5
 72
     5
  1
PART DESCRIPTION (MOLD NUMBER)
  7
ACANSTS
 73
     1
 44
1.0
1001
ACAD
1000
MTEXTBEGIN
1070
    73
1070
     1
1070
    44
1040
1.0
1070
    74
1070
     0
1000
MTEXTEND
  0
LINE
  5
690
330
68B
100
AcDbEntity
  8
10
100
AcDbLine
 10
-0.9663256969107603
 20
4.803825690617096
 30
0.9200000000000001
 11
9.641325680136002
 21
4.803825690617093
 31
0.9200000000000001
  0
LINE
  5
691
330
68B
100
AcDbEntity
  8
10
100
AcDbLine
 10
3.420610896764576
 20
4.803825690617093
 30
0.9200000000000001
 11
9.641325680136008
 21
4.803825690617093
 31
0.9200000000000001
  0
LINE
  5
692
330
68B
100
AcDbEntity
  8
10
100
AcDbLine
 10
3.420610896764576
 20
4.591444721245663
 30
0.9200000000000001
 11
9.641325680136008
 21
4.591444721245663
 31
0.9200000000000001
  0
LINE
  5
693
330
68B
100
AcDbEntity
  8
10
100
AcDbLine
 10
9.641325680136008
 20
3.954301813131381
 30
0.9200000000000001
 11
3.420610896764576
 21
3.954301813131381
 31
0.9200000000000001
  0
LINE
  5
694
330
68B
100
AcDbEntity
  8
10
100
AcDbLine
 10
3.420610896764576
 20
4.166682782502805
 30
0.9200000000000001
 11
9.641325680136008
 21
4.166682782502805
 31
0.9200000000000001
  0
LINE
  5
695
330
68B
100
AcDbEntity
  8
10
100
AcDbLine
 10
3.420610896764576
 20
4.379063751874236
 30
0.9200000000000001
 11
9.641325680136008
 21
4.379063751874236
 31
0.9200000000000001
  0
LINE
  5
696
330
68B
100
AcDbEntity
  8
10
100
AcDbLine
 10
-0.9663256969107811
 20
-3.30382568642958
 30
0.9200000000000001
 11
9.641325680136002
 21
-3.303825686429587
 31
0.9200000000000001
  0
LINE
  5
697
330
68B
100
AcDbEntity
  8
10
370
    50
100
AcDbLine
 10
-0.9663256969107807
 20
-2.903825686429587
 30
0.9200000000000001
 11
9.641325680136002
 21
-2.903825686429587
 31
0.9200000000000001
  0
LINE
  5
698
330
68B
100
AcDbEntity
  8
10
100
AcDbLine
 10
-0.9663256969107756
 20
4.803825690617101
 30
0.9200000000000001
 11
-0.9663256969107811
 21
-3.303825686429579
 31
0.9200000000000001
  0
CIRCLE
  5
699
330
68B
100
AcDbEntity
  8
10
 62
     1
100
AcDbCircle
 10
-0.9663256969107839
 20
-3.30382568642958
 30
0.9200000000000001
 40
0.1111040097775731
  0
LINE
  5
69A
330
68B
100
AcDbEntity
  8
10
100
AcDbLine
 10
-1.162500008387439
 20
-3.30382568642958
 30
0.9200000000000001
 11
-1.162500008387442
 21
-3.499999997906243
 31
0.9200000000000001
  0
LINE
  5
69B
330
68B
100
AcDbEntity
  8
10
100
AcDbLine
 10
-1.162500008387442
 20
-3.499999997906243
 30
0.9200000000000001
 11
-0.9663256969107811
 21
-3.499999997906243
 31
0.9200000000000001
  0
INSERT
  5
69C
330
68B
100
AcDbEntity
  8
10
100
AcDbBlockReference
  2
A$C708B5813
 10
1.668649617811994
 20
-3.267998077370169
 30
0.9200000000000001
 41
0.6000000000000001
 42
0.6000000000000001
 43
0.6
  0
LINE
  5
69D
330
68B
100
AcDbEntity
  8
10
100
AcDbLine
 10
-1.162500008387427
 20
5.000000002093758
 30
0.9200000000000001
 11
-0.9663256969107663
 21
5.000000002093758
 31
0.9200000000000001
  0
LINE
  5
69E
330
68B
100
AcDbEntity
  8
10
100
AcDbLine
 10
-1.162500008387427
 20
5.000000002093758
 30
0.9200000000000001
 11
-1.162500008387425
 21
4.803825690617093
 31
0.9200000000000001
  0
MTEXT
  5
69F
330
68B
100
AcDbEntity
  8
10
100
AcDbMText
 10
3.796325212536004
 20
4.708825683017093
 30
0.9200000000000001
 40
0.100000008
 41
0.0
 71
     4
 72
     5
  1
 XXXXX
  7
ACANSTS
 73
     1
 44
1.0
1001
ACAD
1000
MTEXTBEGIN
1070
    73
1070
     1
1070
    44
1040
1.0
1070
    74
1070
     0
1000
MTEXTEND
  0
MTEXT
  5
6A0
330
68B
100
AcDbEntity
  8
10
100
AcDbMText
 10
3.796325212536004
 20
4.496444713645662
 30
0.9200000000000001
 40
0.100000008
 41
2.4400001952
 71
     4
 72
     5
  1
 XXXXX
  7
ACANSTS
 73
     1
 44
1.0
1001
ACAD
1000
MTEXTBEGIN
1070
    73
1070
     1
1070
    44
1040
1.0
1070
    74
1070
     0
1000
MTEXTEND
  0
LINE
  5
6A1
330
68B
100
AcDbEntity
  8
10
100
AcDbLine
 10
3.420610896764576
 20
3.954301813131381
 30
0.9200000000000001
 11
3.420610896764576
 21
4.803825690617093
 31
0.9200000000000001
  0
MTEXT
  5
6A2
330
68B
100
AcDbEntity
  8
10
100
AcDbMText
 10
3.593468053450291
 20
4.758825687017094
 30
0.9200000000000001
 40
0.100000008
 41
0.2857407636
 71
     2
 72
     5
  1
H02
  7
ACANSTS
 73
     1
 44
1.0
1001
ACAD
1000
MTEXTBEGIN
1070
    73
1070
     1
1070
    44
1040
1.0
1070
    74
1070
     0
1000
MTEXTEND
  0
MTEXT
  5
6A3
330
68B
100
AcDbEntity
  8
10
100
AcDbMText
 10
3.593468053450291
 20
4.546444717645663
 30
0.9200000000000001
 40
0.100000008
 41
0.2857407636
 71
     2
 72
     5
  1
H01
  7
ACANSTS
 73
     1
 44
1.0
1001
ACAD
1000
MTEXTBEGIN
1070
    73
1070
     1
1070
    44
1040
1.0
1070
    74
1070
     0
1000
MTEXTEND
  0
MTEXT
  5
6A4
330
68B
100
AcDbEntity
  8
10
100
AcDbMText
 10
3.593468053450291
 20
4.334063748274236
 30
0.9200000000000001
 40
0.100000008
 41
0.2857143085714286
 71
     2
 72
     5
  1
Item
  7
ACANSTS
 73
     1
 44
1.0
1001
ACAD
1000
MTEXTBEGIN
1070
    73
1070
     1
1070
    44
1040
1.0
1070
    74
1070
     0
1000
MTEXTEND
  0
LINE
  5
6A5
330
68B
100
AcDbEntity
  8
10
100
AcDbLine
 10
3.766325210136006
 20
4.591444721245663
 30
0.9200000000000001
 11
3.766325210136006
 21
4.379063751874236
 31
0.9200000000000001
  0
LINE
  5
6A6
330
68B
100
AcDbEntity
  8
10
100
AcDbLine
 10
3.766325210136006
 20
4.379063751874236
 30
0.9200000000000001
 11
3.766325210136006
 21
4.166682782502805
 31
0.9200000000000001
  0
LINE
  5
6A7
330
68B
100
AcDbEntity
  8
10
100
AcDbLine
 10
3.766325210136006
 20
4.803825690617093
 30
0.9200000000000001
 11
3.766325210136006
 21
4.591444721245663
 31
0.9200000000000001
  0
LINE
  5
6A8
330
68B
100
AcDbEntity
  8
10
100
AcDbLine
 10
9.641325680136002
 20
4.803825690617093
 30
0.9200000000000001
 11
9.641325680136002
 21
-3.303825686429587
 31
0.9200000000000001
  0
LINE
  5
6A9
330
68B
100
AcDbEntity
  8
L-REV
100
AcDbLine
 10
9.641325680136008
 20
4.803825690617093
 30
0.9200000000000001
 11
9.641325680136002
 21
-3.303825686429587
 31
0.9200000000000001
  0
LINE
  5
6AA
330
68B
100
AcDbEntity
  8
L-REV
100
AcDbLine
 10
10.041325680136
 20
-3.303825686429587
 30
0.9200000000000001
 11
10.041325680136
 21
4.803825690617096
 31
0.9200000000000001
  0
LINE
  5
6AB
330
68B
100
AcDbEntity
  8
L-REV
100
AcDbLine
 10
10.441325680136
 20
-3.303825686429587
 30
0.9200000000000001
 11
10.44132568013601
 21
4.803825690617096
 31
0.9200000000000001
  0
LINE
  5
6AC
330
68B
100
AcDbEntity
  8
L-REV
100
AcDbLine
 10
12.44132568013599
 20
-3.303825686429587
 30
0.9200000000000001
 11
12.441325680136
 21
4.803825690617096
 31
0.9200000000000001
  0
LINE
  5
6AD
330
68B
100
AcDbEntity
  8
L-REV
100
AcDbLine
 10
12.84132568013599
 20
-3.303825686429587
 30
0.9200000000000001
 11
12.841325680136
 21
4.803825690617096
 31
0.9200000000000001
  0
LINE
  5
6AE
330
68B
100
AcDbEntity
  8
L-REV
100
AcDbLine
 10
9.641325680136006
 20
-0.9961743093829069
 30
0.9200000000000001
 11
12.84132568013601
 21
-0.9961743093829069
 31
0.9200000000000001
  0
LINE
  5
6AF
330
68B
100
AcDbEntity
  8
L-REV
100
AcDbLine
 10
9.641325680136006
 20
-2.996174309382903
 30
0.9200000000000001
 11
12.841325680136
 21
-2.996174309382908
 31
0.9200000000000001
  0
LINE
  5
6B0
330
68B
100
AcDbEntity
  8
L-REV
100
AcDbLine
 10
9.641325680136006
 20
-2.796174309382904
 30
0.9200000000000001
 11
12.841325680136
 21
-2.796174309382908
 31
0.9200000000000001
  0
LINE
  5
6B1
330
68B
100
AcDbEntity
  8
L-REV
100
AcDbLine
 10
9.641325680136006
 20
-2.596174309382904
 30
0.9200000000000001
 11
12.841325680136
 21
-2.596174309382909
 31
0.9200000000000001
  0
LINE
  5
6B2
330
68B
100
AcDbEntity
  8
L-REV
100
AcDbLine
 10
9.641325680136006
 20
-2.196174309382904
 30
0.9200000000000001
 11
12.841325680136
 21
-2.196174309382909
 31
0.9200000000000001
  0
LINE
  5
6B3
330
68B
100
AcDbEntity
  8
L-REV
100
AcDbLine
 10
9.641325680136006
 20
-1.796174309382904
 30
0.9200000000000001
 11
12.841325680136
 21
-1.796174309382909
 31
0.9200000000000001
  0
LINE
  5
6B4
330
68B
100
AcDbEntity
  8
L-REV
100
AcDbLine
 10
9.641325680136006
 20
-1.396174309382906
 30
0.9200000000000001
 11
12.841325680136
 21
-1.396174309382906
 31
0.9200000000000001
  0
LINE
  5
6B5
330
68B
100
AcDbEntity
  8
L-REV
100
AcDbLine
 10
9.641325680136006
 20
-2.396174309382904
 30
0.9200000000000001
 11
12.841325680136
 21
-2.396174309382908
 31
0.9200000000000001
  0
LINE
  5
6B6
330
68B
100
AcDbEntity
  8
L-REV
100
AcDbLine
 10
9.641325680136006
 20
-1.996174309382904
 30
0.9200000000000001
 11
12.841325680136
 21
-1.996174309382908
 31
0.9200000000000001
  0
LINE
  5
6B7
330
68B
100
AcDbEntity
  8
L-REV
100
AcDbLine
 10
9.641325680136006
 20
-1.596174309382904
 30
0.9200000000000001
 11
12.841325680136
 21
-1.596174309382909
 31
0.9200000000000001
  0
LINE
  5
6B8
330
68B
100
AcDbEntity
  8
L-REV
100
AcDbLine
 10
9.641325680136006
 20
-1.196174309382906
 30
0.9200000000000001
 11
12.841325680136
 21
-1.196174309382906
 31
0.9200000000000001
  0
LINE
  5
6B9
330
68B
100
AcDbEntity
  8
L-REV
100
AcDbLine
 10
12.84132568013599
 20
-3.303825686429587
 30
0.9200000000000001
 11
9.641325680136002
 21
-3.303825686429587
 31
0.9200000000000001
  0
MTEXT
  5
6BA
330
68B
100
AcDbEntity
  8
10
 62
     1
100
AcDbMText
 10
7.337136490274709
 20
-3.174516684749863
 30
0.9200000000000001
 40
0.1
 41
1.86752
 71
     1
 72
     5
  1
1.0:1.0
 73
     1
 44
1.0
1001
ACAD
1000
MTEXTBEGIN
1070
    73
1070
     1
1070
    44
1040
1.0
1070
    74
1070
     0
1000
MTEXTEND
  0
MTEXT
  5
6BB
330
68B
100
AcDbEntity
  8
10
 62
     7
100
AcDbMText
 10
7.292380721294657
 20
-2.607654143428681
 30
0.9200000000000001
 40
0.072
 41
3.6
 71
     1
 72
     5
  1
\LDRAWN BY:
 73
     1
 44
1.0
1001
ACAD
1000
MTEXTBEGIN
1070
    73
1070
     1
1070
    44
1040
1.0
1070
    74
1070
     0
1000
MTEXTEND
  0
MTEXT
  5
6BC
330
68B
100
AcDbEntity
  8
10
 62
     1
100
AcDbMText
 10
7.337136490274709
 20
-2.774516684749864
 30
0.9200000000000001
 40
0.1
 41
1.86752
 71
     1
 72
     5
  1
INITIALS
 73
     1
 44
1.0
1001
ACAD
1000
MTEXTBEGIN
1070
    73
1070
     1
1070
    44
1040
1.0
1070
    74
1070
     0
1000
MTEXTEND
  0
LINE
  5
6BD
330
68B
100
AcDbEntity
  8
10
370
    50
100
AcDbLine
 10
5.641325680136003
 20
-1.703825686429588
 30
0.9200000000000001
 11
9.641325680136002
 21
-1.703825686429588
 31
0.9200000000000001
  0
LINE
  5
6BE
330
68B
100
AcDbEntity
  8
10
100
AcDbLine
 10
7.316325680136004
 20
-2.478825686429588
 30
0.9200000000000001
 11
9.566325680136003
 21
-2.478825686429588
 31
0.9200000000000001
  0
LINE
  5
6BF
330
68B
100
AcDbEntity
  8
10
100
AcDbLine
 10
7.316325680136004
 20
-1.728825686429589
 30
0.9200000000000001
 11
9.566325680136003
 21
-1.728825686429589
 31
0.9200000000000001
  0
LINE
  5
6C0
330
68B
100
AcDbEntity
  8
10
370
    50
100
AcDbLine
 10
7.241325680136003
 20
-2.503825686429586
 30
0.9200000000000001
 11
9.641325680136002
 21
-2.503825686429586
 31
0.9200000000000001
  0
LINE
  5
6C1
330
68B
100
AcDbEntity
  8
10
370
    50
100
AcDbLine
 10
5.641325680136003
 20
-1.703825686429588
 30
0.9200000000000001
 11
5.641325680136003
 21
-2.903825686429587
 31
0.9200000000000001
  0
MTEXT
  5
6C2
330
68B
100
AcDbEntity
  8
10
 62
     7
100
AcDbMText
 10
6.477356989457232
 20
-1.777553007134571
 30
0.9200000000000001
 40
0.072
 41
0.0
 71
     2
 72
     5
  1
{\LTOLERANCE:\P\P}  .XX +/- 0.02\P .XXX +/- 0.005\P.XXXX +/- 0.001\PANGLES +/- 0.5 DEG\P\PUNLESS OTHERWISE \PSPECIFIED
 73
     1
 44
1.0
1001
ACAD
1000
MTEXTBEGIN
1070
    73
1070
     1
1070
    44
1040
1.0
1070
    74
1070
     0
1000
MTEXTEND
  0
LINE
  5
6C3
330
68B
100
AcDbEntity
  8
10
370
    50
100
AcDbLine
 10
7.241325680136003
 20
-1.703825686429588
 30
0.9200000000000001
 11
7.241325680136003
 21
-3.303825686429588
 31
0.9200000000000001
  0
MTEXT
  5
6C4
330
68B
100
AcDbEntity
  8
10
 62
     7
100
AcDbMText
 10
5.582369377705323
 20
-2.927099139905942
 30
0.9200000000000001
 40
0.08
 41
5.440000000000001
 71
     1
 72
     5
  1
P.O. BOX 496\P664 STATE STREET\PBEAVER, PA 15009
 73
     1
 44
1.0
1001
ACAD
1000
MTEXTBEGIN
1070
    73
1070
     1
1070
    44
1040
1.0
1070
    74
1070
     0
1000
MTEXTEND
  0
INSERT
  5
6C5
330
68B
100
AcDbEntity
  8
10
100
AcDbBlockReference
  2
A$C2BF30918
 10
6.864341287565771
 20
-3.267908482333203
 30
0.9200000000000001
 41
0.8
 42
0.8
 43
0.8000000000000001
  0
MTEXT
  5
6C6
330
68B
100
AcDbEntity
  8
10
 62
     7
100
AcDbMText
 10
7.279886554832522
 20
-2.978228759978683
 30
0.9200000000000001
 40
0.072
 41
3.6
 71
     1
 72
     5
  1
\LSCALE:
 73
     1
 44
1.0
1001
ACAD
1000
MTEXTBEGIN
1070
    73
1070
     1
1070
    44
1040
1.0
1070
    74
1070
     0
1000
MTEXTEND
  0
ARC
  5
6C7
330
68B
100
AcDbEntity
  8
10
100
AcDbCircle
 10
7.316325680136004
 20
-1.778825686429588
 30
0.9200000000000001
 40
0.05
100
AcDbArc
 50
90.0
 51
180.0
  0
LINE
  5
6C8
330
68B
100
AcDbEntity
  8
10
100
AcDbLine
 10
7.266325680136003
 20
-1.778825686429588
 30
0.9200000000000001
 11
7.266325680136003
 21
-2.428825686429588
 31
0.9200000000000001
  0
ARC
  5
6C9
330
68B
100
AcDbEntity
  8
10
100
AcDbCircle
 10
7.316325680136004
 20
-2.428825686429588
 30
0.9200000000000001
 40
0.05
100
AcDbArc
 50
180.0
 51
270.0
  0
MTEXT
  5
6CA
330
68B
100
AcDbEntity
  8
10
 62
     7
100
AcDbMText
 10
7.315778493502831
 20
-1.795315425001196
 30
0.9200000000000001
 40
0.072
 41
0.0
 71
     1
 72
     5
  1
{\LTITLE:}
 73
     1
 44
1.0
1001
ACAD
1000
MTEXTBEGIN
1070
    73
1070
     1
1070
    44
1040
1.0
1070
    74
1070
     0
1000
MTEXTEND
  0
MTEXT
  5
6CB
330
68B
100
AcDbEntity
  8
10
 62
     1
100
AcDbMText
 10
7.312319225186522
 20
-1.949477205123434
 30
0.9200000000000001
 40
0.1
 41
1.86752
 71
     1
 72
     5
  1
TITLE
 73
     1
 44
1.0
1001
ACAD
1000
MTEXTBEGIN
1070
    73
1070
     1
1070
    44
1040
1.0
1070
    74
1070
     0
1000
MTEXTEND
  0
LINE
  5
6CC
330
68B
100
AcDbEntity
  8
10
370
    50
100
AcDbLine
 10
8.041325680136003
 20
-2.503825686429586
 30
0.9200000000000001
 11
8.041325680136003
 21
-3.303825686429587
 31
0.9200000000000001
  0
MTEXT
  5
6CD
330
68B
100
AcDbEntity
  8
10
 62
     7
100
AcDbMText
 10
8.319354886227062
 20
-2.971072892355071
 30
0.9200000000000001
 40
0.072
 41
3.6
 71
     1
 72
     5
  1
\LDRAWING NO.
 73
     1
 44
1.0
1001
ACAD
1000
MTEXTBEGIN
1070
    73
1070
     1
1070
    44
1040
1.0
1070
    74
1070
     0
1000
MTEXTEND
  0
MTEXT
  5
6CE
330
68B
100
AcDbEntity
  8
10
 62
     1
100
AcDbMText
 10
8.292244409137353
 20
-3.174516684749863
 30
0.9200000000000001
 40
0.1
 41
1.86752
 71
     1
 72
     5
  1
DRWG NUMBER
 73
     1
 44
1.0
1001
ACAD
1000
MTEXTBEGIN
1070
    73
1070
     1
1070
    44
1040
1.0
1070
    74
1070
     0
1000
MTEXTEND
  0
MTEXT
  5
6CF
330
68B
100
AcDbEntity
  8
10
 62
     1
100
AcDbMText
 10
8.292244409137353
 20
-2.774516684749864
 30
0.9200000000000001
 40
0.1
 41
1.86752
 71
     1
 72
     5
  1
DATE
 73
     1
 44
1.0
1001
ACAD
1000
MTEXTBEGIN
1070
    73
1070
     1
1070
    44
1040
1.0
1070
    74
1070
     0
1000
MTEXTEND
  0
MTEXT
  5
6D0
330
68B
100
AcDbEntity
  8
L-REV
100
AcDbMText
 10
9.71787386841223
 20
-3.171362050493581
 30
0.9200000000000001
 40
0.072
 41
0.0
 71
     1
 72
     5
  1
REV#
 73
     1
 44
1.0
1001
ACAD
1000
MTEXTBEGIN
1070
    73
1070
     1
1070
    44
1040
1.0
1070
    74
1070
     0
1000
MTEXTEND
  0
MTEXT
  5
6D1
330
68B
100
AcDbEntity
  8
10
 62
     7
100
AcDbMText
 10
8.330259821535518
 20
-2.595162852580749
 30
0.9200000000000001
 40
0.072
 41
3.6
 71
     1
 72
     5
  1
\LDATE:
 73
     1
 44
1.0
1001
ACAD
1000
MTEXTBEGIN
1070
    73
1070
     1
1070
    44
1040
1.0
1070
    74
1070
     0
1000
MTEXTEND
  0
ARC
  5
6D2
330
68B
100
AcDbEntity
  8
10
100
AcDbCircle
 10
9.566325680136003
 20
-1.778825686429588
 30
0.9200000000000001
 40
0.05
100
AcDbArc
 50
0.0
 51
90.0
  0
LINE
  5
6D3
330
68B
100
AcDbEntity
  8
10
100
AcDbLine
 10
9.616325680136004
 20
-1.778825686429588
 30
0.9200000000000001
 11
9.616325680136004
 21
-2.428825686429588
 31
0.9200000000000001
  0
ARC
  5
6D4
330
68B
100
AcDbEntity
  8
10
100
AcDbCircle
 10
9.566325680136003
 20
-2.428825686429588
 30
0.9200000000000001
 40
0.05
100
AcDbArc
 50
270.0
 51
0.0
  0
MTEXT
  5
6D5
330
68B
100
AcDbEntity
  8
L-REV
100
AcDbMText
 10
12.52052670670902
 20
-3.171362050493584
 30
0.9200000000000001
 40
0.072
 41
0.0
 71
     1
 72
     5
  1
DATE
 73
     1
 44
1.0
1001
ACAD
1000
MTEXTBEGIN
1070
    73
1070
     1
1070
    44
1040
1.0
1070
    74
1070
     0
1000
MTEXTEND
  0
MTEXT
  5
6D6
330
68B
100
AcDbEntity
  8
L-REV
100
AcDbMText
 10
11.08467206669906
 20
-3.163722909274858
 30
0.9200000000000001
 40
0.072
 41
0.0
 71
     1
 72
     5
  1
DESCRIPTION
 73
     1
 44
1.0
1001
ACAD
1000
MTEXTBEGIN
1070
    73
1070
     1
1070
    44
1040
1.0
1070
    74
1070
     0
1000
MTEXTEND
  0
MTEXT
  5
6D7
330
68B
100
AcDbEntity
  8
L-REV
100
AcDbMText
 10
10.18091351179044
 20
-3.171362050493581
 30
0.9200000000000001
 40
0.072
 41
0.0
 71
     1
 72
     5
  1
BY
 73
     1
 44
1.0
1001
ACAD
1000
MTEXTBEGIN
1070
    73
1070
     1
1070
    44
1040
1.0
1070
    74
1070
     0
1000
MTEXTEND
  0
LINE
  5
6D8
330
68B
100
AcDbEntity
  8
10
100
AcDbLine
 10
12.84135136865934
 20
-3.499999997906246
 30
0.9200000000000001
 11
13.03752568013601
 21
-3.499999997906249
 31
0.9200000000000001
  0
LINE
  5
6D9
330
68B
100
AcDbEntity
  8
10
100
AcDbLine
 10
13.037525680136
 20
-3.499999997906249
 30
0.9200000000000001
 11
13.037525680136
 21
-3.303825686429586
 31
0.9200000000000001
  0
LINE
  5
6DA
330
68B
100
AcDbEntity
  8
L-REV
100
AcDbLine
 10
9.641325680136008
 20
4.803825690617093
 30
0.9200000000000001
 11
12.84132568013601
 21
4.803825690617093
 31
0.9200000000000001
  0
LINE
  5
6DB
330
68B
100
AcDbEntity
  8
L-REV
100
AcDbLine
 10
9.641325680136008
 20
4.403825690617094
 30
0.9200000000000001
 11
12.84132568013601
 21
4.403825690617094
 31
0.9200000000000001
  0
LINE
  5
6DC
330
68B
100
AcDbEntity
  8
L-REV
100
AcDbLine
 10
9.641325680136008
 20
4.603825690617093
 30
0.9200000000000001
 11
12.84132568013601
 21
4.603825690617093
 31
0.9200000000000001
  0
LINE
  5
6DD
330
68B
100
AcDbEntity
  8
L-REV
100
AcDbLine
 10
9.641325680136006
 20
3.803825690617093
 30
0.9200000000000001
 11
12.84132568013601
 21
3.803825690617093
 31
0.9200000000000001
  0
LINE
  5
6DE
330
68B
100
AcDbEntity
  8
L-REV
100
AcDbLine
 10
9.641325680136008
 20
4.203825690617091
 30
0.9200000000000001
 11
12.84132568013601
 21
4.203825690617091
 31
0.9200000000000001
  0
LINE
  5
6DF
330
68B
100
AcDbEntity
  8
L-REV
100
AcDbLine
 10
9.641325680136006
 20
4.003825690617093
 30
0.9200000000000001
 11
12.84132568013601
 21
4.003825690617093
 31
0.9200000000000001
  0
LINE
  5
6E0
330
68B
100
AcDbEntity
  8
L-REV
100
AcDbLine
 10
9.641325680136006
 20
3.603825690617094
 30
0.9200000000000001
 11
12.84132568013601
 21
3.603825690617094
 31
0.9200000000000001
  0
LINE
  5
6E1
330
68B
100
AcDbEntity
  8
L-REV
100
AcDbLine
 10
9.641325680136008
 20
3.403825690617095
 30
0.9200000000000001
 11
12.84132568013601
 21
3.403825690617095
 31
0.9200000000000001
  0
LINE
  5
6E2
330
68B
100
AcDbEntity
  8
L-REV
100
AcDbLine
 10
9.641325680136006
 20
3.803825690617093
 30
0.9200000000000001
 11
12.84132568013601
 21
3.803825690617093
 31
0.9200000000000001
  0
LINE
  5
6E3
330
68B
100
AcDbEntity
  8
L-REV
100
AcDbLine
 10
9.641325680136006
 20
0.6038256906170929
 30
0.9200000000000001
 11
12.84132568013601
 21
0.6038256906170947
 31
0.9200000000000001
  0
LINE
  5
6E4
330
68B
100
AcDbEntity
  8
L-REV
100
AcDbLine
 10
9.641325680136006
 20
1.00382569061709
 30
0.9200000000000001
 11
12.84132568013601
 21
1.003825690617093
 31
0.9200000000000001
  0
LINE
  5
6E5
330
68B
100
AcDbEntity
  8
L-REV
100
AcDbLine
 10
9.641325680136006
 20
0.403825690617092
 30
0.9200000000000001
 11
12.84132568013601
 21
0.4038256906170937
 31
0.9200000000000001
  0
LINE
  5
6E6
330
68B
100
AcDbEntity
  8
L-REV
100
AcDbLine
 10
9.641325680136006
 20
0.803825690617092
 30
0.9200000000000001
 11
12.84132568013601
 21
0.8038256906170937
 31
0.9200000000000001
  0
LINE
  5
6E7
330
68B
100
AcDbEntity
  8
L-REV
100
AcDbLine
 10
9.641325680136006
 20
1.40382569061709
 30
0.9200000000000001
 11
12.84132568013601
 21
1.403825690617094
 31
0.9200000000000001
  0
LINE
  5
6E8
330
68B
100
AcDbEntity
  8
L-REV
100
AcDbLine
 10
9.641325680136006
 20
1.803825690617093
 30
0.9200000000000001
 11
12.84132568013601
 21
1.803825690617093
 31
0.9200000000000001
  0
LINE
  5
6E9
330
68B
100
AcDbEntity
  8
L-REV
100
AcDbLine
 10
9.641325680136006
 20
2.203825690617095
 30
0.9200000000000001
 11
12.84132568013601
 21
2.203825690617095
 31
0.9200000000000001
  0
LINE
  5
6EA
330
68B
100
AcDbEntity
  8
L-REV
100
AcDbLine
 10
9.641325680136006
 20
2.603825690617094
 30
0.9200000000000001
 11
12.84132568013601
 21
2.603825690617094
 31
0.9200000000000001
  0
LINE
  5
6EB
330
68B
100
AcDbEntity
  8
L-REV
100
AcDbLine
 10
9.641325680136008
 20
3.003825690617093
 30
0.9200000000000001
 11
12.84132568013601
 21
3.003825690617093
 31
0.9200000000000001
  0
LINE
  5
6EC
330
68B
100
AcDbEntity
  8
L-REV
100
AcDbLine
 10
9.641325680136006
 20
1.203825690617092
 30
0.9200000000000001
 11
12.84132568013601
 21
1.203825690617095
 31
0.9200000000000001
  0
LINE
  5
6ED
330
68B
100
AcDbEntity
  8
L-REV
100
AcDbLine
 10
9.641325680136006
 20
1.603825690617093
 30
0.9200000000000001
 11
12.84132568013601
 21
1.603825690617093
 31
0.9200000000000001
  0
LINE
  5
6EE
330
68B
100
AcDbEntity
  8
L-REV
100
AcDbLine
 10
9.641325680136006
 20
2.003825690617093
 30
0.9200000000000001
 11
12.84132568013601
 21
2.003825690617093
 31
0.9200000000000001
  0
LINE
  5
6EF
330
68B
100
AcDbEntity
  8
L-REV
100
AcDbLine
 10
9.641325680136006
 20
2.403825690617095
 30
0.9200000000000001
 11
12.84132568013601
 21
2.403825690617095
 31
0.9200000000000001
  0
LINE
  5
6F0
330
68B
100
AcDbEntity
  8
L-REV
100
AcDbLine
 10
9.641325680136006
 20
2.803825690617093
 30
0.9200000000000001
 11
12.84132568013601
 21
2.803825690617093
 31
0.9200000000000001
  0
LINE
  5
6F1
330
68B
100
AcDbEntity
  8
L-REV
100
AcDbLine
 10
9.641325680136008
 20
3.203825690617096
 30
0.9200000000000001
 11
12.84132568013601
 21
3.203825690617096
 31
0.9200000000000001
  0
LINE
  5
6F2
330
68B
100
AcDbEntity
  8
L-REV
100
AcDbLine
 10
9.641325680136006
 20
0.2038256906170925
 30
0.9200000000000001
 11
12.84132568013601
 21
0.2038256906170943
 31
0.9200000000000001
  0
LINE
  5
6F3
330
68B
100
AcDbEntity
  8
L-REV
100
AcDbLine
 10
9.641325680136006
 20
-0.1961743093829078
 30
0.9200000000000001
 11
12.84132568013601
 21
-0.1961743093829078
 31
0.9200000000000001
  0
LINE
  5
6F4
330
68B
100
AcDbEntity
  8
L-REV
100
AcDbLine
 10
9.641325680136006
 20
0.0038256906170933
 30
0.9200000000000001
 11
12.84132568013601
 21
0.0038256906170933
 31
0.9200000000000001
  0
LINE
  5
6F5
330
68B
100
AcDbEntity
  8
L-REV
100
AcDbLine
 10
9.641325680136006
 20
-0.5961743093829082
 30
0.9200000000000001
 11
12.84132568013601
 21
-0.5961743093829082
 31
0.9200000000000001
  0
LINE
  5
6F6
330
68B
100
AcDbEntity
  8
L-REV
100
AcDbLine
 10
9.641325680136006
 20
-0.7961743093829075
 30
0.9200000000000001
 11
12.84132568013601
 21
-0.7961743093829075
 31
0.9200000000000001
  0
LINE
  5
6F7
330
68B
100
AcDbEntity
  8
L-REV
100
AcDbLine
 10
9.641325680136006
 20
-0.3961743093829071
 30
0.9200000000000001
 11
12.84132568013601
 21
-0.3961743093829071
 31
0.9200000000000001
  0
MTEXT
  5
6F8
330
68B
100
AcDbEntity
  8
10
100
AcDbMText
 10
7.774120572183917
 20
4.334063748274236
 30
0.9200000000000001
 40
0.100000008
 41
1.3466667744
 71
     2
 72
     5
  1
Material
  7
ACANSTS
 73
     1
 44
1.0
1001
ACAD
1000
MTEXTBEGIN
1070
    73
1070
     1
1070
    44
1040
1.0
1070
    74
1070
     0
1000
MTEXTEND
  0
MTEXT
  5
6F9
330
68B
100
AcDbEntity
  8
10
100
AcDbMText
 10
7.774120572183917
 20
4.758825687017091
 30
0.9200000000000001
 40
0.100000008
 41
1.3466667744
 71
     2
 72
     5
  1
VALOX 357
  7
ACANSTS
 73
     1
 44
1.0
1001
ACAD
1000
MTEXTBEGIN
1070
    73
1070
     1
1070
    44
1040
1.0
1070
    74
1070
     0
1000
MTEXTEND
  0
MTEXT
  5
6FA
330
68B
100
AcDbEntity
  8
10
100
AcDbMText
 10
7.774120572183917
 20
4.546444717645661
 30
0.9200000000000001
 40
0.100000008
 41
1.3466667744
 71
     2
 72
     5
  1
VALOX 357
  7
ACANSTS
 73
     1
 44
1.0
1001
ACAD
1000
MTEXTBEGIN
1070
    73
1070
     1
1070
    44
1040
1.0
1070
    74
1070
     0
1000
MTEXTEND
  0
LINE
  5
6FB
330
68B
100
AcDbEntity
  8
10
100
AcDbLine
 10
6.91948030350847
 20
4.591444721245663
 30
0.9200000000000001
 11
6.91948030350847
 21
4.379063751874236
 31
0.9200000000000001
  0
LINE
  5
6FC
330
68B
100
AcDbEntity
  8
10
100
AcDbLine
 10
6.91948030350847
 20
4.379063751874236
 30
0.9200000000000001
 11
6.91948030350847
 21
4.166682782502805
 31
0.9200000000000001
  0
LINE
  5
6FD
330
68B
100
AcDbEntity
  8
10
100
AcDbLine
 10
6.91948030350847
 20
4.803825690617093
 30
0.9200000000000001
 11
6.91948030350847
 21
4.591444721245663
 31
0.9200000000000001
  0
MTEXT
  5
6FE
330
68B
100
AcDbEntity
  8
10
100
AcDbMText
 10
9.05473143528666
 20
4.758825687017091
 30
0.9200000000000001
 40
0.100000008
 41
0.9241667406000001
 71
     2
 72
     5
  1
RED
  7
ACANSTS
 73
     1
 44
1.0
1001
ACAD
1000
MTEXTBEGIN
1070
    73
1070
     1
1070
    44
1040
1.0
1070
    74
1070
     0
1000
MTEXTEND
  0
MTEXT
  5
6FF
330
68B
100
AcDbEntity
  8
10
100
AcDbMText
 10
9.05473143528666
 20
4.546444717645661
 30
0.9200000000000001
 40
0.100000008
 41
0.9241667406000001
 71
     2
 72
     5
  1
GREEN
  7
ACANSTS
 73
     1
 44
1.0
1001
ACAD
1000
MTEXTBEGIN
1070
    73
1070
     1
1070
    44
1040
1.0
1070
    74
1070
     0
1000
MTEXTEND
  0
MTEXT
  5
700
330
68B
100
AcDbEntity
  8
10
100
AcDbMText
 10
9.05473143528666
 20
4.334063748274236
 30
0.9200000000000001
 40
0.100000008
 41
0.9241667406000001
 71
     2
 72
     5
  1
Color
  7
ACANSTS
 73
     1
 44
1.0
1001
ACAD
1000
MTEXTBEGIN
1070
    73
1070
     1
1070
    44
1040
1.0
1070
    74
1070
     0
1000
MTEXTEND
  0
LINE
  5
701
330
68B
100
AcDbEntity
  8
10
100
AcDbLine
 10
8.477453961783922
 20
4.166682782502805
 30
0.9200000000000001
 11
8.477453961783918
 21
4.803825690617093
 31
0.9200000000000001
  0
LINE
  5
702
330
68B
100
AcDbEntity
  8
10
100
AcDbLine
 10
9.641325680136008
 20
4.803825690617093
 30
0.9200000000000001
 11
9.641325680136008
 21
3.954301813131381
 31
0.9200000000000001
  0
LINE
  5
703
330
68B
100
AcDbEntity
  8
10
100
AcDbLine
 10
12.84135136865934
 20
5.000000002093758
 30
0.9200000000000001
 11
13.03752568013601
 21
5.000000002093758
 31
0.9200000000000001
  0
LINE
  5
704
330
68B
100
AcDbEntity
  8
10
100
AcDbLine
 10
13.037525680136
 20
5.000000002093758
 30
0.9200000000000001
 11
13.037525680136
 21
4.803825690617096
 31
0.9200000000000001
  0
ENDBLK
  5
705
330
68B
100
AcDbEntity
  8
0
100
AcDbBlockEnd
  0
BLOCK
  5
707
330
706
100
AcDbEntity
  8
0
 62
     1
100
AcDbBlockBegin
  2
A$C5A7A0274
 70
     0
 10
0.0
 20
0.0
 30
0.0
  3
A$C5A7A0274
  1

  0
ELLIPSE
  5
708
330
706
100
AcDbEntity
  8
0
100
AcDbEllipse
 10
0.9687500026610942
 20
1.555786541996389
 30
0.0
 11
-0.0441941738241592
 21
0.0
 31
0.0
210
0.0
220
0.0
230
1.0
 40
0.5773502691896219
 41
7.068583470577034
 42
8.63937979737193
  0
ELLIPSE
  5
709
330
706
100
AcDbEntity
  8
0
100
AcDbEllipse
 10
0.9687500026610962
 20
1.158858231928521
 30
0.0
 11
-0.0441941738241592
 21
0.0
 31
0.0
210
0.0
220
0.0
230
1.0
 40
0.5773502691896219
 41
0.7853981633974491
 42
2.356194490192344
  0
ELLIPSE
  5
70A
330
706
100
AcDbEntity
  8
0
100
AcDbEllipse
 10
0.9687500026610942
 20
2.16922120301037
 30
0.0
 11
-0.0441941738241592
 21
0.0
 31
0.0
210
0.0
220
0.0
230
1.0
 40
0.5773502691896219
 41
3.926990816987241
 42
5.497787143782136
  0
LINE
  5
70B
330
706
100
AcDbEntity
  8
0
100
AcDbLine
 10
1.375000002661094
 20
1.970757047976435
 30
0.0
 11
0.9687500026610951
 21
1.736208501118149
 31
0.0
  0
ELLIPSE
  5
70C
330
706
100
AcDbEntity
  8
0
100
AcDbEllipse
 10
0.3750000026610971
 20
0.9603940768945895
 30
0.0
 11
0.0220970869120795
 21
-0.0382732772309876
 31
0.0
210
0.0
220
0.0
230
0.9999999999999998
 40
0.5773502691896241
 41
8.639379797371937
 42
10.21017612416682
  0
ELLIPSE
  5
70D
330
706
100
AcDbEntity
  8
0
100
AcDbEllipse
 10
0.5000000026610964
 20
0.8882252932458861
 30
0.0
 11
0.0220970869120795
 21
-0.0382732772309876
 31
0.0
210
0.0
220
0.0
230
0.9999999999999998
 40
0.5773502691896241
 41
7.068583470577034
 42
8.639379797371937
  0
ELLIPSE
  5
70E
330
706
100
AcDbEntity
  8
0
100
AcDbEllipse
 10
0.5000000026610955
 20
0.6717189422997773
 30
0.0
 11
0.0220970869120795
 21
-0.0382732772309876
 31
0.0
210
0.0
220
0.0
230
0.9999999999999998
 40
0.5773502691896241
 41
5.497787143782145
 42
7.068583470577058
  0
ELLIPSE
  5
70F
330
706
100
AcDbEntity
  8
0
100
AcDbEllipse
 10
0.3750000026610962
 20
0.74388772594848
 30
0.0
 11
0.0220970869120795
 21
-0.0382732772309876
 31
0.0
210
0.0
220
0.0
230
0.9999999999999998
 40
0.5773502691896241
 41
3.926990816987241
 42
5.497787143782145
  0
ELLIPSE
  5
710
330
706
100
AcDbEntity
  8
0
100
AcDbEllipse
 10
0.0312500026610962
 20
0.5454235709145463
 30
0.0
 11
0.0220970869120795
 21
-0.0382732772309876
 31
0.0
210
0.0
220
0.0
230
0.9999999999999998
 40
0.5773502691896241
 41
3.926990816987241
 42
5.497787143782145
  0
ELLIPSE
  5
711
330
706
100
AcDbEntity
  8
0
100
AcDbEllipse
 10
0.9062500026610942
 20
0.0402420853736236
 30
0.0
 11
0.0220970869120795
 21
-0.0382732772309876
 31
0.0
210
0.0
220
0.0
230
0.9999999999999998
 40
0.5773502691896241
 41
5.497787143782145
 42
7.068583470577034
  0
ELLIPSE
  5
712
330
706
100
AcDbEntity
  8
0
100
AcDbEllipse
 10
0.9062500026610981
 20
1.050605056455468
 30
0.0
 11
0.0220970869120795
 21
-0.0382732772309876
 31
0.0
210
0.0
220
0.0
230
0.9999999999999998
 40
0.5773502691896241
 41
7.068583470577034
 42
8.639379797371937
  0
ELLIPSE
  5
713
330
706
100
AcDbEntity
  8
0
100
AcDbEllipse
 10
0.0312500026610962
 20
1.555786541996391
 30
0.0
 11
0.0220970869120795
 21
-0.0382732772309876
 31
0.0
210
0.0
220
0.0
230
0.9999999999999998
 40
0.5773502691896241
 41
2.356194490192351
 42
3.926990816987241
  0
ELLIPSE
  5
714
330
706
100
AcDbEntity
  8
0
100
AcDbEllipse
 10
0.9062500026610962
 20
1.736208501118149
 30
0.0
 11
-0.0441941738241592
 21
0.0
 31
0.0
210
0.0
220
0.0
230
1.0
 40
0.5773502691896219
 41
3.926990816987228
 42
5.497787143782136
  0
ELLIPSE
  5
715
330
706
100
AcDbEntity
  8
0
100
AcDbEllipse
 10
0.7812500026610945
 20
1.664039717469445
 30
0.0
 11
-0.0441941738241592
 21
0.0
 31
0.0
210
0.0
220
0.0
230
1.0
 40
0.5773502691896219
 41
5.497787143782136
 42
7.068583470577034
  0
ELLIPSE
  5
716
330
706
100
AcDbEntity
  8
0
100
AcDbEllipse
 10
0.0937500026610954
 20
1.664039717469446
 30
0.0
 11
-0.0441941738241592
 21
0.0
 31
0.0
210
0.0
220
0.0
230
1.0
 40
0.5773502691896219
 41
5.497787143782136
 42
7.068583470577034
  0
LINE
  5
717
330
706
100
AcDbEntity
  8
0
100
AcDbLine
 10
0.9062500026610942
 20
0.004157693549272
 30
0.0
 11
0.0312500026610962
 21
0.5093391790901947
 31
0.0
  0
LINE
  5
718
330
706
100
AcDbEntity
  8
0
100
AcDbLine
 10
0.9375000026610972
 20
0.4552125913536669
 30
0.0
 11
0.5312500026610955
 21
0.6897611382119524
 31
0.0
  0
LINE
  5
719
330
706
100
AcDbEntity
  8
0
100
AcDbLine
 10
0.9375000026610972
 20
0.4552125913536669
 30
0.0
 11
0.9375000026610942
 21
0.0221998894614475
 31
0.0
  0
LINE
  5
71A
330
706
100
AcDbEntity
  8
0
100
AcDbLine
 10
0.0625000026610954
 20
1.682081913381621
 30
0.0
 11
0.9375000026610942
 21
2.187263398922544
 31
0.0
  0
LINE
  5
71B
330
706
100
AcDbEntity
  8
0
100
AcDbLine
 10
0.9062500026610981
 20
1.086689448279819
 30
0.0
 11
0.0312500026610962
 21
1.591870933820743
 31
0.0
  0
LINE
  5
71C
330
706
100
AcDbEntity
  8
0
100
AcDbLine
 10
0.0000000026610962
 20
1.573828737908566
 30
0.0
 11
0.0000000026610962
 21
0.5634657668267225
 31
0.0
  0
LINE
  5
71D
330
706
100
AcDbEntity
  8
0
100
AcDbLine
 10
0.9375000026610962
 20
1.140816036016345
 30
0.0
 11
0.0625000026610954
 21
1.645997521557269
 31
0.0
  0
LINE
  5
71E
330
706
100
AcDbEntity
  8
0
100
AcDbLine
 10
0.3437500026610971
 20
0.9784362728067655
 30
0.0
 11
0.3437500026610962
 21
0.7619299218606562
 31
0.0
  0
LINE
  5
71F
330
706
100
AcDbEntity
  8
0
100
AcDbLine
 10
0.5000000026610955
 20
0.6356345504754257
 30
0.0
 11
0.3750000026610962
 21
0.7078033341241285
 31
0.0
  0
LINE
  5
720
330
706
100
AcDbEntity
  8
0
100
AcDbLine
 10
0.5000000026610964
 20
0.924309685070238
 30
0.0
 11
0.3750000026610971
 21
0.9964784687189411
 31
0.0
  0
LINE
  5
721
330
706
100
AcDbEntity
  8
0
100
AcDbLine
 10
0.9375000026610981
 20
1.032562860543291
 30
0.0
 11
0.9375000026610972
 21
0.5995501586510719
 31
0.0
  0
LINE
  5
722
330
706
100
AcDbEntity
  8
0
100
AcDbLine
 10
0.9375000026610972
 20
0.5995501586510719
 30
0.0
 11
0.5312500026610964
 21
0.8340987055093583
 31
0.0
  0
LINE
  5
723
330
706
100
AcDbEntity
  8
0
100
AcDbLine
 10
0.5312500026610955
 20
0.6536767463876007
 30
0.0
 11
0.5312500026610955
 21
0.6897611382119524
 31
0.0
  0
LINE
  5
724
330
706
100
AcDbEntity
  8
0
100
AcDbLine
 10
0.5312500026610964
 20
0.8701830973337099
 30
0.0
 11
0.5312500026610964
 21
0.8340987055093588
 31
0.0
  0
LINE
  5
725
330
706
100
AcDbEntity
  8
0
100
AcDbLine
 10
0.8750000026610962
 20
1.754250697030324
 30
0.0
 11
0.7500000026610945
 21
1.68208191338162
 31
0.0
  0
LINE
  5
726
330
706
100
AcDbEntity
  8
0
100
AcDbLine
 10
0.9375000026610942
 20
1.537744346084215
 30
0.0
 11
0.7500000026610955
 21
1.645997521557269
 31
0.0
  0
LINE
  5
727
330
706
100
AcDbEntity
  8
0
100
AcDbLine
 10
0.9375000026610962
 20
1.754250697030324
 30
0.0
 11
0.9687500026610951
 21
1.736208501118149
 31
0.0
  0
ELLIPSE
  5
728
330
706
100
AcDbEntity
  8
0
100
AcDbEllipse
 10
1.375000002661095
 20
0.8521409014215347
 30
0.0
 11
-0.0220970869120792
 21
-0.0382732772309871
 31
0.0
210
0.0
220
0.0
230
1.0
 40
0.5773502691896315
 41
3.926990816987227
 42
5.497787143782118
  0
ELLIPSE
  5
729
330
706
100
AcDbEntity
  8
0
100
AcDbEllipse
 10
1.500000002661095
 20
0.924309685070238
 30
0.0
 11
-0.0220970869120792
 21
-0.0382732772309871
 31
0.0
210
0.0
220
0.0
230
1.0
 40
0.5773502691896315
 41
8.639379797371912
 42
10.21017612416681
  0
ELLIPSE
  5
72A
330
706
100
AcDbEntity
  8
0
100
AcDbEllipse
 10
1.500000002661098
 20
0.707803334124127
 30
0.0
 11
-0.0220970869120792
 21
-0.0382732772309871
 31
0.0
210
0.0
220
0.0
230
1.0
 40
0.5773502691896315
 41
7.068583470577022
 42
8.63937979737193
  0
ELLIPSE
  5
72B
330
706
100
AcDbEntity
  8
0
100
AcDbEllipse
 10
1.375000002661095
 20
0.6356345504754235
 30
0.0
 11
-0.0220970869120792
 21
-0.0382732772309871
 31
0.0
210
0.0
220
0.0
230
1.0
 40
0.5773502691896315
 41
5.497787143782124
 42
7.068583470577022
  0
ELLIPSE
  5
72C
330
706
100
AcDbEntity
  8
0
100
AcDbEllipse
 10
1.031250002661096
 20
0.0402420853736238
 30
0.0
 11
-0.0220970869120792
 21
-0.0382732772309871
 31
0.0
210
0.0
220
0.0
230
1.0
 40
0.5773502691896315
 41
5.497787143782124
 42
7.068583470577022
  0
ELLIPSE
  5
72D
330
706
100
AcDbEntity
  8
0
100
AcDbEllipse
 10
1.906250002661098
 20
0.5454235709145462
 30
0.0
 11
-0.0220970869120792
 21
-0.0382732772309871
 31
0.0
210
0.0
220
0.0
230
1.0
 40
0.5773502691896315
 41
0.7853981633974354
 42
2.356194490192331
  0
ELLIPSE
  5
72E
330
706
100
AcDbEntity
  8
0
100
AcDbEllipse
 10
1.906250002661097
 20
1.55578654199639
 30
0.0
 11
-0.0220970869120792
 21
-0.0382732772309871
 31
0.0
210
0.0
220
0.0
230
1.0
 40
0.5773502691896315
 41
2.356194490192337
 42
3.926990816987227
  0
ELLIPSE
  5
72F
330
706
100
AcDbEntity
  8
0
100
AcDbEllipse
 10
1.031250002661098
 20
1.050605056455469
 30
0.0
 11
-0.0220970869120792
 21
-0.0382732772309871
 31
0.0
210
0.0
220
0.0
230
1.0
 40
0.5773502691896315
 41
3.926990816987227
 42
5.497787143782105
  0
ELLIPSE
  5
730
330
706
100
AcDbEntity
  8
0
100
AcDbEllipse
 10
1.093750002661096
 20
1.627955325645093
 30
0.0
 11
-0.0441941738241592
 21
0.0
 31
0.0
210
0.0
220
0.0
230
1.0
 40
0.5773502691896219
 41
2.356194490192316
 42
3.926990816987241
  0
ELLIPSE
  5
731
330
706
100
AcDbEntity
  8
0
100
AcDbEllipse
 10
1.843750002661097
 20
1.664039717469445
 30
0.0
 11
-0.0441941738241592
 21
0.0
 31
0.0
210
0.0
220
0.0
230
1.0
 40
0.5773502691896219
 41
2.356194490192344
 42
3.926990816987241
  0
LINE
  5
732
330
706
100
AcDbEntity
  8
0
100
AcDbLine
 10
1.031250002661096
 20
0.004157693549272
 30
0.0
 11
1.906250002661098
 21
0.5093391790901946
 31
0.0
  0
LINE
  5
733
330
706
100
AcDbEntity
  8
0
100
AcDbLine
 10
1.000000002661097
 20
1.032562860543292
 30
0.0
 11
1.000000002661096
 21
0.0221998894614484
 31
0.0
  0
LINE
  5
734
330
706
100
AcDbEntity
  8
0
100
AcDbLine
 10
1.875000002661097
 20
1.68208191338162
 30
0.0
 11
1.500000002661094
 21
1.89858826432773
 31
0.0
  0
LINE
  5
735
330
706
100
AcDbEntity
  8
0
100
AcDbLine
 10
1.500000002661094
 20
1.89858826432773
 30
0.0
 11
1.093750002661096
 21
1.664039717469446
 31
0.0
  0
LINE
  5
736
330
706
100
AcDbEntity
  8
0
100
AcDbLine
 10
1.531250002661097
 20
0.7619299218606546
 30
0.0
 11
1.937500002661098
 21
0.9964784687189403
 31
0.0
  0
LINE
  5
737
330
706
100
AcDbEntity
  8
0
100
AcDbLine
 10
1.531250002661097
 20
0.9062674891580615
 30
0.0
 11
1.937500002661098
 21
1.140816036016347
 31
0.0
  0
LINE
  5
738
330
706
100
AcDbEntity
  8
0
100
AcDbLine
 10
1.031250002661098
 20
1.086689448279819
 30
0.0
 11
1.906250002661097
 21
1.591870933820743
 31
0.0
  0
LINE
  5
739
330
706
100
AcDbEntity
  8
0
100
AcDbLine
 10
1.000000002661096
 20
1.140816036016345
 30
0.0
 11
1.875000002661097
 21
1.645997521557269
 31
0.0
  0
LINE
  5
73A
330
706
100
AcDbEntity
  8
0
100
AcDbLine
 10
1.375000002661095
 20
0.5995501586510719
 30
0.0
 11
1.500000002661098
 21
0.6717189422997754
 31
0.0
  0
LINE
  5
73B
330
706
100
AcDbEntity
  8
0
100
AcDbLine
 10
1.375000002661095
 20
0.8882252932458861
 30
0.0
 11
1.500000002661095
 21
0.9603940768945887
 31
0.0
  0
LINE
  5
73C
330
706
100
AcDbEntity
  8
0
100
AcDbLine
 10
1.343750002661095
 20
0.8340987055093592
 30
0.0
 11
1.343750002661095
 21
0.6175923545632482
 31
0.0
  0
LINE
  5
73D
330
706
100
AcDbEntity
  8
0
100
AcDbLine
 10
1.531250002661097
 20
0.7619299218606548
 30
0.0
 11
1.531250002661098
 21
0.725845530036303
 31
0.0
  0
LINE
  5
73E
330
706
100
AcDbEntity
  8
0
100
AcDbLine
 10
1.531250002661095
 20
0.9423518809824143
 30
0.0
 11
1.531250002661095
 21
0.9062674891580611
 31
0.0
  0
LINE
  5
73F
330
706
100
AcDbEntity
  8
0
100
AcDbLine
 10
1.093750002661097
 20
1.664039717469446
 30
0.0
 11
1.125000002661096
 21
1.645997521557269
 31
0.0
  0
LINE
  5
740
330
706
100
AcDbEntity
  8
0
100
AcDbLine
 10
1.125000002661094
 20
1.609913129732918
 30
0.0
 11
1.000000002661094
 21
1.537744346084215
 31
0.0
  0
LINE
  5
741
330
706
100
AcDbEntity
  8
0
100
AcDbLine
 10
1.937500002661097
 20
1.573828737908566
 30
0.0
 11
1.937500002661098
 21
1.140816036016347
 31
0.0
  0
LINE
  5
742
330
706
100
AcDbEntity
  8
0
100
AcDbLine
 10
1.937500002661098
 20
0.9964784687189403
 30
0.0
 11
1.937500002661098
 21
0.5634657668267216
 31
0.0
  0
LINE
  5
743
330
706
100
AcDbEntity
  8
0
100
AcDbLine
 10
1.375000002661094
 20
1.970757047976435
 30
0.0
 11
1.000000002661094
 21
2.187263398922544
 31
0.0
  0
ENDBLK
  5
744
330
706
100
AcDbEntity
  8
0
 62
     1
100
AcDbBlockEnd
  0
BLOCK
  5
746
330
745
100
AcDbEntity
  8
0
100
AcDbBlockBegin
  2
A$C497D351A
 70
     0
 10
0.0
 20
0.0
 30
0.0
  3
A$C497D351A
  1

  0
MTEXT
  5
747
330
745
100
AcDbEntity
  8
10
 62
     7
100
AcDbMText
 10
4.187358927777895
 20
0.4002719483440039
 30
0.0
 40
0.085
 41
5.78
 71
     1
 72
     5
  1
P.O. BOX 496\P664 STATE STREET\PBEAVER, PA 15009
 73
     1
 44
1.0
1001
ACAD
1000
MTEXTBEGIN
1070
    73
1070
     1
1070
    44
1040
1.0
1070
    74
1070
     0
1000
MTEXTEND
  0
LINE
  5
748
330
745
100
AcDbEntity
  8
10
370
    50
100
AcDbLine
 10
-0.0000000090042569
 20
0.4249999926626417
 30
0.0
 11
-0.0000000090042569
 21
-0.0000000073373645
 31
0.0
  0
MTEXT
  5
749
330
745
100
AcDbEntity
  8
10
 62
     7
100
AcDbMText
 10
0.468473229341023
 20
0.2698346584247493
 30
0.0
 40
0.10625
 41
4.047785
 71
     1
 72
     5
  1
C3CONTROLS by CONTROL CONCEPTS CORP.
 73
     1
 44
1.0
1001
ACAD
1000
MTEXTBEGIN
1070
    73
1070
     1
1070
    44
1040
1.0
1070
    74
1070
     0
1000
MTEXTEND
  0
CIRCLE
  5
74A
330
745
100
AcDbEntity
  8
0
100
AcDbCircle
 10
0.2185977116542841
 20
0.2198417898065244
 30
0.0
 40
0.185385
  0
ARC
  5
74B
330
745
100
AcDbEntity
  8
0
100
AcDbCircle
 10
0.2185977116542841
 20
0.2198417898065244
 30
0.0
 40
0.16674609375
100
AcDbArc
 50
129.16671071612
 51
230.8332892838798
  0
ARC
  5
74C
330
745
100
AcDbEntity
  8
0
100
AcDbCircle
 10
0.2185977116542841
 20
0.2198417898065244
 30
0.0
 40
0.13447265625
100
AcDbArc
 50
129.16671071612
 51
230.8332892838798
  0
ARC
  5
74D
330
745
100
AcDbEntity
  8
0
100
AcDbCircle
 10
0.2925454467943724
 20
0.2736308523065247
 30
0.0
 40
0.0753046875
100
AcDbArc
 50
314.4153085971927
 51
36.03187907247066
  0
ARC
  5
74E
330
745
100
AcDbEntity
  8
0
100
AcDbCircle
 10
0.2925454467943724
 20
0.2736308523065247
 30
0.0
 40
0.04303125
100
AcDbArc
 50
270.0
 51
36.03187907247066
  0
ARC
  5
74F
330
745
100
AcDbEntity
  8
0
100
AcDbCircle
 10
0.2925454467943724
 20
0.1660527273065249
 30
0.0
 40
0.04303125
100
AcDbArc
 50
323.9681209275293
 51
90.0
  0
ARC
  5
750
330
745
100
AcDbEntity
  8
0
100
AcDbCircle
 10
0.2185977116542841
 20
0.2198417898065244
 30
0.0
 40
0.13447265625
100
AcDbArc
 50
309.1667107161201
 51
323.9681209275293
  0
ARC
  5
751
330
745
100
AcDbEntity
  8
0
100
AcDbCircle
 10
0.2831445866542843
 20
0.1406055528890331
 30
0.0
 40
0.064546875
100
AcDbArc
 50
179.9999999999998
 51
309.1667107161201
  0
ARC
  5
752
330
745
100
AcDbEntity
  8
0
100
AcDbCircle
 10
0.1540508366542848
 20
0.1406055528890331
 30
0.0
 40
0.0322734375
100
AcDbArc
 50
230.8332892838798
 51
0.0000000000001018
  0
ARC
  5
753
330
745
100
AcDbEntity
  8
0
100
AcDbCircle
 10
0.1540508366542848
 20
0.1406055528890331
 30
0.0
 40
0.064546875
100
AcDbArc
 50
230.8332892838798
 51
0.0000000000001018
  0
ARC
  5
754
330
745
100
AcDbEntity
  8
0
100
AcDbCircle
 10
0.2831445866542843
 20
0.1406055528890331
 30
0.0
 40
0.0322734375
100
AcDbArc
 50
179.9999999999998
 51
309.1667107161201
  0
LINE
  5
755
330
745
100
AcDbEntity
  8
0
100
AcDbLine
 10
0.2717824031197458
 20
0.2305996023065244
 30
0.0
 11
0.2925454467943724
 21
0.2305996023065244
 31
0.0
  0
LINE
  5
756
330
745
100
AcDbEntity
  8
0
100
AcDbLine
 10
0.2717824031197458
 20
0.2090839773065243
 30
0.0
 11
0.2925454467943724
 21
0.2090839773065243
 31
0.0
  0
LINE
  5
757
330
745
100
AcDbEntity
  8
0
100
AcDbLine
 10
0.2717824031197458
 20
0.2305996023065244
 30
0.0
 11
0.2717824031197458
 21
0.2090839773065243
 31
0.0
  0
LINE
  5
758
330
745
100
AcDbEntity
  8
0
100
AcDbLine
 10
0.1863242741542848
 20
0.1621211778890341
 30
0.0
 11
0.2185977116542841
 21
0.1621211778890341
 31
0.0
  0
LINE
  5
759
330
745
100
AcDbEntity
  8
0
100
AcDbLine
 10
0.1863242741542848
 20
0.1406055528890331
 30
0.0
 11
0.1863242741542848
 21
0.1621211778890341
 31
0.0
  0
LINE
  5
75A
330
745
100
AcDbEntity
  8
0
100
AcDbLine
 10
0.2508711491542841
 20
0.1406055528890331
 30
0.0
 11
0.2508711491542841
 21
0.1621211778890341
 31
0.0
  0
LINE
  5
75B
330
745
100
AcDbEntity
  8
0
100
AcDbLine
 10
0.2185977116542841
 20
0.1406055528890331
 30
0.0
 11
0.2185977116542841
 21
0.1621211778890341
 31
0.0
  0
LINE
  5
75C
330
745
100
AcDbEntity
  8
0
100
AcDbLine
 10
0.2185977116542841
 20
0.1621211778890341
 30
0.0
 11
0.2508711491542841
 21
0.1621211778890341
 31
0.0
  0
ARC
  5
75D
330
745
100
AcDbEntity
  8
0
100
AcDbCircle
 10
0.2185977116542841
 20
0.2198417898065244
 30
0.0
 40
0.16674609375
100
AcDbArc
 50
309.1667107161201
 51
323.9681209275293
  0
ARC
  5
75E
330
745
100
AcDbEntity
  8
0
100
AcDbCircle
 10
0.2925454467943724
 20
0.1660527273065249
 30
0.0
 40
0.0753046875
100
AcDbArc
 50
323.9681209275293
 51
45.58469140280712
  0
ARC
  5
75F
330
745
100
AcDbEntity
  8
0
100
AcDbCircle
 10
0.2185977116542841
 20
0.2198417898065244
 30
0.0
 40
0.13447265625
100
AcDbArc
 50
36.03187907247066
 51
50.83328928387988
  0
ARC
  5
760
330
745
100
AcDbEntity
  8
0
100
AcDbCircle
 10
0.2831445866542843
 20
0.2990780267240156
 30
0.0
 40
0.064546875
100
AcDbArc
 50
50.83328928387988
 51
180.0
  0
ARC
  5
761
330
745
100
AcDbEntity
  8
0
100
AcDbCircle
 10
0.1540508366542848
 20
0.2990780267240156
 30
0.0
 40
0.0322734375
100
AcDbArc
 50
0.0
 51
129.16671071612
  0
ARC
  5
762
330
745
100
AcDbEntity
  8
0
100
AcDbCircle
 10
0.1540508366542848
 20
0.2990780267240156
 30
0.0
 40
0.064546875
100
AcDbArc
 50
0.0
 51
129.16671071612
  0
LINE
  5
763
330
745
100
AcDbEntity
  8
0
100
AcDbLine
 10
0.1863242741542848
 20
0.2775624017240155
 30
0.0
 11
0.2185977116542841
 21
0.2775624017240155
 31
0.0
  0
LINE
  5
764
330
745
100
AcDbEntity
  8
0
100
AcDbLine
 10
0.1863242741542848
 20
0.2990780267240156
 30
0.0
 11
0.1863242741542848
 21
0.2775624017240155
 31
0.0
  0
LINE
  5
765
330
745
100
AcDbEntity
  8
0
100
AcDbLine
 10
0.2508711491542841
 20
0.2990780267240156
 30
0.0
 11
0.2508711491542841
 21
0.2775624017240155
 31
0.0
  0
LINE
  5
766
330
745
100
AcDbEntity
  8
0
100
AcDbLine
 10
0.2185977116542841
 20
0.2990780267240156
 30
0.0
 11
0.2185977116542841
 21
0.2775624017240155
 31
0.0
  0
LINE
  5
767
330
745
100
AcDbEntity
  8
0
100
AcDbLine
 10
0.2185977116542841
 20
0.2775624017240155
 30
0.0
 11
0.2508711491542841
 21
0.2775624017240155
 31
0.0
  0
ARC
  5
768
330
745
100
AcDbEntity
  8
0
100
AcDbCircle
 10
0.2831445866542843
 20
0.2990780267240156
 30
0.0
 40
0.0322734375
100
AcDbArc
 50
50.83328928387988
 51
180.0
  0
ARC
  5
769
330
745
100
AcDbEntity
  8
0
100
AcDbCircle
 10
0.2185977116542841
 20
0.2198417898065244
 30
0.0
 40
0.16674609375
100
AcDbArc
 50
36.0318790724706
 51
50.83328928387988
  0
INSERT
  5
76A
330
745
100
AcDbEntity
  8
10
 62
     1
100
AcDbBlockReference
  2
A$C5A7A0274
 10
5.548059539119257
 20
0.0331957830881047
 30
0.0
 41
0.159375
 42
0.1593749999999998
 43
0.159375
  0
ENDBLK
  5
76B
330
745
100
AcDbEntity
  8
0
100
AcDbBlockEnd
  0
BLOCK
  5
7ED
330
774
100
AcDbEntity
  8
0
100
AcDbBlockBegin
  2
STD50006-8X11
 70
     0
 10
0.0
 20
0.0
 30
0.0
  3
STD50006-8X11
  1

  0
MTEXT
  5
775
330
774
100
AcDbEntity
  8
10
100
AcDbMText
 10
6.66159201029043
 20
7.834063746180479
 30
0.0
 40
0.100000008
 41
2.4400001952
 71
     2
 72
     5
  1
Description
  7
ACANSTS
 73
     1
 44
1.0
1001
ACAD
1000
MTEXTBEGIN
1070
    73
1070
     1
1070
    44
1040
1.0
1070
    74
1070
     0
1000
MTEXTEND
  0
MTEXT
  5
776
330
774
100
AcDbEntity
  8
10
100
AcDbMText
 10
7.693468296837739
 20
7.560492295723335
 30
0.0
 40
0.100000008
 41
0.0
 71
     5
 72
     5
  1
PART DESCRIPTION (MOLD NUMBER)
  7
ACANSTS
 73
     1
 44
1.0
1001
ACAD
1000
MTEXTBEGIN
1070
    73
1070
     1
1070
    44
1040
1.0
1070
    74
1070
     0
1000
MTEXTEND
  0
LINE
  5
777
330
774
100
AcDbEntity
  8
10
100
AcDbLine
 10
0.1961743114766824
 20
8.303825688523339
 30
0.0
 11
10.80382568852344
 21
8.303825688523335
 31
0.0
  0
LINE
  5
778
330
774
100
AcDbEntity
  8
10
100
AcDbLine
 10
4.583110905152018
 20
8.303825688523335
 30
0.0
 11
10.80382568852345
 21
8.303825688523335
 31
0.0
  0
LINE
  5
779
330
774
100
AcDbEntity
  8
10
100
AcDbLine
 10
4.583110905152018
 20
8.091444719151906
 30
0.0
 11
10.80382568852345
 21
8.091444719151906
 31
0.0
  0
LINE
  5
77A
330
774
100
AcDbEntity
  8
10
100
AcDbLine
 10
10.80382568852345
 20
7.454301811037624
 30
0.0
 11
4.583110905152018
 21
7.454301811037624
 31
0.0
  0
LINE
  5
77B
330
774
100
AcDbEntity
  8
10
100
AcDbLine
 10
4.583110905152018
 20
7.666682780409049
 30
0.0
 11
10.80382568852345
 21
7.666682780409049
 31
0.0
  0
LINE
  5
77C
330
774
100
AcDbEntity
  8
10
100
AcDbLine
 10
4.583110905152018
 20
7.879063749780479
 30
0.0
 11
10.80382568852345
 21
7.879063749780479
 31
0.0
  0
LINE
  5
77D
330
774
100
AcDbEntity
  8
10
100
AcDbLine
 10
0.1961743114766616
 20
0.1961743114766623
 30
0.0
 11
10.80382568852344
 21
0.1961743114766557
 31
0.0
  0
LINE
  5
77E
330
774
100
AcDbEntity
  8
10
100
AcDbLine
 10
0.1961743114766672
 20
8.303825688523344
 30
0.0
 11
0.1961743114766616
 21
0.1961743114766623
 31
0.0
  0
CIRCLE
  5
77F
330
774
100
AcDbEntity
  8
10
 62
     1
100
AcDbCircle
 10
0.1961743114766589
 20
0.1961743114766623
 30
0.0
 40
0.1111040097775731
  0
LINE
  5
780
330
774
100
AcDbEntity
  8
10
100
AcDbLine
 10
0.0000000000000029
 20
0.1961743114766623
 30
0.0
 11
0.0
 21
0.0
 31
0.0
  0
LINE
  5
781
330
774
100
AcDbEntity
  8
10
100
AcDbLine
 10
0.0
 20
0.0
 30
0.0
 11
0.1961743114766616
 21
-0.0000000000000004
 31
0.0
  0
LINE
  5
782
330
774
100
AcDbEntity
  8
10
100
AcDbLine
 10
0.0000000000000149
 20
8.500000000000001
 30
0.0
 11
0.1961743114766764
 21
8.500000000000001
 31
0.0
  0
LINE
  5
783
330
774
100
AcDbEntity
  8
10
100
AcDbLine
 10
0.0000000000000149
 20
8.500000000000001
 30
0.0
 11
0.0000000000000178
 21
8.303825688523335
 31
0.0
  0
MTEXT
  5
784
330
774
100
AcDbEntity
  8
10
100
AcDbMText
 10
4.958825220923447
 20
8.208825680923336
 30
0.0
 40
0.100000008
 41
0.0
 71
     4
 72
     5
  1
 XXXXX
  7
ACANSTS
 73
     1
 44
1.0
1001
ACAD
1000
MTEXTBEGIN
1070
    73
1070
     1
1070
    44
1040
1.0
1070
    74
1070
     0
1000
MTEXTEND
  0
MTEXT
  5
785
330
774
100
AcDbEntity
  8
10
100
AcDbMText
 10
4.958825220923447
 20
7.996444711551905
 30
0.0
 40
0.100000008
 41
2.4400001952
 71
     4
 72
     5
  1
 XXXXX
  7
ACANSTS
 73
     1
 44
1.0
1001
ACAD
1000
MTEXTBEGIN
1070
    73
1070
     1
1070
    44
1040
1.0
1070
    74
1070
     0
1000
MTEXTEND
  0
LINE
  5
786
330
774
100
AcDbEntity
  8
10
100
AcDbLine
 10
4.583110905152018
 20
7.454301811037624
 30
0.0
 11
4.583110905152018
 21
8.303825688523335
 31
0.0
  0
MTEXT
  5
787
330
774
100
AcDbEntity
  8
10
100
AcDbMText
 10
4.755968061837734
 20
8.258825684923337
 30
0.0
 40
0.100000008
 41
0.2857407636
 71
     2
 72
     5
  1
H02
  7
ACANSTS
 73
     1
 44
1.0
1001
ACAD
1000
MTEXTBEGIN
1070
    73
1070
     1
1070
    44
1040
1.0
1070
    74
1070
     0
1000
MTEXTEND
  0
MTEXT
  5
788
330
774
100
AcDbEntity
  8
10
100
AcDbMText
 10
4.755968061837734
 20
8.046444715551906
 30
0.0
 40
0.100000008
 41
0.2857407636
 71
     2
 72
     5
  1
H01
  7
ACANSTS
 73
     1
 44
1.0
1001
ACAD
1000
MTEXTBEGIN
1070
    73
1070
     1
1070
    44
1040
1.0
1070
    74
1070
     0
1000
MTEXTEND
  0
MTEXT
  5
789
330
774
100
AcDbEntity
  8
10
100
AcDbMText
 10
4.755968061837734
 20
7.834063746180479
 30
0.0
 40
0.100000008
 41
0.2857143085714286
 71
     2
 72
     5
  1
Item
  7
ACANSTS
 73
     1
 44
1.0
1001
ACAD
1000
MTEXTBEGIN
1070
    73
1070
     1
1070
    44
1040
1.0
1070
    74
1070
     0
1000
MTEXTEND
  0
LINE
  5
78A
330
774
100
AcDbEntity
  8
10
100
AcDbLine
 10
4.928825218523449
 20
8.091444719151906
 30
0.0
 11
4.928825218523449
 21
7.879063749780479
 31
0.0
  0
LINE
  5
78B
330
774
100
AcDbEntity
  8
10
100
AcDbLine
 10
4.928825218523449
 20
7.879063749780479
 30
0.0
 11
4.928825218523449
 21
7.666682780409049
 31
0.0
  0
LINE
  5
78C
330
774
100
AcDbEntity
  8
10
100
AcDbLine
 10
4.928825218523449
 20
8.303825688523335
 30
0.0
 11
4.928825218523449
 21
8.091444719151906
 31
0.0
  0
LINE
  5
78D
330
774
100
AcDbEntity
  8
10
100
AcDbLine
 10
10.80382568852344
 20
8.303825688523335
 30
0.0
 11
10.80382568852344
 21
0.1961743114766557
 31
0.0
  0
LINE
  5
78E
330
774
100
AcDbEntity
  8
L-REV
100
AcDbLine
 10
10.80382568852345
 20
8.303825688523335
 30
0.0
 11
10.80382568852344
 21
0.1961743114766557
 31
0.0
  0
LINE
  5
78F
330
774
100
AcDbEntity
  8
L-REV
100
AcDbLine
 10
11.20382568852344
 20
0.1961743114766557
 30
0.0
 11
11.20382568852344
 21
8.303825688523339
 31
0.0
  0
LINE
  5
790
330
774
100
AcDbEntity
  8
L-REV
100
AcDbLine
 10
11.60382568852344
 20
0.1961743114766557
 30
0.0
 11
11.60382568852345
 21
8.303825688523339
 31
0.0
  0
LINE
  5
791
330
774
100
AcDbEntity
  8
L-REV
100
AcDbLine
 10
13.60382568852343
 20
0.1961743114766557
 30
0.0
 11
13.60382568852344
 21
8.303825688523339
 31
0.0
  0
LINE
  5
792
330
774
100
AcDbEntity
  8
L-REV
100
AcDbLine
 10
14.00382568852343
 20
0.1961743114766557
 30
0.0
 11
14.00382568852344
 21
8.303825688523339
 31
0.0
  0
LINE
  5
793
330
774
100
AcDbEntity
  8
L-REV
100
AcDbLine
 10
10.80382568852345
 20
2.503825688523336
 30
0.0
 11
14.00382568852345
 21
2.503825688523336
 31
0.0
  0
LINE
  5
794
330
774
100
AcDbEntity
  8
L-REV
100
AcDbLine
 10
10.80382568852345
 20
0.5038256885233397
 30
0.0
 11
14.00382568852344
 21
0.5038256885233348
 31
0.0
  0
LINE
  5
795
330
774
100
AcDbEntity
  8
L-REV
100
AcDbLine
 10
10.80382568852345
 20
0.7038256885233385
 30
0.0
 11
14.00382568852344
 21
0.7038256885233345
 31
0.0
  0
LINE
  5
796
330
774
100
AcDbEntity
  8
L-REV
100
AcDbLine
 10
10.80382568852345
 20
0.9038256885233391
 30
0.0
 11
14.00382568852344
 21
0.9038256885233341
 31
0.0
  0
LINE
  5
797
330
774
100
AcDbEntity
  8
L-REV
100
AcDbLine
 10
10.80382568852345
 20
1.303825688523339
 30
0.0
 11
14.00382568852344
 21
1.303825688523334
 31
0.0
  0
LINE
  5
798
330
774
100
AcDbEntity
  8
L-REV
100
AcDbLine
 10
10.80382568852345
 20
1.703825688523338
 30
0.0
 11
14.00382568852344
 21
1.703825688523334
 31
0.0
  0
LINE
  5
799
330
774
100
AcDbEntity
  8
L-REV
100
AcDbLine
 10
10.80382568852345
 20
2.103825688523336
 30
0.0
 11
14.00382568852344
 21
2.103825688523336
 31
0.0
  0
LINE
  5
79A
330
774
100
AcDbEntity
  8
L-REV
100
AcDbLine
 10
10.80382568852345
 20
1.103825688523338
 30
0.0
 11
14.00382568852344
 21
1.103825688523334
 31
0.0
  0
LINE
  5
79B
330
774
100
AcDbEntity
  8
L-REV
100
AcDbLine
 10
10.80382568852345
 20
1.503825688523339
 30
0.0
 11
14.00382568852344
 21
1.503825688523335
 31
0.0
  0
LINE
  5
79C
330
774
100
AcDbEntity
  8
L-REV
100
AcDbLine
 10
10.80382568852345
 20
1.903825688523339
 30
0.0
 11
14.00382568852344
 21
1.903825688523333
 31
0.0
  0
LINE
  5
79D
330
774
100
AcDbEntity
  8
L-REV
100
AcDbLine
 10
10.80382568852345
 20
2.303825688523336
 30
0.0
 11
14.00382568852344
 21
2.303825688523336
 31
0.0
  0
LINE
  5
79E
330
774
100
AcDbEntity
  8
L-REV
100
AcDbLine
 10
14.00382568852343
 20
0.1961743114766557
 30
0.0
 11
10.80382568852344
 21
0.1961743114766557
 31
0.0
  0
MTEXT
  5
79F
330
774
100
AcDbEntity
  8
L-REV
100
AcDbMText
 10
10.88037387679967
 20
0.3286379474126613
 30
0.0
 40
0.072
 41
0.0
 71
     1
 72
     5
  1
REV#
 73
     1
 44
1.0
1001
ACAD
1000
MTEXTBEGIN
1070
    73
1070
     1
1070
    44
1040
1.0
1070
    74
1070
     0
1000
MTEXTEND
  0
MTEXT
  5
7A0
330
774
100
AcDbEntity
  8
L-REV
100
AcDbMText
 10
13.68302671509646
 20
0.3286379474126591
 30
0.0
 40
0.072
 41
0.0
 71
     1
 72
     5
  1
DATE
 73
     1
 44
1.0
1001
ACAD
1000
MTEXTBEGIN
1070
    73
1070
     1
1070
    44
1040
1.0
1070
    74
1070
     0
1000
MTEXTEND
  0
MTEXT
  5
7A1
330
774
100
AcDbEntity
  8
L-REV
100
AcDbMText
 10
12.2471720750865
 20
0.3362770886313844
 30
0.0
 40
0.072
 41
0.0
 71
     1
 72
     5
  1
DESCRIPTION
 73
     1
 44
1.0
1001
ACAD
1000
MTEXTBEGIN
1070
    73
1070
     1
1070
    44
1040
1.0
1070
    74
1070
     0
1000
MTEXTEND
  0
MTEXT
  5
7A2
330
774
100
AcDbEntity
  8
L-REV
100
AcDbMText
 10
11.34341352017788
 20
0.3286379474126613
 30
0.0
 40
0.072
 41
0.0
 71
     1
 72
     5
  1
BY
 73
     1
 44
1.0
1001
ACAD
1000
MTEXTBEGIN
1070
    73
1070
     1
1070
    44
1040
1.0
1070
    74
1070
     0
1000
MTEXTEND
  0
LINE
  5
7A3
330
774
100
AcDbEntity
  8
10
100
AcDbLine
 10
14.00385137704678
 20
-0.0000000000000036
 30
0.0
 11
14.20002568852345
 21
-0.0000000000000067
 31
0.0
  0
LINE
  5
7A4
330
774
100
AcDbEntity
  8
10
100
AcDbLine
 10
14.20002568852344
 20
-0.0000000000000067
 30
0.0
 11
14.20002568852344
 21
0.196174311476657
 31
0.0
  0
LINE
  5
7A5
330
774
100
AcDbEntity
  8
L-REV
100
AcDbLine
 10
10.80382568852345
 20
8.303825688523335
 30
0.0
 11
14.00382568852345
 21
8.303825688523335
 31
0.0
  0
LINE
  5
7A6
330
774
100
AcDbEntity
  8
L-REV
100
AcDbLine
 10
10.80382568852345
 20
7.903825688523337
 30
0.0
 11
14.00382568852345
 21
7.903825688523337
 31
0.0
  0
LINE
  5
7A7
330
774
100
AcDbEntity
  8
L-REV
100
AcDbLine
 10
10.80382568852345
 20
8.103825688523336
 30
0.0
 11
14.00382568852345
 21
8.103825688523336
 31
0.0
  0
LINE
  5
7A8
330
774
100
AcDbEntity
  8
L-REV
100
AcDbLine
 10
10.80382568852345
 20
7.303825688523336
 30
0.0
 11
14.00382568852345
 21
7.303825688523336
 31
0.0
  0
LINE
  5
7A9
330
774
100
AcDbEntity
  8
L-REV
100
AcDbLine
 10
10.80382568852345
 20
7.703825688523334
 30
0.0
 11
14.00382568852345
 21
7.703825688523334
 31
0.0
  0
LINE
  5
7AA
330
774
100
AcDbEntity
  8
L-REV
100
AcDbLine
 10
10.80382568852345
 20
7.503825688523336
 30
0.0
 11
14.00382568852345
 21
7.503825688523336
 31
0.0
  0
LINE
  5
7AB
330
774
100
AcDbEntity
  8
L-REV
100
AcDbLine
 10
10.80382568852345
 20
7.103825688523337
 30
0.0
 11
14.00382568852345
 21
7.103825688523337
 31
0.0
  0
LINE
  5
7AC
330
774
100
AcDbEntity
  8
L-REV
100
AcDbLine
 10
10.80382568852345
 20
6.903825688523339
 30
0.0
 11
14.00382568852345
 21
6.903825688523339
 31
0.0
  0
LINE
  5
7AD
330
774
100
AcDbEntity
  8
L-REV
100
AcDbLine
 10
10.80382568852345
 20
7.303825688523336
 30
0.0
 11
14.00382568852345
 21
7.303825688523336
 31
0.0
  0
LINE
  5
7AE
330
774
100
AcDbEntity
  8
L-REV
100
AcDbLine
 10
10.80382568852345
 20
4.103825688523336
 30
0.0
 11
14.00382568852345
 21
4.103825688523338
 31
0.0
  0
LINE
  5
7AF
330
774
100
AcDbEntity
  8
L-REV
100
AcDbLine
 10
10.80382568852345
 20
4.503825688523334
 30
0.0
 11
14.00382568852345
 21
4.503825688523336
 31
0.0
  0
LINE
  5
7B0
330
774
100
AcDbEntity
  8
L-REV
100
AcDbLine
 10
10.80382568852345
 20
3.903825688523335
 30
0.0
 11
14.00382568852345
 21
3.903825688523336
 31
0.0
  0
LINE
  5
7B1
330
774
100
AcDbEntity
  8
L-REV
100
AcDbLine
 10
10.80382568852345
 20
4.303825688523335
 30
0.0
 11
14.00382568852345
 21
4.303825688523336
 31
0.0
  0
LINE
  5
7B2
330
774
100
AcDbEntity
  8
L-REV
100
AcDbLine
 10
10.80382568852345
 20
4.903825688523333
 30
0.0
 11
14.00382568852345
 21
4.903825688523338
 31
0.0
  0
LINE
  5
7B3
330
774
100
AcDbEntity
  8
L-REV
100
AcDbLine
 10
10.80382568852345
 20
5.303825688523335
 30
0.0
 11
14.00382568852345
 21
5.303825688523335
 31
0.0
  0
LINE
  5
7B4
330
774
100
AcDbEntity
  8
L-REV
100
AcDbLine
 10
10.80382568852345
 20
5.703825688523338
 30
0.0
 11
14.00382568852345
 21
5.703825688523338
 31
0.0
  0
LINE
  5
7B5
330
774
100
AcDbEntity
  8
L-REV
100
AcDbLine
 10
10.80382568852345
 20
6.103825688523337
 30
0.0
 11
14.00382568852345
 21
6.103825688523337
 31
0.0
  0
LINE
  5
7B6
330
774
100
AcDbEntity
  8
L-REV
100
AcDbLine
 10
10.80382568852345
 20
6.503825688523336
 30
0.0
 11
14.00382568852345
 21
6.503825688523336
 31
0.0
  0
LINE
  5
7B7
330
774
100
AcDbEntity
  8
L-REV
100
AcDbLine
 10
10.80382568852345
 20
4.703825688523335
 30
0.0
 11
14.00382568852345
 21
4.703825688523338
 31
0.0
  0
LINE
  5
7B8
330
774
100
AcDbEntity
  8
L-REV
100
AcDbLine
 10
10.80382568852345
 20
5.103825688523337
 30
0.0
 11
14.00382568852345
 21
5.103825688523337
 31
0.0
  0
LINE
  5
7B9
330
774
100
AcDbEntity
  8
L-REV
100
AcDbLine
 10
10.80382568852345
 20
5.503825688523336
 30
0.0
 11
14.00382568852345
 21
5.503825688523336
 31
0.0
  0
LINE
  5
7BA
330
774
100
AcDbEntity
  8
L-REV
100
AcDbLine
 10
10.80382568852345
 20
5.903825688523339
 30
0.0
 11
14.00382568852345
 21
5.903825688523339
 31
0.0
  0
LINE
  5
7BB
330
774
100
AcDbEntity
  8
L-REV
100
AcDbLine
 10
10.80382568852345
 20
6.303825688523336
 30
0.0
 11
14.00382568852345
 21
6.303825688523336
 31
0.0
  0
LINE
  5
7BC
330
774
100
AcDbEntity
  8
L-REV
100
AcDbLine
 10
10.80382568852345
 20
6.703825688523339
 30
0.0
 11
14.00382568852345
 21
6.703825688523339
 31
0.0
  0
LINE
  5
7BD
330
774
100
AcDbEntity
  8
L-REV
100
AcDbLine
 10
10.80382568852345
 20
3.703825688523335
 30
0.0
 11
14.00382568852345
 21
3.703825688523337
 31
0.0
  0
LINE
  5
7BE
330
774
100
AcDbEntity
  8
L-REV
100
AcDbLine
 10
10.80382568852345
 20
3.303825688523335
 30
0.0
 11
14.00382568852345
 21
3.303825688523335
 31
0.0
  0
LINE
  5
7BF
330
774
100
AcDbEntity
  8
L-REV
100
AcDbLine
 10
10.80382568852345
 20
3.503825688523336
 30
0.0
 11
14.00382568852345
 21
3.503825688523336
 31
0.0
  0
LINE
  5
7C0
330
774
100
AcDbEntity
  8
L-REV
100
AcDbLine
 10
10.80382568852345
 20
2.903825688523335
 30
0.0
 11
14.00382568852345
 21
2.903825688523335
 31
0.0
  0
LINE
  5
7C1
330
774
100
AcDbEntity
  8
L-REV
100
AcDbLine
 10
10.80382568852345
 20
2.703825688523335
 30
0.0
 11
14.00382568852345
 21
2.703825688523335
 31
0.0
  0
LINE
  5
7C2
330
774
100
AcDbEntity
  8
L-REV
100
AcDbLine
 10
10.80382568852345
 20
3.103825688523336
 30
0.0
 11
14.00382568852345
 21
3.103825688523336
 31
0.0
  0
MTEXT
  5
7C3
330
774
100
AcDbEntity
  8
10
100
AcDbMText
 10
8.936620580571361
 20
7.834063746180479
 30
0.0
 40
0.100000008
 41
1.3466667744
 71
     2
 72
     5
  1
Material
  7
ACANSTS
 73
     1
 44
1.0
1001
ACAD
1000
MTEXTBEGIN
1070
    73
1070
     1
1070
    44
1040
1.0
1070
    74
1070
     0
1000
MTEXTEND
  0
MTEXT
  5
7C4
330
774
100
AcDbEntity
  8
10
100
AcDbMText
 10
8.936620580571361
 20
8.258825684923333
 30
0.0
 40
0.100000008
 41
1.3466667744
 71
     2
 72
     5
  1
VALOX 357
  7
ACANSTS
 73
     1
 44
1.0
1001
ACAD
1000
MTEXTBEGIN
1070
    73
1070
     1
1070
    44
1040
1.0
1070
    74
1070
     0
1000
MTEXTEND
  0
MTEXT
  5
7C5
330
774
100
AcDbEntity
  8
10
100
AcDbMText
 10
8.936620580571361
 20
8.046444715551904
 30
0.0
 40
0.100000008
 41
1.3466667744
 71
     2
 72
     5
  1
VALOX 357
  7
ACANSTS
 73
     1
 44
1.0
1001
ACAD
1000
MTEXTBEGIN
1070
    73
1070
     1
1070
    44
1040
1.0
1070
    74
1070
     0
1000
MTEXTEND
  0
LINE
  5
7C6
330
774
100
AcDbEntity
  8
10
100
AcDbLine
 10
8.081980311895913
 20
8.091444719151906
 30
0.0
 11
8.081980311895913
 21
7.879063749780479
 31
0.0
  0
LINE
  5
7C7
330
774
100
AcDbEntity
  8
10
100
AcDbLine
 10
8.081980311895913
 20
7.879063749780479
 30
0.0
 11
8.081980311895913
 21
7.666682780409049
 31
0.0
  0
LINE
  5
7C8
330
774
100
AcDbEntity
  8
10
100
AcDbLine
 10
8.081980311895913
 20
8.303825688523335
 30
0.0
 11
8.081980311895913
 21
8.091444719151906
 31
0.0
  0
MTEXT
  5
7C9
330
774
100
AcDbEntity
  8
10
100
AcDbMText
 10
10.2172314436741
 20
8.258825684923333
 30
0.0
 40
0.100000008
 41
0.9241667406000001
 71
     2
 72
     5
  1
RED
  7
ACANSTS
 73
     1
 44
1.0
1001
ACAD
1000
MTEXTBEGIN
1070
    73
1070
     1
1070
    44
1040
1.0
1070
    74
1070
     0
1000
MTEXTEND
  0
MTEXT
  5
7CA
330
774
100
AcDbEntity
  8
10
100
AcDbMText
 10
10.2172314436741
 20
8.046444715551904
 30
0.0
 40
0.100000008
 41
0.9241667406000001
 71
     2
 72
     5
  1
GREEN
  7
ACANSTS
 73
     1
 44
1.0
1001
ACAD
1000
MTEXTBEGIN
1070
    73
1070
     1
1070
    44
1040
1.0
1070
    74
1070
     0
1000
MTEXTEND
  0
MTEXT
  5
7CB
330
774
100
AcDbEntity
  8
10
100
AcDbMText
 10
10.2172314436741
 20
7.834063746180479
 30
0.0
 40
0.100000008
 41
0.9241667406000001
 71
     2
 72
     5
  1
Color
  7
ACANSTS
 73
     1
 44
1.0
1001
ACAD
1000
MTEXTBEGIN
1070
    73
1070
     1
1070
    44
1040
1.0
1070
    74
1070
     0
1000
MTEXTEND
  0
LINE
  5
7CC
330
774
100
AcDbEntity
  8
10
100
AcDbLine
 10
9.639953970171365
 20
7.666682780409049
 30
0.0
 11
9.639953970171362
 21
8.303825688523335
 31
0.0
  0
LINE
  5
7CD
330
774
100
AcDbEntity
  8
10
100
AcDbLine
 10
10.80382568852345
 20
8.303825688523335
 30
0.0
 11
10.80382568852345
 21
7.454301811037624
 31
0.0
  0
LINE
  5
7CE
330
774
100
AcDbEntity
  8
10
100
AcDbLine
 10
14.00385137704678
 20
8.500000000000001
 30
0.0
 11
14.20002568852345
 21
8.500000000000001
 31
0.0
  0
LINE
  5
7CF
330
774
100
AcDbEntity
  8
10
100
AcDbLine
 10
14.20002568852344
 20
8.500000000000001
 30
0.0
 11
14.20002568852344
 21
8.303825688523339
 31
0.0
  0
MTEXT
  5
7D0
330
774
100
AcDbEntity
  8
10
 62
     7
100
AcDbMText
 10
7.825787782870921
 20
1.484327851128144
 30
0.0
 40
0.045
 41
0.0
 71
     2
 72
     5
  1
{\fArial|b0|i0|c0|p34;\LTOLERANCE:\P\P\l  .XX +/- 0.02\P .XXX +/- 0.005\P.XXXX +/- 0.001\PANGLES +/- 0.5 DEG\P\H0.7778x;\P\H1.286x;UNLESS OTHERWISE \PSPECIFIED}
 73
     1
 44
1.0
1001
ACAD
1000
MTEXTBEGIN
1070
    73
1070
     1
1070
    44
1040
1.0
1070
    74
1070
     0
1000
MTEXTEND
  0
MTEXT
  5
7D1
102
{ACAD_XDICTIONARY
360
C76
102
}
330
774
100
AcDbEntity
  8
10
 62
     7
100
AcDbMText
 10
8.534103697292026
 20
1.023538202411762
 30
0.0
 40
0.05
 41
2.061478375197692
 71
     1
 72
     5
  1
{\fArial|b0|i0|c0|p34;P.O. BOX 496        BEAVER, PA 15009         \C256;www.c3controls.com}
 73
     1
 44
1.0
1001
ACAD
1000
MTEXTBEGIN
1070
    73
1070
     1
1070
    44
1040
1.0
1070
    74
1070
     0
1000
MTEXTEND
  0
IMAGE
  5
7D2
330
774
100
AcDbEntity
  8
10
 92
      140
310
8C000000010000008400000006000000050000001D4DB43CD40D2140EA516FE0E8D0F03F00000000000000001D4DB43CD40D21409E88EA39A15FF73F0000000000000000A5DE49F1B31D25409E88EA39A15FF73F0000000000000000A5DE49F1B31D2540EA516FE0E8D0F03F00000000000000001D4DB43CD40D2140EA516F
310
E0E8D0F03F0000000000000000
100
AcDbRasterImage
 90
        0
 10
8.527009865769793
 20
1.051003338526351
 30
0.0
 11
0.0091076395148456
 21
0.0
 31
0.0
 12
0.0
 22
0.0091076395148456
 32
0.0
 13
223.0
 23
45.0
340
7F0
 70
     7
280
     0
281
    50
282
    50
283
     0
360
7D3
 71
     1
 91
        2
 14
-0.5
 24
-0.5
 14
222.5
 24
44.5
  0
LINE
  5
7D4
330
774
100
AcDbEntity
  8
10
100
AcDbLine
 10
8.303825688523446
 20
0.9461743114766555
 30
0.0
 11
10.80382568852344
 21
0.9461743114766555
 31
0.0
  0
MTEXT
  5
7D5
330
774
100
AcDbEntity
  8
10
100
AcDbMText
 10
7.810416917469382
 20
0.4951779088847244
 30
0.0
 40
0.05
 41
0.9934087710540634
 71
     5
 72
     5
  1
{\fArial|b0|i0|c0|p34;\C7;This drawing is the property of \C5;c3\C7;controls.  The drawing may not be copied, used or disclosed, for any purpose except as authorized in writing by \C5;c3\C7;controls.}
  7
ADESK1
 73
     1
 44
1.0
1001
ACAD
1000
MTEXTBEGIN
1070
    73
1070
     1
1070
    44
1040
1.0
1070
    74
1070
     0
1000
MTEXTEND
  0
LINE
  5
7D6
330
774
100
AcDbEntity
  8
10
100
AcDbLine
 10
10.80382568852344
 20
0.4461743114766557
 30
0.0
 11
8.303825688523446
 21
0.4461743114766557
 31
0.0
  0
LINE
  5
7D7
330
774
100
AcDbEntity
  8
10
100
AcDbLine
 10
7.303825688523446
 20
0.1961743114766557
 30
0.0
 11
10.80382568852344
 21
0.1961743114766557
 31
0.0
  0
MTEXT
  5
7D8
330
774
100
AcDbEntity
  8
10
100
AcDbMText
 10
8.328668770674212
 20
0.9235976724297451
 30
0.0
 40
0.045
 41
0.4329439054016504
 71
     1
 72
     5
  1
{\fArial|b0|i0|c0|p34;\LDescription\l:}
  7
ADESK1
 73
     1
 44
1.0
1001
ACAD
1000
MTEXTBEGIN
1070
    73
1070
     1
1070
    44
1040
1.0
1070
    74
1070
     0
1000
MTEXTEND
  0
LINE
  5
7D9
330
774
100
AcDbEntity
  8
10
100
AcDbLine
 10
9.553825688523446
 20
0.1961743114766557
 30
0.0
 11
8.303825688523446
 21
0.1961743114766557
 31
0.0
  0
MTEXT
  5
7DA
330
774
100
AcDbEntity
  8
10
100
AcDbMText
 10
8.32802284328801
 20
0.2868720012243906
 30
0.0
 40
0.045
 41
0.1920968035785435
 71
     1
 72
     5
  1
{\fArial|b0|i0|c0|p34;\LDate\l:}
  7
ADESK1
 73
     1
 44
1.0
1001
ACAD
1000
MTEXTBEGIN
1070
    73
1070
     1
1070
    44
1040
1.0
1070
    74
1070
     0
1000
MTEXTEND
  0
LINE
  5
7DB
330
774
100
AcDbEntity
  8
10
100
AcDbLine
 10
8.303825688523446
 20
0.4461743114766557
 30
0.0
 11
8.303825688523446
 21
0.5711743114766557
 31
0.0
  0
MTEXT
  5
7DC
330
774
100
AcDbEntity
  8
10
100
AcDbMText
 10
8.324337016104422
 20
0.4118389523115078
 30
0.0
 40
0.045
 41
0.3748785207666998
 71
     1
 72
     5
  1
{\fArial|b0|i0|c0|p34;\LDrawn By\l:}
  7
ADESK1
 73
     1
 44
1.0
1001
ACAD
1000
MTEXTBEGIN
1070
    73
1070
     1
1070
    44
1040
1.0
1070
    74
1070
     0
1000
MTEXTEND
  0
LINE
  5
7DD
330
774
100
AcDbEntity
  8
10
100
AcDbLine
 10
7.303825688523446
 20
0.8211743114766555
 30
0.0
 11
8.303825688523446
 21
0.8211743114766555
 31
0.0
  0
MTEXT
  5
7DE
330
774
100
AcDbEntity
  8
10
100
AcDbMText
 10
9.068976160632743
 20
0.2871257996165633
 30
0.0
 40
0.045
 41
0.1651821716154203
 71
     1
 72
     5
  1
{\fArial|b0|i0|c0|p34;\LScale\l:}
  7
ADESK1
 73
     1
 44
1.0
1001
ACAD
1000
MTEXTBEGIN
1070
    73
1070
     1
1070
    44
1040
1.0
1070
    74
1070
     0
1000
MTEXTEND
  0
MTEXT
  5
7DF
330
774
100
AcDbEntity
  8
10
100
AcDbMText
 10
9.576446267369348
 20
0.4208917298119937
 30
0.0
 40
0.045
 41
0.6519284424069412
 71
     1
 72
     5
  1
{\fArial|b0|i0|c0|p34;\LDrawing Number\l:}
  7
ADESK1
 73
     1
 44
1.0
1001
ACAD
1000
MTEXTBEGIN
1070
    73
1070
     1
1070
    44
1040
1.0
1070
    74
1070
     0
1000
MTEXTEND
  0
LINE
  5
7E0
330
774
100
AcDbEntity
  8
10
100
AcDbLine
 10
7.303825688523446
 20
1.508674311476655
 30
0.0
 11
7.303825688523446
 21
0.1961743114766557
 31
0.0
  0
LINE
  5
7E1
330
774
100
AcDbEntity
  8
10
100
AcDbLine
 10
7.303825688523446
 20
1.508674311476655
 30
0.0
 11
10.80382568852344
 21
1.508674311476659
 31
0.0
  0
LINE
  5
7E2
330
774
100
AcDbEntity
  8
10
100
AcDbLine
 10
10.80382568852344
 20
1.508674311476659
 30
0.0
 11
10.80382568852344
 21
0.1961743114766557
 31
0.0
  0
LINE
  5
7E3
330
774
100
AcDbEntity
  8
10
100
AcDbLine
 10
8.303825688523446
 20
1.508674311476655
 30
0.0
 11
8.303825688523446
 21
0.1961743114766557
 31
0.0
  0
LINE
  5
7E4
330
774
100
AcDbEntity
  8
10
100
AcDbLine
 10
9.553825688523446
 20
0.4461743114766557
 30
0.0
 11
9.553825688523446
 21
0.1961743114766557
 31
0.0
  0
LINE
  5
7E5
330
774
100
AcDbEntity
  8
10
100
AcDbLine
 10
8.303825688523446
 20
0.3211743114766556
 30
0.0
 11
9.553825688523446
 21
0.3211743114766556
 31
0.0
  0
MTEXT
  5
7E6
102
{ACAD_XDICTIONARY
360
C78
102
}
330
774
100
AcDbEntity
  8
10
100
AcDbMText
 10
8.640777345549317
 20
0.4112478786675263
 30
0.0
 40
0.075
 41
0.8858571826804109
 71
     1
 72
     5
  1
{\fArial|b0|i0|c0|p34;  NAME}
  7
ADESK1
 73
     1
 44
1.0
1001
ACAD
1000
MTEXTBEGIN
1070
    73
1070
     1
1070
    44
1040
1.0
1070
    74
1070
     0
1000
MTEXTEND
  0
MTEXT
  5
7E7
330
774
100
AcDbEntity
  8
10
100
AcDbMText
 10
8.777374242347999
 20
0.2546743126943283
 30
0.0
 40
0.06
 41
0.5240277777777779
 71
     5
 72
     5
  1
{\fArial|b0|i0|c0|p34;MM-DD-YYYY}
  7
ADESK1
 73
     1
 44
1.0
1001
ACAD
1000
MTEXTBEGIN
1070
    73
1070
     1
1070
    44
1040
1.0
1070
    74
1070
     0
1000
MTEXTEND
  0
MTEXT
  5
7E8
330
774
100
AcDbEntity
  8
10
100
AcDbMText
 10
8.342268264633609
 20
0.8135691678395481
 30
0.0
 40
0.1
 41
2.39057925170068
 71
     1
 72
     5
  1
{\fArial|b0|i0|c0|p34;DESCRIPTION}
  7
ADESK1
 73
     1
 44
1.0
1001
ACAD
1000
MTEXTBEGIN
1070
    73
1070
     1
1070
    44
1040
1.0
1070
    74
1070
     0
1000
MTEXTEND
  0
MTEXT
  5
7E9
330
774
100
AcDbEntity
  8
10
100
AcDbMText
 10
10.21942521872159
 20
0.2688981892586812
 30
0.0
 40
0.125
 41
1.015727699530516
 71
     5
 72
     5
  1
{\fArial|b0|i0|c0|p34;XXXXXXXX}
  7
ADESK1
 73
     1
 44
1.0
1001
ACAD
1000
MTEXTBEGIN
1070
    73
1070
     1
1070
    44
1040
1.0
1070
    74
1070
     0
1000
MTEXTEND
  0
MTEXT
  5
7EA
330
774
100
AcDbEntity
  8
10
100
AcDbMText
 10
9.389563639441231
 20
0.2573750034360827
 30
0.0
 40
0.06
 41
0.1329061784897025
 71
     5
 72
     5
  1
{\fArial|b0|i0|c0|p34;1:1}
  7
ADESK1
 73
     1
 44
1.0
1001
ACAD
1000
MTEXTBEGIN
1070
    73
1070
     1
1070
    44
1040
1.0
1070
    74
1070
     0
1000
MTEXTEND
  0
LINE
  5
7EB
330
774
100
AcDbEntity
  8
10
100
AcDbLine
 10
9.053825688523446
 20
0.3211743114766556
 30
0.0
 11
9.053825688523446
 21
0.1961743114766557
 31
0.0
  0
ENDBLK
  5
7EE
330
774
100
AcDbEntity
  8
0
100
AcDbBlockEnd
  0
BLOCK
  5
9EC
330
9EB
100
AcDbEntity
  8
0
100
AcDbBlockBegin
  2
k
 70
     0
 10
0.0
 20
0.0
 30
0.0
  3
k
  1

  0
LINE
  5
9ED
330
9EB
100
AcDbEntity
  8
4
 62
   131
100
AcDbLine
 10
-2332.537766216045
 20
-24.38202179450286
 30
0.0
 11
-2357.537766216045
 21
-24.38202179450263
 31
0.0
  0
LINE
  5
9EE
330
9EB
100
AcDbEntity
  8
4
 62
   131
100
AcDbLine
 10
-2332.537766216045
 20
-25.88202179450286
 30
0.0
 11
-2357.537766216045
 21
-25.88202179450286
 31
0.0
  0
ARC
  5
9EF
330
9EB
100
AcDbEntity
  8
4
 62
   131
100
AcDbCircle
 10
-2357.537766216045
 20
-20.38202179450286
 30
0.0
 40
3.5
100
AcDbArc
 50
90.0
 51
180.0
  0
ARC
  5
9F0
330
9EB
100
AcDbEntity
  8
4
 62
   131
100
AcDbCircle
 10
-2357.537766216045
 20
-20.38202179450286
 30
0.0
 40
2.0
100
AcDbArc
 50
90.0
 51
180.0
  0
ARC
  5
9F1
330
9EB
100
AcDbEntity
  8
4
 62
   131
100
AcDbCircle
 10
-2357.537766216045
 20
-22.38202179450263
 30
0.0
 40
3.5
100
AcDbArc
 50
180.0
 51
270.0
  0
ARC
  5
9F2
330
9EB
100
AcDbEntity
  8
4
 62
   131
100
AcDbCircle
 10
-2357.537766216045
 20
-22.38202179450263
 30
0.0
 40
2.0
100
AcDbArc
 50
180.0
 51
270.0
  0
LINE
  5
9F3
330
9EB
100
AcDbEntity
  8
4
 62
   131
100
AcDbLine
 10
-2359.537766216044
 20
-20.38202179450286
 30
0.0
 11
-2359.537766216044
 21
-22.38202179450263
 31
0.0
  0
LINE
  5
9F4
330
9EB
100
AcDbEntity
  8
4
 62
   131
100
AcDbLine
 10
-2361.037766216044
 20
-20.38202179450286
 30
0.0
 11
-2361.037766216044
 21
-22.38202179450263
 31
0.0
  0
LINE
  5
9F5
330
9EB
100
AcDbEntity
  8
4
 62
   131
100
AcDbLine
 10
-2356.037766216044
 20
-18.38202179450286
 30
0.0
 11
-2357.537766216045
 21
-18.38202179450286
 31
0.0
  0
LINE
  5
9F6
330
9EB
100
AcDbEntity
  8
4
 62
   131
100
AcDbLine
 10
-2356.037766216044
 20
-16.88202179450286
 30
0.0
 11
-2357.537766216045
 21
-16.88202179450286
 31
0.0
  0
LINE
  5
9F7
330
9EB
100
AcDbEntity
  8
4
 62
   131
100
AcDbLine
 10
-2356.037766216044
 20
-16.88202179450286
 30
0.0
 11
-2356.037766216045
 21
-18.38202179450297
 31
0.0
  0
LINE
  5
9F8
330
9EB
100
AcDbEntity
  8
4
 62
   131
100
AcDbLine
 10
-2330.537766216045
 20
-14.38202179450263
 30
0.0
 11
-2330.537766216044
 21
-22.38202179450275
 31
0.0
  0
LINE
  5
9F9
330
9EB
100
AcDbEntity
  8
4
 62
   131
100
AcDbLine
 10
-2329.037766216045
 20
-14.38202179450263
 30
0.0
 11
-2329.037766216044
 21
-22.38202179450275
 31
0.0
  0
ARC
  5
9FA
330
9EB
100
AcDbEntity
  8
4
 62
   131
100
AcDbCircle
 10
-2332.537766216045
 20
-22.38202179450286
 30
0.0
 40
3.5
100
AcDbArc
 50
270.0
 51
0.0
  0
ARC
  5
9FB
330
9EB
100
AcDbEntity
  8
4
 62
   131
100
AcDbCircle
 10
-2332.537766216045
 20
-22.38202179450286
 30
0.0
 40
2.0
100
AcDbArc
 50
270.0
 51
0.0
  0
LINE
  5
9FC
330
9EB
100
AcDbEntity
  8
4
 62
   131
100
AcDbLine
 10
-2332.537766216045
 20
-12.38202179450275
 30
0.0
 11
-2339.537766216045
 21
-12.38202179450275
 31
0.0
  0
LINE
  5
9FD
330
9EB
100
AcDbEntity
  8
4
 62
   131
100
AcDbLine
 10
-2332.537766216045
 20
-10.88202179450274
 30
0.0
 11
-2339.537766216045
 21
-10.88202179450274
 31
0.0
  0
LINE
  5
9FE
330
9EB
100
AcDbEntity
  8
4
 62
   131
100
AcDbLine
 10
-2339.537766216045
 20
-10.88202179450286
 30
0.0
 11
-2339.537766216045
 21
-12.38202179450275
 31
0.0
  0
ARC
  5
9FF
330
9EB
100
AcDbEntity
  8
4
 62
   131
100
AcDbCircle
 10
-2332.537766216045
 20
-14.38202179450275
 30
0.0
 40
3.5
100
AcDbArc
 50
0.0
 51
90.0
  0
ARC
  5
A00
330
9EB
100
AcDbEntity
  8
4
 62
   131
100
AcDbCircle
 10
-2332.537766216045
 20
-14.38202179450275
 30
0.0
 40
2.0
100
AcDbArc
 50
0.0
 51
90.0
  0
ENDBLK
  5
A01
330
9EB
100
AcDbEntity
  8
0
100
AcDbBlockEnd
  0
BLOCK
  5
A05
330
A02
100
AcDbEntity
  8
0
100
AcDbBlockBegin
  2
A$C09817B0B
 70
     0
 10
0.0
 20
0.0
 30
0.0
  3
A$C09817B0B
  1

  0
LINE
  5
A06
330
A02
100
AcDbEntity
  8
0
 62
    30
100
AcDbLine
 10
-0.4920717370586729
 20
0.0393657389647011
 30
0.0
 11
0.4920717370587014
 21
0.0393657389646869
 31
0.0
  0
LINE
  5
A07
330
A02
100
AcDbEntity
  8
0
 62
    30
100
AcDbLine
 10
-0.4723888675763491
 20
0.0000000000000036
 30
0.0
 11
0.4723888675763491
 21
-0.0000000000000036
 31
0.0
  0
LINE
  5
A08
330
A02
100
AcDbEntity
  8
0
 62
    30
100
AcDbLine
 10
-0.4920717370586729
 20
0.0393657389647011
 30
0.0
 11
-0.4920717370586729
 21
0.2283212859952322
 31
0.0
  0
LINE
  5
A09
330
A02
100
AcDbEntity
  8
0
 62
    30
100
AcDbLine
 10
-0.5314374760233918
 20
0.0590486084470463
 30
0.0
 11
-0.5314374760233776
 21
0.2283212859952322
 31
0.0
  0
ARC
  5
A0A
330
A02
100
AcDbEntity
  8
0
 62
    30
100
AcDbCircle
 10
-0.4723888675763491
 20
0.0590486084470463
 30
0.0
 40
0.0590486084470423
100
AcDbArc
 50
180.0
 51
270.0
  0
LINE
  5
A0B
330
A02
100
AcDbEntity
  8
0
 62
    30
100
AcDbLine
 10
-0.6889004318821535
 20
0.2873698944422749
 30
0.0
 11
-0.5511203455057157
 21
0.2873698944422749
 31
0.0
  0
LINE
  5
A0C
330
A02
100
AcDbEntity
  8
0
 62
    30
100
AcDbLine
 10
-0.6889004318821535
 20
0.2480041554775774
 30
0.0
 11
-0.5511203455057157
 21
0.2480041554775774
 31
0.0
  0
LINE
  5
A0D
330
A02
100
AcDbEntity
  8
0
 62
    30
100
AcDbLine
 10
-0.6889004318821535
 20
0.2873698944422749
 30
0.0
 11
-0.6889004318821393
 21
0.2480041554775774
 31
0.0
  0
ARC
  5
A0E
330
A02
100
AcDbEntity
  8
0
 62
    30
100
AcDbCircle
 10
-0.5511203455057157
 20
0.2283212859952322
 30
0.0
 40
0.0590486084470423
100
AcDbArc
 50
0.0
 51
90.0
  0
ARC
  5
A0F
330
A02
100
AcDbEntity
  8
0
 62
    30
100
AcDbCircle
 10
-0.5511203455057157
 20
0.2283212859952322
 30
0.0
 40
0.0196828694823474
100
AcDbArc
 50
0.0
 51
90.0
  0
LINE
  5
A10
330
A02
100
AcDbEntity
  8
0
 62
    30
100
AcDbLine
 10
0.4920717370587014
 20
0.0393657389646869
 30
0.0
 11
0.4920717370587014
 21
0.2283212859952322
 31
0.0
  0
LINE
  5
A11
330
A02
100
AcDbEntity
  8
0
 62
    30
100
AcDbLine
 10
0.5314374760233918
 20
0.0590486084470392
 30
0.0
 11
0.5314374760233918
 21
0.2283212859952322
 31
0.0
  0
ARC
  5
A12
330
A02
100
AcDbEntity
  8
0
 62
    30
100
AcDbCircle
 10
0.4723888675763491
 20
0.0590486084470392
 30
0.0
 40
0.0590486084470423
100
AcDbArc
 50
270.0
 51
0.0
  0
ARC
  5
A13
330
A02
100
AcDbEntity
  8
0
 62
    30
100
AcDbCircle
 10
0.5511203455057441
 20
0.2283212859952322
 30
0.0
 40
0.0590486084470423
100
AcDbArc
 50
90.0
 51
180.0
  0
ARC
  5
A14
330
A02
100
AcDbEntity
  8
0
 62
    30
100
AcDbCircle
 10
0.5511203455057441
 20
0.2283212859952322
 30
0.0
 40
0.0196828694823474
100
AcDbArc
 50
90.0
 51
180.0
  0
LINE
  5
A15
330
A02
100
AcDbEntity
  8
0
 62
    30
100
AcDbLine
 10
0.5511203455057441
 20
0.2873698944422749
 30
0.0
 11
0.6889004318821677
 21
0.2873698944422678
 31
0.0
  0
LINE
  5
A16
330
A02
100
AcDbEntity
  8
0
 62
    30
100
AcDbLine
 10
0.6889004318821677
 20
0.2873698944422678
 30
0.0
 11
0.6889004318821819
 21
0.2480041554775774
 31
0.0
  0
LINE
  5
A17
330
A02
100
AcDbEntity
  8
0
 62
    30
100
AcDbLine
 10
0.5511203455057441
 20
0.2480041554775774
 30
0.0
 11
0.6889004318821677
 21
0.2480041554775774
 31
0.0
  0
ENDBLK
  5
A18
330
A02
100
AcDbEntity
  8
0
100
AcDbBlockEnd
  0
BLOCK
  5
BCA
330
BBD
100
AcDbEntity
  8
0
100
AcDbBlockBegin
  2
*D12
 70
     1
 10
0.0
 20
0.0
 30
0.0
  3
*D12
  1

  0
LINE
  5
BBE
330
BBD
100
AcDbEntity
  8
0
 62
     0
370
    -2
100
AcDbLine
 10
1.634575640861662
 20
6.123622423383792
 30
0.0
 11
1.313206934565791
 21
6.123622423383792
 31
0.0
  0
LINE
  5
BBF
330
BBD
100
AcDbEntity
  8
0
 62
     0
370
    -2
100
AcDbLine
 10
1.634575640861662
 20
5.761417699343794
 30
0.0
 11
1.313206934565791
 21
5.761417699343794
 31
0.0
  0
LINE
  5
BC0
330
BBD
100
AcDbEntity
  8
0
 62
     0
370
    -2
100
AcDbLine
 10
1.49320693456579
 20
6.248622423383792
 30
0.0
 11
1.49320693456579
 21
6.373622423383792
 31
0.0
  0
LINE
  5
BC1
330
BBD
100
AcDbEntity
  8
0
 62
     0
370
    -2
100
AcDbLine
 10
1.49320693456579
 20
5.636417699343794
 30
0.0
 11
1.49320693456579
 21
5.511417699343794
 31
0.0
  0
LINE
  5
BC2
330
BBD
100
AcDbEntity
  8
0
 62
     0
370
    -2
100
AcDbLine
 10
1.49320693456579
 20
5.511417699343794
 30
0.0
 11
1.368206934565791
 21
5.511417699343794
 31
0.0
  0
SOLID
  5
BC3
330
BBD
100
AcDbEntity
  8
0
 62
     0
100
AcDbTrace
 10
1.472373601232457
 20
6.248622423383792
 30
0.0
 11
1.514040267899124
 21
6.248622423383792
 31
0.0
 12
1.49320693456579
 22
6.123622423383792
 32
0.0
 13
1.49320693456579
 23
6.123622423383792
 33
0.0
  0
SOLID
  5
BC4
330
BBD
100
AcDbEntity
  8
0
 62
     0
100
AcDbTrace
 10
1.472373601232457
 20
5.636417699343794
 30
0.0
 11
1.514040267899124
 21
5.636417699343794
 31
0.0
 12
1.49320693456579
 22
5.761417699343794
 32
0.0
 13
1.49320693456579
 23
5.761417699343794
 33
0.0
  0
MTEXT
  5
BC5
330
BBD
100
AcDbEntity
  8
0
 62
     0
100
AcDbMText
 10
0.8475452701728841
 20
5.693320837133698
 30
0.0
 40
0.18
 41
0.0
 71
     5
 72
     1
  1
\A1;9 mm
  7
outline drawings
 73
     1
 44
1.0
1001
ACAD
1000
MTEXTBEGIN
1070
    73
1070
     1
1070
    44
1040
1.0
1070
    74
1070
     0
1000
MTEXTEND
  0
MTEXT
  5
BC6
330
BBD
100
AcDbEntity
  8
0
 62
     0
100
AcDbMText
 10
0.8475452701728841
 20
5.306062992658937
 30
0.0
 40
0.18
 41
0.0
 71
     5
 72
     1
  1
\A1;[0.36 in]
  7
outline drawings
 73
     1
 44
1.0
1001
ACAD
1000
MTEXTBEGIN
1070
    73
1070
     1
1070
    44
1040
1.0
1070
    74
1070
     0
1000
MTEXTEND
  0
POINT
  5
BC7
330
BBD
100
AcDbEntity
  8
Defpoints
 62
     0
100
AcDbPoint
 10
1.697075640861662
 20
6.123622423383792
 30
0.0
  0
POINT
  5
BC8
330
BBD
100
AcDbEntity
  8
Defpoints
 62
     0
100
AcDbPoint
 10
1.697075640861662
 20
5.761417699343794
 30
0.0
  0
POINT
  5
BC9
330
BBD
100
AcDbEntity
  8
Defpoints
 62
     0
100
AcDbPoint
 10
1.49320693456579
 20
5.761417699343794
 30
0.0
  0
ENDBLK
  5
BCB
330
BBD
100
AcDbEntity
  8
0
100
AcDbBlockEnd
  0
BLOCK
  5
BD9
330
BCD
100
AcDbEntity
  8
0
100
AcDbBlockBegin
  2
*D13
 70
     1
 10
0.0
 20
0.0
 30
0.0
  3
*D13
  1

  0
LINE
  5
BCE
330
BCD
100
AcDbEntity
  8
0
 62
     0
370
    -2
100
AcDbLine
 10
1.697075640861662
 20
6.186122423383792
 30
0.0
 11
1.697075640861662
 21
7.065849474973013
 31
0.0
  0
LINE
  5
BCF
330
BCD
100
AcDbEntity
  8
0
 62
     0
370
    -2
100
AcDbLine
 10
3.750007185260081
 20
6.186122423383786
 30
0.0
 11
3.750007185260081
 21
7.065849474973013
 31
0.0
  0
LINE
  5
BD0
330
BCD
100
AcDbEntity
  8
0
 62
     0
370
    -2
100
AcDbLine
 10
1.822075640861662
 20
6.885849474973014
 30
0.0
 11
2.202879748667966
 21
6.885849474973014
 31
0.0
  0
LINE
  5
BD1
330
BCD
100
AcDbEntity
  8
0
 62
     0
370
    -2
100
AcDbLine
 10
3.625007185260081
 20
6.885849474973014
 30
0.0
 11
3.244203077453777
 21
6.885849474973014
 31
0.0
  0
SOLID
  5
BD2
330
BCD
100
AcDbEntity
  8
0
 62
     0
100
AcDbTrace
 10
1.822075640861662
 20
6.906682808306347
 30
0.0
 11
1.822075640861662
 21
6.865016141639681
 31
0.0
 12
1.697075640861662
 22
6.885849474973014
 32
0.0
 13
1.697075640861662
 23
6.885849474973014
 33
0.0
  0
SOLID
  5
BD3
330
BCD
100
AcDbEntity
  8
0
 62
     0
100
AcDbTrace
 10
3.625007185260081
 20
6.906682808306347
 30
0.0
 11
3.625007185260081
 21
6.865016141639681
 31
0.0
 12
3.750007185260081
 22
6.885849474973014
 32
0.0
 13
3.750007185260081
 23
6.885849474973014
 33
0.0
  0
MTEXT
  5
BD4
330
BCD
100
AcDbEntity
  8
0
 62
     0
100
AcDbMText
 10
2.723541413060871
 20
7.067752612762918
 30
0.0
 40
0.18
 41
0.0
 71
     5
 72
     1
  1
\A1;52 mm
  7
outline drawings
 73
     1
 44
1.0
1001
ACAD
1000
MTEXTBEGIN
1070
    73
1070
     1
1070
    44
1040
1.0
1070
    74
1070
     0
1000
MTEXTEND
  0
MTEXT
  5
BD5
330
BCD
100
AcDbEntity
  8
0
 62
     0
100
AcDbMText
 10
2.723541413060871
 20
6.680494768288157
 30
0.0
 40
0.18
 41
0.0
 71
     5
 72
     1
  1
\A1;[2.05 in]
  7
outline drawings
 73
     1
 44
1.0
1001
ACAD
1000
MTEXTBEGIN
1070
    73
1070
     1
1070
    44
1040
1.0
1070
    74
1070
     0
1000
MTEXTEND
  0
POINT
  5
BD6
330
BCD
100
AcDbEntity
  8
Defpoints
 62
     0
100
AcDbPoint
 10
1.697075640861662
 20
6.123622423383792
 30
0.0
  0
POINT
  5
BD7
330
BCD
100
AcDbEntity
  8
Defpoints
 62
     0
100
AcDbPoint
 10
3.750007185260081
 20
6.123622423383786
 30
0.0
  0
POINT
  5
BD8
330
BCD
100
AcDbEntity
  8
Defpoints
 62
     0
100
AcDbPoint
 10
3.750007185260081
 20
6.885849474973014
 30
0.0
  0
ENDBLK
  5
BDA
330
BCD
100
AcDbEntity
  8
0
100
AcDbBlockEnd
  0
BLOCK
  5
BE8
330
BDC
100
AcDbEntity
  8
0
100
AcDbBlockBegin
  2
*D14
 70
     1
 10
0.0
 20
0.0
 30
0.0
  3
*D14
  1

  0
LINE
  5
BDD
330
BDC
100
AcDbEntity
  8
0
 62
     0
370
    -2
100
AcDbLine
 10
6.687812957431908
 20
6.236029740433693
 30
0.0
 11
6.687812957431908
 21
6.935261099817516
 31
0.0
  0
LINE
  5
BDE
330
BDC
100
AcDbEntity
  8
0
 62
     0
370
    -2
100
AcDbLine
 10
8.740744501830327
 20
6.236029740433693
 30
0.0
 11
8.740744501830327
 21
6.935261099817516
 31
0.0
  0
LINE
  5
BDF
330
BDC
100
AcDbEntity
  8
0
 62
     0
370
    -2
100
AcDbLine
 10
6.812812957431908
 20
6.755261099817516
 30
0.0
 11
7.193617065238212
 21
6.755261099817516
 31
0.0
  0
LINE
  5
BE0
330
BDC
100
AcDbEntity
  8
0
 62
     0
370
    -2
100
AcDbLine
 10
8.615744501830327
 20
6.755261099817516
 30
0.0
 11
8.234940394024024
 21
6.755261099817516
 31
0.0
  0
SOLID
  5
BE1
330
BDC
100
AcDbEntity
  8
0
 62
     0
100
AcDbTrace
 10
6.812812957431908
 20
6.776094433150849
 30
0.0
 11
6.812812957431908
 21
6.734427766484183
 31
0.0
 12
6.687812957431908
 22
6.755261099817516
 32
0.0
 13
6.687812957431908
 23
6.755261099817516
 33
0.0
  0
SOLID
  5
BE2
330
BDC
100
AcDbEntity
  8
0
 62
     0
100
AcDbTrace
 10
8.615744501830327
 20
6.776094433150849
 30
0.0
 11
8.615744501830327
 21
6.734427766484183
 31
0.0
 12
8.740744501830327
 22
6.755261099817516
 32
0.0
 13
8.740744501830327
 23
6.755261099817516
 33
0.0
  0
MTEXT
  5
BE3
330
BDC
100
AcDbEntity
  8
0
 62
     0
100
AcDbMText
 10
7.714278729631118
 20
6.93716423760742
 30
0.0
 40
0.18
 41
0.0
 71
     5
 72
     1
  1
\A1;52 mm
  7
outline drawings
 73
     1
 44
1.0
1001
ACAD
1000
MTEXTBEGIN
1070
    73
1070
     1
1070
    44
1040
1.0
1070
    74
1070
     0
1000
MTEXTEND
  0
MTEXT
  5
BE4
330
BDC
100
AcDbEntity
  8
0
 62
     0
100
AcDbMText
 10
7.714278729631118
 20
6.54990639313266
 30
0.0
 40
0.18
 41
0.0
 71
     5
 72
     1
  1
\A1;[2.05 in]
  7
outline drawings
 73
     1
 44
1.0
1001
ACAD
1000
MTEXTBEGIN
1070
    73
1070
     1
1070
    44
1040
1.0
1070
    74
1070
     0
1000
MTEXTEND
  0
POINT
  5
BE5
330
BDC
100
AcDbEntity
  8
Defpoints
 62
     0
100
AcDbPoint
 10
6.687812957431908
 20
6.173529740433693
 30
0.0
  0
POINT
  5
BE6
330
BDC
100
AcDbEntity
  8
Defpoints
 62
     0
100
AcDbPoint
 10
8.740744501830327
 20
6.173529740433693
 30
0.0
  0
POINT
  5
BE7
330
BDC
100
AcDbEntity
  8
Defpoints
 62
     0
100
AcDbPoint
 10
8.740744501830327
 20
6.755261099817516
 30
0.0
  0
ENDBLK
  5
BE9
330
BDC
100
AcDbEntity
  8
0
100
AcDbBlockEnd
  0
BLOCK
  5
BF8
330
BEB
100
AcDbEntity
  8
0
100
AcDbBlockBegin
  2
*D15
 70
     1
 10
0.0
 20
0.0
 30
0.0
  3
*D15
  1

  0
LINE
  5
BEC
330
BEB
100
AcDbEntity
  8
0
 62
     0
370
    -2
100
AcDbLine
 10
6.625312957431908
 20
6.173529740433693
 30
0.0
 11
6.032230758449139
 21
6.173529740433693
 31
0.0
  0
LINE
  5
BED
330
BEB
100
AcDbEntity
  8
0
 62
     0
370
    -2
100
AcDbLine
 10
6.625312957431908
 20
5.811325016393695
 30
0.0
 11
6.032230758449138
 21
5.811325016393695
 31
0.0
  0
LINE
  5
BEE
330
BEB
100
AcDbEntity
  8
0
 62
     0
370
    -2
100
AcDbLine
 10
6.212230758449138
 20
6.298529740433693
 30
0.0
 11
6.212230758449138
 21
6.423529740433693
 31
0.0
  0
LINE
  5
BEF
330
BEB
100
AcDbEntity
  8
0
 62
     0
370
    -2
100
AcDbLine
 10
6.212230758449138
 20
5.686325016393695
 30
0.0
 11
6.212230758449138
 21
5.561325016393695
 31
0.0
  0
LINE
  5
BF0
330
BEB
100
AcDbEntity
  8
0
 62
     0
370
    -2
100
AcDbLine
 10
6.212230758449138
 20
5.561325016393695
 30
0.0
 11
6.087230758449138
 21
5.561325016393695
 31
0.0
  0
SOLID
  5
BF1
330
BEB
100
AcDbEntity
  8
0
 62
     0
100
AcDbTrace
 10
6.191397425115805
 20
6.298529740433693
 30
0.0
 11
6.233064091782472
 21
6.298529740433693
 31
0.0
 12
6.212230758449138
 22
6.173529740433693
 32
0.0
 13
6.212230758449138
 23
6.173529740433693
 33
0.0
  0
SOLID
  5
BF2
330
BEB
100
AcDbEntity
  8
0
 62
     0
100
AcDbTrace
 10
6.191397425115805
 20
5.686325016393695
 30
0.0
 11
6.233064091782471
 21
5.686325016393695
 31
0.0
 12
6.212230758449138
 22
5.811325016393695
 32
0.0
 13
6.212230758449138
 23
5.811325016393695
 33
0.0
  0
MTEXT
  5
BF3
330
BEB
100
AcDbEntity
  8
0
 62
     0
100
AcDbMText
 10
5.566569094056231
 20
5.743228154183601
 30
0.0
 40
0.18
 41
0.0
 71
     5
 72
     1
  1
\A1;9 mm
  7
outline drawings
 73
     1
 44
1.0
1001
ACAD
1000
MTEXTBEGIN
1070
    73
1070
     1
1070
    44
1040
1.0
1070
    74
1070
     0
1000
MTEXTEND
  0
MTEXT
  5
BF4
330
BEB
100
AcDbEntity
  8
0
 62
     0
100
AcDbMText
 10
5.566569094056231
 20
5.35597030970884
 30
0.0
 40
0.18
 41
0.0
 71
     5
 72
     1
  1
\A1;[0.36 in]
  7
outline drawings
 73
     1
 44
1.0
1001
ACAD
1000
MTEXTBEGIN
1070
    73
1070
     1
1070
    44
1040
1.0
1070
    74
1070
     0
1000
MTEXTEND
  0
POINT
  5
BF5
330
BEB
100
AcDbEntity
  8
Defpoints
 62
     0
100
AcDbPoint
 10
6.687812957431908
 20
6.173529740433693
 30
0.0
  0
POINT
  5
BF6
330
BEB
100
AcDbEntity
  8
Defpoints
 62
     0
100
AcDbPoint
 10
6.687812957431908
 20
5.811325016393695
 30
0.0
  0
POINT
  5
BF7
330
BEB
100
AcDbEntity
  8
Defpoints
 62
     0
100
AcDbPoint
 10
6.212230758449138
 20
5.811325016393695
 30
0.0
  0
ENDBLK
  5
BF9
330
BEB
100
AcDbEntity
  8
0
100
AcDbBlockEnd
  0
BLOCK
  5
C07
330
BFB
100
AcDbEntity
  8
0
100
AcDbBlockBegin
  2
*D16
 70
     1
 10
0.0
 20
0.0
 30
0.0
  3
*D16
  1

  0
LINE
  5
BFC
330
BFB
100
AcDbEntity
  8
0
 62
     0
370
    -2
100
AcDbLine
 10
2.194132470248575
 20
2.756996577187685
 30
0.0
 11
0.9066523058864744
 21
2.756996577187686
 31
0.0
  0
LINE
  5
BFD
330
BFB
100
AcDbEntity
  8
0
 62
     0
370
    -2
100
AcDbLine
 10
2.012528396381336
 20
4.193977109405276
 30
0.0
 11
0.9066523058864746
 21
4.193977109405277
 31
0.0
  0
LINE
  5
BFE
330
BFB
100
AcDbEntity
  8
0
 62
     0
370
    -2
100
AcDbLine
 10
1.086652305886474
 20
2.881996577187685
 30
0.0
 11
1.086652305886474
 21
3.08816760728011
 31
0.0
  0
LINE
  5
BFF
330
BFB
100
AcDbEntity
  8
0
 62
     0
370
    -2
100
AcDbLine
 10
1.086652305886474
 20
4.068977109405277
 30
0.0
 11
1.086652305886474
 21
3.862806079312852
 31
0.0
  0
SOLID
  5
C00
330
BFB
100
AcDbEntity
  8
0
 62
     0
100
AcDbTrace
 10
1.065818972553141
 20
2.881996577187685
 30
0.0
 11
1.107485639219807
 21
2.881996577187685
 31
0.0
 12
1.086652305886474
 22
2.756996577187685
 32
0.0
 13
1.086652305886474
 23
2.756996577187685
 33
0.0
  0
SOLID
  5
C01
330
BFB
100
AcDbEntity
  8
0
 62
     0
100
AcDbTrace
 10
1.065818972553141
 20
4.068977109405277
 30
0.0
 11
1.107485639219807
 21
4.068977109405277
 31
0.0
 12
1.086652305886474
 22
4.193977109405277
 32
0.0
 13
1.086652305886474
 23
4.193977109405277
 33
0.0
  0
MTEXT
  5
C02
330
BFB
100
AcDbEntity
  8
0
 62
     0
100
AcDbMText
 10
1.086652305886473
 20
3.657451372627996
 30
0.0
 40
0.18
 41
0.0
 71
     5
 72
     1
  1
\A1;36 mm
  7
outline drawings
 73
     1
 44
1.0
1001
ACAD
1000
MTEXTBEGIN
1070
    73
1070
     1
1070
    44
1040
1.0
1070
    74
1070
     0
1000
MTEXTEND
  0
MTEXT
  5
C03
330
BFB
100
AcDbEntity
  8
0
 62
     0
100
AcDbMText
 10
1.086652305886473
 20
3.270132136611624
 30
0.0
 40
0.18
 41
0.0
 71
     5
 72
     1
  1
\A1;[1.44 in]
  7
outline drawings
 73
     1
 44
1.0
1001
ACAD
1000
MTEXTBEGIN
1070
    73
1070
     1
1070
    44
1040
1.0
1070
    74
1070
     0
1000
MTEXTEND
  0
POINT
  5
C04
330
BFB
100
AcDbEntity
  8
Defpoints
 62
     0
100
AcDbPoint
 10
2.256632470248575
 20
2.756996577187685
 30
0.0
  0
POINT
  5
C05
330
BFB
100
AcDbEntity
  8
Defpoints
 62
     0
100
AcDbPoint
 10
2.075028396381336
 20
4.193977109405276
 30
0.0
  0
POINT
  5
C06
330
BFB
100
AcDbEntity
  8
Defpoints
 62
     0
100
AcDbPoint
 10
1.086652305886474
 20
4.193977109405277
 30
0.0
  0
ENDBLK
  5
C08
330
BFB
100
AcDbEntity
  8
0
100
AcDbBlockEnd
  0
BLOCK
  5
C16
330
C0A
100
AcDbEntity
  8
0
100
AcDbBlockBegin
  2
*D17
 70
     1
 10
0.0
 20
0.0
 30
0.0
  3
*D17
  1

  0
LINE
  5
C0B
330
C0A
100
AcDbEntity
  8
0
 62
     0
370
    -2
100
AcDbLine
 10
7.003265712951582
 20
4.243884426455189
 30
0.0
 11
5.88104822370979
 21
4.24388442645519
 31
0.0
  0
LINE
  5
C0C
330
C0A
100
AcDbEntity
  8
0
 62
     0
370
    -2
100
AcDbLine
 10
7.129219648763182
 20
2.755636984968319
 30
0.0
 11
5.88104822370979
 21
2.755636984968319
 31
0.0
  0
LINE
  5
C0D
330
C0A
100
AcDbEntity
  8
0
 62
     0
370
    -2
100
AcDbLine
 10
6.061048223709789
 20
4.118884426455189
 30
0.0
 11
6.061048223709789
 21
3.887079941728126
 31
0.0
  0
LINE
  5
C0E
330
C0A
100
AcDbEntity
  8
0
 62
     0
370
    -2
100
AcDbLine
 10
6.061048223709789
 20
2.880636984968319
 30
0.0
 11
6.061048223709789
 21
3.112441469695383
 31
0.0
  0
SOLID
  5
C0F
330
C0A
100
AcDbEntity
  8
0
 62
     0
100
AcDbTrace
 10
6.040214890376456
 20
4.118884426455189
 30
0.0
 11
6.081881557043122
 21
4.118884426455189
 31
0.0
 12
6.061048223709789
 22
4.243884426455189
 32
0.0
 13
6.061048223709789
 23
4.243884426455189
 33
0.0
  0
SOLID
  5
C10
330
C0A
100
AcDbEntity
  8
0
 62
     0
100
AcDbTrace
 10
6.040214890376456
 20
2.880636984968319
 30
0.0
 11
6.081881557043122
 21
2.880636984968319
 31
0.0
 12
6.061048223709789
 22
2.755636984968319
 32
0.0
 13
6.061048223709789
 23
2.755636984968319
 33
0.0
  0
MTEXT
  5
C11
330
C0A
100
AcDbEntity
  8
0
 62
     0
100
AcDbMText
 10
6.061048223709788
 20
3.68172523504327
 30
0.0
 40
0.18
 41
0.0
 71
     5
 72
     1
  1
\A1;38 mm
  7
outline drawings
 73
     1
 44
1.0
1001
ACAD
1000
MTEXTBEGIN
1070
    73
1070
     1
1070
    44
1040
1.0
1070
    74
1070
     0
1000
MTEXTEND
  0
MTEXT
  5
C12
330
C0A
100
AcDbEntity
  8
0
 62
     0
100
AcDbMText
 10
6.061048223709788
 20
3.294405999026899
 30
0.0
 40
0.18
 41
0.0
 71
     5
 72
     1
  1
\A1;[1.49 in]
  7
outline drawings
 73
     1
 44
1.0
1001
ACAD
1000
MTEXTBEGIN
1070
    73
1070
     1
1070
    44
1040
1.0
1070
    74
1070
     0
1000
MTEXTEND
  0
POINT
  5
C13
330
C0A
100
AcDbEntity
  8
Defpoints
 62
     0
100
AcDbPoint
 10
7.065765712951582
 20
4.243884426455189
 30
0.0
  0
POINT
  5
C14
330
C0A
100
AcDbEntity
  8
Defpoints
 62
     0
100
AcDbPoint
 10
7.191719648763182
 20
2.755636984968319
 30
0.0
  0
POINT
  5
C15
330
C0A
100
AcDbEntity
  8
Defpoints
 62
     0
100
AcDbPoint
 10
6.061048223709789
 20
2.755636984968319
 30
0.0
  0
ENDBLK
  5
C17
330
C0A
100
AcDbEntity
  8
0
100
AcDbBlockEnd
  0
ENDSEC
  0
SECTION
  2
ENTITIES
  0
LINE
  5
8F5
330
19
100
AcDbEntity
  8
0
100
AcDbLine
 10
7.620686312521662
 20
4.165144269055175
 30
0.0
 11
7.620686312521671
 21
4.037190852699414
 31
0.0
  0
LINE
  5
8F6
330
19
100
AcDbEntity
  8
0
100
AcDbLine
 10
7.679938940671938
 20
4.165144269055168
 30
0.0
 11
7.679938940671883
 21
3.948608836205193
 31
0.0
  0
LINE
  5
8F7
330
19
100
AcDbEntity
  8
0
100
AcDbLine
 10
7.046080673601708
 20
4.165144269055192
 30
0.0
 11
7.046080673601592
 21
4.037191513280183
 31
0.0
  0
LINE
  5
8F8
330
19
100
AcDbEntity
  8
0
100
AcDbLine
 10
6.987025555551552
 20
4.16514426905516
 30
0.0
 11
6.987025555551761
 21
3.558845057075166
 31
0.0
  0
LINE
  5
8F9
330
19
100
AcDbEntity
  8
0
370
    15
100
AcDbLine
 10
7.457497996016764
 20
4.165144269055203
 30
0.0
 11
7.457497996016755
 21
4.1257741903552
 31
0.0
  0
LINE
  5
8FA
330
19
100
AcDbEntity
  8
0
370
    15
100
AcDbLine
 10
7.359072799266755
 20
4.19270332414521
 30
0.0
 11
7.359072799266755
 21
4.147089991760121
 31
0.0
  0
LINE
  5
8FB
330
19
100
AcDbEntity
  8
0
370
    15
100
AcDbLine
 10
7.307891696956748
 20
4.19270332414521
 30
0.0
 11
7.307891696956748
 21
4.147089991760121
 31
0.0
  0
LINE
  5
8FC
330
19
100
AcDbEntity
  8
0
370
    15
100
AcDbLine
 10
7.209466500206739
 20
4.165144269055203
 30
0.0
 11
7.209466500206747
 21
4.1257741903552
 31
0.0
  0
LINE
  5
8FD
330
19
100
AcDbEntity
  8
0
370
    15
100
AcDbLine
 10
7.07968513776402
 20
4.178783899332953
 30
0.0
 11
7.144785664886378
 21
4.093998332860576
 31
0.0
  0
LINE
  5
8FE
330
19
100
AcDbEntity
  8
0
  6
CENTER
 62
     5
 48
2.0
100
AcDbLine
 10
7.333482248111751
 20
4.2438844264552
 30
0.0
 11
7.333482248111751
 21
4.032084651557636
 31
0.0
  0
LINE
  5
8FF
330
19
100
AcDbEntity
  8
0
370
    15
100
AcDbLine
 10
7.58708184835936
 20
4.178586389232816
 30
0.0
 11
7.522178831337114
 21
4.093998332860578
 31
0.0
  0
ARC
  5
900
330
19
100
AcDbEntity
  8
0
100
AcDbCircle
 10
7.798049176771883
 20
3.948608836205178
 30
0.0
 40
0.1181102361
100
AcDbArc
 50
179.9999999999935
 51
270.0
  0
ARC
  5
901
330
19
100
AcDbEntity
  8
0
100
AcDbCircle
 10
7.798049176771883
 20
3.948608836205178
 30
0.0
 40
0.17716535415
100
AcDbArc
 50
179.9999999999935
 51
270.0
  0
LINE
  5
902
330
19
100
AcDbEntity
  8
0
370
    15
100
AcDbLine
 10
7.172624514511006
 20
4.082467103785199
 30
0.0
 11
7.333482248111751
 21
4.082467103785199
 31
0.0
  0
LINE
  5
903
330
19
100
AcDbEntity
  8
0
100
AcDbLine
 10
7.046080673601654
 20
3.978136395230184
 30
0.0
 11
7.046080673601681
 21
3.760462014508127
 31
0.0
  0
ARC
  5
904
330
19
100
AcDbEntity
  8
0
100
AcDbCircle
 10
7.046080673601627
 20
4.007663954255184
 30
0.0
 40
0.029527559025
100
AcDbArc
 50
269.9999999999609
 51
90.00000000006513
  0
ARC
  5
905
330
19
100
AcDbEntity
  8
0
370
    15
100
AcDbCircle
 10
7.172624514511006
 20
4.121837182485198
 30
0.0
 40
0.0393700787
100
AcDbArc
 50
224.9999999999908
 51
270.0
  0
LINE
  5
906
330
19
100
AcDbEntity
  8
0
370
    15
100
AcDbLine
 10
7.213403508076744
 20
4.121837182485198
 30
0.0
 11
7.307891696956756
 21
4.121837182485198
 31
0.0
  0
ARC
  5
907
330
19
100
AcDbEntity
  8
0
370
    15
100
AcDbCircle
 10
7.213403508076744
 20
4.1257741903552
 30
0.0
 40
0.00393700787
100
AcDbArc
 50
180.0
 51
270.0
  0
ARC
  5
908
330
19
100
AcDbEntity
  8
0
370
    15
100
AcDbCircle
 10
7.311828704826762
 20
4.135954451910254
 30
0.0
 40
0.00393700787
100
AcDbArc
 50
0.0000000000651378
 51
45.00000000002311
  0
ARC
  5
909
330
19
100
AcDbEntity
  8
0
370
    15
100
AcDbCircle
 10
7.311828704826744
 20
4.147089991760121
 30
0.0
 40
0.00393700787
100
AcDbArc
 50
180.0
 51
225.0000000000047
  0
LINE
  5
90A
330
19
100
AcDbEntity
  8
0
370
    15
100
AcDbLine
 10
7.309044819864278
 20
4.144306106797665
 30
0.0
 11
7.314612589789218
 21
4.138738336872715
 31
0.0
  0
ARC
  5
90B
330
19
100
AcDbEntity
  8
0
370
    15
100
AcDbCircle
 10
7.307891696956756
 20
4.129711198225195
 30
0.0
 40
0.00787401574
100
AcDbArc
 50
270.0
 51
359.9999999999675
  0
LINE
  5
90C
330
19
100
AcDbEntity
  8
0
370
    15
100
AcDbLine
 10
7.315765712696758
 20
4.135954451910257
 30
0.0
 11
7.315765712696758
 21
4.129711198225192
 31
0.0
  0
LINE
  5
90D
330
19
100
AcDbEntity
  8
0
370
    15
100
AcDbLine
 10
7.453560988146758
 20
4.121837182485198
 30
0.0
 11
7.359072799266746
 21
4.121837182485198
 31
0.0
  0
LINE
  5
90E
330
19
100
AcDbEntity
  8
0
370
    15
100
AcDbLine
 10
7.494339981712497
 20
4.082467103785199
 30
0.0
 11
7.333482248111751
 21
4.082467103785199
 31
0.0
  0
ARC
  5
90F
330
19
100
AcDbEntity
  8
0
370
    15
100
AcDbCircle
 10
7.355135791396758
 20
4.147089991760121
 30
0.0
 40
0.00393700787
100
AcDbArc
 50
314.9999999999953
 51
0.0
  0
ARC
  5
910
330
19
100
AcDbEntity
  8
0
370
    15
100
AcDbCircle
 10
7.35513579139674
 20
4.135954451910254
 30
0.0
 40
0.00393700787
100
AcDbArc
 50
134.9999999999769
 51
179.9999999999348
  0
LINE
  5
911
330
19
100
AcDbEntity
  8
0
370
    15
100
AcDbLine
 10
7.357919676359224
 20
4.144306106797665
 30
0.0
 11
7.352351906434283
 21
4.138738336872715
 31
0.0
  0
ARC
  5
912
330
19
100
AcDbEntity
  8
0
370
    15
100
AcDbCircle
 10
7.359072799266746
 20
4.129711198225195
 30
0.0
 40
0.00787401574
100
AcDbArc
 50
180.0000000000325
 51
270.0
  0
LINE
  5
913
330
19
100
AcDbEntity
  8
0
370
    15
100
AcDbLine
 10
7.351198783526744
 20
4.135954451910257
 30
0.0
 11
7.351198783526744
 21
4.129711198225192
 31
0.0
  0
ARC
  5
914
330
19
100
AcDbEntity
  8
0
370
    15
100
AcDbCircle
 10
7.453560988146758
 20
4.1257741903552
 30
0.0
 40
0.00393700787
100
AcDbArc
 50
270.0
 51
0.0
  0
ARC
  5
915
330
19
100
AcDbEntity
  8
0
370
    15
100
AcDbCircle
 10
7.494339981712497
 20
4.121837182485198
 30
0.0
 40
0.0393700787
100
AcDbArc
 50
270.0
 51
315.0000000000091
  0
ARC
  5
916
330
19
100
AcDbEntity
  8
0
100
AcDbCircle
 10
7.620883822621911
 20
4.007663954255197
 30
0.0
 40
0.029527559025
100
AcDbArc
 50
90.38325482765337
 51
269.999999999987
  0
LINE
  5
917
330
19
100
AcDbEntity
  8
0
100
AcDbLine
 10
7.620883822621902
 20
3.978136395230197
 30
0.0
 11
7.620883822621893
 21
3.948608836205206
 31
0.0
  0
LINE
  5
918
330
19
100
AcDbEntity
  8
0
  6
CENTER
 62
     5
 48
2.0
100
AcDbLine
 10
7.7772058067994
 20
5.992427378413696
 30
0.0
 11
8.663907294505055
 21
5.992427378413696
 31
0.0
  0
LINE
  5
919
330
19
100
AcDbEntity
  8
0
100
AcDbLine
 10
6.687812957431908
 20
6.173529740433693
 30
0.0
 11
8.740744501830327
 21
6.173529740433687
 31
0.0
  0
LINE
  5
91A
330
19
100
AcDbEntity
  8
0
100
AcDbLine
 10
6.687812957431926
 20
5.811325016393695
 30
0.0
 11
8.740744501830327
 21
5.811325016393695
 31
0.0
  0
LINE
  5
91B
330
19
100
AcDbEntity
  8
0
370
    15
100
AcDbLine
 10
7.319702720566746
 20
4.204514347755213
 30
0.0
 11
7.333482248111751
 21
4.204514347755204
 31
0.0
  0
LINE
  5
91C
330
19
100
AcDbEntity
  8
0
100
AcDbLine
 10
7.065765712951582
 20
4.243884426455177
 30
0.0
 11
7.137982822132047
 21
4.243884426455179
 31
0.0
  0
ARC
  5
91D
330
19
100
AcDbEntity
  8
0
100
AcDbCircle
 10
7.065765712951582
 20
4.165144269055189
 30
0.0
 40
0.0787401574
100
AcDbArc
 50
90.0
 51
180.000000000013
  0
ARC
  5
91E
330
19
100
AcDbEntity
  8
0
370
    15
100
AcDbCircle
 10
7.065765712951709
 20
4.164864474520645
 30
0.0
 40
0.01968503935
100
AcDbArc
 50
44.99999999999086
 51
179.9999999999479
  0
ARC
  5
91F
330
19
100
AcDbEntity
  8
0
370
    15
100
AcDbCircle
 10
7.209466500206765
 20
4.181055496930036
 30
0.0
 40
0.0137795275449964
100
AcDbArc
 50
299.9999999999398
 51
119.9999999999852
  0
LINE
  5
920
330
19
100
AcDbEntity
  8
0
370
    15
100
AcDbLine
 10
7.154348390026743
 20
4.165144269055249
 30
0.0
 11
7.202576736434276
 21
4.192988917836166
 31
0.0
  0
ARC
  5
921
330
19
100
AcDbEntity
  8
0
370
    15
100
AcDbCircle
 10
7.144505870351752
 20
4.182192013206846
 30
0.0
 40
0.01968503935
100
AcDbArc
 50
180.0
 51
299.9999999999699
  0
ARC
  5
922
330
19
100
AcDbEntity
  8
0
370
    15
100
AcDbCircle
 10
7.144505870351752
 20
4.184549513870588
 30
0.0
 40
0.01968503935
100
AcDbArc
 50
135.0000000000091
 51
180.0
  0
LINE
  5
923
330
19
100
AcDbEntity
  8
0
370
    15
100
AcDbLine
 10
7.149118361981892
 20
4.217000855125351
 30
0.0
 11
7.130586445539441
 21
4.198468938682894
 31
0.0
  0
ARC
  5
924
330
19
100
AcDbEntity
  8
0
370
    15
100
AcDbCircle
 10
7.137982822132047
 20
4.228136394975195
 30
0.0
 40
0.01574803148
100
AcDbArc
 50
314.9999999999953
 51
90.0
  0
LINE
  5
925
330
19
100
AcDbEntity
  8
0
370
    15
100
AcDbLine
 10
7.209466500206739
 20
4.165144269055203
 30
0.0
 11
7.217340515946759
 21
4.169690334162297
 31
0.0
  0
ARC
  5
926
330
19
100
AcDbEntity
  8
0
370
    15
100
AcDbCircle
 10
7.319702720566746
 20
4.19270332414521
 30
0.0
 40
0.01181102361
100
AcDbArc
 50
90.0
 51
180.0
  0
LINE
  5
927
330
19
100
AcDbEntity
  8
0
100
AcDbLine
 10
7.528981674091454
 20
4.243884426455191
 30
0.0
 11
7.601198783271918
 21
4.243884426455193
 31
0.0
  0
ARC
  5
928
330
19
100
AcDbEntity
  8
0
370
    15
100
AcDbCircle
 10
7.347261775656757
 20
4.19270332414521
 30
0.0
 40
0.01181102361
100
AcDbArc
 50
0.0
 51
90.0
  0
LINE
  5
929
330
19
100
AcDbEntity
  8
0
370
    15
100
AcDbLine
 10
7.347261775656757
 20
4.204514347755213
 30
0.0
 11
7.333482248111751
 21
4.204514347755204
 31
0.0
  0
ARC
  5
92A
330
19
100
AcDbEntity
  8
0
370
    15
100
AcDbCircle
 10
7.522458625871749
 20
4.182192013206846
 30
0.0
 40
0.01968503935
100
AcDbArc
 50
240.0000000000301
 51
0.0
  0
LINE
  5
92B
330
19
100
AcDbEntity
  8
0
370
    15
100
AcDbLine
 10
7.512616106196758
 20
4.165144269055249
 30
0.0
 11
7.464387759789226
 21
4.192988917836166
 31
0.0
  0
LINE
  5
92C
330
19
100
AcDbEntity
  8
0
370
    15
100
AcDbLine
 10
7.457497996016764
 20
4.165144269055203
 30
0.0
 11
7.449623980276744
 21
4.169690334162297
 31
0.0
  0
ARC
  5
92D
330
19
100
AcDbEntity
  8
0
370
    15
100
AcDbCircle
 10
7.457497996016737
 20
4.181055496930036
 30
0.0
 40
0.0137795275449964
100
AcDbArc
 50
60.00000000001481
 51
240.0000000000602
  0
ARC
  5
92E
330
19
100
AcDbEntity
  8
0
370
    15
100
AcDbCircle
 10
7.522458625871749
 20
4.184549513870588
 30
0.0
 40
0.01968503935
100
AcDbArc
 50
0.0
 51
44.99999999999086
  0
LINE
  5
92F
330
19
100
AcDbEntity
  8
0
370
    15
100
AcDbLine
 10
7.517846134241609
 20
4.217000855125351
 30
0.0
 11
7.53637805068406
 21
4.198468938682894
 31
0.0
  0
LINE
  5
930
330
19
100
AcDbEntity
  8
0
370
    15
100
AcDbLine
 10
7.54214366522175
 20
4.184549513870588
 30
0.0
 11
7.54214366522175
 21
4.182192013206846
 31
0.0
  0
ARC
  5
931
330
19
100
AcDbEntity
  8
0
370
    15
100
AcDbCircle
 10
7.528981674091454
 20
4.228136394975195
 30
0.0
 40
0.01574803148
100
AcDbArc
 50
90.0
 51
225.0000000000047
  0
ARC
  5
932
330
19
100
AcDbEntity
  8
0
100
AcDbCircle
 10
7.601198783271918
 20
4.165144269055189
 30
0.0
 40
0.0787401574
100
AcDbArc
 50
359.999999999987
 51
90.0
  0
ARC
  5
933
330
19
100
AcDbEntity
  8
0
100
AcDbCircle
 10
7.601001273171672
 20
4.16466696442051
 30
0.0
 40
0.01968503935
100
AcDbArc
 50
0.0
 51
135.0000000000091
  0
LINE
  5
934
330
19
100
AcDbEntity
  8
0
100
AcDbLine
 10
6.746868075481895
 20
6.126285645993691
 30
0.0
 11
6.987025555551547
 21
6.126285645993695
 31
0.0
  0
LINE
  5
935
330
19
100
AcDbEntity
  8
0
100
AcDbLine
 10
6.687812957431926
 20
5.811325016393695
 30
0.0
 11
6.687812957431908
 21
6.173529740433693
 31
0.0
  0
LINE
  5
936
330
19
100
AcDbEntity
  8
0
100
AcDbLine
 10
6.746868075481899
 20
5.811325016393697
 30
0.0
 11
6.746868075481895
 21
6.126285645993691
 31
0.0
  0
LINE
  5
937
330
19
100
AcDbEntity
  8
0
100
AcDbLine
 10
7.223246027751788
 20
5.811325016393695
 30
0.0
 11
7.223246027751788
 21
6.173529740433695
 31
0.0
  0
LINE
  5
938
330
19
100
AcDbEntity
  8
0
100
AcDbLine
 10
7.153730853612069
 20
5.811325016393697
 30
0.0
 11
7.153730853612069
 21
6.173529740433695
 31
0.0
  0
LINE
  5
939
330
19
100
AcDbEntity
  8
0
100
AcDbLine
 10
7.307891701658911
 20
5.811325016393695
 30
0.0
 11
7.307891701658915
 21
6.173529740433693
 31
0.0
  0
LINE
  5
93A
330
19
100
AcDbEntity
  8
0
100
AcDbLine
 10
6.987025555551547
 20
5.811325016393698
 30
0.0
 11
6.987025555551547
 21
6.173529740433693
 31
0.0
  0
LINE
  5
93B
330
19
100
AcDbEntity
  8
0
100
AcDbLine
 10
7.443718468471749
 20
5.811325016393695
 30
0.0
 11
7.443718468471749
 21
6.173529740433695
 31
0.0
  0
LINE
  5
93C
330
19
100
AcDbEntity
  8
0
100
AcDbLine
 10
7.513233642611469
 20
5.811325016393697
 30
0.0
 11
7.513233642611469
 21
6.173529740433695
 31
0.0
  0
LINE
  5
93D
330
19
100
AcDbEntity
  8
0
100
AcDbLine
 10
7.679938940671974
 20
5.811325016393698
 30
0.0
 11
7.679938940671956
 21
6.173529740433693
 31
0.0
  0
LINE
  5
93E
330
19
100
AcDbEntity
  8
0
100
AcDbLine
 10
7.359072794564626
 20
5.811325016393695
 30
0.0
 11
7.359072794564626
 21
6.173529740433693
 31
0.0
  0
ARC
  5
93F
330
19
100
AcDbEntity
  8
0
100
AcDbCircle
 10
8.274427129041933
 20
5.992427378413696
 30
0.0
 40
0.12992125971
100
AcDbArc
 50
90.0
 51
180.0
  0
ARC
  5
940
330
19
100
AcDbEntity
  8
0
100
AcDbCircle
 10
8.290175160521933
 20
5.992427378413696
 30
0.0
 40
0.0866141731399973
100
AcDbArc
 50
90.0
 51
270.0
  0
ARC
  5
941
330
19
100
AcDbEntity
  8
0
100
AcDbCircle
 10
8.290175160521933
 20
5.992427378413696
 30
0.0
 40
0.0866141731399973
100
AcDbArc
 50
90.0
 51
270.0
  0
ARC
  5
942
330
19
100
AcDbEntity
  8
0
100
AcDbCircle
 10
8.274427129041933
 20
5.992427378413696
 30
0.0
 40
0.12992125971
100
AcDbArc
 50
180.0
 51
270.0
  0
CIRCLE
  5
943
330
19
100
AcDbEntity
  8
0
100
AcDbCircle
 10
7.941749964026906
 20
5.992427378413696
 30
0.0
 40
0.11023622036
  0
LINE
  5
944
330
19
100
AcDbEntity
  8
0
  6
CENTER
 62
     5
 48
2.0
100
AcDbLine
 10
7.941749964026906
 20
5.850273429369474
 30
0.0
 11
7.941749964026906
 21
6.138409896246132
 31
0.0
  0
CIRCLE
  5
945
330
19
100
AcDbEntity
  8
0
100
AcDbCircle
 10
7.941749964026906
 20
5.99242737841371
 30
0.0
 40
0.04330708657
  0
ARC
  5
946
330
19
100
AcDbEntity
  8
0
100
AcDbCircle
 10
8.337419254961957
 20
5.992427378413696
 30
0.0
 40
0.12992125971
100
AcDbArc
 50
0.0
 51
90.0
  0
LINE
  5
947
330
19
100
AcDbEntity
  8
0
100
AcDbLine
 10
8.608734854829673
 20
5.811325016393695
 30
0.0
 11
8.608734854829673
 21
6.173529740433687
 31
0.0
  0
LINE
  5
948
330
19
100
AcDbEntity
  8
0
100
AcDbLine
 10
8.538206656331944
 20
5.811325016393695
 30
0.0
 11
8.538206656331944
 21
6.173529740433693
 31
0.0
  0
LINE
  5
949
330
19
100
AcDbEntity
  8
0
  6
CENTER
 62
     5
 48
2.0
100
AcDbLine
 10
8.325608231351941
 20
5.857370378061816
 30
0.0
 11
8.325608231351941
 21
6.135571116769192
 31
0.0
  0
ARC
  5
94A
330
19
100
AcDbEntity
  8
0
100
AcDbCircle
 10
8.337419254961957
 20
5.992427378413696
 30
0.0
 40
0.12992125971
100
AcDbArc
 50
270.0
 51
0.0
  0
ARC
  5
94B
330
19
100
AcDbEntity
  8
0
100
AcDbCircle
 10
8.361041302181966
 20
5.992427378413696
 30
0.0
 40
0.0866141731399973
100
AcDbArc
 50
270.0
 51
90.0
  0
ARC
  5
94C
330
19
100
AcDbEntity
  8
0
100
AcDbCircle
 10
8.361041302181966
 20
5.992427378413696
 30
0.0
 40
0.0866141731399973
100
AcDbArc
 50
270.0
 51
90.0
  0
LINE
  5
94D
330
19
100
AcDbEntity
  8
0
100
AcDbLine
 10
8.274427129041933
 20
5.862506118703702
 30
0.0
 11
8.337419254961952
 21
5.862506118703697
 31
0.0
  0
LINE
  5
94E
330
19
100
AcDbEntity
  8
0
100
AcDbLine
 10
8.290175160521936
 20
5.905813205273704
 30
0.0
 11
8.361041302181966
 21
5.905813205273704
 31
0.0
  0
LINE
  5
94F
330
19
100
AcDbEntity
  8
0
100
AcDbLine
 10
8.290175160521936
 20
5.905813205273704
 30
0.0
 11
8.361041302181966
 21
5.905813205273704
 31
0.0
  0
LINE
  5
950
330
19
100
AcDbEntity
  8
0
100
AcDbLine
 10
8.290175160521929
 20
6.079041551553693
 30
0.0
 11
8.361041302181963
 21
6.079041551553688
 31
0.0
  0
LINE
  5
951
330
19
100
AcDbEntity
  8
0
100
AcDbLine
 10
8.290175160521929
 20
6.079041551553693
 30
0.0
 11
8.361041302181963
 21
6.079041551553698
 31
0.0
  0
CIRCLE
  5
952
330
19
100
AcDbEntity
  8
0
100
AcDbCircle
 10
8.325608231351941
 20
5.992427378413696
 30
0.0
 40
0.049212598375
  0
LINE
  5
953
330
19
100
AcDbEntity
  8
0
100
AcDbLine
 10
8.274427129041924
 20
6.122348638123689
 30
0.0
 11
8.337419254961949
 21
6.122348638123694
 31
0.0
  0
LINE
  5
954
330
19
100
AcDbEntity
  8
0
100
AcDbLine
 10
8.740744501830327
 20
5.811325016393695
 30
0.0
 11
8.740744501830327
 21
6.173529740433687
 31
0.0
  0
LINE
  5
955
330
19
100
AcDbEntity
  8
0
100
AcDbLine
 10
7.792143664966879
 20
3.567937187289358
 30
0.0
 11
7.847261775146918
 21
3.5361147315397
 31
0.0
  0
LINE
  5
956
330
19
100
AcDbEntity
  8
0
100
AcDbLine
 10
7.792143664966879
 20
3.567937187289358
 30
0.0
 11
8.086083056634258
 21
3.567937187289358
 31
0.0
  0
LINE
  5
957
330
19
100
AcDbEntity
  8
0
100
AcDbLine
 10
7.546080673091934
 20
3.401364742275162
 30
0.0
 11
7.821671223991934
 21
3.401364742275167
 31
0.0
  0
LINE
  5
958
330
19
100
AcDbEntity
  8
0
100
AcDbLine
 10
7.52976334138894
 20
3.460419860325167
 30
0.0
 11
8.172064924421945
 21
3.460419860325147
 31
0.0
  0
LINE
  5
959
330
19
100
AcDbEntity
  8
0
100
AcDbLine
 10
7.546080673091898
 20
3.188766317295172
 30
0.0
 11
7.821671223991916
 21
3.188766317295168
 31
0.0
  0
LINE
  5
95A
330
19
100
AcDbEntity
  8
0
100
AcDbLine
 10
7.495079281229471
 20
3.129711199245167
 30
0.0
 11
7.872852326301906
 21
3.129711199245167
 31
0.0
  0
ARC
  5
95B
330
19
100
AcDbEntity
  8
0
100
AcDbCircle
 10
6.997374114374521
 20
2.924986790005188
 30
0.0
 40
0.05905511805
100
AcDbArc
 50
270.0
 51
344.9999999999984
  0
ARC
  5
95C
330
19
100
AcDbEntity
  8
0
100
AcDbCircle
 10
6.997374114374521
 20
2.924986790005188
 30
0.0
 40
0.05905511805
100
AcDbArc
 50
270.0
 51
344.9999999999984
  0
ARC
  5
95D
330
19
100
AcDbEntity
  8
0
100
AcDbCircle
 10
6.746868075481908
 20
2.924986790005188
 30
0.0
 40
0.05905511805
100
AcDbArc
 50
180.0000000000065
 51
270.0
  0
ARC
  5
95E
330
19
100
AcDbEntity
  8
0
100
AcDbCircle
 10
6.746868075481908
 20
2.924986790005188
 30
0.0
 40
0.05905511805
100
AcDbArc
 50
180.0000000000065
 51
270.0
  0
LINE
  5
95F
330
19
100
AcDbEntity
  8
0
100
AcDbLine
 10
6.766553114831909
 20
2.924986790005188
 30
0.0
 11
6.967340516201905
 21
2.924986790005188
 31
0.0
  0
LINE
  5
960
330
19
100
AcDbEntity
  8
0
100
AcDbLine
 10
6.766553114831909
 20
2.924986790005188
 30
0.0
 11
6.935844453241916
 21
2.924986790005188
 31
0.0
  0
LINE
  5
961
330
19
100
AcDbEntity
  8
0
100
AcDbLine
 10
6.746868075481908
 20
2.865931671955188
 30
0.0
 11
6.997374114374521
 21
2.865931671955188
 31
0.0
  0
LINE
  5
962
330
19
100
AcDbEntity
  8
0
100
AcDbLine
 10
6.746868075481908
 20
2.865931671955188
 30
0.0
 11
6.997374114374521
 21
2.865931671955188
 31
0.0
  0
LINE
  5
963
330
19
100
AcDbEntity
  8
0
100
AcDbLine
 10
6.899426428993336
 20
3.070853792117684
 30
0.0
 11
6.717012666284736
 21
3.022075665087785
 31
0.0
  0
ARC
  5
964
330
19
100
AcDbEntity
  8
0
100
AcDbCircle
 10
6.727183036131909
 20
2.984041908055184
 30
0.0
 40
0.0393700786999866
100
AcDbArc
 50
299.9999999999998
 51
180.000000000026
  0
LINE
  5
965
330
19
100
AcDbEntity
  8
0
100
AcDbLine
 10
6.687812957431895
 20
2.984041908055175
 30
0.0
 11
6.687812957431908
 21
2.924986790005179
 31
0.0
  0
ARC
  5
966
330
19
100
AcDbEntity
  8
0
100
AcDbCircle
 10
6.766553114831909
 20
2.944671829355188
 30
0.0
 40
0.01968503935
100
AcDbArc
 50
180.000000000013
 51
270.0
  0
ARC
  5
967
330
19
100
AcDbEntity
  8
0
100
AcDbCircle
 10
6.766553114831909
 20
2.944671829355188
 30
0.0
 40
0.01968503935
100
AcDbArc
 50
180.000000000013
 51
270.0
  0
LINE
  5
968
330
19
100
AcDbEntity
  8
0
100
AcDbLine
 10
6.746868075481913
 20
2.949946419752007
 30
0.0
 11
6.746868075481908
 21
2.944671829355184
 31
0.0
  0
LINE
  5
969
330
19
100
AcDbEntity
  8
0
100
AcDbLine
 10
6.746868075481913
 20
2.949946419752007
 30
0.0
 11
6.746868075481908
 21
2.944671829355184
 31
0.0
  0
LINE
  5
96A
330
19
100
AcDbEntity
  8
0
100
AcDbLine
 10
7.183875949051744
 20
3.519474978375171
 30
0.0
 11
7.183875949051762
 21
3.480104899675167
 31
0.0
  0
LINE
  5
96B
330
19
100
AcDbEntity
  8
0
100
AcDbLine
 10
7.124820831001726
 20
3.519474978375161
 30
0.0
 11
7.124820831001744
 21
3.480104899675167
 31
0.0
  0
LINE
  5
96C
330
19
100
AcDbEntity
  8
0
100
AcDbLine
 10
7.203560988401761
 20
3.460419860325167
 30
0.0
 11
7.470449937985854
 21
3.460419860325162
 31
0.0
  0
LINE
  5
96D
330
19
100
AcDbEntity
  8
0
100
AcDbLine
 10
7.219309019881756
 20
3.350183639965175
 30
0.0
 11
7.38466335042175
 21
3.350183639965175
 31
0.0
  0
ARC
  5
96E
330
19
100
AcDbEntity
  8
0
100
AcDbCircle
 10
6.868915319451811
 20
3.184955063215525
 30
0.0
 40
0.1181102361
100
AcDbArc
 50
284.9708387631169
 51
0.0000000000130276
  0
LINE
  5
96F
330
19
100
AcDbEntity
  8
0
100
AcDbLine
 10
6.987025555551816
 20
3.184955063215552
 30
0.0
 11
6.987025555551869
 21
2.944671829355197
 31
0.0
  0
LINE
  5
970
330
19
100
AcDbEntity
  8
0
100
AcDbLine
 10
7.109072799521928
 20
3.113963167765182
 30
0.0
 11
7.06576571295178
 21
3.275587415172626
 31
0.0
  0
LINE
  5
971
330
19
100
AcDbEntity
  8
0
100
AcDbLine
 10
7.046080673601941
 20
3.054908049715186
 30
0.0
 11
7.093324768041934
 21
3.054908049715186
 31
0.0
  0
LINE
  5
972
330
19
100
AcDbEntity
  8
0
100
AcDbLine
 10
7.035667662940799
 20
3.113963167765186
 30
0.0
 11
7.109072799521928
 21
3.113963167765182
 31
0.0
  0
LINE
  5
973
330
19
100
AcDbEntity
  8
0
100
AcDbLine
 10
7.093324768041934
 20
3.054908049715186
 30
0.0
 11
7.054416978073566
 21
2.909702200743072
 31
0.0
  0
LINE
  5
974
330
19
100
AcDbEntity
  8
0
100
AcDbLine
 10
7.093324768041934
 20
3.054908049715186
 30
0.0
 11
7.054416978073566
 21
2.909702200743072
 31
0.0
  0
ARC
  5
975
330
19
100
AcDbEntity
  8
0
100
AcDbCircle
 10
6.967340516201905
 20
2.944671829355193
 30
0.0
 40
0.01968503935
100
AcDbArc
 50
270.0
 51
0.0
  0
LINE
  5
976
330
19
100
AcDbEntity
  8
0
100
AcDbLine
 10
7.035667662940799
 20
3.113963167765186
 30
0.0
 11
7.046080673601941
 21
3.054908049715186
 31
0.0
  0
LINE
  5
977
330
19
100
AcDbEntity
  8
0
100
AcDbLine
 10
7.006710594901743
 20
3.460419860325162
 30
0.0
 11
7.105135791651743
 21
3.460419860325162
 31
0.0
  0
LINE
  5
978
330
19
100
AcDbEntity
  8
0
100
AcDbLine
 10
7.085450752301762
 20
3.401364742275167
 30
0.0
 11
7.188867875001276
 21
3.401364742275162
 31
0.0
  0
LINE
  5
979
330
19
100
AcDbEntity
  8
0
100
AcDbLine
 10
7.065765712951744
 20
3.381679702925162
 30
0.0
 11
7.06576571295178
 21
3.275587415172626
 31
0.0
  0
LINE
  5
97A
330
19
100
AcDbEntity
  8
0
100
AcDbLine
 10
6.987025555551744
 20
3.440734820975158
 30
0.0
 11
6.987025555551811
 21
3.184955063215556
 31
0.0
  0
ARC
  5
97B
330
19
100
AcDbEntity
  8
0
100
AcDbCircle
 10
7.085450752301762
 20
3.381679702925167
 30
0.0
 40
0.01968503935
100
AcDbArc
 50
90.0
 51
180.0
  0
ARC
  5
97C
330
19
100
AcDbEntity
  8
0
100
AcDbCircle
 10
7.006710594901743
 20
3.440734820975162
 30
0.0
 40
0.01968503935
100
AcDbArc
 50
90.0
 51
180.000000000013
  0
LINE
  5
97D
330
19
100
AcDbEntity
  8
0
100
AcDbLine
 10
7.189759596685663
 20
3.40136474227516
 30
0.0
 11
7.219309019881756
 21
3.350183639965175
 31
0.0
  0
ARC
  5
97E
330
19
100
AcDbEntity
  8
0
100
AcDbCircle
 10
7.105135791651743
 20
3.480104899675162
 30
0.0
 40
0.01968503935
100
AcDbArc
 50
270.0
 51
0.0000000000130276
  0
ARC
  5
97F
330
19
100
AcDbEntity
  8
0
100
AcDbCircle
 10
7.203560988401761
 20
3.480104899675167
 30
0.0
 40
0.01968503935
100
AcDbArc
 50
180.0
 51
270.0
  0
LINE
  5
980
330
19
100
AcDbEntity
  8
0
100
AcDbLine
 10
7.422389843152977
 20
3.2438968182337
 30
0.0
 11
7.458575979905802
 21
3.15433298688085
 31
0.0
  0
ARC
  5
981
330
19
100
AcDbEntity
  8
0
100
AcDbCircle
 10
7.495079281229471
 20
3.16908127794517
 30
0.0
 40
0.0393700787
100
AcDbArc
 50
201.9999999999904
 51
270.0
  0
LINE
  5
982
330
19
100
AcDbEntity
  8
0
100
AcDbLine
 10
7.467340515691933
 20
3.401364742275167
 30
0.0
 11
7.467340515691915
 21
3.287191514045172
 31
0.0
  0
LINE
  5
983
330
19
100
AcDbEntity
  8
0
100
AcDbLine
 10
7.526395633741934
 20
3.381679702925175
 30
0.0
 11
7.526395633741898
 21
3.208451356645177
 31
0.0
  0
ARC
  5
984
330
19
100
AcDbEntity
  8
0
100
AcDbCircle
 10
7.451592484211913
 20
3.255695451085163
 30
0.0
 40
0.03149606296
100
AcDbArc
 50
90.00000000002605
 51
202.0000000000035
  0
LINE
  5
985
330
19
100
AcDbEntity
  8
0
100
AcDbLine
 10
7.451592484211895
 20
3.287191514045161
 30
0.0
 11
7.467340515691915
 21
3.287191514045172
 31
0.0
  0
ARC
  5
986
330
19
100
AcDbEntity
  8
0
100
AcDbCircle
 10
7.546080673091898
 20
3.208451356645172
 30
0.0
 40
0.01968503935
100
AcDbArc
 50
179.9999999999935
 51
270.0
  0
LINE
  5
987
330
19
100
AcDbEntity
  8
0
100
AcDbLine
 10
7.415104495302534
 20
3.401364742275162
 30
0.0
 11
7.467340515691915
 21
3.401364742275162
 31
0.0
  0
LINE
  5
988
330
19
100
AcDbEntity
  8
0
100
AcDbLine
 10
7.414212773617843
 20
3.401364742275162
 30
0.0
 11
7.38466335042175
 21
3.350183639965175
 31
0.0
  0
ARC
  5
989
330
19
100
AcDbEntity
  8
0
100
AcDbCircle
 10
7.546080673091934
 20
3.381679702925171
 30
0.0
 40
0.01968503935
100
AcDbArc
 50
90.0
 51
179.999999999987
  0
ARC
  5
98A
330
19
100
AcDbEntity
  8
0
100
AcDbCircle
 10
7.500235788523152
 20
3.460419860325189
 30
0.0
 40
0.029527559025
100
AcDbArc
 50
359.9999999999675
 51
180.0000000000716
  0
LINE
  5
98B
330
19
100
AcDbEntity
  8
0
100
AcDbLine
 10
7.065765712951717
 20
3.598215135775167
 30
0.0
 11
7.105135791651743
 21
3.598215135775171
 31
0.0
  0
LINE
  5
98C
330
19
100
AcDbEntity
  8
0
100
AcDbLine
 10
7.006710594901762
 20
3.539160017725172
 30
0.0
 11
7.105135791651726
 21
3.539160017725158
 31
0.0
  0
LINE
  5
98D
330
19
100
AcDbEntity
  8
0
100
AcDbLine
 10
7.04608067360169
 20
3.701406896458123
 30
0.0
 11
7.046080673601717
 21
3.61790017512516
 31
0.0
  0
ARC
  5
98E
330
19
100
AcDbEntity
  8
0
100
AcDbCircle
 10
7.065765712951717
 20
3.617900175125167
 30
0.0
 40
0.01968503935
100
AcDbArc
 50
180.0000000000195
 51
270.0
  0
ARC
  5
98F
330
19
100
AcDbEntity
  8
0
100
AcDbCircle
 10
7.006710594901762
 20
3.558845057075171
 30
0.0
 40
0.01968503935
100
AcDbArc
 50
180.0000000000195
 51
270.0
  0
ARC
  5
990
330
19
100
AcDbEntity
  8
0
100
AcDbCircle
 10
7.046080673601636
 20
3.730934455483128
 30
0.0
 40
0.029527559025
100
AcDbArc
 50
269.9999999999609
 51
90.00000000006513
  0
ARC
  5
991
330
19
100
AcDbEntity
  8
0
100
AcDbCircle
 10
7.105135791651726
 20
3.519474978375158
 30
0.0
 40
0.01968503935
100
AcDbArc
 50
0.0000000000195413
 51
90.0
  0
ARC
  5
992
330
19
100
AcDbEntity
  8
0
100
AcDbCircle
 10
7.105135791651743
 20
3.519474978375171
 30
0.0
 40
0.0787401574
100
AcDbArc
 50
0.0
 51
90.0
  0
LINE
  5
993
330
19
100
AcDbEntity
  8
0
100
AcDbLine
 10
7.792143664966879
 20
3.771443482055183
 30
0.0
 11
7.792143664966879
 21
3.567937187289358
 31
0.0
  0
LINE
  5
994
330
19
100
AcDbEntity
  8
0
100
AcDbLine
 10
7.792143664966879
 20
3.719386125498453
 30
0.0
 11
7.792143664966879
 21
3.771541934607461
 31
0.0
  0
ARC
  5
995
330
19
100
AcDbEntity
  8
0
100
AcDbCircle
 10
8.681689383780314
 20
3.011600963145123
 30
0.0
 40
0.05905511805
100
AcDbArc
 50
269.999999999987
 51
9.999999999996997
  0
LINE
  5
996
330
19
100
AcDbEntity
  8
0
100
AcDbLine
 10
8.608734854829656
 20
3.765431527546895
 30
0.0
 11
8.739847321891012
 21
3.021855776776407
 31
0.0
  0
LINE
  5
997
330
19
100
AcDbEntity
  8
0
100
AcDbLine
 10
8.504115627204043
 20
3.771443482055183
 30
0.0
 11
8.504115627204043
 21
3.424986789495132
 31
0.0
  0
LINE
  5
99C
330
19
100
AcDbEntity
  8
0
100
AcDbLine
 10
8.036238152906891
 20
3.5361147315397
 30
0.0
 11
8.036238152906891
 21
3.460419860325153
 31
0.0
  0
LINE
  5
99D
330
19
100
AcDbEntity
  8
0
100
AcDbLine
 10
8.112446670144274
 20
3.771443482055182
 30
0.0
 11
8.112446670144278
 21
3.460419860325149
 31
0.0
  0
LINE
  5
99E
330
19
100
AcDbEntity
  8
0
100
AcDbLine
 10
7.847261775146918
 20
3.5361147315397
 30
0.0
 11
7.847261775146918
 21
3.460419860325153
 31
0.0
  0
LINE
  5
99F
330
19
100
AcDbEntity
  8
0
  6
CENTER
 62
     5
 48
2.0
100
AcDbLine
 10
8.325608231351923
 20
3.867404499511732
 30
0.0
 11
8.325608231351917
 21
3.36593167144517
 31
0.0
  0
LINE
  5
9A0
330
19
100
AcDbEntity
  8
0
100
AcDbLine
 10
8.550576916718977
 20
3.75517671391561
 30
0.0
 11
8.608798309152406
 21
3.424986789495114
 31
0.0
  0
LINE
  5
9A1
330
19
100
AcDbEntity
  8
0
100
AcDbLine
 10
8.246868073951958
 20
3.133648207115186
 30
0.0
 11
8.392537365141924
 21
3.13364820711516
 31
0.0
  0
LINE
  5
9A2
330
19
100
AcDbEntity
  8
0
100
AcDbLine
 10
8.229151538536925
 20
3.192703325165191
 30
0.0
 11
8.431907443841938
 21
3.192703325165153
 31
0.0
  0
LINE
  5
9A3
330
19
100
AcDbEntity
  8
0
100
AcDbLine
 10
8.19174996377195
 20
3.424986789495194
 30
0.0
 11
8.608798309152401
 21
3.424986789495116
 31
0.0
  0
LINE
  5
9A4
330
19
100
AcDbEntity
  8
0
100
AcDbLine
 10
8.152379885071937
 20
3.287191514045203
 30
0.0
 11
8.586061619880078
 21
3.287191514045129
 31
0.0
  0
LINE
  5
9A5
330
19
100
AcDbEntity
  8
0
100
AcDbLine
 10
8.203560987381909
 20
3.365931671445194
 30
0.0
 11
8.586061619880087
 21
3.365931671445194
 31
0.0
  0
LINE
  5
9A6
330
19
100
AcDbEntity
  8
0
100
AcDbLine
 10
8.152379885071942
 20
3.287191514045203
 30
0.0
 11
8.152379885071919
 21
3.133648207115186
 31
0.0
  0
ARC
  5
9A7
330
19
100
AcDbEntity
  8
0
100
AcDbCircle
 10
8.231118524198329
 20
3.207585266312028
 30
0.0
 40
0.2362204721999999
100
AcDbArc
 50
154.2258026176507
 51
191.1356398450678
  0
ARC
  5
9A8
330
19
100
AcDbEntity
  8
0
100
AcDbCircle
 10
8.231118524198329
 20
3.207585266312028
 30
0.0
 40
0.2755905509
100
AcDbArc
 50
140.8304231127227
 51
191.1356398450678
  0
LINE
  5
9A9
330
19
100
AcDbEntity
  8
0
100
AcDbLine
 10
8.079803338670819
 20
3.387098068869255
 30
0.0
 11
8.115545508999613
 21
3.047034033975162
 31
0.0
  0
LINE
  5
9AA
330
19
100
AcDbEntity
  8
0
100
AcDbLine
 10
7.892537365651906
 20
3.149396238595163
 30
0.0
 11
7.892537365651906
 21
3.401364742275144
 31
0.0
  0
LINE
  5
9AB
330
19
100
AcDbEntity
  8
0
100
AcDbLine
 10
8.040780842471281
 20
3.306398828739085
 30
0.0
 11
8.071721139821105
 21
3.012021563429848
 31
0.0
  0
LINE
  5
9AC
330
19
100
AcDbEntity
  8
0
100
AcDbLine
 10
8.04704907408896
 20
2.990949628617554
 30
0.0
 11
7.964952853116304
 21
3.012947244728853
 31
0.0
  0
LINE
  5
9AD
330
19
100
AcDbEntity
  8
0
100
AcDbLine
 10
8.040436363509178
 20
2.951962594378225
 30
0.0
 11
7.929277477359601
 21
2.981747528153545
 31
0.0
  0
ARC
  5
9AE
330
19
100
AcDbEntity
  8
0
100
AcDbCircle
 10
7.970047716203676
 20
3.031961532628535
 30
0.0
 40
0.01968503935
100
AcDbArc
 50
128.9312486952002
 51
255.0000000000055
  0
ARC
  5
9AF
330
19
100
AcDbEntity
  8
0
100
AcDbCircle
 10
7.940486176151818
 20
3.023578961532845
 30
0.0
 40
0.04330708657
100
AcDbArc
 50
134.9999999999953
 51
255.0000000000055
  0
LINE
  5
9B0
330
19
100
AcDbEntity
  8
0
100
AcDbLine
 10
7.909863441564738
 20
3.054201696119927
 30
0.0
 11
7.939136598885417
 21
3.083474853440605
 31
0.0
  0
ARC
  5
9B1
330
19
100
AcDbEntity
  8
0
100
AcDbCircle
 10
7.872852326301906
 20
3.149396238595163
 30
0.0
 40
0.01968503935
100
AcDbArc
 50
270.0
 51
0.0
  0
ARC
  5
9B2
330
19
100
AcDbEntity
  8
0
100
AcDbCircle
 10
7.883458899636188
 20
3.139152552689846
 30
0.0
 40
0.0787401574
100
AcDbArc
 50
314.9999999999907
 51
11.13563984506787
  0
ARC
  5
9B3
330
19
100
AcDbEntity
  8
0
100
AcDbCircle
 10
7.883458899636188
 20
3.139152552689846
 30
0.0
 40
0.1181102361
100
AcDbArc
 50
308.9312486952171
 51
11.13563984506787
  0
LINE
  5
9B4
330
19
100
AcDbEntity
  8
0
100
AcDbLine
 10
8.115545508999613
 20
3.047034033975162
 30
0.0
 11
8.155750056362343
 21
3.006829486612374
 31
0.0
  0
ARC
  5
9B5
330
19
100
AcDbEntity
  8
0
100
AcDbCircle
 10
8.065910678946032
 20
3.047034033876635
 30
0.0
 40
0.09842519675
100
AcDbArc
 50
255.0000000000055
 51
335.8907264660713
  0
LINE
  5
9B6
330
19
100
AcDbEntity
  8
0
100
AcDbLine
 10
8.040436367989101
 20
2.951962593177835
 30
0.0
 11
8.040436363509178
 21
2.951962594378225
 31
0.0
  0
ARC
  5
9B7
330
19
100
AcDbEntity
  8
0
100
AcDbCircle
 10
8.052143937176332
 20
3.009963916517236
 30
0.0
 40
0.01968503935
100
AcDbArc
 50
254.9999999999921
 51
5.999999999982268
  0
ARC
  5
9B8
330
19
100
AcDbEntity
  8
0
100
AcDbCircle
 10
8.172064924421919
 20
3.133648207115186
 30
0.0
 40
0.01968503935
100
AcDbArc
 50
180.0
 51
269.999999999987
  0
LINE
  5
9B9
330
19
100
AcDbEntity
  8
0
100
AcDbLine
 10
8.246868073951958
 20
3.133648207115186
 30
0.0
 11
8.246868073951958
 21
3.113963167765186
 31
0.0
  0
LINE
  5
9BA
330
19
100
AcDbEntity
  8
0
100
AcDbLine
 10
8.246868073951958
 20
3.113963167765186
 30
0.0
 11
8.172064924421919
 21
3.113963167765186
 31
0.0
  0
ARC
  5
9BB
330
19
100
AcDbEntity
  8
0
100
AcDbCircle
 10
8.029034520884392
 20
3.305164240591537
 30
0.0
 40
0.01181102361
100
AcDbArc
 50
5.99999999997545
 51
154.2258026176405
  0
LINE
  5
9BC
330
19
100
AcDbEntity
  8
0
100
AcDbLine
 10
7.892537365651906
 20
3.401364742275144
 30
0.0
 11
8.152379885071955
 21
3.401364742275176
 31
0.0
  0
LINE
  5
9BD
330
19
100
AcDbEntity
  8
0
100
AcDbLine
 10
7.841356263341934
 20
3.381679702925162
 30
0.0
 11
7.841356263341916
 21
3.208451356645163
 31
0.0
  0
ARC
  5
9BE
330
19
100
AcDbEntity
  8
0
100
AcDbCircle
 10
7.821671223991916
 20
3.208451356645168
 30
0.0
 40
0.01968503935
100
AcDbArc
 50
270.0
 51
359.9999999999935
  0
ARC
  5
9BF
330
19
100
AcDbEntity
  8
0
100
AcDbCircle
 10
7.821671223991934
 20
3.381679702925167
 30
0.0
 40
0.01968503935
100
AcDbArc
 50
359.9999999999935
 51
90.0
  0
ARC
  5
9C0
330
19
100
AcDbEntity
  8
0
100
AcDbCircle
 10
8.008679097816612
 20
3.389553718665164
 30
0.0
 40
0.01181102361
100
AcDbArc
 50
318.0166007210247
 51
90.0
  0
LINE
  5
9C1
330
19
100
AcDbEntity
  8
0
100
AcDbLine
 10
8.203560987381905
 20
3.32656159274519
 30
0.0
 11
8.203560987381905
 21
3.365931671445192
 31
0.0
  0
LINE
  5
9C2
330
19
100
AcDbEntity
  8
0
100
AcDbLine
 10
8.152379885071955
 20
3.401364742275176
 30
0.0
 11
8.152379885071946
 21
3.326561592745201
 31
0.0
  0
LINE
  5
9C3
330
19
100
AcDbEntity
  8
0
100
AcDbLine
 10
8.22915153853693
 20
3.287191514045188
 30
0.0
 11
8.229151538536925
 21
3.192703325165191
 31
0.0
  0
LINE
  5
9C4
330
19
100
AcDbEntity
  8
0
100
AcDbLine
 10
8.152379885071946
 20
3.326561592745201
 30
0.0
 11
8.203560987381905
 21
3.32656159274519
 31
0.0
  0
LINE
  5
9C5
330
19
100
AcDbEntity
  8
0
100
AcDbLine
 10
8.116946814241611
 20
3.401364742275162
 30
0.0
 11
8.116946814241611
 21
3.460419860325153
 31
0.0
  0
ARC
  5
9C6
330
19
100
AcDbEntity
  8
0
100
AcDbCircle
 10
8.091356263086948
 20
3.389553718665164
 30
0.0
 40
0.01181102361
100
AcDbArc
 50
90.0
 51
191.9999995481695
  0
ARC
  5
9C7
330
19
100
AcDbEntity
  8
0
100
AcDbCircle
 10
8.172064924421945
 20
3.440734820975146
 30
0.0
 40
0.01968503935
100
AcDbArc
 50
359.9999999999935
 51
90.0
  0
LINE
  5
9C8
330
19
100
AcDbEntity
  8
0
100
AcDbLine
 10
8.191749963771947
 20
3.440734820975144
 30
0.0
 11
8.19174996377195
 21
3.424986789495194
 31
0.0
  0
LINE
  5
9C9
330
19
100
AcDbEntity
  8
0
100
AcDbLine
 10
8.643508344689514
 20
3.228136395995107
 30
0.0
 11
8.67354190978936
 21
3.057807584265985
 31
0.0
  0
ARC
  5
9CA
330
19
100
AcDbEntity
  8
0
100
AcDbCircle
 10
8.431907443841934
 20
3.173018285815155
 30
0.0
 40
0.01968503935
100
AcDbArc
 50
0.0
 51
89.99999999998697
  0
LINE
  5
9CC
330
19
100
AcDbEntity
  8
0
  6
CENTER
 62
     5
 48
2.0
100
AcDbLine
 10
8.325608231351917
 20
3.287191514045172
 30
0.0
 11
8.325608231351923
 21
3.102687569899004
 31
0.0
  0
LINE
  5
9CE
330
19
100
AcDbEntity
  8
0
100
AcDbLine
 10
8.394734660077793
 20
2.952545845095158
 30
0.0
 11
8.681689383780296
 21
2.952545845095114
 31
0.0
  0
LINE
  5
9CF
330
19
100
AcDbEntity
  8
0
100
AcDbLine
 10
8.490962561891933
 20
3.011600963145145
 30
0.0
 11
8.634769951048896
 21
3.011600963145127
 31
0.0
  0
ARC
  5
9D0
330
19
100
AcDbEntity
  8
0
100
AcDbCircle
 10
8.490962561891933
 20
3.050971041845145
 30
0.0
 40
0.0393700787
100
AcDbArc
 50
180.0
 51
269.999999999987
  0
LINE
  5
9D1
330
19
100
AcDbEntity
  8
0
100
AcDbLine
 10
8.290175162614662
 20
3.054908049715222
 30
0.0
 11
8.326543683471427
 21
2.991915923795161
 31
0.0
  0
ARC
  5
9D2
330
19
100
AcDbEntity
  8
0
100
AcDbCircle
 10
8.39473466007781
 20
3.031286002495157
 30
0.0
 40
0.0787401574
100
AcDbArc
 50
209.9999999999968
 51
269.999999999987
  0
LINE
  5
9D3
330
19
100
AcDbEntity
  8
0
100
AcDbLine
 10
8.289083871944749
 20
3.054908049715146
 30
0.0
 11
8.392537365141933
 21
3.05490804971516
 31
0.0
  0
LINE
  5
9D4
330
19
100
AcDbEntity
  8
0
100
AcDbLine
 10
8.451592483191934
 20
3.173018285815155
 30
0.0
 11
8.451592483191934
 21
3.050971041845145
 31
0.0
  0
LINE
  5
9D5
330
19
100
AcDbEntity
  8
0
100
AcDbLine
 10
8.392537365141924
 20
3.13364820711516
 30
0.0
 11
8.392537365141933
 21
3.054908049715186
 31
0.0
  0
ARC
  5
9D6
330
19
100
AcDbEntity
  8
0
100
AcDbCircle
 10
8.634769951048896
 20
3.050971041845127
 30
0.0
 40
0.0393700787
100
AcDbArc
 50
269.999999999987
 51
9.999999999996997
  0
LINE
  5
9D7
330
19
100
AcDbEntity
  8
0
100
AcDbLine
 10
8.422064924166948
 20
3.228136395995156
 30
0.0
 11
8.643508344689509
 21
3.228136395995111
 31
0.0
  0
LINE
  5
9D8
330
19
100
AcDbEntity
  8
0
100
AcDbLine
 10
8.422064924166942
 20
3.287191514045152
 30
0.0
 11
8.422064924166933
 21
3.192703325165157
 31
0.0
  0
ARC
  5
9D9
330
19
100
AcDbEntity
  8
0
100
AcDbCircle
 10
8.586061619880087
 20
3.326561592745192
 30
0.0
 40
0.0393700787
100
AcDbArc
 50
270.0
 51
90.0
  0
LINE
  5
9DA
330
19
100
AcDbEntity
  8
0
100
AcDbLine
 10
7.798049176771883
 20
3.83049860010517
 30
0.0
 11
8.531190937348743
 21
3.830498600105166
 31
0.0
  0
LINE
  5
9DC
330
19
100
AcDbEntity
  8
0
100
AcDbLine
 10
7.798049176771865
 20
3.77144348205518
 30
0.0
 11
8.531190937348743
 21
3.771443482055182
 31
0.0
  0
LINE
  5
9E0
330
19
100
AcDbEntity
  8
0
100
AcDbLine
 10
7.847261775146918
 20
3.5361147315397
 30
0.0
 11
8.036238152906891
 21
3.5361147315397
 31
0.0
  0
LINE
  5
9E4
330
19
100
AcDbEntity
  8
0
100
AcDbLine
 10
8.086083056634258
 20
3.564892700124416
 30
0.0
 11
8.086083056634258
 21
3.771443482055182
 31
0.0
  0
LINE
  5
9E5
330
19
100
AcDbEntity
  8
0
100
AcDbLine
 10
8.086083056634258
 20
3.564892700124416
 30
0.0
 11
8.036238152906891
 21
3.5361147315397
 31
0.0
  0
LINE
  5
9E6
330
19
100
AcDbEntity
  8
0
 48
20.0
100
AcDbLine
 10
8.114201944209177
 20
3.721099144941192
 30
0.0
 11
8.114201944209177
 21
3.719346304304058
 31
0.0
  0
ARC
  5
9E8
330
19
100
AcDbEntity
  8
0
100
AcDbCircle
 10
8.531190937348743
 20
3.751758442705184
 30
0.0
 40
0.0787401574
100
AcDbArc
 50
9.999999999996997
 51
90.0
  0
ARC
  5
9E9
330
19
100
AcDbEntity
  8
0
100
AcDbCircle
 10
8.531190937348743
 20
3.751758442705184
 30
0.0
 40
0.01968503935
100
AcDbArc
 50
9.999999999996997
 51
90.0
  0
INSERT
  5
A23
330
19
100
AcDbEntity
  8
0
100
AcDbBlockReference
  2
A$C09817B0B
 10
2.729021337824924
 20
2.756996577187682
 30
0.0
  0
INSERT
  5
A24
330
19
100
AcDbEntity
  8
0
100
AcDbBlockReference
  2
k
 10
-84.65057767530081
 20
3.774726311378223
 30
0.0
 41
-0.0393744095612458
 42
0.0393744095612481
 43
0.039374409561249
  0
LINE
  5
A3F
330
19
100
AcDbEntity
  8
0
100
AcDbLine
 10
2.629948995951416
 20
4.115236952005274
 30
0.0
 11
2.629948995951425
 21
3.987283535649514
 31
0.0
  0
LINE
  5
A40
330
19
100
AcDbEntity
  8
0
100
AcDbLine
 10
2.689201624101691
 20
4.115236952005266
 30
0.0
 11
2.689201624101636
 21
3.898701519155292
 31
0.0
  0
LINE
  5
A41
330
19
100
AcDbEntity
  8
0
100
AcDbLine
 10
2.055343357031461
 20
4.115236952005291
 30
0.0
 11
2.055343357031345
 21
3.987284196230282
 31
0.0
  0
LINE
  5
A42
330
19
100
AcDbEntity
  8
0
100
AcDbLine
 10
1.996288238981305
 20
4.115236952005259
 30
0.0
 11
1.996288238981515
 21
3.508937740025265
 31
0.0
  0
LINE
  5
A43
330
19
100
AcDbEntity
  8
0
370
    15
100
AcDbLine
 10
2.466760679446517
 20
4.115236952005302
 30
0.0
 11
2.466760679446508
 21
4.075866873305299
 31
0.0
  0
LINE
  5
A44
330
19
100
AcDbEntity
  8
0
370
    15
100
AcDbLine
 10
2.368335482696508
 20
4.142796007095309
 30
0.0
 11
2.368335482696508
 21
4.09718267471022
 31
0.0
  0
LINE
  5
A45
330
19
100
AcDbEntity
  8
0
370
    15
100
AcDbLine
 10
2.317154380386501
 20
4.142796007095309
 30
0.0
 11
2.317154380386501
 21
4.09718267471022
 31
0.0
  0
LINE
  5
A46
330
19
100
AcDbEntity
  8
0
370
    15
100
AcDbLine
 10
2.218729183636492
 20
4.115236952005302
 30
0.0
 11
2.218729183636501
 21
4.075866873305299
 31
0.0
  0
LINE
  5
A47
330
19
100
AcDbEntity
  8
0
370
    15
100
AcDbLine
 10
2.088947821193773
 20
4.128876582283051
 30
0.0
 11
2.154048348316131
 21
4.044091015810675
 31
0.0
  0
LINE
  5
A48
330
19
100
AcDbEntity
  8
0
  6
CENTER
 62
     5
 48
2.0
100
AcDbLine
 10
2.342744931541504
 20
4.193977109405299
 30
0.0
 11
2.342744931541504
 21
3.982177334507735
 31
0.0
  0
LINE
  5
A49
330
19
100
AcDbEntity
  8
0
370
    15
100
AcDbLine
 10
2.596344531789114
 20
4.128679072182915
 30
0.0
 11
2.531441514766868
 21
4.044091015810677
 31
0.0
  0
ARC
  5
A4A
330
19
100
AcDbEntity
  8
0
100
AcDbCircle
 10
2.807311860201636
 20
3.898701519155278
 30
0.0
 40
0.1181102361
100
AcDbArc
 50
179.9999999999935
 51
270.0
  0
ARC
  5
A4B
330
19
100
AcDbEntity
  8
0
100
AcDbCircle
 10
2.807311860201636
 20
3.898701519155278
 30
0.0
 40
0.17716535415
100
AcDbArc
 50
179.9999999999935
 51
270.0
  0
LINE
  5
A4C
330
19
100
AcDbEntity
  8
0
370
    15
100
AcDbLine
 10
2.181887197940759
 20
4.032559786735298
 30
0.0
 11
2.342744931541504
 21
4.032559786735298
 31
0.0
  0
LINE
  5
A4D
330
19
100
AcDbEntity
  8
0
100
AcDbLine
 10
2.055343357031407
 20
3.928229078180283
 30
0.0
 11
2.055343357031435
 21
3.710554697458226
 31
0.0
  0
ARC
  5
A4E
330
19
100
AcDbEntity
  8
0
100
AcDbCircle
 10
2.055343357031381
 20
3.957756637205283
 30
0.0
 40
0.029527559025
100
AcDbArc
 50
269.9999999999609
 51
90.00000000006513
  0
ARC
  5
A4F
330
19
100
AcDbEntity
  8
0
370
    15
100
AcDbCircle
 10
2.181887197940759
 20
4.071929865435297
 30
0.0
 40
0.0393700787
100
AcDbArc
 50
224.9999999999908
 51
270.0
  0
LINE
  5
A50
330
19
100
AcDbEntity
  8
0
370
    15
100
AcDbLine
 10
2.222666191506498
 20
4.071929865435297
 30
0.0
 11
2.31715438038651
 21
4.071929865435297
 31
0.0
  0
ARC
  5
A51
330
19
100
AcDbEntity
  8
0
370
    15
100
AcDbCircle
 10
2.222666191506498
 20
4.075866873305299
 30
0.0
 40
0.00393700787
100
AcDbArc
 50
180.0
 51
270.0
  0
ARC
  5
A52
330
19
100
AcDbEntity
  8
0
370
    15
100
AcDbCircle
 10
2.321091388256515
 20
4.086047134860352
 30
0.0
 40
0.00393700787
100
AcDbArc
 50
0.0000000000651378
 51
45.00000000002311
  0
ARC
  5
A53
330
19
100
AcDbEntity
  8
0
370
    15
100
AcDbCircle
 10
2.321091388256498
 20
4.09718267471022
 30
0.0
 40
0.00393700787
100
AcDbArc
 50
180.0
 51
225.0000000000047
  0
LINE
  5
A54
330
19
100
AcDbEntity
  8
0
370
    15
100
AcDbLine
 10
2.318307503294032
 20
4.094398789747764
 30
0.0
 11
2.323875273218972
 21
4.088831019822814
 31
0.0
  0
ARC
  5
A55
330
19
100
AcDbEntity
  8
0
370
    15
100
AcDbCircle
 10
2.31715438038651
 20
4.079803881175294
 30
0.0
 40
0.00787401574
100
AcDbArc
 50
270.0
 51
359.9999999999675
  0
LINE
  5
A56
330
19
100
AcDbEntity
  8
0
370
    15
100
AcDbLine
 10
2.325028396126511
 20
4.086047134860356
 30
0.0
 11
2.325028396126511
 21
4.079803881175291
 31
0.0
  0
LINE
  5
A57
330
19
100
AcDbEntity
  8
0
370
    15
100
AcDbLine
 10
2.462823671576511
 20
4.071929865435297
 30
0.0
 11
2.368335482696499
 21
4.071929865435297
 31
0.0
  0
LINE
  5
A58
330
19
100
AcDbEntity
  8
0
370
    15
100
AcDbLine
 10
2.50360266514225
 20
4.032559786735298
 30
0.0
 11
2.342744931541504
 21
4.032559786735298
 31
0.0
  0
ARC
  5
A59
330
19
100
AcDbEntity
  8
0
370
    15
100
AcDbCircle
 10
2.364398474826511
 20
4.09718267471022
 30
0.0
 40
0.00393700787
100
AcDbArc
 50
314.9999999999953
 51
0.0
  0
ARC
  5
A5A
330
19
100
AcDbEntity
  8
0
370
    15
100
AcDbCircle
 10
2.364398474826494
 20
4.086047134860352
 30
0.0
 40
0.00393700787
100
AcDbArc
 50
134.9999999999769
 51
179.9999999999348
  0
LINE
  5
A5B
330
19
100
AcDbEntity
  8
0
370
    15
100
AcDbLine
 10
2.367182359788977
 20
4.094398789747764
 30
0.0
 11
2.361614589864037
 21
4.088831019822814
 31
0.0
  0
ARC
  5
A5C
330
19
100
AcDbEntity
  8
0
370
    15
100
AcDbCircle
 10
2.368335482696499
 20
4.079803881175294
 30
0.0
 40
0.00787401574
100
AcDbArc
 50
180.0000000000325
 51
270.0
  0
LINE
  5
A5D
330
19
100
AcDbEntity
  8
0
370
    15
100
AcDbLine
 10
2.360461466956497
 20
4.086047134860356
 30
0.0
 11
2.360461466956497
 21
4.079803881175291
 31
0.0
  0
ARC
  5
A5E
330
19
100
AcDbEntity
  8
0
370
    15
100
AcDbCircle
 10
2.462823671576511
 20
4.075866873305299
 30
0.0
 40
0.00393700787
100
AcDbArc
 50
270.0
 51
0.0
  0
ARC
  5
A5F
330
19
100
AcDbEntity
  8
0
370
    15
100
AcDbCircle
 10
2.50360266514225
 20
4.071929865435297
 30
0.0
 40
0.0393700787
100
AcDbArc
 50
270.0
 51
315.0000000000091
  0
ARC
  5
A60
330
19
100
AcDbEntity
  8
0
100
AcDbCircle
 10
2.630146506051664
 20
3.957756637205296
 30
0.0
 40
0.029527559025
100
AcDbArc
 50
90.38325482765337
 51
269.999999999987
  0
LINE
  5
A61
330
19
100
AcDbEntity
  8
0
100
AcDbLine
 10
2.630146506051655
 20
3.928229078180296
 30
0.0
 11
2.630146506051646
 21
3.898701519155305
 31
0.0
  0
LINE
  5
A62
330
19
100
AcDbEntity
  8
0
  6
CENTER
 62
     5
 48
2.0
100
AcDbLine
 10
2.786468490229154
 20
5.942520061363794
 30
0.0
 11
3.673169977934808
 21
5.942520061363794
 31
0.0
  0
LINE
  5
A63
330
19
100
AcDbEntity
  8
0
100
AcDbLine
 10
1.697075640861662
 20
6.123622423383792
 30
0.0
 11
3.750007185260081
 21
6.123622423383786
 31
0.0
  0
LINE
  5
A64
330
19
100
AcDbEntity
  8
0
100
AcDbLine
 10
1.69707564086168
 20
5.761417699343794
 30
0.0
 11
3.750007185260081
 21
5.761417699343794
 31
0.0
  0
LINE
  5
A65
330
19
100
AcDbEntity
  8
0
370
    15
100
AcDbLine
 10
2.328965403996499
 20
4.154607030705312
 30
0.0
 11
2.342744931541504
 21
4.154607030705303
 31
0.0
  0
LINE
  5
A66
330
19
100
AcDbEntity
  8
0
100
AcDbLine
 10
2.075028396381336
 20
4.193977109405276
 30
0.0
 11
2.147245505561801
 21
4.193977109405278
 31
0.0
  0
ARC
  5
A67
330
19
100
AcDbEntity
  8
0
100
AcDbCircle
 10
2.075028396381336
 20
4.115236952005288
 30
0.0
 40
0.0787401574
100
AcDbArc
 50
90.0
 51
180.000000000013
  0
ARC
  5
A68
330
19
100
AcDbEntity
  8
0
370
    15
100
AcDbCircle
 10
2.075028396381462
 20
4.114957157470744
 30
0.0
 40
0.01968503935
100
AcDbArc
 50
44.99999999999086
 51
179.9999999999479
  0
ARC
  5
A69
330
19
100
AcDbEntity
  8
0
370
    15
100
AcDbCircle
 10
2.218729183636519
 20
4.131148179880135
 30
0.0
 40
0.0137795275449964
100
AcDbArc
 50
299.9999999999398
 51
119.9999999999852
  0
LINE
  5
A6A
330
19
100
AcDbEntity
  8
0
370
    15
100
AcDbLine
 10
2.163611073456497
 20
4.115236952005348
 30
0.0
 11
2.21183941986403
 21
4.143081600786265
 31
0.0
  0
ARC
  5
A6B
330
19
100
AcDbEntity
  8
0
370
    15
100
AcDbCircle
 10
2.153768553781506
 20
4.132284696156945
 30
0.0
 40
0.01968503935
100
AcDbArc
 50
180.0
 51
299.9999999999699
  0
ARC
  5
A6C
330
19
100
AcDbEntity
  8
0
370
    15
100
AcDbCircle
 10
2.153768553781506
 20
4.134642196820687
 30
0.0
 40
0.01968503935
100
AcDbArc
 50
135.0000000000091
 51
180.0
  0
LINE
  5
A6D
330
19
100
AcDbEntity
  8
0
370
    15
100
AcDbLine
 10
2.158381045411646
 20
4.16709353807545
 30
0.0
 11
2.139849128969195
 21
4.148561621632993
 31
0.0
  0
ARC
  5
A6E
330
19
100
AcDbEntity
  8
0
370
    15
100
AcDbCircle
 10
2.147245505561801
 20
4.178229077925294
 30
0.0
 40
0.01574803148
100
AcDbArc
 50
314.9999999999953
 51
90.0
  0
LINE
  5
A6F
330
19
100
AcDbEntity
  8
0
370
    15
100
AcDbLine
 10
2.218729183636492
 20
4.115236952005302
 30
0.0
 11
2.226603199376512
 21
4.119783017112396
 31
0.0
  0
ARC
  5
A70
330
19
100
AcDbEntity
  8
0
370
    15
100
AcDbCircle
 10
2.328965403996499
 20
4.142796007095309
 30
0.0
 40
0.01181102361
100
AcDbArc
 50
90.0
 51
180.0
  0
LINE
  5
A71
330
19
100
AcDbEntity
  8
0
100
AcDbLine
 10
2.538244357521207
 20
4.19397710940529
 30
0.0
 11
2.610461466701671
 21
4.193977109405292
 31
0.0
  0
ARC
  5
A72
330
19
100
AcDbEntity
  8
0
370
    15
100
AcDbCircle
 10
2.35652445908651
 20
4.142796007095309
 30
0.0
 40
0.01181102361
100
AcDbArc
 50
0.0
 51
90.0
  0
LINE
  5
A73
330
19
100
AcDbEntity
  8
0
370
    15
100
AcDbLine
 10
2.35652445908651
 20
4.154607030705312
 30
0.0
 11
2.342744931541504
 21
4.154607030705303
 31
0.0
  0
ARC
  5
A74
330
19
100
AcDbEntity
  8
0
370
    15
100
AcDbCircle
 10
2.531721309301502
 20
4.132284696156945
 30
0.0
 40
0.01968503935
100
AcDbArc
 50
240.0000000000301
 51
0.0
  0
LINE
  5
A75
330
19
100
AcDbEntity
  8
0
370
    15
100
AcDbLine
 10
2.521878789626511
 20
4.115236952005348
 30
0.0
 11
2.473650443218979
 21
4.143081600786265
 31
0.0
  0
LINE
  5
A76
330
19
100
AcDbEntity
  8
0
370
    15
100
AcDbLine
 10
2.466760679446517
 20
4.115236952005302
 30
0.0
 11
2.458886663706497
 21
4.119783017112396
 31
0.0
  0
ARC
  5
A77
330
19
100
AcDbEntity
  8
0
370
    15
100
AcDbCircle
 10
2.46676067944649
 20
4.131148179880135
 30
0.0
 40
0.0137795275449964
100
AcDbArc
 50
60.00000000001481
 51
240.0000000000602
  0
ARC
  5
A78
330
19
100
AcDbEntity
  8
0
370
    15
100
AcDbCircle
 10
2.531721309301502
 20
4.134642196820687
 30
0.0
 40
0.01968503935
100
AcDbArc
 50
0.0
 51
44.99999999999086
  0
LINE
  5
A79
330
19
100
AcDbEntity
  8
0
370
    15
100
AcDbLine
 10
2.527108817671362
 20
4.16709353807545
 30
0.0
 11
2.545640734113813
 21
4.148561621632993
 31
0.0
  0
LINE
  5
A7A
330
19
100
AcDbEntity
  8
0
370
    15
100
AcDbLine
 10
2.551406348651504
 20
4.134642196820687
 30
0.0
 11
2.551406348651504
 21
4.132284696156945
 31
0.0
  0
ARC
  5
A7B
330
19
100
AcDbEntity
  8
0
370
    15
100
AcDbCircle
 10
2.538244357521207
 20
4.178229077925294
 30
0.0
 40
0.01574803148
100
AcDbArc
 50
90.0
 51
225.0000000000047
  0
ARC
  5
A7C
330
19
100
AcDbEntity
  8
0
100
AcDbCircle
 10
2.610461466701671
 20
4.115236952005288
 30
0.0
 40
0.0787401574
100
AcDbArc
 50
359.999999999987
 51
90.0
  0
ARC
  5
A7D
330
19
100
AcDbEntity
  8
0
100
AcDbCircle
 10
2.610263956601425
 20
4.114759647370609
 30
0.0
 40
0.01968503935
100
AcDbArc
 50
0.0
 51
135.0000000000091
  0
LINE
  5
A7E
330
19
100
AcDbEntity
  8
0
100
AcDbLine
 10
1.756130758911648
 20
6.07637832894379
 30
0.0
 11
1.9962882389813
 21
6.076378328943794
 31
0.0
  0
LINE
  5
A7F
330
19
100
AcDbEntity
  8
0
100
AcDbLine
 10
1.69707564086168
 20
5.761417699343794
 30
0.0
 11
1.697075640861662
 21
6.123622423383792
 31
0.0
  0
LINE
  5
A80
330
19
100
AcDbEntity
  8
0
100
AcDbLine
 10
1.756130758911653
 20
5.761417699343795
 30
0.0
 11
1.756130758911648
 21
6.07637832894379
 31
0.0
  0
LINE
  5
A81
330
19
100
AcDbEntity
  8
0
100
AcDbLine
 10
2.232508711181542
 20
5.761417699343794
 30
0.0
 11
2.232508711181542
 21
6.123622423383793
 31
0.0
  0
LINE
  5
A82
330
19
100
AcDbEntity
  8
0
100
AcDbLine
 10
2.162993537041822
 20
5.761417699343795
 30
0.0
 11
2.162993537041822
 21
6.123622423383793
 31
0.0
  0
LINE
  5
A83
330
19
100
AcDbEntity
  8
0
100
AcDbLine
 10
2.317154385088665
 20
5.761417699343794
 30
0.0
 11
2.317154385088668
 21
6.123622423383792
 31
0.0
  0
LINE
  5
A84
330
19
100
AcDbEntity
  8
0
100
AcDbLine
 10
1.9962882389813
 20
5.761417699343797
 30
0.0
 11
1.9962882389813
 21
6.123622423383792
 31
0.0
  0
LINE
  5
A85
330
19
100
AcDbEntity
  8
0
100
AcDbLine
 10
2.452981151901503
 20
5.761417699343794
 30
0.0
 11
2.452981151901503
 21
6.123622423383793
 31
0.0
  0
LINE
  5
A86
330
19
100
AcDbEntity
  8
0
100
AcDbLine
 10
2.522496326041222
 20
5.761417699343795
 30
0.0
 11
2.522496326041222
 21
6.123622423383793
 31
0.0
  0
LINE
  5
A87
330
19
100
AcDbEntity
  8
0
100
AcDbLine
 10
2.689201624101727
 20
5.761417699343797
 30
0.0
 11
2.689201624101709
 21
6.123622423383792
 31
0.0
  0
LINE
  5
A88
330
19
100
AcDbEntity
  8
0
100
AcDbLine
 10
2.36833547799438
 20
5.761417699343794
 30
0.0
 11
2.36833547799438
 21
6.123622423383792
 31
0.0
  0
ARC
  5
A89
330
19
100
AcDbEntity
  8
0
100
AcDbCircle
 10
3.283689812471687
 20
5.942520061363794
 30
0.0
 40
0.12992125971
100
AcDbArc
 50
90.0
 51
180.0
  0
ARC
  5
A8A
330
19
100
AcDbEntity
  8
0
100
AcDbCircle
 10
3.299437843951686
 20
5.942520061363794
 30
0.0
 40
0.0866141731399973
100
AcDbArc
 50
90.0
 51
270.0
  0
ARC
  5
A8B
330
19
100
AcDbEntity
  8
0
100
AcDbCircle
 10
3.299437843951686
 20
5.942520061363794
 30
0.0
 40
0.0866141731399973
100
AcDbArc
 50
90.0
 51
270.0
  0
ARC
  5
A8C
330
19
100
AcDbEntity
  8
0
100
AcDbCircle
 10
3.283689812471687
 20
5.942520061363794
 30
0.0
 40
0.12992125971
100
AcDbArc
 50
180.0
 51
270.0
  0
CIRCLE
  5
A8D
330
19
100
AcDbEntity
  8
0
100
AcDbCircle
 10
2.951012647456659
 20
5.942520061363794
 30
0.0
 40
0.11023622036
  0
LINE
  5
A8E
330
19
100
AcDbEntity
  8
0
  6
CENTER
 62
     5
 48
2.0
100
AcDbLine
 10
2.951012647456659
 20
5.800366112319573
 30
0.0
 11
2.951012647456659
 21
6.088502579196231
 31
0.0
  0
CIRCLE
  5
A8F
330
19
100
AcDbEntity
  8
0
100
AcDbCircle
 10
2.951012647456659
 20
5.942520061363809
 30
0.0
 40
0.04330708657
  0
ARC
  5
A90
330
19
100
AcDbEntity
  8
0
100
AcDbCircle
 10
3.346681938391711
 20
5.942520061363794
 30
0.0
 40
0.12992125971
100
AcDbArc
 50
0.0
 51
90.0
  0
LINE
  5
A91
330
19
100
AcDbEntity
  8
0
100
AcDbLine
 10
3.617997538259427
 20
5.761417699343794
 30
0.0
 11
3.617997538259427
 21
6.123622423383786
 31
0.0
  0
LINE
  5
A92
330
19
100
AcDbEntity
  8
0
100
AcDbLine
 10
3.547469339761697
 20
5.761417699343794
 30
0.0
 11
3.547469339761697
 21
6.123622423383792
 31
0.0
  0
LINE
  5
A93
330
19
100
AcDbEntity
  8
0
  6
CENTER
 62
     5
 48
2.0
100
AcDbLine
 10
3.334870914781694
 20
5.807463061011914
 30
0.0
 11
3.334870914781694
 21
6.085663799719291
 31
0.0
  0
ARC
  5
A94
330
19
100
AcDbEntity
  8
0
100
AcDbCircle
 10
3.346681938391711
 20
5.942520061363794
 30
0.0
 40
0.12992125971
100
AcDbArc
 50
270.0
 51
0.0
  0
ARC
  5
A95
330
19
100
AcDbEntity
  8
0
100
AcDbCircle
 10
3.37030398561172
 20
5.942520061363794
 30
0.0
 40
0.0866141731399973
100
AcDbArc
 50
270.0
 51
90.0
  0
ARC
  5
A96
330
19
100
AcDbEntity
  8
0
100
AcDbCircle
 10
3.37030398561172
 20
5.942520061363794
 30
0.0
 40
0.0866141731399973
100
AcDbArc
 50
270.0
 51
90.0
  0
LINE
  5
A97
330
19
100
AcDbEntity
  8
0
100
AcDbLine
 10
3.283689812471687
 20
5.812598801653801
 30
0.0
 11
3.346681938391705
 21
5.812598801653796
 31
0.0
  0
LINE
  5
A98
330
19
100
AcDbEntity
  8
0
100
AcDbLine
 10
3.29943784395169
 20
5.855905888223802
 30
0.0
 11
3.37030398561172
 21
5.855905888223802
 31
0.0
  0
LINE
  5
A99
330
19
100
AcDbEntity
  8
0
100
AcDbLine
 10
3.29943784395169
 20
5.855905888223802
 30
0.0
 11
3.37030398561172
 21
5.855905888223802
 31
0.0
  0
LINE
  5
A9A
330
19
100
AcDbEntity
  8
0
100
AcDbLine
 10
3.299437843951682
 20
6.029134234503792
 30
0.0
 11
3.370303985611716
 21
6.029134234503787
 31
0.0
  0
LINE
  5
A9B
330
19
100
AcDbEntity
  8
0
100
AcDbLine
 10
3.299437843951682
 20
6.029134234503792
 30
0.0
 11
3.370303985611716
 21
6.029134234503797
 31
0.0
  0
CIRCLE
  5
A9C
330
19
100
AcDbEntity
  8
0
100
AcDbCircle
 10
3.334870914781694
 20
5.942520061363794
 30
0.0
 40
0.049212598375
  0
LINE
  5
A9D
330
19
100
AcDbEntity
  8
0
100
AcDbLine
 10
3.283689812471678
 20
6.072441321073788
 30
0.0
 11
3.346681938391702
 21
6.072441321073793
 31
0.0
  0
LINE
  5
A9E
330
19
100
AcDbEntity
  8
0
100
AcDbLine
 10
3.750007185260081
 20
5.761417699343794
 30
0.0
 11
3.750007185260081
 21
6.123622423383786
 31
0.0
  0
LINE
  5
A9F
330
19
100
AcDbEntity
  8
0
100
AcDbLine
 10
2.801406348396632
 20
3.518029870239458
 30
0.0
 11
2.856524458576672
 21
3.486207414489799
 31
0.0
  0
LINE
  5
AA0
330
19
100
AcDbEntity
  8
0
100
AcDbLine
 10
2.801406348396632
 20
3.518029870239458
 30
0.0
 11
3.095345740064011
 21
3.518029870239458
 31
0.0
  0
LINE
  5
AA1
330
19
100
AcDbEntity
  8
0
100
AcDbLine
 10
2.555343356521687
 20
3.351457425225262
 30
0.0
 11
2.830933907421687
 21
3.351457425225266
 31
0.0
  0
LINE
  5
AA2
330
19
100
AcDbEntity
  8
0
100
AcDbLine
 10
2.539026024818693
 20
3.410512543275266
 30
0.0
 11
3.181327607851699
 21
3.410512543275246
 31
0.0
  0
LINE
  5
AA3
330
19
100
AcDbEntity
  8
0
100
AcDbLine
 10
2.555343356521651
 20
3.138859000245271
 30
0.0
 11
2.83093390742167
 21
3.138859000245267
 31
0.0
  0
LINE
  5
AA4
330
19
100
AcDbEntity
  8
0
100
AcDbLine
 10
2.504341964659224
 20
3.079803882195267
 30
0.0
 11
2.882115009731659
 21
3.079803882195267
 31
0.0
  0
ARC
  5
AA5
330
19
100
AcDbEntity
  8
0
100
AcDbCircle
 10
2.006636797804274
 20
2.875079472955287
 30
0.0
 40
0.05905511805
100
AcDbArc
 50
270.0
 51
344.9999999999984
  0
ARC
  5
AA6
330
19
100
AcDbEntity
  8
0
100
AcDbCircle
 10
2.006636797804274
 20
2.875079472955287
 30
0.0
 40
0.05905511805
100
AcDbArc
 50
270.0
 51
344.9999999999984
  0
ARC
  5
AA7
330
19
100
AcDbEntity
  8
0
100
AcDbCircle
 10
1.756130758911662
 20
2.875079472955287
 30
0.0
 40
0.05905511805
100
AcDbArc
 50
180.0000000000065
 51
270.0
  0
ARC
  5
AA8
330
19
100
AcDbEntity
  8
0
100
AcDbCircle
 10
1.756130758911662
 20
2.875079472955287
 30
0.0
 40
0.05905511805
100
AcDbArc
 50
180.0000000000065
 51
270.0
  0
LINE
  5
AA9
330
19
100
AcDbEntity
  8
0
100
AcDbLine
 10
1.775815798261662
 20
2.875079472955287
 30
0.0
 11
1.976603199631658
 21
2.875079472955287
 31
0.0
  0
LINE
  5
AAA
330
19
100
AcDbEntity
  8
0
100
AcDbLine
 10
1.775815798261662
 20
2.875079472955287
 30
0.0
 11
1.945107136671669
 21
2.875079472955287
 31
0.0
  0
LINE
  5
AAB
330
19
100
AcDbEntity
  8
0
100
AcDbLine
 10
1.756130758911662
 20
2.816024354905287
 30
0.0
 11
2.006636797804274
 21
2.816024354905287
 31
0.0
  0
LINE
  5
AAC
330
19
100
AcDbEntity
  8
0
100
AcDbLine
 10
1.756130758911662
 20
2.816024354905287
 30
0.0
 11
2.006636797804274
 21
2.816024354905287
 31
0.0
  0
LINE
  5
AAD
330
19
100
AcDbEntity
  8
0
100
AcDbLine
 10
1.908689112423089
 20
3.020946475067784
 30
0.0
 11
1.726275349714489
 21
2.972168348037884
 31
0.0
  0
ARC
  5
AAE
330
19
100
AcDbEntity
  8
0
100
AcDbCircle
 10
1.736445719561662
 20
2.934134591005283
 30
0.0
 40
0.0393700786999866
100
AcDbArc
 50
299.9999999999998
 51
180.000000000026
  0
LINE
  5
AAF
330
19
100
AcDbEntity
  8
0
100
AcDbLine
 10
1.697075640861648
 20
2.934134591005274
 30
0.0
 11
1.697075640861662
 21
2.875079472955278
 31
0.0
  0
ARC
  5
AB0
330
19
100
AcDbEntity
  8
0
100
AcDbCircle
 10
1.775815798261662
 20
2.894764512305287
 30
0.0
 40
0.01968503935
100
AcDbArc
 50
180.000000000013
 51
270.0
  0
ARC
  5
AB1
330
19
100
AcDbEntity
  8
0
100
AcDbCircle
 10
1.775815798261662
 20
2.894764512305287
 30
0.0
 40
0.01968503935
100
AcDbArc
 50
180.000000000013
 51
270.0
  0
LINE
  5
AB2
330
19
100
AcDbEntity
  8
0
100
AcDbLine
 10
1.756130758911666
 20
2.900039102702107
 30
0.0
 11
1.756130758911662
 21
2.894764512305283
 31
0.0
  0
LINE
  5
AB3
330
19
100
AcDbEntity
  8
0
100
AcDbLine
 10
1.756130758911666
 20
2.900039102702107
 30
0.0
 11
1.756130758911662
 21
2.894764512305283
 31
0.0
  0
LINE
  5
AB4
330
19
100
AcDbEntity
  8
0
100
AcDbLine
 10
2.193138632481497
 20
3.469567661325271
 30
0.0
 11
2.193138632481515
 21
3.430197582625266
 31
0.0
  0
LINE
  5
AB5
330
19
100
AcDbEntity
  8
0
100
AcDbLine
 10
2.13408351443148
 20
3.469567661325261
 30
0.0
 11
2.134083514431497
 21
3.430197582625266
 31
0.0
  0
LINE
  5
AB6
330
19
100
AcDbEntity
  8
0
100
AcDbLine
 10
2.212823671831515
 20
3.410512543275266
 30
0.0
 11
2.479712621415607
 21
3.410512543275261
 31
0.0
  0
LINE
  5
AB7
330
19
100
AcDbEntity
  8
0
100
AcDbLine
 10
2.228571703311509
 20
3.300276322915275
 30
0.0
 11
2.393926033851503
 21
3.300276322915275
 31
0.0
  0
ARC
  5
AB8
330
19
100
AcDbEntity
  8
0
100
AcDbCircle
 10
1.878178002881565
 20
3.135047746165624
 30
0.0
 40
0.1181102361
100
AcDbArc
 50
284.9708387631169
 51
0.0000000000130276
  0
LINE
  5
AB9
330
19
100
AcDbEntity
  8
0
100
AcDbLine
 10
1.996288238981569
 20
3.135047746165651
 30
0.0
 11
1.996288238981622
 21
2.894764512305296
 31
0.0
  0
LINE
  5
ABA
330
19
100
AcDbEntity
  8
0
100
AcDbLine
 10
2.118335482951682
 20
3.064055850715281
 30
0.0
 11
2.075028396381533
 21
3.225680098122726
 31
0.0
  0
LINE
  5
ABB
330
19
100
AcDbEntity
  8
0
100
AcDbLine
 10
2.055343357031694
 20
3.005000732665286
 30
0.0
 11
2.102587451471687
 21
3.005000732665286
 31
0.0
  0
LINE
  5
ABC
330
19
100
AcDbEntity
  8
0
100
AcDbLine
 10
2.044930346370552
 20
3.064055850715285
 30
0.0
 11
2.118335482951682
 21
3.064055850715281
 31
0.0
  0
LINE
  5
ABD
330
19
100
AcDbEntity
  8
0
100
AcDbLine
 10
2.102587451471687
 20
3.005000732665286
 30
0.0
 11
2.06367966150332
 21
2.859794883693171
 31
0.0
  0
LINE
  5
ABE
330
19
100
AcDbEntity
  8
0
100
AcDbLine
 10
2.102587451471687
 20
3.005000732665286
 30
0.0
 11
2.06367966150332
 21
2.859794883693171
 31
0.0
  0
ARC
  5
ABF
330
19
100
AcDbEntity
  8
0
100
AcDbCircle
 10
1.976603199631658
 20
2.894764512305292
 30
0.0
 40
0.01968503935
100
AcDbArc
 50
270.0
 51
0.0
  0
LINE
  5
AC0
330
19
100
AcDbEntity
  8
0
100
AcDbLine
 10
2.044930346370552
 20
3.064055850715285
 30
0.0
 11
2.055343357031694
 21
3.005000732665286
 31
0.0
  0
LINE
  5
AC1
330
19
100
AcDbEntity
  8
0
100
AcDbLine
 10
2.015973278331497
 20
3.410512543275261
 30
0.0
 11
2.114398475081497
 21
3.410512543275261
 31
0.0
  0
LINE
  5
AC2
330
19
100
AcDbEntity
  8
0
100
AcDbLine
 10
2.094713435731515
 20
3.351457425225266
 30
0.0
 11
2.19813055843103
 21
3.351457425225262
 31
0.0
  0
LINE
  5
AC3
330
19
100
AcDbEntity
  8
0
100
AcDbLine
 10
2.075028396381497
 20
3.331772385875261
 30
0.0
 11
2.075028396381533
 21
3.225680098122726
 31
0.0
  0
LINE
  5
AC4
330
19
100
AcDbEntity
  8
0
100
AcDbLine
 10
1.996288238981497
 20
3.390827503925257
 30
0.0
 11
1.996288238981565
 21
3.135047746165656
 31
0.0
  0
ARC
  5
AC5
330
19
100
AcDbEntity
  8
0
100
AcDbCircle
 10
2.094713435731515
 20
3.331772385875266
 30
0.0
 40
0.01968503935
100
AcDbArc
 50
90.0
 51
180.0
  0
ARC
  5
AC6
330
19
100
AcDbEntity
  8
0
100
AcDbCircle
 10
2.015973278331497
 20
3.390827503925262
 30
0.0
 40
0.01968503935
100
AcDbArc
 50
90.0
 51
180.000000000013
  0
LINE
  5
AC7
330
19
100
AcDbEntity
  8
0
100
AcDbLine
 10
2.199022280115416
 20
3.351457425225259
 30
0.0
 11
2.228571703311509
 21
3.300276322915275
 31
0.0
  0
ARC
  5
AC8
330
19
100
AcDbEntity
  8
0
100
AcDbCircle
 10
2.114398475081497
 20
3.430197582625261
 30
0.0
 40
0.01968503935
100
AcDbArc
 50
270.0
 51
0.0000000000130276
  0
ARC
  5
AC9
330
19
100
AcDbEntity
  8
0
100
AcDbCircle
 10
2.212823671831515
 20
3.430197582625266
 30
0.0
 40
0.01968503935
100
AcDbArc
 50
180.0
 51
270.0
  0
LINE
  5
ACA
330
19
100
AcDbEntity
  8
0
100
AcDbLine
 10
2.43165252658273
 20
3.193989501183799
 30
0.0
 11
2.467838663335555
 21
3.104425669830949
 31
0.0
  0
ARC
  5
ACB
330
19
100
AcDbEntity
  8
0
100
AcDbCircle
 10
2.504341964659224
 20
3.119173960895269
 30
0.0
 40
0.0393700787
100
AcDbArc
 50
201.9999999999904
 51
270.0
  0
LINE
  5
ACC
330
19
100
AcDbEntity
  8
0
100
AcDbLine
 10
2.476603199121687
 20
3.351457425225266
 30
0.0
 11
2.476603199121669
 21
3.237284196995271
 31
0.0
  0
LINE
  5
ACD
330
19
100
AcDbEntity
  8
0
100
AcDbLine
 10
2.535658317171687
 20
3.331772385875275
 30
0.0
 11
2.535658317171651
 21
3.158544039595276
 31
0.0
  0
ARC
  5
ACE
330
19
100
AcDbEntity
  8
0
100
AcDbCircle
 10
2.460855167641666
 20
3.205788134035262
 30
0.0
 40
0.03149606296
100
AcDbArc
 50
90.00000000002605
 51
202.0000000000035
  0
LINE
  5
ACF
330
19
100
AcDbEntity
  8
0
100
AcDbLine
 10
2.460855167641648
 20
3.23728419699526
 30
0.0
 11
2.476603199121669
 21
3.237284196995271
 31
0.0
  0
ARC
  5
AD0
330
19
100
AcDbEntity
  8
0
100
AcDbCircle
 10
2.555343356521651
 20
3.158544039595271
 30
0.0
 40
0.01968503935
100
AcDbArc
 50
179.9999999999935
 51
270.0
  0
LINE
  5
AD1
330
19
100
AcDbEntity
  8
0
100
AcDbLine
 10
2.424367178732287
 20
3.351457425225262
 30
0.0
 11
2.476603199121669
 21
3.351457425225262
 31
0.0
  0
LINE
  5
AD2
330
19
100
AcDbEntity
  8
0
100
AcDbLine
 10
2.423475457047596
 20
3.351457425225262
 30
0.0
 11
2.393926033851503
 21
3.300276322915275
 31
0.0
  0
ARC
  5
AD3
330
19
100
AcDbEntity
  8
0
100
AcDbCircle
 10
2.555343356521687
 20
3.33177238587527
 30
0.0
 40
0.01968503935
100
AcDbArc
 50
90.0
 51
179.999999999987
  0
ARC
  5
AD4
330
19
100
AcDbEntity
  8
0
100
AcDbCircle
 10
2.509498471952905
 20
3.410512543275288
 30
0.0
 40
0.029527559025
100
AcDbArc
 50
359.9999999999675
 51
180.0000000000716
  0
LINE
  5
AD5
330
19
100
AcDbEntity
  8
0
100
AcDbLine
 10
2.075028396381471
 20
3.548307818725267
 30
0.0
 11
2.114398475081497
 21
3.54830781872527
 31
0.0
  0
LINE
  5
AD6
330
19
100
AcDbEntity
  8
0
100
AcDbLine
 10
2.015973278331515
 20
3.489252700675271
 30
0.0
 11
2.114398475081479
 21
3.489252700675257
 31
0.0
  0
LINE
  5
AD7
330
19
100
AcDbEntity
  8
0
100
AcDbLine
 10
2.055343357031444
 20
3.651499579408222
 30
0.0
 11
2.05534335703147
 21
3.567992858075259
 31
0.0
  0
ARC
  5
AD8
330
19
100
AcDbEntity
  8
0
100
AcDbCircle
 10
2.075028396381471
 20
3.567992858075266
 30
0.0
 40
0.01968503935
100
AcDbArc
 50
180.0000000000195
 51
270.0
  0
ARC
  5
AD9
330
19
100
AcDbEntity
  8
0
100
AcDbCircle
 10
2.015973278331515
 20
3.508937740025271
 30
0.0
 40
0.01968503935
100
AcDbArc
 50
180.0000000000195
 51
270.0
  0
ARC
  5
ADA
330
19
100
AcDbEntity
  8
0
100
AcDbCircle
 10
2.055343357031389
 20
3.681027138433228
 30
0.0
 40
0.029527559025
100
AcDbArc
 50
269.9999999999609
 51
90.00000000006513
  0
ARC
  5
ADB
330
19
100
AcDbEntity
  8
0
100
AcDbCircle
 10
2.114398475081479
 20
3.469567661325257
 30
0.0
 40
0.01968503935
100
AcDbArc
 50
0.0000000000195413
 51
90.0
  0
ARC
  5
ADC
330
19
100
AcDbEntity
  8
0
100
AcDbCircle
 10
2.114398475081497
 20
3.469567661325271
 30
0.0
 40
0.0787401574
100
AcDbArc
 50
0.0
 51
90.0
  0
LINE
  5
ADD
330
19
100
AcDbEntity
  8
0
100
AcDbLine
 10
2.801406348396632
 20
3.721536165005283
 30
0.0
 11
2.801406348396632
 21
3.518029870239458
 31
0.0
  0
LINE
  5
ADE
330
19
100
AcDbEntity
  8
0
100
AcDbLine
 10
2.801406348396632
 20
3.669478808448552
 30
0.0
 11
2.801406348396632
 21
3.72163461755756
 31
0.0
  0
ARC
  5
ADF
330
19
100
AcDbEntity
  8
0
100
AcDbCircle
 10
3.690952067210067
 20
2.961693646095222
 30
0.0
 40
0.05905511805
100
AcDbArc
 50
269.999999999987
 51
9.999999999996997
  0
LINE
  5
AE0
330
19
100
AcDbEntity
  8
0
100
AcDbLine
 10
3.617997538259409
 20
3.715524210496994
 30
0.0
 11
3.749110005320765
 21
2.971948459726506
 31
0.0
  0
LINE
  5
AE1
330
19
100
AcDbEntity
  8
0
100
AcDbLine
 10
3.513378310633797
 20
3.721536165005283
 30
0.0
 11
3.513378310633797
 21
3.375079472445231
 31
0.0
  0
LINE
  5
AE6
330
19
100
AcDbEntity
  8
0
100
AcDbLine
 10
3.045500836336644
 20
3.486207414489799
 30
0.0
 11
3.045500836336644
 21
3.410512543275252
 31
0.0
  0
LINE
  5
AE7
330
19
100
AcDbEntity
  8
0
100
AcDbLine
 10
3.121709353574027
 20
3.721536165005281
 30
0.0
 11
3.121709353574031
 21
3.410512543275248
 31
0.0
  0
LINE
  5
AE8
330
19
100
AcDbEntity
  8
0
100
AcDbLine
 10
2.856524458576672
 20
3.486207414489799
 30
0.0
 11
2.856524458576672
 21
3.410512543275252
 31
0.0
  0
LINE
  5
AE9
330
19
100
AcDbEntity
  8
0
  6
CENTER
 62
     5
 48
2.0
100
AcDbLine
 10
3.334870914781676
 20
3.817497182461832
 30
0.0
 11
3.334870914781671
 21
3.316024354395269
 31
0.0
  0
LINE
  5
AEA
330
19
100
AcDbEntity
  8
0
100
AcDbLine
 10
3.55983960014873
 20
3.705269396865709
 30
0.0
 11
3.61806099258216
 21
3.375079472445213
 31
0.0
  0
LINE
  5
AEB
330
19
100
AcDbEntity
  8
0
100
AcDbLine
 10
3.256130757381711
 20
3.083740890065286
 30
0.0
 11
3.401800048571677
 21
3.083740890065259
 31
0.0
  0
LINE
  5
AEC
330
19
100
AcDbEntity
  8
0
100
AcDbLine
 10
3.238414221966678
 20
3.14279600811529
 30
0.0
 11
3.441170127271691
 21
3.142796008115252
 31
0.0
  0
LINE
  5
AED
330
19
100
AcDbEntity
  8
0
100
AcDbLine
 10
3.201012647201704
 20
3.375079472445293
 30
0.0
 11
3.618060992582154
 21
3.375079472445215
 31
0.0
  0
LINE
  5
AEE
330
19
100
AcDbEntity
  8
0
100
AcDbLine
 10
3.16164256850169
 20
3.237284196995303
 30
0.0
 11
3.595324303309832
 21
3.237284196995229
 31
0.0
  0
LINE
  5
AEF
330
19
100
AcDbEntity
  8
0
100
AcDbLine
 10
3.212823670811662
 20
3.316024354395294
 30
0.0
 11
3.59532430330984
 21
3.316024354395294
 31
0.0
  0
LINE
  5
AF0
330
19
100
AcDbEntity
  8
0
100
AcDbLine
 10
3.161642568501696
 20
3.237284196995303
 30
0.0
 11
3.161642568501672
 21
3.083740890065286
 31
0.0
  0
ARC
  5
AF1
330
19
100
AcDbEntity
  8
0
100
AcDbCircle
 10
3.240381207628082
 20
3.157677949262128
 30
0.0
 40
0.2362204721999999
100
AcDbArc
 50
154.2258026176507
 51
191.1356398450678
  0
ARC
  5
AF2
330
19
100
AcDbEntity
  8
0
100
AcDbCircle
 10
3.240381207628082
 20
3.157677949262128
 30
0.0
 40
0.2755905509
100
AcDbArc
 50
140.8304231127227
 51
191.1356398450678
  0
LINE
  5
AF3
330
19
100
AcDbEntity
  8
0
100
AcDbLine
 10
3.089066022100572
 20
3.337190751819354
 30
0.0
 11
3.124808192429366
 21
2.997126716925262
 31
0.0
  0
LINE
  5
AF4
330
19
100
AcDbEntity
  8
0
100
AcDbLine
 10
2.901800049081659
 20
3.099488921545262
 30
0.0
 11
2.901800049081659
 21
3.351457425225244
 31
0.0
  0
LINE
  5
AF5
330
19
100
AcDbEntity
  8
0
100
AcDbLine
 10
3.050043525901035
 20
3.256491511689184
 30
0.0
 11
3.080983823250859
 21
2.962114246379948
 31
0.0
  0
LINE
  5
AF6
330
19
100
AcDbEntity
  8
0
100
AcDbLine
 10
3.056311757518713
 20
2.941042311567653
 30
0.0
 11
2.974215536546058
 21
2.963039927678952
 31
0.0
  0
LINE
  5
AF7
330
19
100
AcDbEntity
  8
0
100
AcDbLine
 10
3.049699046938931
 20
2.902055277328324
 30
0.0
 11
2.938540160789354
 21
2.931840211103645
 31
0.0
  0
ARC
  5
AF8
330
19
100
AcDbEntity
  8
0
100
AcDbCircle
 10
2.97931039963343
 20
2.982054215578634
 30
0.0
 40
0.01968503935
100
AcDbArc
 50
128.9312486952002
 51
255.0000000000055
  0
ARC
  5
AF9
330
19
100
AcDbEntity
  8
0
100
AcDbCircle
 10
2.949748859581571
 20
2.973671644482944
 30
0.0
 40
0.04330708657
100
AcDbArc
 50
134.9999999999953
 51
255.0000000000055
  0
LINE
  5
AFA
330
19
100
AcDbEntity
  8
0
100
AcDbLine
 10
2.919126124994491
 20
3.004294379070026
 30
0.0
 11
2.94839928231517
 21
3.033567536390704
 31
0.0
  0
ARC
  5
AFB
330
19
100
AcDbEntity
  8
0
100
AcDbCircle
 10
2.882115009731659
 20
3.099488921545262
 30
0.0
 40
0.01968503935
100
AcDbArc
 50
270.0
 51
0.0
  0
ARC
  5
AFC
330
19
100
AcDbEntity
  8
0
100
AcDbCircle
 10
2.892721583065942
 20
3.089245235639946
 30
0.0
 40
0.0787401574
100
AcDbArc
 50
314.9999999999907
 51
11.13563984506787
  0
ARC
  5
AFD
330
19
100
AcDbEntity
  8
0
100
AcDbCircle
 10
2.892721583065942
 20
3.089245235639946
 30
0.0
 40
0.1181102361
100
AcDbArc
 50
308.9312486952171
 51
11.13563984506787
  0
LINE
  5
AFE
330
19
100
AcDbEntity
  8
0
100
AcDbLine
 10
3.124808192429366
 20
2.997126716925262
 30
0.0
 11
3.165012739792096
 21
2.956922169562473
 31
0.0
  0
ARC
  5
AFF
330
19
100
AcDbEntity
  8
0
100
AcDbCircle
 10
3.075173362375785
 20
2.997126716826734
 30
0.0
 40
0.09842519675
100
AcDbArc
 50
255.0000000000055
 51
335.8907264660713
  0
LINE
  5
B00
330
19
100
AcDbEntity
  8
0
100
AcDbLine
 10
3.049699051418855
 20
2.902055276127934
 30
0.0
 11
3.049699046938931
 21
2.902055277328324
 31
0.0
  0
ARC
  5
B01
330
19
100
AcDbEntity
  8
0
100
AcDbCircle
 10
3.061406620606085
 20
2.960056599467335
 30
0.0
 40
0.01968503935
100
AcDbArc
 50
254.9999999999921
 51
5.999999999982268
  0
ARC
  5
B02
330
19
100
AcDbEntity
  8
0
100
AcDbCircle
 10
3.181327607851672
 20
3.083740890065286
 30
0.0
 40
0.01968503935
100
AcDbArc
 50
180.0
 51
269.999999999987
  0
LINE
  5
B03
330
19
100
AcDbEntity
  8
0
100
AcDbLine
 10
3.256130757381711
 20
3.083740890065286
 30
0.0
 11
3.256130757381711
 21
3.064055850715285
 31
0.0
  0
LINE
  5
B04
330
19
100
AcDbEntity
  8
0
100
AcDbLine
 10
3.256130757381711
 20
3.064055850715285
 30
0.0
 11
3.181327607851672
 21
3.064055850715285
 31
0.0
  0
ARC
  5
B05
330
19
100
AcDbEntity
  8
0
100
AcDbCircle
 10
3.038297204314146
 20
3.255256923541637
 30
0.0
 40
0.01181102361
100
AcDbArc
 50
5.99999999997545
 51
154.2258026176405
  0
LINE
  5
B06
330
19
100
AcDbEntity
  8
0
100
AcDbLine
 10
2.901800049081659
 20
3.351457425225244
 30
0.0
 11
3.161642568501708
 21
3.351457425225275
 31
0.0
  0
LINE
  5
B07
330
19
100
AcDbEntity
  8
0
100
AcDbLine
 10
2.850618946771687
 20
3.331772385875261
 30
0.0
 11
2.850618946771669
 21
3.158544039595263
 31
0.0
  0
ARC
  5
B08
330
19
100
AcDbEntity
  8
0
100
AcDbCircle
 10
2.83093390742167
 20
3.158544039595267
 30
0.0
 40
0.01968503935
100
AcDbArc
 50
270.0
 51
359.9999999999935
  0
ARC
  5
B09
330
19
100
AcDbEntity
  8
0
100
AcDbCircle
 10
2.830933907421687
 20
3.331772385875266
 30
0.0
 40
0.01968503935
100
AcDbArc
 50
359.9999999999935
 51
90.0
  0
ARC
  5
B0A
330
19
100
AcDbEntity
  8
0
100
AcDbCircle
 10
3.017941781246365
 20
3.339646401615263
 30
0.0
 40
0.01181102361
100
AcDbArc
 50
318.0166007210247
 51
90.0
  0
LINE
  5
B0B
330
19
100
AcDbEntity
  8
0
100
AcDbLine
 10
3.212823670811658
 20
3.276654275695289
 30
0.0
 11
3.212823670811658
 21
3.316024354395291
 31
0.0
  0
LINE
  5
B0C
330
19
100
AcDbEntity
  8
0
100
AcDbLine
 10
3.161642568501708
 20
3.351457425225275
 30
0.0
 11
3.161642568501699
 21
3.2766542756953
 31
0.0
  0
LINE
  5
B0D
330
19
100
AcDbEntity
  8
0
100
AcDbLine
 10
3.238414221966683
 20
3.237284196995287
 30
0.0
 11
3.238414221966678
 21
3.14279600811529
 31
0.0
  0
LINE
  5
B0E
330
19
100
AcDbEntity
  8
0
100
AcDbLine
 10
3.161642568501699
 20
3.2766542756953
 30
0.0
 11
3.212823670811658
 21
3.276654275695289
 31
0.0
  0
LINE
  5
B0F
330
19
100
AcDbEntity
  8
0
100
AcDbLine
 10
3.126209497671364
 20
3.351457425225262
 30
0.0
 11
3.126209497671364
 21
3.410512543275252
 31
0.0
  0
ARC
  5
B10
330
19
100
AcDbEntity
  8
0
100
AcDbCircle
 10
3.100618946516702
 20
3.339646401615263
 30
0.0
 40
0.01181102361
100
AcDbArc
 50
90.0
 51
191.9999995481695
  0
ARC
  5
B11
330
19
100
AcDbEntity
  8
0
100
AcDbCircle
 10
3.181327607851699
 20
3.390827503925246
 30
0.0
 40
0.01968503935
100
AcDbArc
 50
359.9999999999935
 51
90.0
  0
LINE
  5
B12
330
19
100
AcDbEntity
  8
0
100
AcDbLine
 10
3.2010126472017
 20
3.390827503925244
 30
0.0
 11
3.201012647201704
 21
3.375079472445293
 31
0.0
  0
LINE
  5
B13
330
19
100
AcDbEntity
  8
0
100
AcDbLine
 10
3.652771028119268
 20
3.178229078945206
 30
0.0
 11
3.682804593219113
 21
3.007900267216084
 31
0.0
  0
ARC
  5
B14
330
19
100
AcDbEntity
  8
0
100
AcDbCircle
 10
3.441170127271687
 20
3.123110968765254
 30
0.0
 40
0.01968503935
100
AcDbArc
 50
0.0
 51
89.99999999998697
  0
LINE
  5
B16
330
19
100
AcDbEntity
  8
0
  6
CENTER
 62
     5
 48
2.0
100
AcDbLine
 10
3.334870914781671
 20
3.237284196995271
 30
0.0
 11
3.334870914781676
 21
3.052780252849104
 31
0.0
  0
LINE
  5
B18
330
19
100
AcDbEntity
  8
0
100
AcDbLine
 10
3.403997343507546
 20
2.902638528045258
 30
0.0
 11
3.69095206721005
 21
2.902638528045213
 31
0.0
  0
LINE
  5
B19
330
19
100
AcDbEntity
  8
0
100
AcDbLine
 10
3.500225245321686
 20
2.961693646095245
 30
0.0
 11
3.64403263447865
 21
2.961693646095227
 31
0.0
  0
ARC
  5
B1A
330
19
100
AcDbEntity
  8
0
100
AcDbCircle
 10
3.500225245321686
 20
3.001063724795244
 30
0.0
 40
0.0393700787
100
AcDbArc
 50
180.0
 51
269.999999999987
  0
LINE
  5
B1B
330
19
100
AcDbEntity
  8
0
100
AcDbLine
 10
3.299437846044416
 20
3.005000732665322
 30
0.0
 11
3.335806366901181
 21
2.94200860674526
 31
0.0
  0
ARC
  5
B1C
330
19
100
AcDbEntity
  8
0
100
AcDbCircle
 10
3.403997343507564
 20
2.981378685445256
 30
0.0
 40
0.0787401574
100
AcDbArc
 50
209.9999999999968
 51
269.999999999987
  0
LINE
  5
B1D
330
19
100
AcDbEntity
  8
0
100
AcDbLine
 10
3.298346555374502
 20
3.005000732665245
 30
0.0
 11
3.401800048571686
 21
3.005000732665259
 31
0.0
  0
LINE
  5
B1E
330
19
100
AcDbEntity
  8
0
100
AcDbLine
 10
3.460855166621687
 20
3.123110968765254
 30
0.0
 11
3.460855166621687
 21
3.001063724795244
 31
0.0
  0
LINE
  5
B1F
330
19
100
AcDbEntity
  8
0
100
AcDbLine
 10
3.401800048571677
 20
3.083740890065259
 30
0.0
 11
3.401800048571686
 21
3.005000732665286
 31
0.0
  0
ARC
  5
B20
330
19
100
AcDbEntity
  8
0
100
AcDbCircle
 10
3.64403263447865
 20
3.001063724795227
 30
0.0
 40
0.0393700787
100
AcDbArc
 50
269.999999999987
 51
9.999999999996997
  0
LINE
  5
B21
330
19
100
AcDbEntity
  8
0
100
AcDbLine
 10
3.431327607596701
 20
3.178229078945256
 30
0.0
 11
3.652771028119262
 21
3.178229078945211
 31
0.0
  0
LINE
  5
B22
330
19
100
AcDbEntity
  8
0
100
AcDbLine
 10
3.431327607596696
 20
3.237284196995251
 30
0.0
 11
3.431327607596687
 21
3.142796008115257
 31
0.0
  0
ARC
  5
B23
330
19
100
AcDbEntity
  8
0
100
AcDbCircle
 10
3.59532430330984
 20
3.276654275695292
 30
0.0
 40
0.0393700787
100
AcDbArc
 50
270.0
 51
90.0
  0
LINE
  5
B24
330
19
100
AcDbEntity
  8
0
100
AcDbLine
 10
2.807311860201636
 20
3.780591283055269
 30
0.0
 11
3.540453620778496
 21
3.780591283055266
 31
0.0
  0
LINE
  5
B26
330
19
100
AcDbEntity
  8
0
100
AcDbLine
 10
2.807311860201618
 20
3.721536165005279
 30
0.0
 11
3.540453620778496
 21
3.721536165005281
 31
0.0
  0
LINE
  5
B2A
330
19
100
AcDbEntity
  8
0
100
AcDbLine
 10
2.856524458576672
 20
3.486207414489799
 30
0.0
 11
3.045500836336644
 21
3.486207414489799
 31
0.0
  0
LINE
  5
B2E
330
19
100
AcDbEntity
  8
0
100
AcDbLine
 10
3.095345740064011
 20
3.514985383074515
 30
0.0
 11
3.095345740064011
 21
3.721536165005281
 31
0.0
  0
LINE
  5
B2F
330
19
100
AcDbEntity
  8
0
100
AcDbLine
 10
3.095345740064011
 20
3.514985383074515
 30
0.0
 11
3.045500836336644
 21
3.486207414489799
 31
0.0
  0
ARC
  5
B32
330
19
100
AcDbEntity
  8
0
100
AcDbCircle
 10
3.540453620778496
 20
3.701851125655283
 30
0.0
 40
0.0787401574
100
AcDbArc
 50
9.999999999996997
 51
90.0
  0
ARC
  5
B33
330
19
100
AcDbEntity
  8
0
100
AcDbCircle
 10
3.540453620778496
 20
3.701851125655283
 30
0.0
 40
0.01968503935
100
AcDbArc
 50
9.999999999996997
 51
90.0
  0
LINE
  5
B36
330
19
100
AcDbEntity
  8
10
100
AcDbLine
 10
0.1961743114766824
 20
8.303825688523339
 30
0.0
 11
10.80382568852344
 21
8.303825688523335
 31
0.0
  0
LINE
  5
B3C
330
19
100
AcDbEntity
  8
10
100
AcDbLine
 10
0.1961743114766616
 20
0.1961743114766623
 30
0.0
 11
10.80382568852344
 21
0.1961743114766557
 31
0.0
  0
LINE
  5
B3D
330
19
100
AcDbEntity
  8
10
100
AcDbLine
 10
0.1961743114766672
 20
8.303825688523344
 30
0.0
 11
0.1961743114766616
 21
0.1961743114766623
 31
0.0
  0
CIRCLE
  5
B3E
330
19
100
AcDbEntity
  8
10
 62
     1
100
AcDbCircle
 10
0.1961743114766589
 20
0.1961743114766623
 30
0.0
 40
0.1111040097775731
  0
LINE
  5
B3F
330
19
100
AcDbEntity
  8
10
100
AcDbLine
 10
0.0000000000000029
 20
0.1961743114766623
 30
0.0
 11
0.0
 21
0.0
 31
0.0
  0
LINE
  5
B40
330
19
100
AcDbEntity
  8
10
100
AcDbLine
 10
0.0
 20
0.0
 30
0.0
 11
0.1961743114766616
 21
-0.0000000000000004
 31
0.0
  0
LINE
  5
B41
330
19
100
AcDbEntity
  8
10
100
AcDbLine
 10
0.0000000000000149
 20
8.500000000000001
 30
0.0
 11
0.1961743114766764
 21
8.500000000000001
 31
0.0
  0
LINE
  5
B42
330
19
100
AcDbEntity
  8
10
100
AcDbLine
 10
0.0000000000000149
 20
8.500000000000001
 30
0.0
 11
0.0000000000000178
 21
8.303825688523335
 31
0.0
  0
LINE
  5
B4C
330
19
100
AcDbEntity
  8
10
100
AcDbLine
 10
10.80382568852344
 20
8.303825688523335
 30
0.0
 11
10.80382568852344
 21
0.1961743114766557
 31
0.0
  0
LINE
  5
B62
330
19
100
AcDbEntity
  8
10
100
AcDbLine
 10
10.80382568852344
 20
-0.0000000000000036
 30
0.0
 11
11.00000000000012
 21
-0.0000000000000067
 31
0.0
  0
LINE
  5
B63
330
19
100
AcDbEntity
  8
10
100
AcDbLine
 10
11.00000000000011
 20
-0.0000000000000067
 30
0.0
 11
11.00000000000011
 21
0.196174311476657
 31
0.0
  0
LINE
  5
B8D
330
19
100
AcDbEntity
  8
10
100
AcDbLine
 10
10.80382568852344
 20
8.500000000000001
 30
0.0
 11
11.00000000000012
 21
8.500000000000001
 31
0.0
  0
LINE
  5
B8E
330
19
100
AcDbEntity
  8
10
100
AcDbLine
 10
11.00000000000011
 20
8.500000000000001
 30
0.0
 11
11.00000000000011
 21
8.303825688523339
 31
0.0
  0
MTEXT
  5
B8F
330
19
100
AcDbEntity
  8
10
 62
     7
100
AcDbMText
 10
7.825787782870921
 20
1.484327851128144
 30
0.0
 40
0.045
 41
0.0
 71
     2
 72
     5
  1
{\fArial|b0|i0|c0|p34;\LTOLERANCE:\P\P\l  .XX +/- 0.02\P .XXX +/- 0.005\P.XXXX +/- 0.001\PANGLES +/- 0.5 DEG\P\H0.7778x;\P\H1.286x;UNLESS OTHERWISE \PSPECIFIED}
 73
     1
 44
1.0
1001
ACAD
1000
MTEXTBEGIN
1070
    73
1070
     1
1070
    44
1040
1.0
1070
    74
1070
     0
1000
MTEXTEND
  0
MTEXT
  5
B90
102
{ACAD_XDICTIONARY
360
C7A
102
}
330
19
100
AcDbEntity
  8
10
 62
     7
100
AcDbMText
 10
8.534103697292026
 20
1.023538202411762
 30
0.0
 40
0.05
 41
2.061478375197692
 71
     1
 72
     5
  1
{\fArial|b0|i0|c0|p34;P.O. BOX 496        BEAVER, PA 15009         \C256;www.c3controls.com}
 73
     1
 44
1.0
1001
ACAD
1000
MTEXTBEGIN
1070
    73
1070
     1
1070
    44
1040
1.0
1070
    74
1070
     0
1000
MTEXTEND
  0
IMAGE
  5
B91
330
19
100
AcDbEntity
  8
10
 92
      140
310
8C000000010000008400000006000000050000001D4DB43CD40D2140EA516FE0E8D0F03F00000000000000001D4DB43CD40D21409E88EA39A15FF73F0000000000000000A5DE49F1B31D25409E88EA39A15FF73F0000000000000000A5DE49F1B31D2540EA516FE0E8D0F03F00000000000000001D4DB43CD40D2140EA516F
310
E0E8D0F03F0000000000000000
100
AcDbRasterImage
 90
        0
 10
8.527009865769793
 20
1.051003338526351
 30
0.0
 11
0.0091076395148456
 21
0.0
 31
0.0
 12
0.0
 22
0.0091076395148456
 32
0.0
 13
223.0
 23
45.0
340
7F0
 70
     7
280
     0
281
    50
282
    50
283
     0
360
B92
 71
     1
 91
        2
 14
-0.5
 24
-0.5
 14
222.5
 24
44.5
  0
LINE
  5
B93
330
19
100
AcDbEntity
  8
10
100
AcDbLine
 10
8.303825688523446
 20
0.9461743114766555
 30
0.0
 11
10.80382568852344
 21
0.9461743114766555
 31
0.0
  0
MTEXT
  5
B94
330
19
100
AcDbEntity
  8
10
100
AcDbMText
 10
7.810416917469382
 20
0.4951779088847244
 30
0.0
 40
0.05
 41
0.9934087710540634
 71
     5
 72
     5
  1
{\fArial|b0|i0|c0|p34;\C7;This drawing is the property of \C5;c3\C7;controls.  The drawing may not be copied, used or disclosed, for any purpose except as authorized in writing by \C5;c3\C7;controls.}
  7
ADESK1
 73
     1
 44
1.0
1001
ACAD
1000
MTEXTBEGIN
1070
    73
1070
     1
1070
    44
1040
1.0
1070
    74
1070
     0
1000
MTEXTEND
  0
LINE
  5
B95
330
19
100
AcDbEntity
  8
10
100
AcDbLine
 10
10.80382568852344
 20
0.4461743114766557
 30
0.0
 11
8.303825688523446
 21
0.4461743114766557
 31
0.0
  0
LINE
  5
B96
330
19
100
AcDbEntity
  8
10
100
AcDbLine
 10
7.303825688523446
 20
0.1961743114766557
 30
0.0
 11
10.80382568852344
 21
0.1961743114766557
 31
0.0
  0
MTEXT
  5
B97
330
19
100
AcDbEntity
  8
10
100
AcDbMText
 10
8.328668770674212
 20
0.9235976724297451
 30
0.0
 40
0.045
 41
0.4329439054016504
 71
     1
 72
     5
  1
{\fArial|b0|i0|c0|p34;\LDescription\l:}
  7
ADESK1
 73
     1
 44
1.0
1001
ACAD
1000
MTEXTBEGIN
1070
    73
1070
     1
1070
    44
1040
1.0
1070
    74
1070
     0
1000
MTEXTEND
  0
LINE
  5
B98
330
19
100
AcDbEntity
  8
10
100
AcDbLine
 10
9.553825688523446
 20
0.1961743114766557
 30
0.0
 11
8.303825688523446
 21
0.1961743114766557
 31
0.0
  0
MTEXT
  5
B99
330
19
100
AcDbEntity
  8
10
100
AcDbMText
 10
8.32802284328801
 20
0.2868720012243906
 30
0.0
 40
0.045
 41
0.1920968035785435
 71
     1
 72
     5
  1
{\fArial|b0|i0|c0|p34;\LDate\l:}
  7
ADESK1
 73
     1
 44
1.0
1001
ACAD
1000
MTEXTBEGIN
1070
    73
1070
     1
1070
    44
1040
1.0
1070
    74
1070
     0
1000
MTEXTEND
  0
LINE
  5
B9A
330
19
100
AcDbEntity
  8
10
100
AcDbLine
 10
8.303825688523446
 20
0.4461743114766557
 30
0.0
 11
8.303825688523446
 21
0.5711743114766557
 31
0.0
  0
MTEXT
  5
B9B
330
19
100
AcDbEntity
  8
10
100
AcDbMText
 10
8.324337016104422
 20
0.4118389523115078
 30
0.0
 40
0.045
 41
0.3748785207666998
 71
     1
 72
     5
  1
{\fArial|b0|i0|c0|p34;\LDrawn By\l:}
  7
ADESK1
 73
     1
 44
1.0
1001
ACAD
1000
MTEXTBEGIN
1070
    73
1070
     1
1070
    44
1040
1.0
1070
    74
1070
     0
1000
MTEXTEND
  0
LINE
  5
B9C
330
19
100
AcDbEntity
  8
10
100
AcDbLine
 10
7.303825688523446
 20
0.8211743114766555
 30
0.0
 11
8.303825688523446
 21
0.8211743114766555
 31
0.0
  0
MTEXT
  5
B9D
330
19
100
AcDbEntity
  8
10
100
AcDbMText
 10
9.068976160632743
 20
0.2871257996165633
 30
0.0
 40
0.045
 41
0.1651821716154203
 71
     1
 72
     5
  1
{\fArial|b0|i0|c0|p34;\LScale\l:}
  7
ADESK1
 73
     1
 44
1.0
1001
ACAD
1000
MTEXTBEGIN
1070
    73
1070
     1
1070
    44
1040
1.0
1070
    74
1070
     0
1000
MTEXTEND
  0
MTEXT
  5
B9E
330
19
100
AcDbEntity
  8
10
100
AcDbMText
 10
9.576446267369348
 20
0.4208917298119937
 30
0.0
 40
0.045
 41
0.6519284424069412
 71
     1
 72
     5
  1
{\fArial|b0|i0|c0|p34;\LDrawing Number\l:}
  7
ADESK1
 73
     1
 44
1.0
1001
ACAD
1000
MTEXTBEGIN
1070
    73
1070
     1
1070
    44
1040
1.0
1070
    74
1070
     0
1000
MTEXTEND
  0
LINE
  5
B9F
330
19
100
AcDbEntity
  8
10
100
AcDbLine
 10
7.303825688523446
 20
1.508674311476655
 30
0.0
 11
7.303825688523446
 21
0.1961743114766557
 31
0.0
  0
LINE
  5
BA0
330
19
100
AcDbEntity
  8
10
100
AcDbLine
 10
7.303825688523446
 20
1.508674311476655
 30
0.0
 11
10.80382568852344
 21
1.508674311476659
 31
0.0
  0
LINE
  5
BA1
330
19
100
AcDbEntity
  8
10
100
AcDbLine
 10
10.80382568852344
 20
1.508674311476659
 30
0.0
 11
10.80382568852344
 21
0.1961743114766557
 31
0.0
  0
LINE
  5
BA2
330
19
100
AcDbEntity
  8
10
100
AcDbLine
 10
8.303825688523446
 20
1.508674311476655
 30
0.0
 11
8.303825688523446
 21
0.1961743114766557
 31
0.0
  0
LINE
  5
BA3
330
19
100
AcDbEntity
  8
10
100
AcDbLine
 10
9.553825688523446
 20
0.4461743114766557
 30
0.0
 11
9.553825688523446
 21
0.1961743114766557
 31
0.0
  0
LINE
  5
BA4
330
19
100
AcDbEntity
  8
10
100
AcDbLine
 10
8.303825688523446
 20
0.3211743114766556
 30
0.0
 11
9.553825688523446
 21
0.3211743114766556
 31
0.0
  0
MTEXT
  5
BA5
102
{ACAD_XDICTIONARY
360
C7C
102
}
330
19
100
AcDbEntity
  8
10
100
AcDbMText
 10
8.640777345549317
 20
0.4112478786675263
 30
0.0
 40
0.075
 41
0.8858571826804109
 71
     1
 72
     5
  1
{\fArial|b0|i0|c0|p34;  P. DAMESIMO}
  7
ADESK1
 73
     1
 44
1.0
1001
ACAD
1000
MTEXTBEGIN
1070
    73
1070
     1
1070
    44
1040
1.0
1070
    74
1070
     0
1000
MTEXTEND
  0
MTEXT
  5
BA6
330
19
100
AcDbEntity
  8
10
100
AcDbMText
 10
8.777374242347999
 20
0.2546743126943283
 30
0.0
 40
0.06
 41
0.5240277777777779
 71
     5
 72
     5
  1
{\fArial|b0|i0|c0|p34;04-01-2006}
  7
ADESK1
 73
     1
 44
1.0
1001
ACAD
1000
MTEXTBEGIN
1070
    73
1070
     1
1070
    44
1040
1.0
1070
    74
1070
     0
1000
MTEXTEND
  0
MTEXT
  5
BA7
330
19
100
AcDbEntity
  8
10
100
AcDbMText
 10
8.342268264633609
 20
0.8135691678395481
 30
0.0
 40
0.1
 41
2.39057925170068
 71
     1
 72
     5
  1
{\fArial|b0|i0|c0|p34;WTB2-EB2 OUTLINE DIMENSIONS DRAWING}
  7
ADESK1
 73
     1
 44
1.0
1001
ACAD
1000
MTEXTBEGIN
1070
    73
1070
     1
1070
    44
1040
1.0
1070
    74
1070
     0
1000
MTEXTEND
  0
MTEXT
  5
BA8
330
19
100
AcDbEntity
  8
10
100
AcDbMText
 10
10.21942521872159
 20
0.2688981892586812
 30
0.0
 40
0.125
 41
1.015727699530516
 71
     5
 72
     5
  1
{\fArial|b0|i0|c0|p34;25T30070}
  7
ADESK1
 73
     1
 44
1.0
1001
ACAD
1000
MTEXTBEGIN
1070
    73
1070
     1
1070
    44
1040
1.0
1070
    74
1070
     0
1000
MTEXTEND
  0
MTEXT
  5
BA9
330
19
100
AcDbEntity
  8
10
100
AcDbMText
 10
9.389563639441231
 20
0.2573750034360827
 30
0.0
 40
0.06
 41
0.1329061784897025
 71
     5
 72
     5
  1
{\fArial|b0|i0|c0|p34;1:1}
  7
ADESK1
 73
     1
 44
1.0
1001
ACAD
1000
MTEXTBEGIN
1070
    73
1070
     1
1070
    44
1040
1.0
1070
    74
1070
     0
1000
MTEXTEND
  0
LINE
  5
BAA
330
19
100
AcDbEntity
  8
10
100
AcDbLine
 10
9.053825688523446
 20
0.3211743114766556
 30
0.0
 11
9.053825688523446
 21
0.1961743114766557
 31
0.0
  0
MTEXT
  5
BBA
330
19
100
AcDbEntity
  8
0
100
AcDbMText
 10
2.695166340734055
 20
2.229014929463827
 30
0.0
 40
0.12
 41
1.680378893231719
 71
     2
 72
     5
  1
DIN 35
  7
outline drawings
 73
     1
 44
1.0
1001
ACAD
1000
MTEXTBEGIN
1070
    73
1070
     1
1070
    44
1040
1.0
1070
    74
1070
     0
1000
MTEXTEND
  0
MTEXT
  5
BBB
330
19
100
AcDbEntity
  8
0
100
AcDbMText
 10
7.649150346386978
 20
2.271713005574017
 30
0.0
 40
0.12
 41
1.948818895649999
 71
     2
 72
     5
  1
DIN 32
  7
outline drawings
 73
     1
 44
1.0
1001
ACAD
1000
MTEXTBEGIN
1070
    73
1070
     1
1070
    44
1040
1.0
1070
    74
1070
     0
1000
MTEXTEND
  0
DIMENSION
  5
BBC
330
19
100
AcDbEntity
  8
0
100
AcDbDimension
  2
*D12
 10
1.49320693456579
 20
5.761417699343794
 30
0.0
 11
0.8475452701728841
 21
5.511417699343794
 31
0.0
 70
    32
 71
     5
 42
9.199999990615946
  3
Outline Drawings
100
AcDbAlignedDimension
 13
1.697075640861662
 23
6.123622423383792
 33
0.0
 14
1.697075640861662
 24
5.761417699343794
 34
0.0
 50
90.0
100
AcDbRotatedDimension
  0
DIMENSION
  5
BCC
330
19
100
AcDbEntity
  8
0
100
AcDbDimension
  2
*D13
 10
3.750007185260081
 20
6.885849474973014
 30
0.0
 11
2.723541413060871
 21
6.885849474973014
 31
0.0
 70
    32
 71
     5
 42
52.14446122771984
  3
Outline Drawings
100
AcDbAlignedDimension
 13
1.697075640861662
 23
6.123622423383792
 33
0.0
 14
3.750007185260081
 24
6.123622423383786
 34
0.0
100
AcDbRotatedDimension
  0
DIMENSION
  5
BDB
330
19
100
AcDbEntity
  8
0
100
AcDbDimension
  2
*D14
 10
8.740744501830327
 20
6.755261099817516
 30
0.0
 11
7.714278729631118
 21
6.755261099817516
 31
0.0
 70
    32
 71
     5
 42
52.14446122771984
  3
Outline Drawings
100
AcDbAlignedDimension
 13
6.687812957431908
 23
6.173529740433693
 33
0.0
 14
8.740744501830327
 24
6.173529740433693
 34
0.0
100
AcDbRotatedDimension
  0
DIMENSION
  5
BEA
330
19
100
AcDbEntity
  8
0
100
AcDbDimension
  2
*D15
 10
6.212230758449138
 20
5.811325016393695
 30
0.0
 11
5.566569094056231
 21
5.561325016393697
 31
0.0
 70
    32
 71
     5
 42
9.199999990615946
  3
Outline Drawings
100
AcDbAlignedDimension
 13
6.687812957431908
 23
6.173529740433693
 33
0.0
 14
6.687812957431908
 24
5.811325016393695
 34
0.0
 50
90.0
100
AcDbRotatedDimension
  0
DIMENSION
  5
BFA
330
19
100
AcDbEntity
  8
0
100
AcDbDimension
  2
*D16
 10
1.086652305886474
 20
4.193977109405277
 30
0.0
 11
1.086652305886473
 21
3.475486843296481
 31
0.0
 70
    32
 71
     5
 42
36.49930551832681
  3
Outline Drawings
100
AcDbAlignedDimension
 13
2.256632470248575
 23
2.756996577187685
 33
0.0
 14
2.075028396381336
 24
4.193977109405276
 34
0.0
 50
90.0
100
AcDbRotatedDimension
  0
DIMENSION
  5
C09
330
19
100
AcDbEntity
  8
0
100
AcDbDimension
  2
*D17
 10
6.061048223709789
 20
2.755636984968319
 30
0.0
 11
6.061048223709788
 21
3.499760705711755
 31
0.0
 70
    32
 71
     5
 42
37.80148501376651
  3
Outline Drawings
100
AcDbAlignedDimension
 13
7.065765712951582
 23
4.243884426455189
 33
0.0
 14
7.191719648763182
 24
2.755636984968319
 34
0.0
 50
90.0
100
AcDbRotatedDimension
  0
VIEWPORT
  5
BA
102
{ACAD_XDICTIONARY
360
C71
102
}
330
16
100
AcDbEntity
 67
     1
  8
0
100
AcDbViewport
 10
5.249999639556164
 20
6.140308632623733
 30
0.0
 40
11.99666166085311
 41
13.27361724380106
 68
     1
 69
     1
 12
5.249999639556164
 22
6.140308632623733
 13
0.0
 23
0.0
 14
0.5
 24
0.5
 15
0.5
 25
0.5
 16
0.0
 26
0.0
 36
1.0
 17
0.0
 27
0.0
 37
0.0
 42
50.0
 43
0.0
 44
0.0
 45
13.27361724380106
 50
0.0
 51
0.0
 72
   100
 90
    32800
  1

281
     0
 71
     1
 74
     0
110
0.0
120
0.0
130
0.0
111
1.0
121
0.0
131
0.0
112
0.0
122
1.0
132
0.0
 79
     0
146
0.0
  0
ENDSEC
  0
SECTION
  2
OBJECTS
  0
DICTIONARY
  5
C
330
0
100
AcDbDictionary
281
     1
  3
ACAD_COLOR
350
3F8
  3
ACAD_GROUP
350
D
  3
ACAD_IMAGE_DICT
350
7EF
  3
ACAD_IMAGE_VARS
350
7F6
  3
ACAD_LAYOUT
350
150
  3
ACAD_MATERIAL
350
3F7
  3
ACAD_MLINESTYLE
350
E
  3
ACAD_PLOTSETTINGS
350
151
  3
ACAD_PLOTSTYLENAME
350
14E
  3
ACAD_TABLESTYLE
350
3F9
  3
ACDBHEADERROUNDTRIPXREC
350
C70
  3
ACDBVARIABLEDICTIONARY
350
FA
  3
AcmDictionary
350
189
  3
AMG
350
158
  3
AMGSNAPSETTINGS
350
1BA
  3
DWGPROPS
350
C6F
  3
MAPISURF_MODULE
350
2A1
  0
DICTIONARY
  5
44C
330
2
100
AcDbDictionary
280
     1
281
     1
  3
ACAD_LAYERSTATES
360
44D
  0
DICTIONARY
  5
11F
330
19
100
AcDbDictionary
280
     1
281
     1
  3
ACAD_INDEX
360
120
  3
ACAD_SORTENTS
360
BAB
  0
DICTIONARY
  5
7EC
330
774
100
AcDbDictionary
280
     1
281
     1
  0
DICTIONARY
  5
A03
330
A02
100
AcDbDictionary
280
     1
281
     1
  3
ACAD_SORTENTS
360
A04
  0
DICTIONARY
  5
C76
330
7D1
100
AcDbDictionary
280
     1
281
     1
  3
ACAD_MTEXT_RT
360
C77
  0
IMAGEDEF_REACTOR
  5
7D3
330
7D2
100
AcDbRasterImageDefReactor
 90
        2
330
7D2
  0
DICTIONARY
  5
C78
330
7E6
100
AcDbDictionary
280
     1
281
     1
  3
ACAD_MTEXT_RT
360
C79
  0
DICTIONARY
  5
C7A
330
B90
100
AcDbDictionary
280
     1
281
     1
  3
ACAD_MTEXT_RT
360
C7B
  0
IMAGEDEF_REACTOR
  5
B92
330
B91
100
AcDbRasterImageDefReactor
 90
        2
330
B91
  0
DICTIONARY
  5
C7C
330
BA5
100
AcDbDictionary
280
     1
281
     1
  3
ACAD_MTEXT_RT
360
C7D
  0
DICTIONARY
  5
C71
330
BA
100
AcDbDictionary
280
     1
281
     1
  3
ACAD_XREC_ROUNDTRIP
360
C72
  0
DICTIONARY
  5
3F8
102
{ACAD_REACTORS
330
C
102
}
330
C
100
AcDbDictionary
281
     1
  0
DICTIONARY
  5
D
102
{ACAD_REACTORS
330
C
102
}
330
C
100
AcDbDictionary
281
     1
  0
DICTIONARY
  5
7EF
102
{ACAD_REACTORS
330
C
102
}
330
C
100
AcDbDictionary
281
     1
  3
c3 logo
350
7F0
  0
RASTERVARIABLES
  5
7F6
102
{ACAD_REACTORS
330
C
102
}
330
C
100
AcDbRasterVariables
 90
        0
 70
     1
 71
     1
 72
     5
  0
DICTIONARY
  5
150
102
{ACAD_REACTORS
330
C
102
}
330
C
100
AcDbDictionary
281
     1
  3
Layout1
350
153
  3
Model
350
152
  0
DICTIONARY
  5
3F7
102
{ACAD_REACTORS
330
C
102
}
330
C
100
AcDbDictionary
281
     1
  0
DICTIONARY
  5
E
102
{ACAD_REACTORS
330
C
102
}
330
C
100
AcDbDictionary
281
     1
  3
STANDARD
350
1C
  0
DICTIONARY
  5
151
102
{ACAD_REACTORS
330
C
102
}
330
C
100
AcDbDictionary
281
     1
  0
ACDBDICTIONARYWDFLT
  5
14E
102
{ACAD_REACTORS
330
C
102
}
330
C
100
AcDbDictionary
281
     1
  3
Normal
350
14F
100
AcDbDictionaryWithDefault
340
14F
  0
DICTIONARY
  5
3F9
102
{ACAD_REACTORS
330
C
102
}
330
C
100
AcDbDictionary
281
     1
  3
Standard
350
3FA
  0
DICTIONARY
  5
C70
102
{ACAD_REACTORS
330
C
102
}
330
C
100
AcDbDictionary
281
     1
  0
DICTIONARY
  5
FA
102
{ACAD_REACTORS
330
C
102
}
330
C
100
AcDbDictionary
281
     1
  3
CTABLESTYLE
350
429
  3
DIMASSOC
350
3F5
  3
INDEXCTL
350
FB
  3
PROJECTNAME
350
C6D
  0
DICTIONARY
  5
189
102
{ACAD_REACTORS
330
C
102
}
330
C
100
AcDbDictionary
281
     1
  3
AcmStdDictionary
350
2C1
  3
AMDTSECTSYM_ARROWCOLOR
350
402
  0
DICTIONARY
  5
158
102
{ACAD_REACTORS
330
C
102
}
330
C
100
AcDbDictionary
281
     1
  3
AcMgSettings
350
159
  0
DICTIONARY
  5
1BA
102
{ACAD_REACTORS
330
C
102
}
330
C
100
AcDbDictionary
281
     1
  3
DIMENSION
350
1BE
  3
FEA
350
1BD
  3
HATCH
350
1BB
  3
SYMBOLS
350
1BC
  0
XRECORD
  5
C6F
102
{ACAD_REACTORS
330
C
102
}
330
C
100
AcDbXrecord
280
     1
  1
DWGPROPS COOKIE
  2

  3

  4

  6

  7

  8

  9

300
AmdtFileType=84
301
=
302
=
303
=
304
=
305
=
306
=
307
=
308
=
309
=
 40
0.0062023148148148
 41
2453847.568726574
 42
2453854.489649502
  1

 90
        1
  0
DICTIONARY
  5
44D
102
{ACAD_REACTORS
330
44C
102
}
330
44C
100
AcDbDictionary
281
     1
  0
DICTIONARY
  5
120
102
{ACAD_REACTORS
330
11F
102
}
330
11F
100
AcDbDictionary
281
     1
  3
*A1
350
121
  0
SORTENTSTABLE
  5
BAB
102
{ACAD_REACTORS
330
11F
102
}
330
11F
100
AcDbSortentsTable
330
19
331
A5A
  5
AD0
331
A99
  5
B0F
331
9D4
  5
A9D
331
95E
  5
9D4
331
927
  5
99D
331
99D
  5
A66
331
AA1
  5
B17
331
A62
  5
AD8
331
9DC
  5
AA5
331
9A5
  5
A6E
331
92F
  5
9A5
331
966
  5
9DC
331
A6A
  5
AE0
331
A23
  5
AB3
331
9E4
  5
AAD
331
96E
  5
9E4
331
8F8
  5
96E
331
937
  5
9AD
331
9AD
  5
A76
331
AA9
  5
B1F
331
976
  5
A3F
331
A72
  5
AE8
331
AF6
  5
B6C
331
AB7
  5
B2D
331
B9C
  5
95C
331
BA4
  5
964
331
ABF
  5
B35
331
AFE
  5
B74
331
B3D
  5
8FE
331
AC7
  5
B3D
331
B06
  5
B7C
331
B0E
  5
B84
331
ACF
  5
B45
331
900
  5
976
331
A7A
  5
AF0
331
97E
  5
A47
331
93F
  5
9B5
331
908
  5
97E
331
9B5
  5
A7E
331
A43
  5
AB9
331
A82
  5
AF8
331
986
  5
A4F
331
947
  5
9BD
331
910
  5
986
331
9BD
  5
A86
331
A4B
  5
AC1
331
A8A
  5
B00
331
9C5
  5
A8E
331
94F
  5
9C5
331
918
  5
98E
331
98E
  5
A57
331
A92
  5
B08
331
A53
  5
AC9
331
996
  5
A5F
331
957
  5
9CD
331
B16
  5
B8C
331
AD7
  5
B4D
331
ADF
  5
B55
331
B1E
  5
B95
331
B26
  5
B9D
331
AE7
  5
B5D
331
B8D
  5
94E
331
AEF
  5
B65
331
B95
  5
955
331
920
  5
996
331
A9A
  5
B10
331
A5B
  5
AD1
331
9D5
  5
A9E
331
95F
  5
9D5
331
928
  5
99E
331
99E
  5
A67
331
A63
  5
AD9
331
AA2
  5
B18
331
967
  5
9DD
331
930
  5
9A6
331
9A6
  5
A6F
331
AAA
  5
B20
331
A6B
  5
AE1
331
9E5
  5
AAE
331
96F
  5
9E5
331
8F9
  5
96F
331
9AE
  5
A77
331
A24
  5
AB4
331
A73
  5
AE9
331
977
  5
A40
331
AB0
  5
B26
331
B9D
  5
95D
331
B2E
  5
BA5
331
AB8
  5
B2E
331
AF7
  5
B6D
331
BA5
  5
965
331
B36
  5
8F7
331
AFF
  5
B75
331
AC0
  5
B36
331
AC8
  5
B3E
331
B07
  5
B7D
331
B3E
  5
8FF
331
B0F
  5
B85
331
938
  5
9AE
331
901
  5
977
331
A7B
  5
AF1
331
9B6
  5
A7F
331
940
  5
9B6
331
909
  5
97F
331
97F
  5
A48
331
A83
  5
AF9
331
A44
  5
ABA
331
987
  5
A50
331
948
  5
9BE
331
911
  5
987
331
9BE
  5
A87
331
A4C
  5
AC2
331
A8B
  5
B01
331
9C6
  5
A8F
331
950
  5
9C6
331
919
  5
98F
331
98F
  5
A58
331
A54
  5
ACA
331
A93
  5
B09
331
9CE
  5
A97
331
997
  5
A60
331
AD0
  5
B46
331
AD8
  5
B4E
331
B1F
  5
B96
331
AE0
  5
B56
331
AE8
  5
B5E
331
B8E
  5
94F
331
B96
  5
956
331
958
  5
9CE
331
921
  5
997
331
A5C
  5
AD2
331
A9B
  5
B11
331
9D6
  5
A9F
331
960
  5
9D6
331
929
  5
99F
331
99F
  5
A68
331
AA3
  5
B19
331
A64
  5
ADA
331
9A7
  5
A70
331
931
  5
9A7
331
968
  5
9DE
331
AAB
  5
B21
331
A6C
  5
AE2
331
9E6
  5
AAF
331
8FA
  5
970
331
970
  5
9E6
331
9AF
  5
A78
331
A74
  5
AEA
331
AF0
  5
B66
331
AB1
  5
B27
331
B9E
  5
95E
331
AF8
  5
B6E
331
AB9
  5
B2F
331
B2F
  5
BA6
331
BA6
  5
966
331
AC1
  5
B37
331
B00
  5
B76
331
AC9
  5
B3F
331
B08
  5
B7E
331
B3F
  5
900
331
978
  5
A41
331
902
  5
978
331
939
  5
9AF
331
A7C
  5
AF2
331
980
  5
A49
331
941
  5
9B7
331
90A
  5
980
331
9B7
  5
A80
331
A45
  5
ABB
331
A84
  5
AFA
331
9BF
  5
A88
331
949
  5
9BF
331
912
  5
988
331
988
  5
A51
331
A4D
  5
AC3
331
A8C
  5
B02
331
9C7
  5
A90
331
951
  5
9C7
331
91A
  5
990
331
990
  5
A59
331
A94
  5
B0A
331
A55
  5
ACB
331
9CF
  5
A98
331
B10
  5
B86
331
AD1
  5
B47
331
B18
  5
B8E
331
AD9
  5
B4F
331
B20
  5
B97
331
AE1
  5
B57
331
AE9
  5
B5F
331
B8F
  5
950
331
B97
  5
957
331
959
  5
9CF
331
922
  5
998
331
A5D
  5
AD3
331
A9C
  5
B12
331
9D7
  5
AA0
331
961
  5
9D7
331
92A
  5
9A0
331
9A0
  5
A69
331
A65
  5
ADB
331
AA4
  5
B1A
331
969
  5
9DF
331
932
  5
9A8
331
9A8
  5
A71
331
AAC
  5
B22
331
A6D
  5
AE3
331
971
  5
9E7
331
8FB
  5
971
331
A75
  5
AEB
331
AB2
  5
B28
331
AF1
  5
B67
331
B9F
  5
95F
331
ABA
  5
B30
331
AF9
  5
B6F
331
BA7
  5
967
331
B01
  5
B77
331
AC2
  5
B38
331
B09
  5
B7F
331
ACA
  5
B40
331
B40
  5
901
331
9B0
  5
A79
331
93A
  5
9B0
331
903
  5
979
331
979
  5
A42
331
A7D
  5
AF3
331
9B8
  5
A81
331
942
  5
9B8
331
90B
  5
981
331
981
  5
A4A
331
A85
  5
AFB
331
A46
  5
ABC
331
989
  5
A52
331
94A
  5
9C0
331
913
  5
989
331
9C0
  5
A89
331
A4E
  5
AC4
331
A8D
  5
B03
331
9C8
  5
A91
331
952
  5
9C8
331
91B
  5
991
331
991
  5
A5A
331
A56
  5
ACC
331
A95
  5
B0B
331
AD2
  5
B48
331
B11
  5
B87
331
ADA
  5
B50
331
B19
  5
B8F
331
B21
  5
B98
331
B90
  5
951
331
AEA
  5
B60
331
95A
  5
9D0
331
923
  5
999
331
9D0
  5
A99
331
A5E
  5
AD4
331
A9D
  5
B13
331
9D8
  5
AA1
331
962
  5
9D8
331
92B
  5
9A1
331
9A1
  5
A6A
331
AA5
  5
B1B
331
A66
  5
ADC
331
9A9
  5
A72
331
96A
  5
9E0
331
933
  5
9A9
331
9E0
  5
AA9
331
A6E
  5
AE4
331
8FC
  5
972
331
972
  5
9E8
331
9E8
  5
AB1
331
AAD
  5
B23
331
A76
  5
AEC
331
B98
  5
958
331
AF2
  5
B68
331
AB3
  5
B29
331
BA0
  5
960
331
ABB
  5
B31
331
AFA
  5
B70
331
BA8
  5
968
331
AC3
  5
B39
331
B02
  5
B78
331
B41
  5
902
331
ACB
  5
B41
331
B0A
  5
B80
331
97A
  5
A43
331
904
  5
97A
331
93B
  5
9B1
331
9B1
  5
A7A
331
A3F
  5
AB5
331
A7E
  5
AF4
331
982
  5
A4B
331
943
  5
9B9
331
90C
  5
982
331
9B9
  5
A82
331
A47
  5
ABD
331
A86
  5
AFC
331
9C1
  5
A8A
331
94B
  5
9C1
331
914
  5
98A
331
98A
  5
A53
331
A8E
  5
B04
331
A4F
  5
AC5
331
9C9
  5
A92
331
953
  5
9C9
331
91C
  5
992
331
992
  5
A5B
331
A96
  5
B0C
331
A57
  5
ACD
331
B12
  5
B88
331
AD3
  5
B49
331
B1A
  5
B90
331
ADB
  5
B51
331
B22
  5
B99
331
AEB
  5
B61
331
B91
  5
952
331
95B
  5
9D1
331
924
  5
99A
331
9D1
  5
A9A
331
A5F
  5
AD5
331
A9E
  5
B14
331
9D9
  5
AA2
331
963
  5
9D9
331
92C
  5
9A2
331
9A2
  5
A6B
331
A67
  5
ADD
331
AA6
  5
B1C
331
96B
  5
9E1
331
8F5
  5
96B
331
934
  5
9AA
331
9AA
  5
A73
331
A6F
  5
AE5
331
973
  5
9E9
331
8FD
  5
973
331
9E9
  5
AB2
331
AAE
  5
B24
331
A77
  5
AED
331
B99
  5
959
331
B2A
  5
BA1
331
AB4
  5
B2A
331
AF3
  5
B69
331
BA1
  5
961
331
B32
  5
BA9
331
ABC
  5
B32
331
AFB
  5
B71
331
BA9
  5
969
331
B03
  5
B79
331
AC4
  5
B3A
331
B42
  5
903
331
ACC
  5
B42
331
B0B
  5
B81
331
9B2
  5
A7B
331
93C
  5
9B2
331
905
  5
97B
331
97B
  5
A44
331
A7F
  5
AF5
331
A40
  5
AB6
331
9BA
  5
A83
331
983
  5
A4C
331
90D
  5
983
331
944
  5
9BA
331
A87
  5
AFD
331
A48
  5
ABE
331
9C2
  5
A8B
331
94C
  5
9C2
331
915
  5
98B
331
98B
  5
A54
331
A50
  5
AC6
331
A8F
  5
B05
331
9CA
  5
A93
331
954
  5
9CA
331
91D
  5
993
331
993
  5
A5C
331
A97
  5
B0D
331
AD4
  5
B4A
331
B13
  5
B89
331
ADC
  5
B52
331
B1B
  5
B91
331
B62
  5
923
331
B23
  5
B9A
331
AEC
  5
B62
331
A58
  5
ACE
331
95C
  5
9D2
331
925
  5
99B
331
9D2
  5
A9B
331
A9F
  5
B15
331
A60
  5
AD6
331
9DA
  5
AA3
331
964
  5
9DA
331
92D
  5
9A3
331
9A3
  5
A6C
331
AA7
  5
B1D
331
A68
  5
ADE
331
9AB
  5
A74
331
96C
  5
9E2
331
8F6
  5
96C
331
935
  5
9AB
331
A70
  5
AE6
331
8FE
  5
974
331
974
  5
A23
331
AAF
  5
B25
331
AF4
  5
B6A
331
AB5
  5
B2B
331
B9A
  5
95A
331
BA2
  5
962
331
B33
  5
BAA
331
ABD
  5
B33
331
AFC
  5
B72
331
BAA
  5
96A
331
AC5
  5
B3B
331
B04
  5
B7A
331
ACD
  5
B43
331
B0C
  5
B82
331
A78
  5
AEE
331
97C
  5
A45
331
906
  5
97C
331
93D
  5
9B3
331
9B3
  5
A7C
331
A41
  5
AB7
331
A80
  5
AF6
331
984
  5
A4D
331
945
  5
9BB
331
90E
  5
984
331
9BB
  5
A84
331
A49
  5
ABF
331
A88
  5
AFE
331
9C3
  5
A8C
331
94D
  5
9C3
331
916
  5
98C
331
98C
  5
A55
331
A90
  5
B06
331
A51
  5
AC7
331
994
  5
A5D
331
91E
  5
994
331
955
  5
9CB
331
B14
  5
B8A
331
AD5
  5
B4B
331
B63
  5
924
331
ADD
  5
B53
331
B1C
  5
B93
331
B24
  5
B9B
331
AED
  5
B63
331
B93
  5
953
331
A98
  5
B0E
331
A59
  5
ACF
331
9D3
  5
A9C
331
95D
  5
9D3
331
926
  5
99C
331
99C
  5
A65
331
A61
  5
AD7
331
AA0
  5
B16
331
965
  5
9DB
331
92E
  5
9A4
331
9A4
  5
A6D
331
A69
  5
ADF
331
96D
  5
9E3
331
936
  5
9AC
331
8F7
  5
96D
331
9AC
  5
A75
331
AA8
  5
B1E
331
A71
  5
AE7
331
975
  5
A24
331
8FF
  5
975
331
B9B
  5
95B
331
AB6
  5
B2C
331
AF5
  5
B6B
331
BA3
  5
963
331
AFD
  5
B73
331
ABE
  5
B34
331
B3C
  5
8FD
331
B05
  5
B7B
331
AC6
  5
B3C
331
ACE
  5
B44
331
B0D
  5
B83
331
A79
  5
AEF
331
9B4
  5
A7D
331
93E
  5
9B4
331
907
  5
97D
331
97D
  5
A46
331
A81
  5
AF7
331
A42
  5
AB8
331
9BC
  5
A85
331
985
  5
A4E
331
90F
  5
985
331
946
  5
9BC
331
A89
  5
AFF
331
A4A
  5
AC0
331
9C4
  5
A8D
331
94E
  5
9C4
331
917
  5
98D
331
98D
  5
A56
331
A52
  5
AC8
331
A91
  5
B07
331
9CC
  5
A95
331
956
  5
9CC
331
91F
  5
995
331
995
  5
A5E
331
AD6
  5
B4C
331
B4C
  5
90D
331
ADE
  5
B54
331
B1D
  5
B94
331
AE6
  5
B5C
331
B94
  5
954
331
AEE
  5
B64
  0
SORTENTSTABLE
  5
A04
102
{ACAD_REACTORS
330
A03
102
}
330
A03
100
AcDbSortentsTable
330
A02
  0
XRECORD
  5
C77
102
{ACAD_REACTORS
330
C76
102
}
330
C76
100
AcDbXrecord
280
     1
 40
303599.0
  1
{\fArial|b0|i0|c0|p34;P.O. BOX 496^IBEAVER, PA 15009^I\C256;www.c3controls.com}
  0
XRECORD
  5
C79
102
{ACAD_REACTORS
330
C78
102
}
330
C78
100
AcDbXrecord
280
     1
 40
34575.0
  1
\pl0.075;{\fArial|b0|i0|c0|p34;NAME}
  0
XRECORD
  5
C7B
102
{ACAD_REACTORS
330
C7A
102
}
330
C7A
100
AcDbXrecord
280
     1
 40
303599.0
  1
{\fArial|b0|i0|c0|p34;P.O. BOX 496^IBEAVER, PA 15009^I\C256;www.c3controls.com}
  0
XRECORD
  5
C7D
102
{ACAD_REACTORS
330
C7C
102
}
330
C7C
100
AcDbXrecord
280
     1
 40
50545.0
  1
\pl0.075;{\fArial|b0|i0|c0|p34;P. DAMESIMO}
  0
XRECORD
  5
C72
102
{ACAD_REACTORS
330
C71
102
}
330
C71
100
AcDbXrecord
280
     1
102
SHADEPLOT
 70
     0
  0
IMAGEDEF
  5
7F0
102
{ACAD_REACTORS
330
7EF
330
7D3
330
B92
102
}
330
7EF
100
AcDbRasterImageDef
 90
        0
  1
K:\Archive- EngrDwgs\Borders\Title Blocks\c3 logo Size A.bmp
 10
223.0
 20
45.0
 11
0.264550269889837
 21
0.264550269889837
280
     1
281
     2
  0
LAYOUT
  5
153
102
{ACAD_XDICTIONARY
360
44F
102
}
102
{ACAD_REACTORS
330
150
102
}
330
150
100
AcDbPlotSettings
  1

  2
none_device
  4
Letter_(8.50_x_11.00_Inches)
  6

 40
6.349999904632568
 41
6.349999904632568
 42
6.350006103515625
 43
6.350006103515625
 44
215.8999938964844
 45
279.3999938964844
 46
0.0
 47
0.0
 48
0.0
 49
0.0
140
0.0
141
0.0
142
1.0
143
1.0
 70
   688
 72
     0
 73
     1
 74
     5
  7

 75
     0
147
1.0
148
0.0
149
0.0
100
AcDbLayout
  1
Layout1
 70
     1
 71
     1
 10
-0.2500002402958907
 20
-0.2499999962453767
 11
10.74999951940821
 21
8.249999763458731
 12
0.0
 22
0.0
 32
0.0
 14
1.000000000000000E+20
 24
1.000000000000000E+20
 34
1.000000000000000E+20
 15
-1.000000000000000E+20
 25
-1.000000000000000E+20
 35
-1.000000000000000E+20
146
0.0
 13
0.0
 23
0.0
 33
0.0
 16
1.0
 26
0.0
 36
0.0
 17
0.0
 27
1.0
 37
0.0
 76
     0
330
16
331
BA
  0
LAYOUT
  5
152
102
{ACAD_XDICTIONARY
360
C73
102
}
102
{ACAD_REACTORS
330
150
102
}
330
150
100
AcDbPlotSettings
  1

  2
\\NOVIBDC\HPLJ4-TPUB
  4

  6

 40
0.0
 41
0.0
 42
0.0
 43
0.0
 44
0.0
 45
0.0
 46
0.0
 47
0.0
 48
0.0
 49
0.0
140
0.0
141
0.0
142
1.0
143
1.0
 70
  1712
 72
     0
 73
     0
 74
     0
  7

 75
     0
147
1.0
148
0.0
149
0.0
100
AcDbLayout
  1
Model
 70
     1
 71
     0
 10
0.0
 20
0.0
 11
12.0
 21
9.0
 12
0.0
 22
0.0
 32
0.0
 14
0.0
 24
0.0
 34
0.0
 15
0.0
 25
0.0
 35
0.0
146
0.0
 13
0.0
 23
0.0
 33
0.0
 16
1.0
 26
0.0
 36
0.0
 17
0.0
 27
1.0
 37
0.0
 76
     0
330
19
  0
MLINESTYLE
  5
1C
102
{ACAD_REACTORS
330
E
102
}
330
E
100
AcDbMlineStyle
  2
STANDARD
 70
     0
  3

 62
     0
 51
90.0
 52
90.0
 71
     2
 49
0.5
 62
   256
  6
BYLAYER
 49
-0.5
 62
   256
  6
BYLAYER
  0
ACDBPLACEHOLDER
  5
14F
102
{ACAD_REACTORS
330
14E
102
}
330
14E
  0
TABLESTYLE
  5
3FA
102
{ACAD_REACTORS
330
3F9
102
}
330
3F9
100
AcDbTableStyle
  3
Standard
 70
     0
 71
     0
 40
0.06
 41
0.06
280
     0
281
     0
  7
STANDARD
140
0.18
170
     2
 62
     0
 63
     7
283
     0
274
    -2
284
     1
 64
     0
275
    -2
285
     1
 65
     0
276
    -2
286
     1
 66
     0
277
    -2
287
     1
 67
     0
278
    -2
288
     1
 68
     0
279
    -2
289
     1
 69
     0
  7
STANDARD
140
0.25
170
     5
 62
     0
 63
     7
283
     0
274
    -2
284
     1
 64
     0
275
    -2
285
     1
 65
     0
276
    -2
286
     1
 66
     0
277
    -2
287
     1
 67
     0
278
    -2
288
     1
 68
     0
279
    -2
289
     1
 69
     0
  7
STANDARD
140
0.18
170
     5
 62
     0
 63
     7
283
     0
274
    -2
284
     1
 64
     0
275
    -2
285
     1
 65
     0
276
    -2
286
     1
 66
     0
277
    -2
287
     1
 67
     0
278
    -2
288
     1
 68
     0
279
    -2
289
     1
 69
     0
  0
DICTIONARYVAR
  5
429
102
{ACAD_REACTORS
330
FA
102
}
330
FA
100
DictionaryVariables
280
     0
  1
STANDARD
  0
DICTIONARYVAR
  5
3F5
102
{ACAD_REACTORS
330
FA
102
}
330
FA
100
DictionaryVariables
280
     0
  1
1
  0
DICTIONARYVAR
  5
FB
102
{ACAD_REACTORS
330
FA
102
}
330
FA
100
DictionaryVariables
280
     0
  1
1
  0
DICTIONARYVAR
  5
C6D
102
{ACAD_REACTORS
330
FA
102
}
330
FA
100
DictionaryVariables
280
     0
  1

  0
DICTIONARY
  5
2C1
102
{ACAD_REACTORS
330
189
102
}
330
189
100
AcDbDictionary
281
     1
  0
XRECORD
  5
402
102
{ACAD_REACTORS
330
189
102
}
330
189
100
AcDbXrecord
280
     1
 90
-1023410169
  0
DICTIONARY
  5
159
102
{ACAD_REACTORS
330
158
102
}
330
158
100
AcDbDictionary
281
     1
  3
DWGSETTINGS
350
15A
  3
Shaft
350
375
  3
TRANSSETTINGS
350
166
  0
ACAMGFILTERDAT
  5
1BE
102
{ACAD_REACTORS
330
1BA
102
}
330
1BA
100
AcAmgFilterDat
 70
    15
  1
DIMENSION,AMDT_*_DIM
  2
*
  3
*
  4
*
  5
*
290
     1
  0
ACAMGFILTERDAT
  5
1BD
102
{ACAD_REACTORS
330
1BA
102
}
330
1BA
100
AcAmgFilterDat
 70
    15
  1
*
  2
AM_FEA-AM_*
  3
*
  4
*
  5
*
290
     1
  0
ACAMGFILTERDAT
  5
1BB
102
{ACAD_REACTORS
330
1BA
102
}
330
1BA
100
AcAmgFilterDat
 70
    15
  1
HATCH
  2
*
  3
*
  4
*
  5
*
290
     1
  0
ACAMGFILTERDAT
  5
1BC
102
{ACAD_REACTORS
330
1BA
102
}
330
1BA
100
AcAmgFilterDat
 70
    15
  1
ACMFCFRAME,ACMDATUMTARGET,ACMDATUMID,ACMWELDSYM,ACMSURFSYM,ACMFEATID,ACMPARTREF,ACMBALLOON
  2
*
  3
*
  4
*
  5
*
290
     1
  0
LAYER_INDEX
  5
121
102
{ACAD_REACTORS
330
120
102
}
330
120
100
AcDbIndex
 40
2453854.489649502
100
AcDbLayerIndex
  8
0
360
122
 90
      471
  8
10
360
C18
 90
       40
  8
L-REV
360
C19
 90
        0
  8
L1
360
C1A
 90
        0
  8
Defpoints
360
C1B
 90
        0
  8
dm
360
C1C
 90
        0
  8
4
360
C1D
 90
        0
  0
DICTIONARY
  5
44F
330
153
100
AcDbDictionary
280
     1
281
     1
  3
ACAD_XREC_ROUNDTRIP
360
C75
  3
ADSK_XREC_LAYOUTTHUMBNAIL
360
450
  0
DICTIONARY
  5
C73
330
152
100
AcDbDictionary
280
     1
281
     1
  3
ACAD_XREC_ROUNDTRIP
360
C74
  0
IDBUFFER
  5
122
330
0
100
AcDbIdBuffer
330
BDB
330
BEA
330
BFA
330
C09
330
8F5
330
8F6
330
8F7
330
8F8
330
8F9
330
8FA
330
8FB
330
8FC
330
8FD
330
8FE
330
8FF
330
900
330
901
330
902
330
903
330
904
330
905
330
906
330
907
330
908
330
909
330
90A
330
90B
330
90C
330
90D
330
90E
330
90F
330
910
330
911
330
912
330
913
330
914
330
915
330
916
330
917
330
918
330
919
330
91A
330
91B
330
91C
330
91D
330
91E
330
91F
330
920
330
921
330
922
330
923
330
924
330
925
330
926
330
927
330
928
330
929
330
92A
330
92B
330
92C
330
92D
330
92E
330
92F
330
930
330
931
330
932
330
933
330
934
330
935
330
936
330
937
330
938
330
939
330
93A
330
93B
330
93C
330
93D
330
93E
330
93F
330
940
330
941
330
942
330
943
330
944
330
945
330
946
330
947
330
948
330
949
330
94A
330
94B
330
94C
330
94D
330
94E
330
94F
330
950
330
951
330
952
330
953
330
954
330
955
330
956
330
957
330
958
330
959
330
95A
330
95B
330
95C
330
95D
330
95E
330
95F
330
960
330
961
330
962
330
963
330
964
330
965
330
966
330
967
330
968
330
969
330
96A
330
96B
330
96C
330
96D
330
96E
330
96F
330
970
330
971
330
972
330
973
330
974
330
975
330
976
330
977
330
978
330
979
330
97A
330
97B
330
97C
330
97D
330
97E
330
97F
330
980
330
981
330
982
330
983
330
984
330
985
330
986
330
987
330
988
330
989
330
98A
330
98B
330
98C
330
98D
330
98E
330
98F
330
990
330
991
330
992
330
993
330
994
330
995
330
996
330
997
330
BCC
330
BBC
330
BBB
330
BBA
330
99C
330
99D
330
99E
330
99F
330
9A0
330
9A1
330
9A2
330
9A3
330
9A4
330
9A5
330
9A6
330
9A7
330
9A8
330
9A9
330
9AA
330
9AB
330
9AC
330
9AD
330
9AE
330
9AF
330
9B0
330
9B1
330
9B2
330
9B3
330
9B4
330
9B5
330
9B6
330
9B7
330
9B8
330
9B9
330
9BA
330
9BB
330
9BC
330
9BD
330
9BE
330
9BF
330
9C0
330
9C1
330
9C2
330
9C3
330
9C4
330
9C5
330
9C6
330
9C7
330
9C8
330
9C9
330
9CA
330
B33
330
9CC
330
B32
330
9CE
330
9CF
330
9D0
330
9D1
330
9D2
330
9D3
330
9D4
330
9D5
330
9D6
330
9D7
330
9D8
330
9D9
330
9DA
330
B2F
330
9DC
330
B2E
330
B2A
330
B26
330
9E0
330
B24
330
B23
330
B22
330
9E4
330
9E5
330
9E6
330
B21
330
9E8
330
9E9
330
A23
330
A24
330
A3F
330
A40
330
A41
330
A42
330
A43
330
A44
330
A45
330
A46
330
A47
330
A48
330
A49
330
A4A
330
A4B
330
A4C
330
A4D
330
A4E
330
A4F
330
A50
330
A51
330
A52
330
A53
330
A54
330
A55
330
A56
330
A57
330
A58
330
A59
330
A5A
330
A5B
330
A5C
330
A5D
330
A5E
330
A5F
330
A60
330
A61
330
A62
330
A63
330
A64
330
A65
330
A66
330
A67
330
A68
330
A69
330
A6A
330
A6B
330
A6C
330
A6D
330
A6E
330
A6F
330
A70
330
A71
330
A72
330
A73
330
A74
330
A75
330
A76
330
A77
330
A78
330
A79
330
A7A
330
A7B
330
A7C
330
A7D
330
A7E
330
A7F
330
A80
330
A81
330
A82
330
A83
330
A84
330
A85
330
A86
330
A87
330
A88
330
A89
330
A8A
330
A8B
330
A8C
330
A8D
330
A8E
330
A8F
330
A90
330
A91
330
A92
330
A93
330
A94
330
A95
330
A96
330
A97
330
A98
330
A99
330
A9A
330
A9B
330
A9C
330
A9D
330
A9E
330
A9F
330
AA0
330
AA1
330
AA2
330
AA3
330
AA4
330
AA5
330
AA6
330
AA7
330
AA8
330
AA9
330
AAA
330
AAB
330
AAC
330
AAD
330
AAE
330
AAF
330
AB0
330
AB1
330
AB2
330
AB3
330
AB4
330
AB5
330
AB6
330
AB7
330
AB8
330
AB9
330
ABA
330
ABB
330
ABC
330
ABD
330
ABE
330
ABF
330
AC0
330
AC1
330
AC2
330
AC3
330
AC4
330
AC5
330
AC6
330
AC7
330
AC8
330
AC9
330
ACA
330
ACB
330
ACC
330
ACD
330
ACE
330
ACF
330
AD0
330
AD1
330
AD2
330
AD3
330
AD4
330
AD5
330
AD6
330
AD7
330
AD8
330
AD9
330
ADA
330
ADB
330
ADC
330
ADD
330
ADE
330
ADF
330
AE0
330
AE1
330
B20
330
B1F
330
B1E
330
B1D
330
AE6
330
AE7
330
AE8
330
AE9
330
AEA
330
AEB
330
AEC
330
AED
330
AEE
330
AEF
330
AF0
330
AF1
330
AF2
330
AF3
330
AF4
330
AF5
330
AF6
330
AF7
330
AF8
330
AF9
330
AFA
330
AFB
330
AFC
330
AFD
330
AFE
330
AFF
330
B00
330
B01
330
B02
330
B03
330
B04
330
B05
330
B06
330
B07
330
B08
330
B09
330
B0A
330
B0B
330
B0C
330
B0D
330
B0E
330
B0F
330
B10
330
B11
330
B12
330
B13
330
B14
330
B1C
330
B16
330
B1B
330
B18
330
B19
330
B1A
  0
IDBUFFER
  5
C18
330
0
100
AcDbIdBuffer
330
B93
330
B94
330
B95
330
B96
330
B97
330
B98
330
B99
330
B9A
330
B9B
330
B9C
330
B9D
330
B9E
330
B9F
330
BA0
330
BA1
330
BA2
330
BA3
330
BA4
330
BA5
330
BA6
330
BA7
330
BA8
330
BA9
330
BAA
330
B36
330
B3C
330
B3D
330
B3E
330
B3F
330
B40
330
B41
330
B42
330
B4C
330
B62
330
B63
330
B8D
330
B8E
330
B8F
330
B90
330
B91
  0
IDBUFFER
  5
C19
330
0
100
AcDbIdBuffer
  0
IDBUFFER
  5
C1A
330
0
100
AcDbIdBuffer
  0
IDBUFFER
  5
C1B
330
0
100
AcDbIdBuffer
  0
IDBUFFER
  5
C1C
330
0
100
AcDbIdBuffer
  0
IDBUFFER
  5
C1D
330
0
100
AcDbIdBuffer
  0
XRECORD
  5
C75
102
{ACAD_REACTORS
330
44F
102
}
330
44F
100
AcDbXrecord
280
     1
102
SHADEPLOT
 70
     0
102
SHADEPLOTRESLEVEL
 70
     2
102
SHADEPLOTCUSTOMDPI
 70
   300
  0
XRECORD
  5
450
102
{ACAD_REACTORS
330
44F
102
}
330
44F
100
AcDbXrecord
280
     1
310
28000000B40000008B0000000100080000000000BC61000000000000000000000001000000000000FFFFFF0000000000FFFFFF000000000000000000000000000000000000000000000000000000000000000000330000006600000099000000CC000000FF00000000330000333300006633000099330000CC330000FF3300
310
0000660000336600006666000099660000CC660000FF66000000990000339900006699000099990000CC990000FF99000000CC000033CC000066CC000099CC0000CCCC0000FFCC000000FF000033FF000066FF000099FF0000CCFF0000FFFF000000003300330033006600330099003300CC003300FF003300003333003333
310
33006633330099333300CC333300FF33330000663300336633006666330099663300CC663300FF66330000993300339933006699330099993300CC993300FF99330000CC330033CC330066CC330099CC3300CCCC3300FFCC330000FF330033FF330066FF330099FF3300CCFF3300FFFF330000006600330066006600660099
310
006600CC006600FF00660000336600333366006633660099336600CC336600FF33660000666600336666006666660099666600CC666600FF66660000996600339966006699660099996600CC996600FF99660000CC660033CC660066CC660099CC6600CCCC6600FFCC660000FF660033FF660066FF660099FF6600CCFF6600
310
FFFF660000009900330099006600990099009900CC009900FF00990000339900333399006633990099339900CC339900FF33990000669900336699006666990099669900CC669900FF66990000999900339999006699990099999900CC999900FF99990000CC990033CC990066CC990099CC9900CCCC9900FFCC990000FF99
310
0033FF990066FF990099FF9900CCFF9900FFFF99000000CC003300CC006600CC009900CC00CC00CC00FF00CC000033CC003333CC006633CC009933CC00CC33CC00FF33CC000066CC003366CC006666CC009966CC00CC66CC00FF66CC000099CC003399CC006699CC009999CC00CC99CC00FF99CC0000CCCC0033CCCC0066CC
310
CC0099CCCC00CCCCCC00FFCCCC0000FFCC0033FFCC0066FFCC0099FFCC00CCFFCC00FFFFCC000000FF003300FF006600FF009900FF00CC00FF00FF00FF000033FF003333FF006633FF009933FF00CC33FF00FF33FF000066FF003366FF006666FF009966FF00CC66FF00FF66FF000099FF003399FF006699FF009999FF00CC
310
99FF00FF99FF0000CCFF0033CCFF0066CCFF0099CCFF00CCCCFF00FFCCFF0000FFFF0033FFFF0066FFFF0099FFFF00CCFFFF00FFFFFF00000000000D0D0D001A1A1A00282828003535350043434300505050005D5D5D006B6B6B00787878008686860093939300A1A1A100AEAEAE00BBBBBB00C9C9C900D6D6D600E4E4E400
310
F1F1F100FFFFFF0000000000000000000000000000000000000000000000000000000000000000000000000000000000E2E2E2E2E2E2E2E2E2E2E2E2E2E2E2E2E2E2E2E2E2E2E2E2E2E2E2E2E2E2E2E2E2E2E2E2E2E2E2E2E2E2E2E2E2E2E2E2E2E2E2E2E2E2E2E2E2E2E2E2E2E2E2E2E2E2E2E2E2E2E2E2E2E2E2E2E2E2E2
310
E2E2E2E2E2E2E2E2E2E2E2E2E2E2E2E2E2E2E2E2E2E2E2E2E2E2E2E2E2E2E2E2E2E2E2E2E2E2E2E2E2E2E2E2E2E2E2E2E2E2E2E2E2E2E2E2E2E2E2E2E2E2E2E2E2E2E2E2E2E2E2E2E2E2E2E2E2E2E2E2E2E2E2E2E2E2E2E2E2E2E2E2E2E2E2E2E2E2E2E2E2E2F5F5F5F5F5F5F5F5F5F5F5F5F5F5F5F5F5F5F5F5F5F5F5F5F5
310
F5F5F5F5F5F5F5F5F5F5F5F5F5F5F5F5F5F5F5F5F5F5F5F5F5F5F5F5F5F5F5F5F5F5F5F5F5F5F5F5F5F5F5F5F5F5F5F5F5F5F5F5F5F5F5F5F5F5F5F5F5F5F5F5F5F5F5F5F5F5F5F5F5F5F5F5F5F5F5F5F5F5F5F5F5F5F5F5F5F5F5F5F5F5F5F5F5F5F5F5F5F5F5F5F5F5F5F5F5F5F5F5F5F5F5F5F5F5F5F5F5F5F5F5F5F5F5
310
F5F5F5F5F5F5F5F5F5F5F5F5F5F5F5F5F5F5F5F5F5F5F5F5F5F5E2E2F5F5F5F5F5F5F5F5F5F5F5F5F5F5F5F5F5F5F5F5F5F5F5F5F5F5F5F5F5F5F5F5F5F5F5F5F5F5F5F5F5F5F5F5F5F5F5F5F5F5F5F5F5F5F5F5F5F5F5F5F5F5F5F5F5F5F5F5F5F5F5F5F5F5F5F5F5F5F5F5F5F5F5F5F5F5F5F5F5F5F5F5F5F5F5F5F5F5F5
310
F5F5F5F5F5F5F5F5F5F5F5F5F5F5F5F5F5F5F5F5F5F5F5F5F5F5F5F5F5F5F5F5F5F5F5F5F5F5F5F5F5F5F5F5F5F5F5F5F5F5F5F5F5F5F5F5F5F5F5F5F5F5F5F5F5F5F5F5F5F5F5F5F5F5F5F5F5F5F5E2E2F5F5F5F5F5F5F5F5F5F5F5F5F5F5F5F5F5F5F5F5F5F5F5F5F5F5F5F5F5F5F5F5F5F5F5F5F5F5F5F5F5F5F5F5F5F5
310
F5F5F5F5F5F5F5F5F5F5F5F5F5F5F5F5F5F5F5F5F5F5F5F5F5F5F5F5F5F5F5F5F5F5F5F5F5F5F5F5F5F5F5F5F5F5F5F5F5F5F5F5F5F5F5F5F5F5F5F5F5F5F5F5F5F5F5F5F5F5F5F5F5F5F5F5F5F5F5F5F5F5F5F5F5F5F5F5F5F5F5F5F5F5F5F5F5F5F5F5F5F5F5F5F5F5F5F5F5F5F5F5F5F5F5F5F5F5F5F5F5F5F5F5F5F5F5
310
F5F5F5F5F5E2E2F5F5F5F5F5F5F5F5F5F5F5F5F5F5F5F5F5F5F5F5F5F5F5F5F5F5F5F5F5F5F5F5F5F5F5F5F5F5F5F5F5F5F5F5F5F5F5F5F5F5F5F5F5F5F5F5F5F5F5F5F5F5F5F5F5F5F5F5F5F5F5F5F5F5F5F5F5F5F5F5F5F5F5F5F5F5F5F5F5F5F5F5F5F5F5F5F5F5F5F5F5F5F5F5F5F5F5F5F5F5F5F5F5F5F5F5F5F5F5F5
310
F5F5F5F5F5F5F5F5F5F5F5F5F5F5F5F5F5F5F5F5F5F5F5F5F5F5F5F5F5F5F5F5F5F5F5F5F5F5F5F5F5F5F5F5F5F5F5F5F5F5F5F5F5F5F5F5F5F5E2E2F5F5F5E2E2E2E2E2E2E2E2F5F5F5F5F5F5F5F5F5E2E2E2E2E2E2E2E2E2E2E2E2E2E2E2E2F5F5F5F5F5F5F5F5F5E2E2E2E2E2E2E2E2E2E2E2E2E2E2E2F5F5F5F5F5F5F5
310
F5F5E2E2E2E2E2E2E2E2E2E2E2E2E2E2E2E2F5F5F5F5F5F5F5F5E2E2E2E2E2E2E2E2E2E2E2E2E2E2E2E2F5F5F5F5F5F5F5F5F5E2E2E2E2E2E2E2E2E2E2E2E2E2E2E2F5F5F5F5F5F5F5F5F5E2E2E2E2E2E2E2E2E2E2E2E2E2E2E2E2F5F5F5F5F5F5F5F5F5E2E2E2E2E2E2E2E2F5F5F5E2E2F5F5F5E2F5F5F5F5F5F5F5F5F5F5
310
F5F5F5F5F5F5F5F5F5F5F5F5F5F5F5F5F5F5F5F5F5F5F5F5F5F5F5F5F5F5F5F5F5F5F5F5F5F5F5F5F5F5F5F5F5F5F5F5F5F5F5F5F5F5F5F5F5F5F5F5F5F5F5F5F5F5F5F5F5F5F5F5F5F5F5F5F5F5F5F5F5F5F5F5F5F5F5F5F5F5F5F5F5F5F5F5F5F5F5F5F5F5F5F5F5F5F5F5F5F5F5F5F5F5F5F5F5F5F5F5F5F5F5F5F5F5F5
310
F5F5F5F5F5F5F5F5F5F5F5F5F5F5F5F5F5F5F5F5F5F5F5F5F5F5F5F5F5F5F5F5F5E2F5F5F5E2E2F5F5F5E2F5F5F5F5F5F5F5F5F5F5F5F5F5F5F5F5F5F5F5F5F5F5F5F5F5F5F5F5F5F5F5F5F5F5F5F5F5F5F5F5F5F5F5F5F5F5F5F5F5F5F5F5F5F5F5F5F5F5F5F5F5F5F5F5F5F5F5F5F5F5F5F5F5F5F5F5F5F5F5F5F5F5F5F5
310
F5F5F5F5F5F5F5F5F5F5F5F5F5F5F5F5F5F5F5F5F5F5F5F5F5F5F5F5F5F5F5F5F5F5F5F5F5F5F5F5F5F5F5F5F5F5F5F5F5F5F5F5F5F5F5F5F5F5F5F5F5F5F5F5F5F5F5F5F5F5F5F5F5F5F5F5F5F5F5F5F5F5F5F5F5F5E2F5F5F5E2E2F5F5F5E2F5F5F5F5F5F5F5F5F5F5F5F5F5F5F5F5F5F5F5F5F5F5F5F5F5F5F5F5F5F5F5
310
F5F5F5F5F5F5F5F5F5F5F5F5F5F5F5F5F5F5F5F5F5F5F5F5F5F5F5F5F5F5F5F5F5F5F5F5F5F5F5F5F5F5F5F5F5F5F5F5F5F5F5F5F5F5F5F5F5F5F5F5F5F5F5F5F5F5F5F5F5F5F5F5F5F5F5F5F5F5F5F5F5F5F5F5F5F5F5F5F5F5F5F5F5F5F5F5F5F5F5F5F5F5F5F5F5F5F5F5F5F5F5F5F5F5F5F5F5F5F5F5F5F5F5F5F5F5F5
310
F5F5F5F5F5F5F5F5F5F5F5F5E2F5F5F5E2E2F5F5F5E2F5F5F5F5F5F5F5F5F5F5F5F5F5F5F5F5F5F5F5F5F5F5F5F5F5F5F5F5F5F5F5F5F5F5F5F5F5F5F5F5F5F5F5F5F5F5F5F5F5F5F5F5F5F5F5F5F5F5F5F5F5F5F5F5F5F5F5F5F5F5F5F5F5F5F5F5F5F5F5F5F5F5F5F5F5F5F5F5F5F5F5F5F5F5F5F5F5F5F5F5F5F5F5F5F5
310
F5F5F5F5F5F5F5F5F5F5F5F5F5F5F5F5F5F5F5F5F5F5F5F5F5F5F5F5F5F5F5F5F5F5F5F5F5F5F5F5F5F5F5F5F5F5F5F5F5F5F5F5F5F5F5F5F5F5F5F5F5F5F5F5F5E2F5F5F5E2E2F5F5F5E2F5F5F5F5F5F5F5F5F5F5F5F5F5F5F5F5F5F5F5F5F5F5F5F5F5F5F5F5F5F5F5F5F5F5F5F5F5F5F5F5F5F5F5F5F5F5F5F5F5F5F5F5
310
F5F5F5F5F5F5F5F5F5F5F5F5F5F5F5F5F5F5F5F5F5F5F5F5F5F5F5F5F5F5F5F5F5F5F5F5F5F5F5F5F5F5F5F5F5F5F5F5F5F5F5F5F5F5F5F5F5F5F5F5F5F5F5F5F5F5F5F5F5F5F5F5F5F5F5F5F5F5F5F5F5F5F5F5F5F5F5F5F5F5F5F5F5F5F5F5F5F5F5F5F5F5F5F5F5F5F5F5F5F5F5F5F5F5F5F5F5F5E2F5F5F5E2E2F5F5F5
310
E2F5F5F5F5F5F5F5F5F5F5F5F5F5F5F5F5F5F5F5F5F5F5F5F5F5F5F5F5F5F5F5F5F5F5F5F5F5F5F5F5F5F5F5F5F5F5F5F5F5F5F5F5F5F5F5F5F5F5F5F5F5F5F5F5F5F5F5F5F5F5F5F5F5F5F5F5F5F5F5F5F5F5F5F5F5F5F5F5F5F5F5F5F5F5F5F5F5F5F5F5F5F5F5F5F5F5F5F5F5F5F5F5F5F5F5F5F5F5F5F5F5F5F5F5F5F5
310
F5F5F5F5F5F5F5F5F5F5F5F5F5F5F5F5F5F5F5F5F5F5F5F5F5F5F5F5F5F5F5F5F5F5F5F5F5F5F5F5F5F5F5F5E2F5F5F5E2E2F5F5F5E2F5F5F5F5F5F5F5F5F5F5F5F5F5F5F5F5F5F5F5F5F5F5F5F5F5F5F5F5F5F5F5F5F5F5F5F5F5F5F5F5F5F5F5F5F5F5F5F5F5F5F5F5F5F5F5F5F5F5F5F5F5F5F5F5F5F5F5F5F5F5F5F5F5
310
F5F5F5F5F5F5F5F5F5F5F5F5F5F5F5F5F5F5F5F5F5F5F5F5F5F5F5F5F5F5F5F5F5F5F5F5F5F5F5F5F5F5F5F5F5F5F5F5F5F5F5F5F5F5F5F5F5F5F5F5F5F5F5F5F5F5F5F5F5F5F5F5F5F5F5F5F5F5F5F5F5F5F5F5F5F5F5F5F5F5F5F5F5F5F5F5F5E2F5F5F5E2E2F5F5F5E2F5F5F5F5F5F5F5F5F5F5F5F5F5F5F5F5F5F5F5F5
310
F5F5F5F5F5F5F5F5F5F5F5F5F5F5F5F5F5F5F5F5F5F5F5F5F5F5F5F5F5F5F5F5F5F5F5F5F5F5F5F5F5F5F5F5F5F5F5F5F5F5F5F5F5F5F5F5F5F5F5F5F5F5F5F5F5F5F5F5F5F5F5F5F5F5F5F5F5F5F5F5F5F5F5F5F5F5F5F5F5F5F5F5F5F5F5F5F5F5F5F5F5F5F5F5F5F5F5F5F5F5F5F5F5F5F5F5F5F5F5F5F5F5F5F5F5F5F5
310
F5F5F5F5F5F5F5F5F5F5F5F5F5F5F5F5F5F5F5F5F5F5F5E2F5F5F5E2E2F5F5F5F5F5F5F5F5F5F5F5F5F5F5F5F5F5F5F5F5F5F5F5F5F5F5F5F5F5F5F5F5F5F5F5F5F5F5F5F5F5F5F5F5F5F5F5F5F5F5F5F5F5F5F5F5F5F5F5F5F5F5F5F5F5F5F5F5F5F5F5F5F5F5F5F5F5F5F5F5F5F5F5F5F5F5F5F5F5F5F5F5F5F5F5F5F5F5
310
F5F5F5F5F5F5F5F5F5F5F5F5F5F5F5F5F5F5F5F5F5F5F5F5F5F5F5F5F5F5F5F5F5F5F5F5F5F5F5F5F5F5F5F5F5F5F5F5F5F5F5F5F5F5F5F5F5F5F5F5F5F5F5F5F5F5F5F5F5F5F5F5F5F5F5F5F5F5F5F5E2E2F5F5F5F5F5F5F5F5F5F5F5F5F5F5F5F5F5F5F5F5F5F5F5F5F5F5F5F5F5F5F5F5F5F5F5F5F5F5F5F5F5F5F5F5F5
310
F5F5F5F5F5F5F5F5F5F5F5F5F5F5F5F5F5F5F5F5F5F5F5F5F5F5F5F5F5F5F5F5F5F5F5F5F5F5F5F5F5F5F5F5F5F5F5F5F5F5F5F5F5F5F5F5F5F5F5F5F5F5F5F5F5F5F5F5F5F5F5F5F5F5F5F5F5F5F5F5F5F5F5F5F5F5F5F5F5F5F5F5F5F5F5F5F5F5F5F5F5F5F5F5F5F5F5F5F5F5F5F5F5F5F5F5F5F5F5F5F5F5F5F5F5F5F5
310
F5F5F5F5F5F5E2E2F5F5F5F5F5F5F5F5F5F5F5F5F5F5F5F5F5F5F5F5F5F5F5F5F5F5F5F5F5F5F5F5F5F5F5F5F5F5F5F5F5F5F5F5F5F5F5F5F5F5F5F5F5F5F5F5F5F5F5F5F5F5F5F5F5F5F5F5F5F5F5F5F5F5F5F5F5F5F5F5F5F5F5F5F5F5F5F5F5F5F5F5F5F5F5F5F5F5F5F5F5F5F5F5F5F5F5F5F5F5F5F5F5F5F5F5F5F5F5
310
F5F5F5F5F5F5F5F5F5F5F5F5F5F5F5F5F5F5F5F5F5F5F5F5F5F5F5F5F5F5F5F5F5F5F5F5F5F5F5F5F5F5F5F5F5F5F5F5F5F5F5F5F5F5F5F5F5F5F5E2E2F5F5F5F5F5F5F5F5F5F5F5F5F5F5F5F5F5F5F5F5F5F5F5F5F5F5F5F5F5F5F5F5F5F5F5F5F5F5F5F5F5F5F5F5F5F5F5F5F5F5F5F5F5F5F5F5F5F5F5F5F5F5F5F5F5F5
310
F5F5F5F5F5F5F5F5F5F5F5F5F5F5F5F5F5F5F5F5F5F5F5F5F5F5F5F5F5F5F5F5F5F5F5F5F5F5F5F5F5F5F5F5F5F5F5F5F5F5F5F5F5F5F5F5F5F5F5F5F5F5F5F5F5F5F5F5F5F5F5F5F5F5F5F5F5F5F5F5F5F5F5F5F5F5F5F5F5F5F5F5F5F5F5F5F5F5F5F5F5F5F5F5F5F5F5F5F5F5F5F5E2E2F5F5F5F5F5F5F5F5F5F5F5F5F5
310
F5F5F5F5F5F5F5F5F5F5F5F5F5F5F5F5F5F5F5F5F5F5F5F5F5F5F5F5F5F5F5F5F5F5F5F5F5F5F5F5F5F5F5F5F5F5F5F5F5F5F5F5F5F5F5F5F5F5F5F5F5F5F5F5F5F5F5F5F5F5F5F5F5F5F5F5F5F5F5F5F5F5F5F5F5F5F5F5F5F5F5F5F5F5F5F5F5F5F5F5F5F5F5F5F5F5F5F5F5F5F5F5F5F5F5F5F5F5F5F5F5F5F5F5F5F5F5
310
F5F5F5F5F5F5F5F5F5F5F5F5F5F5F5F5F5F5F5F5F5F5F5F5F5F5F5F5F5F5F5F5F5F5F5F5F5F5E2E2F5F5F5F5F5F5F5F5F5F5F5F5F5F5F5F5F5F5F5F5F5F5F5F5F5F5F5F5F5F5F5F5F5F5F5F5F5F5F5F5F5F5F5F5F5F5F5F5F5F5F5F5F5F5F5F5F5F5F5F5F5F5F5F5F5F5F5F5F5F5F5F5F5F5F5F5F5F5F5F5F5F5F5F5F5F5F5
310
F5F5F5F5F5F5F5F5F5F5F5F5F5F5F5F5F5F5F5F5F5F5F5F5F5F5F5F5F5F5F5F5F5F5F5F5F5F5F5F5F5F5F5F5F5F5F5F5F5F5F5F5F5F5F5F5F5F5F5F5F5F5F5F5F5F5F5F5F5F5F5F5F5F5F5F5F5F5F5F5F5F5F5F5F5F5F5F5F5F5F5E2E2F5F5F5F5F5F5F5F5F5F5F5F5F5F5F5F5F5F5F5F5F5F5F5F5F5F5F5F5F5F5F5F5F5F5
310
F5F5F5F5F5F5F5F5F5F5F5F5F5F5F5F5F5F5F5F5F5F5F5F5F5F5F5F5F5F5F5F5F5F5F5F5F5F5F5F5F5F5F5F5F5F5F5F5F5F5F5F5F5F5F5F5F5F5F5F5F5F5F5F5F5F5F5F5F5F5F5F5F5F5F5F5F5F5F5F5F5F5F5F5F5F5F5F5F5F5F5F5F5F5F5F5F5F5F5F5F5F5F5F5F5F5F5F5F5F5F5F5F5F5F5F5F5F5F5F5F5F5F5F5F5F5F5
310
F5F5F5F5F5F5F5F5F5F5F5F5F5F5F5F5F5E2E2F5F5F5F5F5F5F5F5F5F5F5F5F5F5F5F5F5F5F5F5F5F5F5F5F5F5F5F5F5F5F5F5F5F5F5F5F5F5F5F5F5F5F5F5F5F5F5F5F5F5F5F5F5F5F5F5F5F5F5F5F5F5F5F5F5F5F5F5F5F5F5F5F5F5F5F5F5F5F5F5F5F5F5F5F5F5F5F5F5F5F5F5F5F5F5F5F5F5F5F5F5F5F5F5F5F5F5F5
310
F5F5F5F5F5F5F5F5F5F5F5F5F5F5F5F5F5F5F5F5F5F5F5F5F5F5F5F5F5F5F5F5F5F5F5F5F5F5F5F5F5F5F5F5F5F5F5F5F5F5F5F5F5F5F5F5F5F5F5F5F5F5F5F5F5F5F5F5F5F5E2E2F5F5F5F5F5F5F5F5F5F5F5F5F5F5F5F5F5F5F5F5F5F5F5F5F5F5F5F5F5F5F5F5F5F5F5F5F5F5F5F5F5F5F5F5F5F5F5F5F5F5F5F5F5F5F5
310
F5F5F5F5F5F5F5F5F5F5F5F5F5F5F5F5F5F5F5F5F5F5F5F5F5F5F5F5F5F5F5F5F5F5F5F5F5F5F5F5F5F5F5F5F5F5F5F5F5F5F5F5F5F5F5F5F5F5F5F5F5F5F5F5F5F5F5F5F5F5F5F5F5F5F5F5F5F5F5F5F5F5F5F5F5F5F5F5F5F5F5F5F5F5F5F5F5F5F5F5F5F5F5F5F5F5F5F5F5F5F5F5F5F5F5F5F5F5F5F5F5F5F5E2E2F5F5
310
F5E2F5F5F5F5F5F5F5F5F5F5F5F5F5F5F5F5F5F5F5F5F5F5F5F5F5F5F5F5F5F5F5F5F5F5F5F5F5F5F5F5F5F5F5F5F5F5F5F5F5F5F5F5F5F5F5F5F5F5F5F5F5F5F5F5F5F5F5F5F5F5F5F5F5F5F5F5F5F5F5F5F5F5F5F5F5F5F5F5F5F5F5F5F5F5F5F5F5F5F5F5F5F5F5F5F5F5F5F5F5F5F5F5F5F5F5F5F5F5F5F5F5F5F5F5F5
310
F5F5F5F5F5F5F5F5F5F5F5F5F5F5F5F5F5F5F5F5F5F5F5F5F5F5F5F5F5F5F5F5F5F5F5F5F5F5F5F5F5F5F5F5F5E2F5F5F5E2E2F5F5F5E2F5F5F5F5F5F5F5F5F5F5F5F5F5F5F5F5F5F5F5F5F5F5F5F5F5F5F5F5F5F5F5F5F5F5F5F5F5F5F5F5F5F5F5F5F5F5F5F5F5F5F5F5F5F5F5F5F5F5F5F5F5F5F5F5F5F5F5F5F5F5F5F5
310
F5F5F5F5F5F5F5F5F5F5F5F5F5F5F5F5F5F5F5F5F5F5F5F5F5F5F5F5F5F5F5F5F5F5F5F5F5F5F5F5F5F5F5F5F5F5F5F5F5F5F5F5F5F5F5F5F5F5F5F5F5F5F5F5F5F5F5F5F5F5F5F5F5F5F5F5F5F5F5F5F5F5F5F5F5F5F5F5F5F5F5F5F5F5F5F5F5F5E2F5F5F5E2E2F5F5F5E2F5F5F5F5F5F5F5F5F5F5F5F5F5F5F5F5F5F5F5
310
F5F5F5F5F5F5F5F5F5F5F5F5F5F5F5F5F5F5F5F5F5F5F5F5F5F5F5F5F5F5F5F5F5F5F5F5F5F5F5F5F5F5F5F5F5F5F5F5F5F5F5F5F5F5F5F5F5F5F5F5F5F5F5F5F5F5F5F5F5F5F5F5F5F5F5F5F5F5F5F5F5F5F5F5F5F5F5F5F5F5F5F5F5F5F5F5F5F5F5F5F5F5F5F5F5F5F5F5F5F5F5F5F5F5F5F5F5F5F5F5F5F5F5F5F5F5F5
310
F5F5F5F5F5F5F5F5F5F5F5F5F5F5F5F5F5F5F5F5F5F5F5F5E2F5F5F5E2E2F5F5F5E2F5F5F5F5F5F5F5F5F5F5F5F5F5F5F5F5F5F5F5F5F5F5F5F5F5F5F5F5F5F5F5F5F5F5F5F5F5F5F5F5F5F5F5F5F5F5F5F5F5F5F5F5F5F5F5F5F5F5F5F5F5F5F5F5F5F5F5F5F5F5F5F5F5F5F5F5F5F5F5F5F5F5F5F5F5F5F5F5F5F5F5F5F5
310
F5F5F5F5F5F5F5F5F5F5F5F5F5F5F5F5F5F5F5F5F5F5F5F5F5F5F5F5F5F5F5F5F5F5F5F5F5F5F5F5F5F5F5F5F5F5F5F5F5F5F5F5F5F5F5F5F5F5F5F5F5F5F5F5F5F5F5F5F5F5F5F5F5F5F5F5F5E2F5F5F5E2E2F5F5F5E2F5F5F5F5F5F5F5F5F5F5F5F5F5F5F5F5F5F5F5F5F5F5F5F5F5F5F5F5F5F5F5F5F5F5F5F5F5F5F5F5
310
F5F5F5F5F5F5F5F5F5F5F5F5F5F5F5F5F5F5F5F5F5F5F5F5F5F5F5F5F5F5F5F5F5F5F5F5F5F5F5F5F5F5F5F5F5F5F5F5F5F5F5F5F5F5F5F5F5F5F5F5F5F5F5F5F5F5F5F5F5F5F5F5F5F5F5F5F5F5F5F5F5F5F5F5F5F5F5F5F5F5F5F5F5F5F5F5F5F5F5F5F5F5F5F5F5F5F5F5F5F5F5F5F5F5F5F5F5F5F5F5F5F5F5F5F5F5F5
310
F5F5F5E2F5F5F5E2E2F5F5F5E2F5F5F5F5F5F5F5F5F5F5F5F5F5F5F5F5F5F5F5F5F5F5F5F5F5F5F5F5F5F5F5F5F5F5F5F5F5F5F5F5F5F5F5F5F5F5F5F5F5F5F5F5F5F5F5F5F5F5F5F5F5F5F5F5F5F5F5F5F5F5F5F5F5F5F5F5F5F5F5F5F5F5F5F5F5F5F5F5F5F5F5F5F5F5F5F5F5F5F5F5F5F5F5F5F5F5F5F5F5F5F5F5F5F5
310
F5F5F5F5F5F5F5F5F5F5F5F5F5F5F5F5F5F5F5F5F5F5F5F5F5F5F5F5F5F5F5F5F5F5F5F5F5F5F5F5F5F5F5F5F5F5F5F5F5F5F5F5F5F5F5F5E2F5F5F5E2E2F5F5F5E2F5F5F5F5F5F5F5F5F5F5F5F5F5F5F5F5F5F5F5F5F5F5F5F5F5F5F5F5F5F5F5F5F5F5F5F5F5F5F5F5F5F5F5F5F5F5F5F5F5F5F5F5F5F5F5F5F5F5F5F5F5
310
F5F5F5F5F5F5F5F5F5F5F5F5F5F5F5F5F5F5F5F5F5F5F5F5F5F5F5F5F5F5F5F5F5F5F5F5F5F5F5F5F5F5F5F5F5F5F5F5F5F5F5F5F5F5F5F5F5F5F5F5F5F5F5F5F5F5F5F5F5F5F5F5F5F5F5F5F5F5F5F5F5F5F5F5F5F5F5F5F5F5F5F5F5F5F5F5F5F5F5F5F5F5F5F5F5F5F5F5F5E2F5F5F5E2E2F5F5F5E2F5F5F5F5F5F5F5F5
310
F5F5F5F5F5F5F5F5F5F5F5F5F5F5F5F5F5F5F5F5F5F5F5F5F5F5F5F5F5F5F5F5F5F5F5F5F5F5F5F5F5F5F5F5F5F5F5F5F5F5F5F5F5F5F5F5F5F5F5F5F5F5F5F5F5F5F5F5F5F5F5F5F5F5F5F5F5F5F5F5F5F5F5F5F5F5F5F5F5F5F5F5F5F5F5F5F5F5F5F5F5F5F5F5F5F5F5F5F5F5F5F5F5F5F5F5F5F5F5F5F5F5F5F5F5F5F5
310
F5F5F5F5F5F5F5F5F5F5F5F5F5F5F5F5F5F5F5F5F5F5F5F5F5F5F5F5F5F5F5F5F5F5F5E2F5F5F5E2E2F5F5F5E2F5F5F5F5F5F5F5F5F5F5F5F5F5F5F5F5F5F5F5F5F5F5F5F5F5F5F5F5F5F5F5F5F5F5F5F5F5F5F5F5F5F5F5F5F5F5F5F5F5F5F5F5F5F5F5F5F5F5F5F5F5F5F5F5F5F5F5F5F5F5F5F5F5F5F5F5F5F5F5F5F5F5
310
F5F5F5F5F5F5F5F5F5F5F5F5F5F5F5F5F5F5F5F5F5F5F5F5F5F5F5F5F5F5F5F5F5F5F5F5F5F5F5F5F5F5F5F5F5F5F5F5F5F5F5F5F5F5F5F5F5F5F5F5F5F5F5F5F5F5F5F5F5F5F5F5F5F5F5F5F5F5F5F5F5F5F5F5F5F5F5F5E2F5F5F5E2E2F5F5F5E2F5F5F5F5F5F5F5F5F5F5F5F5F5F5F5F5F5F5F5F5F5F5F5F5F5F5F5F5F5
310
F5F5F5F5F5F5F5F5F5F5F5F5F5F5F5F5F5F5F5F5F5F5F5F5F5F5F5F5F5F5F5F5F5F5F5F5F5F5F5F5F5F5F5F5F5F5F5F5F5F5F5F5F5F5F5F5F5F5F5F5F5F5F5F5F5F5F5F5F5F5F5F5F5F5F5F5F5F5F5F5F5F5F5F5F5F5F5F5F5F5F5F5F5F5F5F5F5F5F5F5F5F5F5F5F5F5F5F5F5F5F5F5F5F5F5F5F5F5F5F5F5F5F5F5F5F5F5
310
F5F5F5F5F5F5F5F5F5F5F5F5F5F5E2F5F5F5E2E2F5F5F5E2F5F5F5F5F5F5F5F5F5F5F5F5F5F5F5F5F5F5F5F5F5F5F5F5F5F5F5F5F5F5F5F5F5F5F5F5F5F5F5F5F5F5F5F5F5F5F5F5F5F5F5F5F5F5F5F5F5F5F5F5F5F5F5F5F5F5F5F5F5F5F5F5F5F5F5F5F5F5F5F5F5F5F5F5F5F5F5F5F5F5F5F5F5F5F5F5F5F5F5F5F5F5F5
310
F5F5F5F5F5F5F5F5F5F5F5F5F5F5F5F5F5F5F5F5F5F5F5F5F5F5F5F5F5F5F5F5F5F5F5F5F5F5F5F5F5F5F5F5F5F5F5F5F5F5F5F5F5F5F5F5F5F5F5F5F5F5F5F5F5F5F5E2F5F5F5E2E2F5F5F5E2F5F5F5F5F5F5F5F5F5F5F5F5F5F5F5F5F5F5F5F5F5F5F5F5F5F5F5F5F5F5F5F5F5F5F5F5F5F5F5F5F5F5F5F5F5F5F5F5F5F5
310
F5F5F5F5F5F5F5F5F5F5F5F5F5F5F5F5F5F5F5F5F5F5F5F5F5F5F5F5F5F5F5F5F5F5F5F5F5F5F5F5F5F5F5F5F5F5F5F5F5F5F5F5F5F5F5F5F5F5F5F5F5F5F5F5F5F5F5F5F5F5F5F5F5F5F5F5F5F5F5F5F5F5F5F5F5F5F5F5F5F5F5F5F5F5F5F5F5F5F5F5F5F5F5F5F5F5F5F5F5F5F5F5F5F5F5F5F5F5F5F5E2F5F5F5E2E2F5
310
F5F5E2F5F5F5F5F5F5F5F5F5F5F5F5F5F5F5F5F5F5F5F5F5F5F5F5F5F5F5F5F5F5F5F5F5F5F5F5F5F5F5F5F5F5F5F5F5F5F5F5F5F5F5F5F5F5F5F5F5F5F5F5F5F5F5F5F5F5F5F5F5F5F5F5F5F5F5F5F5F5F5F5F5F5F5F5F5F5F5F5F5F5F5F5F5F5F5F5F5F5F5F5F5F5F5F5F5F5F5F5F5F5F5F5F5F5F5F5F5F5F5F5F5F5F5F5
310
F5F5F5F5F5F5F5F5F5F5F5F5F5F5F5F5F5F5F5F5F5F5F5F5F5F5F5F5F5F5F5F5F5F5F5F5F5F5F5F5F5F5F5F5F5F5E2F5F5F5E2E2F5F5F5E2F5F5F5F5F5F5F5F5F5F5F5F5F5F5F5F5F5F5F5F5F5F5F5F5F5F5F5F5F5F5F5F5F5F5F5F5F5F5F5F5F5F5F5F5F5F5F5F5F5F5F5F5F5F5F5F5F5F5F5F5F5F5F5F5F5F5F5F5F5F5F5
310
F5F5F5F5F5F5F5F5F5F5F5F5F5F5F5F5F5F5F5F5F5F5F5F5F5F5F5F5F5F5F5F5F5F5F5F5F5F5F5F5F5F5F5F5F5F5F5F5F5F5F5F5F5F5F5F5F5F5F5F5F5F5F5F5F5F5F5F5F5F5F5F5F5F5F5F5F5F5F5F5F5F5F5F5F5F5F5F5F5F5F5F5F5F5F5F5F5F5F5E2F5F5F5E2E2F5F5F5E2F5F5F5F5F5F5F5F5F5F5F5F5F5F5F5F5F5F5
310
F5F5F5F5F5F5F5F5F5F5F5F5F5F5F5F5F5F5F5F5F5F5F5F5F5F5F5F5F5F5F5F5F5F5F5F5F5F5F5F5F5F5F5F5F5F5F5F5F5F5F5F5F5F5F5F5F5F5F5F5F5F5F5F5F5F5F5F5F5F5F5F5F5F5F5F5F5F5F5F5F5F5F5F5F5F5F5F5F5F5F5F5F5F5F5F5F5F5F5F5F5F5F5F5F5F5F5F5F5F5F5F5F5F5F5F5F5F5F5F5F5F5F5F5F5F5F5
310
F5F5F5F5F5F5F5F5F5F5F5F5F5F5F5F5F5F5F5F5F5F5F5F5F5E2F5F5F5E2E2F5F5F5E2F5F5F5F5F5F5F5F5F5F5F5F5F5F5F5F5F5F5F5F5F5F5F5F5F5F5F5F5F5F5F5F5F5F5F5F5F5F5F5F5F5F5F5F5F5F5F5F5F5F5F5F5F5F5F5F5F5F5F5F5F5F5F5F5F5F5F5F5F5F5F5F5F5F5F5F5F5F5F5F5F5F5F5F5F5F5F5F5F5F5F5F5
310
F5F5F5F5F5F5F5F5F5F5F5F5F5F5F5F5F5F5F5F5F5F5F5F5F5F5F5F5F5F5F5F5F5F5F5F5F5F5F5F5F5F5F5F5F5F5F5F5F5F5F5F5F5F5F5F5F5F5F5F5F5F5F5F5F5F5F5F5F5F5F5F5F5F5F5F5F5F5E2F5F5F5E2E2F5F5F5F5F5F5F5F5F5F5F5F5F5F5F5F5F5F5F5F5F5F5F5F5F5F5F5F5F5F5F5F5F5F5F5F5F5F5F5F5F5F5F5
310
F5F5F5F5F5F5F5F5F5F5F5F5F5F5F5F5F5F5F5F5F5F5F5F5F5F5F5F5F5F5F5F5F5F5F5F5F5F5F5F5F5F5F5F5F5F5F5F5F5F5F5F5F5F5F5F5F5F5F5F5F5F5F5F5F5F5F5F5F5F5F5F5F5F5F5F5F5F5F5F5F5F5F5F5F5F5F5F5F5F5F5F5F5F5F5F5F5F5F5F5F5F5F5F5F5F5F5F5F5F5F5F5F5F5F5F5F5F5F5F5F5F5F5F5F5F5F5
310
F5F5F5F5F5F5F5F5E2E2F5F5F5F5F5F5F5F5F5F5F5F5F5F5F5F5F5F5F5F5F5F5F5F5F5F5F5F5F5F5F5F5F5F5F5F5F5F5F5F5F5F5F5F5F5F5F5F5F5F5F5F5F5F5F5F5F5F5F5F5F5F5F5F5F5F5F5F5F5F5F5F5F5F5F5F5F5F5F5F5F5F5F5F5F5F5F5F5F5F5F5F5F5F5F5F5F5F5F5F5F5F5F5F5F5F5F5F5F5F5F5F5F5F5F5F5F5
310
F5F5F5F5F5F5F5F5F5F5F5F5F5F5F5F5F5F5F5F5F5F5F5F5F5F5F5F5F5F5F5F5F5F5F5F5F5F5F5F5F5F5F5F5F5F5F5F5F5F5F5F5F5F5F5F5F5F5F5F5F5E2E2F5F5F5F5F5F5F5F5F5F5F5F5F5F5F5F5F5F5F5F5F5F5F5F5F5F5F5F5F5F5F5F5F5F5F5F5F5F5F5F5F5F5F5F5F5F5F5F5F5F5F5F5F5F5F5F5F5F5F5F5F5F5F5F5
310
F5F5F5F5F5F5F5F5F5F5F5F5F5F5F5F5F5F5F5F5F5F5F5F5F5F5F5F5F5F5F5F5F5F5F5F5F5F5F5F5F5F5F5F5F5F5F5F5F5F5F5F5F5F5F5F5F5F5F5F5F5F5F5F5F5F5F5F5F5F5F5F5F5F5F5F5F5F5F5F5F5F5F5F5F5F5F5F5F5F5F5F5F5F5F5F5F5F5F5F5F5F5F5F5F5F5F5F5F5F5F5F5F5F5E2E2F5F5F5F5F5F5F5F5F5F5F5
310
F5F5F5F5F5F5F5F5F5F5F5F5F5F5F5F5F5F5F5F5F5F5F5F5F5F5F5F5F5F5F5F5F5F5F5F5F5F5F5F5F5F5F5F5F5F5F5F5F5F5F5F5F5F5F5F5F5F5F5F5F5F5F5F5F5F5F5F5F5F5F5F5F5F5F5F5F5F5F5F5F5F5F5F5F5F5F5F5F5F5F5F5F5F5F5F5F5F5F5F5F5F5F5F5F5F5F5F5F5F5F5F5F5F5F5F5F5F5F5F5F5F5F5F5F5F5F5
310
F5F5F5F5F5F5F5F5F5F5F5F5F5F5F5F5F5F5F5F5F5F5F5F5F5F5F5F5F5F5F5F5F5F5F5F5F5F5F5F5E2E2F5F5F5F5F5F5F5F5F5F5F5F5F5F5F5F5F5F5F5F5F5F5F5F5F5F5F5F5F5F5F5F5F5F5F5F5F5F5F5F5F5F5F5F5F5F5F5F5F5F5F5F5F5F5F5F5F5F5F5F5F5F5F5F5F5F5F5F5F5F5F5F5F5F5F5F5F5F5F5F5F5F5F5F5F5
310
F5F5F5F5F5F5F5F5F5F5F5F5F5F5F5F5F5F5F5F5F5F5F5F5F5F5F5F5F5F5F5F5F5F5F5F5F5F5F5F5F5F5F5F5F5F5F5F5F5F5F5F5F5F5F5F5F5F5F5F5F5F5F5F5F5F5F5F5F5F5F5F5F5F5F5F5F5F5F5F5F5F5F5F5F5F5F5F5F5F5F5F5F5E2E2F5F5F5F5F5F5F5F5F5F5F5F5F5F5F5F5F5F5F5F5F5F5F5F5F5F5F5F5F5F5F5F5
310
F5F5F5F5F5F5F5F5F5F5F5F5F5F5F5F5F5F5F5F5F5F5F5F5F5F5F5F5F5F5F5F5F5F5F5F5F5F5F5F5F5F5F5F5F5F5F5F5F5F5F5F5F5F5F5F5F5F5F5F5F5F5F5F5F5F5F5F5F5F5F5F5F5F5F5F5F5F5F5F5F5F5F5F5F5F5F5F5F5F5F5F5F5F5F5F5F5F5F5F5F5F5F5F5F5F5F5F5F5F5F5F5F5F5F5F5F5F5F5F5F5F5F5F5F5F5F5
310
F5F5F5F5F5F5F5F5F5F5F5F5F5F5F5F5F5F5F5E2E2F5F5F5F5F5F5F5F5F5F5F5F5F5F5F5F5F5F5F5F5F5F5F5F5F5F5F5F5F5F5F5F5F5F5F5F5F5F5F5F5F5F5F5F5F5F5F5F5F5F5F5F5F5F5F5F5F5F5F5F5F5F5F5F5F5F5F5F5F5F5F5F5F5F5F5F5F5F5F5F5F5F5F5F5F5F5F5F5F5F5F5F5F5F5F5F5F5F5F5F5F5F5F5F5F5F5
310
F5F5F5F5F5F5F5F5F5F5F5F5F5F5F5F5F5F5F5F5F5F5F5F5F5F5F5F5F5F5F5F5F5F5F5F5F5F5F5F5F5F5F5F5F5F5F5F5F5F5F5F5F5F5F5F5F5F5F5F5F5F5F5F5F5F5F5F5F5F5F5F5E2E2F5F5F5F5F5F5F5F5F5F5F5F5F5F5F5F5F5F5F5F5F5F5F5F5F5F5F5F5F5F5F5F5F5F5F5F5F5F5F5F5F5F5F5F5F5F5F5F5F5F5F5F5F5
310
F5F5F5F5F5F5F5F5F5F5F5F5F5F5F5F5F5F5F5F5F5F5F5F5F5F5F5F5F5F5F5F5F5F5F5F5F5F5F5F5F5F5F5F5F5F5F5F5F5F5F5F5F5F5F5F5F5F5F5F5F5F5F5F5F5F5F5F5F5F5F5F5F5F5F5F5F5F5F5F5F5F5F5F5F5F5F5F5F5F5F5F5F5F5F5F5F5F5F5F5F5F5F5F5F5F5F5F5F5F5F5F5F5F5F5F5F5F5F5F5F5F5F5F5F5E2E2
310
F5F5F5F5F5F5F5F5F5F5F5F5F5F5F5F5F5F5F5F5F5F5F5F5F5F5F5F5F5F5F5F5F5F5F5F5F5F5F5F5F5F5F5F5F5F5F5F5F5F5F5F5F5F5F5F5F5F5F5F5F5F5F5F5F5F5F5F5F5F5F5F5F5F5F5F5F5F5F5F5F5F5F5F5F5F5F5F5F5F5F5F5F5F5F5F5F5F5F5F5F5F5F5F5F5F5F5F5F5F5F5F5F5F5F5F5F5F5F5F5F5F5F5F5F5F5F5
310
F5F5F5F5F5F5F5F5F5F5F5F5F5F5F5F5F5F5F5F5F5F5F5F5F5F5F5F5F5F5F5F5F5F5F5F5F5F5F5F5F5F5F5F5F5F5F5F5F5F5F5E2E2F5F5F5F5F5F5F5F5F5F5F5F5F5F5F5F5F5F5F5F5F5F5F5F5F5F5F5F5F5F5F5F5F5F5F5F5F5F5F5F5F5F5F5F5F5F5F5F5F5F5F5F5F5F5F5F5F5F5F5F5F5F5F5F5F5F5F5F5F5F5F5F5F5F5
310
F5F5F5F5F5F5F5F5F5F5F5F5F5F5F5F5F5F5F5F5F5F5F5F5F5F5F5F5F5F5F5F5F5F5F5F5F5F5F5F5F5F5F5F5F5F5F5F5F5F5F5F5F5F5F5F5F5F5F5F5F5F5F5F5F5F5F5F5F5F5F5F5F5F5F5F5F5F5F5F5F5F5F5F5F5F5F5F5F5F5F5F5F5F5F5F5F5F5F5F5F5F5F5F5E2E2F5F5F5E2F5F5F5F5F5F5F5F5F5F5F5F5F5F5F5F5F5
310
F5F5F5F5F5F5F5F5F5F5F5F5F5F5F5F5F5F5F5F5F5F5F5F5F5F5F5F5F5F5F5F5F5F5F5F5F5F5F5F5F5F5F5F5F5F5F5F5F5F5F5F5F5F5F5F5F5F5F5F5F5F5F5F5F5F5F5F5F5F5F5F5F5F5F5F5F5F5F5F5F5F5F5F5F5F5F5F5F5F5F5F5F5F5F5F5F5F5F5F5F5F5F5F5F5F5F5F5F5F5F5F5F5F5F5F5F5F5F5F5F5F5F5F5F5F5F5
310
F5F5F5F5F5F5F5F5F5F5F5F5F5F5F5F5F5F5F5F5F5F5F5F5F5F5E2F5F5F5E2E2F5F5F5E2F5F5F5F5F5F5F5F5F5F5F5F5F5F5F5F5F5F5F5F5F5F5F5F5F5F5F5F5F5F5F5F5F5F5F5F5F5F5F5F5F5F5F5F5F5F5F5F5F5F5F5F5F5F5F5F5F5F5F5F5F5F5F5F5F5F5F5F5F5F5F5F5F5F5F5F5F5F5F5F5F5F5F5F5F5F5F5F5F5F5F5
310
F5F5F5F5F5F5F5F5F5F5F5F5F5F5F5F5F5F5F5F5F5F5F5F5F5F5F5F5F5F5F5F5F5F5F5F5F5F5F5F5F5F5F5F5F5F5F5F5F5F5F5F5F5F5F5F5F5F5F5F5F5F5F5F5F5F5F5F5F5F5F5F5F5F5F5F5F5F5F5E2F5F5F5E2E2F5F5F5E2F5F5F5F5F5F5F5F5F5F5F5F5F5F5F5F5F5F5F5F5F5F5F5F5F5F5F5F5F5F5F5F5F5F5F5F5F5F5
310
F5F5F5F5F5F5F5F5F5F5F5F5F5F5F5F5F5F5F5F5F5F5F5F5F5F5F5F5F5F5F5F5F5F5F5F5F5F5F5F5F5F5F5F5F5F5F5F5F5F5F5F5F5F5F5F5F5F5F5F5F5F5F5F5F5F5F5F5F5F5F5F5F5F5F5F5F5F5F5F5F5F5F5F5F5F5F5F5F5F5F5F5F5F5F5F5F5F5F5F5F5F5F5F5F5F5F5F5F5F5F5F5F5F5F5F5F5F5F5F5F5F5F5F5F5F5F5
310
F5F5F5F5F5E2F5F5F5E2E2F5F5F5E2F5F5F5F5F5F5F5F5F5F5F5F5F5F5F5F5F5F5F5F5F5F5F5F5F5F5F5F5F5F5F5F5F5F5F5F5F5F5F5F5F5F5F5F5F5F5F5F5F5F5F5F5F5F5F5F5F5F5F5F5F5F5F5F5F5F5F5F5F5F5F5F5F5F5F5F5F5F5F5F5F5F5F5F5F5F5F5F5F5F5F5F5F5F5F5F5F5F5F5F5F5F5F5F5F5F5F5F5F5F5F5F5
310
F5F5F5F5F5F5F5F5F5F5F5F5F5F5F5F5F5F5F5F5F5F5F5F5F5F5F5F5F5F5F5F5F5F5F5F5F5F5F5F5F5F5F5F5F5F5F5F5F5F5F5F5F5F5F5F5F5F5E2F5F5F5E2E2F5F5F5E2F5F5F5F5F5F5F5F5F5F5F5F5F5F5F5F5F5F5F5F5F5F5F5F5F5F5F5F5F5F5F5F5F5F5F5F5F5F5F5F5F5F5F5F5F5F5F5F5F5F5F5F5F5F5F5F5F5F5F5
310
F5F5F5F5F5F5F5F5F5F5F5F5F5F5F5F5F5F5F5F5F5F5F5F5F5F5F5F5F5F5F5F5F5F5F5F5F5F5F5F5F5F5F5F5F5F5F5F5F5F5F5F5F5F5F5F5F5F5F5F5F5F5F5F5F5F5F5F5F5F5F5F5F5F5F5F5F5F5F5F5F5F5F5F5F5F5F5F5F5F5F5F5F5F5F5F5F5F5F5F5F5F5F5F5F5F5F5F5F5F5F5E2F5F5F5E2E2F5F5F5E2F5F5F5F5F5F5
310
F5F5F5F5F5F5F5F5F5F5F5F5F5F5F5F5F5F5F5F5F5F5F5F5F5F5F5F5F5F5F5F5F5F5F5F5F5F5F5F5F5F5F5F5F5F5F5F5F5F5F5F5F5F5F5F5F5F5F5F5F5F5F5F5F5F5F5F5F5F5F5F5F5F5F5F5F5F5F5F5F5F5F5F5F5F5F5F5F5F5F5F5F5F5F5F5F5F5F5F5F5F5F5F5F5F5F5F5F5F5F5F5F5F5F5F5F5F5F5F5F5F5F5F5F5F5F5
310
F5F5F5F5F5F5F5F5F5F5F5F5F5F5F5F5F5F5F5F5F5F5F5F5F5F5F5F5F5F5F5F5F5F5F5F5F5E2F5F5F5E2E2F5F5F5E2F5F5F5F5F5F5F5F5F5F5F5F5F5F5F5F5F5F5F5F5F5F5F5F5F5F5F5F5F5F5F5F5F5F5F5F5F5F5F5F5F5F5F5F5F5F5F5F5F5F5F5F5F5F5F5F5F5F5F5F5F5F5F5F5F5F5F5F5F5F5F5F5F5F5F5F5F5F5F5F5
310
F5F5F5F5F5F5F5F5F5F5F5F5F5F5F5F5F5F5F5F5F5F5F5F5F5F5F5F5F5F5F5F5F5F5F5F5F5F5F5F5F5F5F5F5F5F5F5F5F5F5F5F5F5F5F5F5F5F5F5F5F5F5F5F5F5F5F5F5F5F5F5F5F5F5F5F5F5F5F5F5F5F5F5F5F5F5F5F5F5F5E2F5F5F5E2E2F5F5F5E2F5F5F5F5F5F5F5F5F5F5F5F5F5F5F5F5F5F5F5F5F5F5F5F5F5F5F5
310
F5F5F5F5F5F5F5F5F5F5F5F5F5F5F5F5F5F5F5F5F5F5F5F5F5F5F5F5F5F5F5F5F5F5F5F5F5F5F5F5F5F5F5F5F5F5F5F5F5F5F5F5F5F5F5F5F5F5F5F5F5F5F5F5F5F5F5F5F5F5F5F5F5F5F5F5F5F5F5F5F5F5F5F5F5F5F5F5F5F5F5F5F5F5F5F5F5F5F5F5F5F5F5F5F5F5F5F5F5F5F5F5F5F5F5F5F5F5F5F5F5F5F5F5F5F5F5
310
F5F5F5F5F5F5F5F5F5F5F5F5F5F5F5F5E2F5F5F5E2E2F5F5F5E2F5F5F5F5F5F5F5F5F5F5F5F5F5F5F5F5F5F5F5F5F5F5F5F5F5F5F5F5F5F5F5F5F5F5F5F5F5F5F5F5F5F5F5F5F5F5F5F5F5F5F5F5F5F5F5F5F5F5F5F5F5F5F5F5F5F5F5F5F5F5F5F5F5F5F5F5F5F5F5F5F5F5F5F5F5F5F5F5F5F5F5F5F5F5F5F5F5F5F5F5F5
310
F5F5F5F5F5F5F5F5F5F5F5F5F5F5F5F5F5F5F5F5F5F5F5F5F5F5F5F5F5F5F5F5F5F5F5F5F5F5F5F5F5F5F5F5F5F5F5F5F5F5F5F5F5F5F5F5F5F5F5F5F5F5F5F5F5F5F5F5F5E2F5F5F5E2E2F5F5F5E2F5F5F5F5F5F5F5F5F5F5F5F5F5F5F5F5F5F5F5F5F5F5F5F5F5F5F5F5F5F5F5F5F5F5F5F5F5F5F5F5F5F5F5F5F5F5F5F5
310
F5F5F5F5F5F5F5F5F5F5F5F5F5F5F5F5F5F5F5F5F5F5F5F5F5F5F5F5F5F5F5F5F5F5F5F5F5F5F5F5F5F5F5F5F5F5F5F5F5F5F5F5F5F5F5F5F5F5F5F5F5F5F5F5F5F5F5F5F5F5F5F5F5F5F5F5F5F5F5F5F5F5F5F5F5F5F5F5F5F5F5F5F5F5F5F5F5F5F5F5F5F5F5F5F5F5F5F5F5F5F5F5F5F5F5F5F5F5F5F5F5F5E2F5F5F5E2
310
E2F5F5F5E2F5F5F5F5F5F5F5F5F5F5F5F5F5F5F5F5F5F5F5F5F5F5F5F5F5F5F5F5F5F5F5F5F5F5F5F5F5F5F5F5F5F5F5F5F5F5F5F5F5F5F5F5F5F5F5F5F5F5F5F5F5F5F5F5F5F5F5F5F5F5F5F5F5F5F5F5F5F5F5F5F5F5F5F5F5F5F5F5F5F5F5F5F5F5F5F5F5F5F5F5F5F5F5F5F5F5F5F5F5F5F5F5F5F5F5F5F5F5F5F5F5F5
310
F5F5F5F5F5F5F5F5F5F5F5F5F5F5F5F5F5F5F5F5F5F5F5F5F5F5F5F5F5F5F5F5F5F5F5F5F5F5F5F5F5F5F5F5F5F5F5F5E2F5F5F5E2E2F5F5F5E2F5F5F5F5F5F5F5F5F5F5F5F5F5F5F5F5F5F5F5F5F5F5F5F5F5F5F5F5F5F5F5F5F5F5F5F5F5F5F5F5F5F5F5F5F5F5F5F5F5F5F5F5F5F5F5F5F5F5F5F5F5F5F5F5F5F5F5F5F5
310
F5F5F5F5F5F5F5F5F5F5F5F5F5F5F5F5F5F5F5F5F5F5F5F5F5F5F5F5F5F5F5F5F5F5F5F5F5F5F5F5F5F5F5F5F5F5F5F5F5F5F5F5F5F5F5F5F5F5F5F5F5F5F5F5F5F5F5F5F5F5F5F5F5F5F5F5F5F5F5F5F5F5F5F5F5F5F5F5F5F5F5F5F5F5F5F5F5F5F5F5F5E2F5F5F5E2E2F5F5F5E2F5F5F5F5F5F5F5F5F5F5F5F5F5F5F5F5
310
F5F5F5F5F5F5F5F5F5F5F5F5F5F5F5F5F5F5F5F5F5F5F5F5F5F5F5F5F5F5F5F5F5F5F5F5F5F5F5F5F5F5F5F5F5F5F5F5F5F5F5F5F5F5F5F5F5F5F5F5F5F5F5F5F5F5F5F5F5F5F5F5F5F5F5F5F5F5F5F5F5F5F5F5F5F5F5F5F5F5F5F5F5F5F5F5F5F5F5F5F5F5F5F5F5F5F5F5F5F5F5F5F5F5F5F5F5F5F5F5F5F5F5F5F5F5F5
310
F5F5F5F5F5F5F5F5F5F5F5F5F5F5F5F5F5F5F5F5F5F5F5F5F5F5F5E2F5F5F5E2E2F5F5F5E2F5F5F5F5F5F5F5F5F5F5F5F5F5F5F5F5F5F5F5F5F5F5F5F5F5F5F5F5F5F5F5F5F5F5F5F5F5F5F5F5F5F5F5F5F5F5F5F5F5F5F5F5F5F5F5F5F5F5F5F5F5F5F5F5F5F5F5F5F5F5F5F5F5F5F5F5F5F5F5F5F5F5F5F5F5F5F5F5F5F5
310
F5F5F5F5F5F5F5F5F5F5F5F5F5F5F5F5F5F5F5F5F5F5F5F5F5F5F5F5F5F5F5F5F5F5F5F5F5F5F5F5F5F5F5F5F5F5F5F5F5F5F5F5F5F5F5F5F5F5F5F5F5F5F5F5F5F5F5F5F5F5F5F5F5F5F5F5F5F5F5F5E2F5F5F5E2E2F5F5F5E2F5F5F5F5F5F5F5F5F5F5F5F5F5F5F5F5F5F5F5F5F5F5F5F5F5F5F5F5F5F5F5F5F5F5F5F5F5
310
F5F5F5F5F5F5F5F5F5F5F5F5F5F5F5F5F5F5F5F5F5F5F5F5F5F5F5F5F5F5F5F5F5F5F5F5F5F5F5F5F5F5F5F5F5F5F5F5F5F5F5F5F5F5F5F5F5F5F5F5F5F5F5F5F5F5F5F5F5F5F5F5F5F5F5F5F5F5F5F5F5F5F5F5F5F5F5F5F5F5F5F5F5F5F5F5F5F5F5F5F5F5F5F5F5F5F5F5F5F5F5F5F5F5F5F5F5F5F5F5F5F5F5F5F5F5F5
310
F5F5F5F5F5F5E2F5F5F5E2E2F5F5F5E2F5F5F5F5F5F5F5F5F5F5F5F5F5F5F5F5F5F5F5F5F5F5F5F5F5F5F5F5F5F5F5F5F5F5F5F5F5F5F5F5F5F5F5F5F5F5F5F5F5F5F5F5F5F5F5F5F5F5F5F5F5F5F5F5F5F5F5F5F5F5F5F5F5F5F5F5F5F5F5F5F5F5F5F5F5F5F5F5F5F5F5F5F5F5F5F5F5F5F5F5F5F5F5F5F5F5F5F5F5F5F5
310
F5F5F5F5F5F5F5F5F5F5F5F5F5F5F5F5F5F5F5F5F5F5F5F5F5F5F5F5F5F5F5F5F5F5F5F5F5F5F5F5F5F5F5F5F5F5F5F5F5F5F5F5F5F5F5F5F5F5F5E2F5F5F5E2E2F5F5F5F5F5F5F5F5F5F5F5F5F5F5F5F5F5F5F5F5F5F5F5F5F5F5F5F5F5F5F5F5F5F5F5F5F5F5F5F5F5F5F5F5F5F5F5F5F5F5F5F5F5F5F5F5F5F5F5F5F5F5
310
F5F5F5F5F5F5F5F5F5F5F5F5F5F5F5F5F5F5F5F5F5F5F5F5F5F5F5F5F5F5F5F5F5F5F5F5F5F5F5F5F5F5F5F5F5F5F5F5F5F5F5F5F5F5F5F5F5F5F5F5F5F5F5F5F5F5F5F5F5F5F5F5F5F5F5F5F5F5F5F5F5F5F5F5F5F5F5F5F5F5F5F5F5F5F5F5F5F5F5F5F5F5F5F5F5F5F5F5F5F5F5F5F5F5F5F5E2E2F5F5F5F5F5F5F5F5F5
310
F5F5F5F5F5F5F5F5F5F5F5F5F5F5F5F5F5F5F5F5F5F5F5F5F5F5F5F5F5F5F5F5F5F5F5F5F5F5F5F5F5F5F5F5F5F5F5F5F5F5F5F5F5F5F5F5F5F5F5F5F5F5F5F5F5F5F5F5F5F5F5F5F5F5F5F5F5F5F5F5F5F5F5F5F5F5F5F5F5F5F5F5F5F5F5F5F5F5F5F5F5F5F5F5F5F5F5F5F5F5F5F5F5F5F5F5F5F5F5F5F5F5F5F5F5F5F5
310
F5F5F5F5F5F5F5F5F5F5F5F5F5F5F5F5F5F5F5F5F5F5F5F5F5F5F5F5F5F5F5F5F5F5F5F5F5F5F5F5F5F5E2E2F5F5F5F5F5F5F5F5F5F5F5F5F5F5F5F5F5F5F5F5F5F5F5F5F5F5F5F5F5F5F5F5F5F5F5F5F5F5F5F5F5F5F5F5F5F5F5F5F5F5F5F5F5F5F5F5F5F5F5F5F5F5F5F5F5F5F5F5F5F5F5F5F5F5F5F5F5F5F5F5F5F5F5
310
F5F5F5F5F5F5F5F5F5F5F5F5F5F5F5F5F5F5F5F5F5F5F5F5F5F5F5F5F5F5F5F5F5F5F5F5F5F5F5F5F5F5F5F5F5F5F5F5F5F5F5F5F5F5F5F5F5F5F5F5F5F5F5F5F5F5F5F5F5F5F5F5F5F5F5F5F5F5F5F5F5F5F5F5F5F5F5F5F5F5F5F5F5F5F5E2E2F5F5F5F5F5F5F5F5F5F5F5F5F5F5F5F5F5F5F5F5F5F5F5F5F5F5F5F5F5F5
310
F5F5F5F5F5F5F5F5F5F5F5F5F5F5F5F5F5F5F5F5F5F5F5F5F5F5F5F5F5F5F5F5F5F5F5F5F5F5F5F5F5F5F5F5F5F5F5F5F5F5F5F5F5F5F5F5F5F5F5F5F5F5F5F5F5F5F5F5F5F5F5F5F5F5F5F5F5F5F5F5F5F5F5F5F5F5F5F5F5F5F5F5F5F5F5F5F5F5F5F5F5F5F5F5F5F5F5F5F5F5F5F5F5F5F5F5F5F5F5F5F5F5F5F5F5F5F5
310
F5F5F5F5F5F5F5F5F5F5F5F5F5F5F5F5F5F5F5F5F5E2E2F5F5F5F5F5F5F5F5F5F5F5F5F5F5F5F5F5F5F5F5F5F5F5F5F5F5F5F5F5F5F5F5F5F5F5F5F5F5F5F5F5F5F5F5F5F5F5F5F5F5F5F5F5F5F5F5F5F5F5F5F5F5F5F5F5F5F5F5F5F5F5F5F5F5F5F5F5F5F5F5F5F5F5F5F5F5F5F5F5F5F5F5F5F5F5F5F5F5F5F5F5F5F5F5
310
F5F5F5F5F5F5F5F5F5F5F5F5F5F5F5F5F5F5F5F5F5F5F5F5F5F5F5F5F5F5F5F5F5F5F5F5F5F5F5F5F5F5F5F5F5F5F5F5F5F5F5F5F5F5F5F5F5F5F5F5F5F5F5F5F5F5F5F5F5F5F5F5F5F5E2E2F5F5F5F5F5F5F5F5F5F5F5F5F5F5F5F5F5F5F5F5F5F5F5F5F5F5F5F5F5F5F5F5F5F5F5F5F5F5F5F5F5F5F5F5F5F5F5F5F5F5F5
310
F5F5F5F5F5F5F5F5F5F5F5F5F5F5F5F5F5F5F5F5F5F5F5F5F5F5F5F5F5F5F5F5F5F5F5F5F5F5F5F5F5F5F5F5F5F5F5F5F5F5F5F5F5F5F5F5F5F5F5F5F5F5F5F5F5F5F5F5F5F5F5F5F5F5F5F5F5F5F5F5F5F5F5F5F5F5F5F5F5F5F5F5F5F5F5F5F5F5F5F5F5F5F5F5F5F5F5F5F5F5F5F5F5F5F5F5F5F5F5F5F5F5F5F5F5F5F5
310
E2E2F5F5F5F5F5F5F5F5F5F5F5F5F5F5F5F5F5F5F5F5F5F5F5F5F5F5F5F5F5F5F5F5F5F5F5F5F5F5F5F5F5F5F5F5F5F5F5F5F5F5F5F5F5F5F5F5F5F5F5F5F5F5F5F5F5F5F5F5F5F5F5F5F5F5F5F5F5F5F5F5F5F5F5F5F5F5F5F5F5F5F5F5F5F5F5F5F5F5F5F5F5F5F5F5F5F5F5F5F5F5F5F5F5F5F5F5F5F5F5F5F5F5F5F5F5
310
F5F5F5F5F5F5F5F5F5F5F5F5F5F5F5F5F5F5F5F5F5F5F5F5F5F5F5F5F5F5F5F5F5F5F5F5F5F5F5F5F5F5F5F5F5F5F5F5F5F5F5F5F5E2E2F5F5F5F5F5F5F5F5F5F5F5F5F5F5F5F5F5F5F5F5F5F5F5F5F5F5F5F5F5F5F5F5F5F5F5F5F5F5F5F5F5F5F5F5F5F5F5F5F5F5F5F5F5F5F5F5F5F5F5F5F5F5F5F5F5F5F5F5F5F5F5F5
310
F5F5F5F5F5F5F5F5F5F5F5F5F5F5F5F5F5F5F5F5F5F5F5F5F5F5F5F5F5F5F5F5F5F5F5F5F5F5F5F5F5F5F5F5F5F5F5F5F5F5F5F5F5F5F5F5F5F5F5F5F5F5F5F5F5F5F5F5F5F5F5F5F5F5F5F5F5F5F5F5F5F5F5F5F5F5F5F5F5F5F5F5F5F5F5F5F5F5F5F5F5F5F5F5F5F5E2E2F5F5F5F5F5F5F5F5F5F5F5F5F5F5F5F5F5F5F5
310
F5F5F5F5F5F5F5F5F5F5F5F5F5F5F5F5F5F5F5F5F5F5F5F5F5F5F5F5F5F5F5F5F5F5F5F5F5F5F5F5F5F5F5F5F5F5F5F5F5F5F5F5F5F5F5F5F5F5F5F5F5F5F5F5F5F5F5F5F5F5F5F5F5F5F5F5F5F5F5F5F5F5F5F5F5F5F5F5F5F5F5F5F5F5F5F5F5F5F5F5F5F5F5F5F5F5F5F5F5F5F5F5F5F5F5F5F5F5F5F5F5F5F5F5F5F5F5
310
F5F5F5F5F5F5F5F5F5F5F5F5F5F5F5F5F5F5F5F5F5F5F5F5F5F5F5F5F5F5F5F5E2E2F5F5F5E2F5F5F5F5F5F5F5F5F5F5F5F5F5F5F5F5F5F5F5F5F5F5F5F5F5F5F5F5F5F5F5F5F5F5F5F5F5F5F5F5F5F5F5F5F5F5F5F5F5F5F5F5F5F5F5F5F5F5F5F5F5F5F5F5F5F5F5F5F5F5F5F5F5F5F5F5F5F5F5F5F5F5F5F5F5F5F5F5F5
310
F5F5F5F5F5F5F5F5F5F5F5F5F5F5F5F5F5F5F5F5F5F5F5F5F5F5F5F5F5F5F5F5F5F5F5F5F5F5F5F5F5F5F5F5F5F5F5F5F5F5F5F5F5F5F5F5F5F5F5F5F5F5F5F5F5F5F5F5F5F5F5F5F5F5F5F5F5F5F5F5F5E2F5F5F5E2E2F5F5F5E2F5F5F5F5F5F5F5F5F5F5F5F5F5F5F5F5F5F5F5F5F5F5F5F5F5F5F5F5F5F5F5F5F5F5F5F5
310
F5F5F5F5F5F5F5F5F5F5F5F5F5F5F5F5F5F5F5F5F5F5F5F5F5F5F5F5F5F5F5F5F5F5F5F5F5F5F5F5F5F5F5F5F5F5F5F5F5F5F5F5F5F5F5F5F5F5F5F5F5F5F5F5F5F5F5F5F5F5F5F5F5F5F5F5F5F5F5F5F5F5F5F5F5F5F5F5F5F5F5F5F5F5F5F5F5F5F5F5F5F5F5F5F5F5F5F5F5F5F5F5F5F5F5F5F5F5F5F5F5F5F5F5F5F5F5
310
F5F5F5F5F5F5F5E2F5F5F5E2E2F5F5F5E2F5F5F5F5F5F5F5F5F5F5F5F5F5F5F5F5F5F5F5F5F5F5F5F5F5F5F5F5F5F5F5F5F5F5F5F5F5F5F5F5F5F5F5F5F5F5F5F5F5F5F5F5F5F5F5F5F5F5F5F5F5F5F5F5F5F5F5F5F5F5F5F5F5F5F5F5F5F5F5F5F5F5F5F5F5F5F5F5F5F5F5F5F5F5F5F5F5F5F5F5F5F5F5F5F5F5F5F5F5F5
310
F5F5F5F5F5F5F5F5F5F5F5F5F5F5F5F5F5F5F5F5F5F5F5F5F5F5F5F5F5F5F5F5F5F5F5F5F5F5F5F5F5F5F5F5F5F5F5F5F5F5F5F5F5F5F5F5F5F5F5F5E2F5F5F5E2E2F5F5F5E2F5F5F5F5F5F5F5F5F5F5F5F5F5F5F5F5F5F5F5F5F5F5F5F5F5F5F5F5F5F5F5F5F5F5F5F5F5F5F5F5F5F5F5F5F5F5F5F5F5F5F5F5F5F5F5F5F5
310
F5F5F5F5F5F5F5F5F5F5F5F5F5F5F5F5F5F5F5F5F5F5F5F5F5F5F5F5F5F5F5F5F5F5F5F5F5F5F5F5F5F5F5F5F5F5F5F5F5F5F5F5F5F5F5F5F5F5F5F5F5F5F5F5F5F5F5F5F5F5F5F5F5F5F5F5F5F5F5F5F5F5F5F5F5F5F5F5F5F5F5F5F5F5F5F5F5F5F5F5F5F5F5F5F5F5F5F5F5F5F5F5F5E2F5F5F5E2E2F5F5F5E2F5F5F5F5
310
F5F5F5F5F5F5F5F5F5F5F5F5F5F5F5F5F5F5F5F5F5F5F5F5F5F5F5F5F5F5F5F5F5F5F5F5F5F5F5F5F5F5F5F5F5F5F5F5F5F5F5F5F5F5F5F5F5F5F5F5F5F5F5F5F5F5F5F5F5F5F5F5F5F5F5F5F5F5F5F5F5F5F5F5F5F5F5F5F5F5F5F5F5F5F5F5F5F5F5F5F5F5F5F5F5F5F5F5F5F5F5F5F5F5F5F5F5F5F5F5F5F5F5F5F5F5F5
310
F5F5F5F5F5F5F5F5F5F5F5F5F5F5F5F5F5F5F5F5F5F5F5F5F5F5F5F5F5F5F5F5F5F5F5F5F5F5F5E2F5F5F5E2E2F5F5F5E2F5F5F5F5F5F5F5F5F5F5F5F5F5F5F5F5F5F5F5F5F5F5F5F5F5F5F5F5F5F5F5F5F5F5F5F5F5F5F5F5F5F5F5F5F5F5F5F5F5F5F5F5F5F5F5F5F5F5F5F5F5F5F5F5F5F5F5F5F5F5F5F5F5F5F5F5F5F5
310
F5F5F5F5F5F5F5F5F5F5F5F5F5F5F5F5F5F5F5F5F5F5F5F5F5F5F5F5F5F5F5F5F5F5F5F5F5F5F5F5F5F5F5F5F5F5F5F5F5F5F5F5F5F5F5F5F5F5F5F5F5F5F5F5F5F5F5F5F5F5F5F5F5F5F5F5F5F5F5F5F5F5F5F5F5F5F5F5F5F5F5F5E2F5F5F5E2E2F5F5F5E2F5F5F5F5F5F5F5F5F5F5F5F5F5F5F5F5F5F5F5F5F5F5F5F5F5
310
F5F5F5F5F5F5F5F5F5F5F5F5F5F5F5F5F5F5F5F5F5F5F5F5F5F5F5F5F5F5F5F5F5F5F5F5F5F5F5F5F5F5F5F5F5F5F5F5F5F5F5F5F5F5F5F5F5F5F5F5F5F5F5F5F5F5F5F5F5F5F5F5F5F5F5F5F5F5F5F5F5F5F5F5F5F5F5F5F5F5F5F5F5F5F5F5F5F5F5F5F5F5F5F5F5F5F5F5F5F5F5F5F5F5F5F5F5F5F5F5F5F5F5F5F5F5F5
310
F5F5F5F5F5F5F5F5F5F5F5F5F5F5F5F5F5F5E2F5F5F5E2E2F5F5F5E2F5F5F5F5F5F5F5F5F5F5F5F5F5F5F5F5F5F5F5F5F5F5F5F5F5F5F5F5F5F5F5F5F5F5F5F5F5F5F5F5F5F5F5F5F5F5F5F5F5F5F5F5F5F5F5F5F5F5F5F5F5F5F5F5F5F5F5F5F5F5F5F5F5F5F5F5F5F5F5F5F5F5F5F5F5F5F5F5F5F5F5F5F5F5F5F5F5F5F5
310
F5F5F5F5F5F5F5F5F5F5F5F5F5F5F5F5F5F5F5F5F5F5F5F5F5F5F5F5F5F5F5F5F5F5F5F5F5F5F5F5F5F5F5F5F5F5F5F5F5F5F5F5F5F5F5F5F5F5F5F5F5F5F5F5F5F5F5F5F5F5F5E2F5F5F5E2E2F5F5F5E2F5F5F5F5F5F5F5F5F5F5F5F5F5F5F5F5F5F5F5F5F5F5F5F5F5F5F5F5F5F5F5F5F5F5F5F5F5F5F5F5F5F5F5F5F5F5
310
F5F5F5F5F5F5F5F5F5F5F5F5F5F5F5F5F5F5F5F5F5F5F5F5F5F5F5F5F5F5F5F5F5F5F5F5F5F5F5F5F5F5F5F5F5F5F5F5F5F5F5F5F5F5F5F5F5F5F5F5F5F5F5F5F5F5F5F5F5F5F5F5F5F5F5F5F5F5F5F5F5F5F5F5F5F5F5F5F5F5F5F5F5F5F5F5F5F5F5F5F5F5F5F5F5F5F5F5F5F5F5F5F5F5F5F5F5F5F5F5F5F5F5F5E2F5F5
310
F5E2E2F5F5F5E2F5F5F5F5F5F5F5F5F5F5F5F5F5F5F5F5F5F5F5F5F5F5F5F5F5F5F5F5F5F5F5F5F5F5F5F5F5F5F5F5F5F5F5F5F5F5F5F5F5F5F5F5F5F5F5F5F5F5F5F5F5F5F5F5F5F5F5F5F5F5F5F5F5F5F5F5F5F5F5F5F5F5F5F5F5F5F5F5F5F5F5F5F5F5F5F5F5F5F5F5F5F5F5F5F5F5F5F5F5F5F5F5F5F5F5F5F5F5F5F5
310
F5F5F5F5F5F5F5F5F5F5F5F5F5F5F5F5F5F5F5F5F5F5F5F5F5F5F5F5F5F5F5F5F5F5F5F5F5F5F5F5F5F5F5F5F5F5F5F5F5F5E2F5F5F5E2E2F5F5F5E2F5F5F5F5F5F5F5F5F5F5F5F5F5F5F5F5F5F5F5F5F5F5F5F5F5F5F5F5F5F5F5F5F5F5F5F5F5F5F5F5F5F5F5F5F5F5F5F5F5F5F5F5F5F5F5F5F5F5F5F5F5F5F5F5F5F5F5
310
F5F5F5F5F5F5F5F5F5F5F5F5F5F5F5F5F5F5F5F5F5F5F5F5F5F5F5F5F5F5F5F5F5F5F5F5F5F5F5F5F5F5F5F5F5F5F5F5F5F5F5F5F5F5F5F5F5F5F5F5F5F5F5F5F5F5F5F5F5F5F5F5F5F5F5F5F5F5F5F5F5F5F5F5F5F5F5F5F5F5F5F5F5F5F5F5F5F5F5F5F5F5F5E2F5F5F5E2E2F5F5F5E2F5F5F5F5F5F5F5F5F5F5F5F5F5F5
310
F5F5F5F5F5F5F5F5F5F5F5F5F5F5F5F5F5F5F5F5F5F5F5F5F5F5F5F5F5F5F5F5F5F5F5F5F5F5F5F5F5F5F5F5F5F5F5F5F5F5F5F5F5F5F5F5F5F5F5F5F5F5F5F5F5F5F5F5F5F5F5F5F5F5F5F5F5F5F5F5F5F5F5F5F5F5F5F5F5F5F5F5F5F5F5F5F5F5F5F5F5F5F5F5F5F5F5F5F5F5F5F5F5F5F5F5F5F5F5F5F5F5F5F5F5F5F5
310
F5F5F5F5F5F5F5F5F5F5F5F5F5F5F5F5F5F5F5F5F5F5F5F5F5F5F5F5F5E2F5F5F5E2E2F5F5F5E2F5F5F5F5F5F5F5F5F5F5F5F5F5F5F5F5F5F5F5F5F5F5F5F5F5F5F5F5F5F5F5F5F5F5F5F5F5F5F5F5F5F5F5F5F5F5F5F5F5F5F5F5F5F5F5F5F5F5F5F5F5F5F5F5F5F5F5F5F5F5F5F5F5F5F5F5F5F5F5F5F5F5F5F5F5F5F5F5
310
F5F5F5F5F5F5F5F5F5F5F5F5F5F5F5F5F5F5F5F5F5F5F5F5F5F5F5F5F5F5F5F5F5F5F5F5F5F5F5F5F5F5F5F5F5F5F5F5F5F5F5F5F5F5F5F5F5F5F5F5F5F5F5F5F5F5F5F5F5F5F5F5F5F5F5F5F5F5F5F5F5F5E2F5F5F5E2E2F5F5F5E2F5F5F5F5F5F5F5F5F5F5F5F5F5F5F5F5F5F5F5F5F5F5F5F5F5F5F5F5F5F5F5F5F5F5F5
310
F5F5F5F5F5F5F5F5F5F5F5F5F5F5F5F5F5F5F5F5F5F5F5F5F5F5F5F5F5F5F5F5F5F5F5F5F5F5F5F5F5F5F5F5F5F5F5F5F5F5F5F5F5F5F5F5F5F5F5F5F5F5F5F5F5F5F5F5F5F5F5F5F5F5F5F5F5F5F5F5F5F5F5F5F5F5F5F5F5F5F5F5F5F5F5F5F5F5F5F5F5F5F5F5F5F5F5F5F5F5F5F5F5F5F5F5F5F5F5F5F5F5F5F5F5F5F5
310
F5F5F5F5F5F5F5F5E2F5F5F5E2E2F5F5F5E2F5F5F5F5F5F5F5F5F5F5F5F5F5F5F5F5F5F5F5F5F5F5F5F5F5F5F5F5F5F5F5F5F5F5F5F5F5F5F5F5F5F5F5F5F5F5F5F5F5F5F5F5F5F5F5F5F5F5F5F5F5F5F5F5F5F5F5F5F5F5F5F5F5F5F5F5F5F5F5F5F5F5F5F5F5F5F5F5F5F5F5F5F5F5F5F5F5F5F5F5F5F5F5F5F5F5F5F5F5
310
F5F5F5F5F5F5F5F5F5F5F5F5F5F5F5F5F5F5F5F5F5F5F5F5F5F5F5F5F5F5F5F5F5F5F5F5F5F5F5F5F5F5F5F5F5F5F5F5F5F5F5F5F5F5F5F5F5F5F5F5F5E2F5F5F5E2E2F5F5F5E2F5F5F5F5F5F5F5F5F5F5F5F5F5F5F5F5F5F5F5F5F5F5F5F5F5F5F5F5F5F5F5F5F5F5F5F5F5F5F5F5F5F5F5F5F5F5F5F5F5F5F5F5F5F5F5F5
310
F5F5F5F5F5F5F5F5F5F5F5F5F5F5F5F5F5F5F5F5F5F5F5F5F5F5F5F5F5F5F5F5F5F5F5F5F5F5F5F5F5F5F5F5F5F5F5F5F5F5F5F5F5F5F5F5F5F5F5F5F5F5F5F5F5F5F5F5F5F5F5F5F5F5F5F5F5F5F5F5F5F5F5F5F5F5F5F5F5F5F5F5F5F5F5F5F5F5F5F5F5F5F5F5F5F5F5F5F5F5F5F5F5F5E2F5F5F5E2E2F5F5F5F5F5F5F5
310
F5F5F5F5F5F5F5F5F5F5F5F5F5F5F5F5F5F5F5F5F5F5F5F5F5F5F5F5F5F5F5F5F5F5F5F5F5F5F5F5F5F5F5F5F5F5F5F5F5F5F5F5F5F5F5F5F5F5F5F5F5F5F5F5F5F5F5F5F5F5F5F5F5F5F5F5F5F5F5F5F5F5F5F5F5F5F5F5F5F5F5F5F5F5F5F5F5F5F5F5F5F5F5F5F5F5F5F5F5F5F5F5F5F5F5F5F5F5F5F5F5F5F5F5F5F5F5
310
F5F5F5F5F5F5F5F5F5F5F5F5F5F5F5F5F5F5F5F5F5F5F5F5F5F5F5F5F5F5F5F5F5F5F5F5F5F5F5F5F5F5F5F5E2E2F5F5F5F5F5F5F5F5F5F5F5F5F5F5F5F5F5F5F5F5F5F5F5F5F5F5F5F5F5F5F5F5F5F5F5F5F5F5F5F5F5F5F5F5F5F5F5F5F5F5F5F5F5F5F5F5F5F5F5F5F5F5F5F5F5F5F5F5F5F5F5F5F5F5F5F5F5F5F5F5F5
310
F5F5F5F5F5F5F5F5F5F5F5F5F5F5F5F5F5F5F5F5F5F5F5F5F5F5F5F5F5F5F5F5F5F5F5F5F5F5F5F5F5F5F5F5F5F5F5F5F5F5F5F5F5F5F5F5F5F5F5F5F5F5F5F5F5F5F5F5F5F5F5F5F5F5F5F5F5F5F5F5F5F5F5F5F5F5F5F5F5F5F5F5F5F5F5F5F5E2E2F5F5F5F5F5F5F5F5F5F5F5F5F5F5F5F5F5F5F5F5F5F5F5F5F5F5F5F5
310
F5F5F5F5F5F5F5F5F5F5F5F5F5F5F5F5F5F5F5F5F5F5F5F5F5F5F5F5F5F5F5F5F5F5F5F5F5F5F5F5F5F5F5F5F5F5F5F5F5F5F5F5F5F5F5F5F5F5F5F5F5F5F5F5F5F5F5F5F5F5F5F5F5F5F5F5F5F5F5F5F5F5F5F5F5F5F5F5F5F5F5F5F5F5F5F5F5F5F5F5F5F5F5F5F5F5F5F5F5F5F5F5F5F5F5F5F5F5F5F5F5F5F5F5F5F5F5
310
F5F5F5F5F5F5F5F5F5F5F5F5F5F5F5F5F5F5F5F5F5F5F5E2E2F5F5F5F5F5F5F5F5F5F5F5F5F5F5F5F5F5F5F5F5F5F5F5F5F5F5F5F5F5F5F5F5F5F5F5F5F5F5F5F5F5F5F5F5F5F5F5F5F5F5F5F5F5F5F5F5F5F5F5F5F5F5F5F5F5F5F5F5F5F5F5F5F5F5F5F5F5F5F5F5F5F5F5F5F5F5F5F5F5F5F5F5F5F5F5F5F5F5F5F5F5F5
310
F5F5F5F5F5F5F5F5F5F5F5F5F5F5F5F5F5F5F5F5F5F5F5F5F5F5F5F5F5F5F5F5F5F5F5F5F5F5F5F5F5F5F5F5F5F5F5F5F5F5F5F5F5F5F5F5F5F5F5F5F5F5F5F5F5F5F5F5F5F5F5F5F5F5F5F5E2E2F5F5F5F5F5F5F5F5F5F5F5F5F5F5F5F5F5F5F5F5F5F5F5F5F5F5F5F5F5F5F5F5F5F5F5F5F5F5F5F5F5F5F5F5F5F5F5F5F5
310
F5F5F5F5F5F5F5F5F5F5F5F5F5F5F5F5F5F5F5F5F5F5F5F5F5F5F5F5F5F5F5F5F5F5F5F5F5F5F5F5F5F5F5F5F5F5F5F5F5F5F5F5F5F5F5F5F5F5F5F5F5F5F5F5F5F5F5F5F5F5F5F5F5F5F5F5F5F5F5F5F5F5F5F5F5F5F5F5F5F5F5F5F5F5F5F5F5F5F5F5F5F5F5F5F5F5F5F5F5F5F5F5F5F5F5F5F5F5F5F5F5F5F5F5F5F5F5
310
F5F5E2E2F5F5F5F5F5F5F5F5F5F5F5F5F5F5F5F5F5F5F5F5F5F5F5F5F5F5F5F5F5F5F5F5F5F5F5F5F5F5F5F5F5F5F5F5F5F5F5F5F5F5F5F5F5F5F5F5F5F5F5F5F5F5F5F5F5F5F5F5F5F5F5F5F5F5F5F5F5F5F5F5F5F5F5F5F5F5F5F5F5F5F5F5F5F5F5F5F5F5F5F5F5F5F5F5F5F5F5F5F5F5F5F5F5F5F5F5F5F5F5F5F5F5F5
310
F5F5F5F5F5F5F5F5F5F5F5F5F5F5F5F5F5F5F5F5F5F5F5F5F5F5F5F5F5F5F5F5F5F5F5F5F5F5F5F5F5F5F5F5F5F5F5F5F5F5F5F5F5F5F5E2E2F5F5F5F5F5F5F5F5F5F5F5F5F5F5F5F5F5F5F5F5F5F5F5F5F5F5F5F5F5F5F5F5F5F5F5F5F5F5F5F5F5F5F5F5F5F5F5F5F5F5F5F5F5F5F5F5F5F5F5F5F5F5F5F5F5F5F5F5F5F5
310
F5F5F5F5F5F5F5F5F5F5F5F5F5F5F5F5F5F5F5F5F5F5F5F5F5F5F5F5F5F5F5F5F5F5F5F5F5F5F5F5F5F5F5F5F5F5F5F5F5F5F5F5F5F5F5F5F5F5F5F5F5F5F5F5F5F5F5F5F5F5F5F5F5F5F5F5F5F5F5F5F5F5F5F5F5F5F5F5F5F5F5F5F5F5F5F5F5F5F5F5F5F5F5F5F5F5F5F5E2E2F5F5F5F5F5F5F5F5F5F5F5F5F5F5F5F5F5
310
F5F5F5F5F5F5F5F5F5F5F5F5F5F5F5F5F5F5F5F5F5F5F5F5F5F5F5F5F5F5F5F5F5F5F5F5F5F5F5F5F5F5F5F5F5F5F5F5F5F5F5F5F5F5F5F5F5F5F5F5F5F5F5F5F5F5F5F5F5F5F5F5F5F5F5F5F5F5F5F5F5F5F5F5F5F5F5F5F5F5F5F5F5F5F5F5F5F5F5F5F5F5F5F5F5F5F5F5F5F5F5F5F5F5F5F5F5F5F5F5F5F5F5F5F5F5F5
310
F5F5F5F5F5F5F5F5F5F5F5F5F5F5F5F5F5F5F5F5F5F5F5F5F5F5F5F5F5F5F5F5F5F5E2E2F5F5F5F5F5F5F5F5F5F5F5F5F5F5F5F5F5F5F5F5F5F5F5F5F5F5F5F5F5F5F5F5F5F5F5F5F5F5F5F5F5F5F5F5F5F5F5F5F5F5F5F5F5F5F5F5F5F5F5F5F5F5F5F5F5F5F5F5F5F5F5F5F5F5F5F5F5F5F5F5F5F5F5F5F5F5F5F5F5F5F5
310
F5F5F5F5F5F5F5F5F5F5F5F5F5F5F5F5F5F5F5F5F5F5F5F5F5F5F5F5F5F5F5F5F5F5F5F5F5F5F5F5F5F5F5F5F5F5F5F5F5F5F5F5F5F5F5F5F5F5F5F5F5F5F5F5F5F5F5F5F5F5F5F5F5F5F5F5F5F5F5F5F5F5F5F5F5F5F5E2E2F5F5F5F5F5F5F5F5F5F5F5F5F5F5F5F5F5F5F5F5F5F5F5F5F5F5F5F5F5F5F5F5F5F5F5F5F5F5
310
F5F5F5F5F5F5F5F5F5F5F5F5F5F5F5F5F5F5F5F5F5F5F5F5F5F5F5F5F5F5F5F5F5F5F5F5F5F5F5F5F5F5F5F5F5F5F5F5F5F5F5F5F5F5F5F5F5F5F5F5F5F5F5F5F5F5F5F5F5F5F5F5F5F5F5F5F5F5F5F5F5F5F5F5F5F5F5F5F5F5F5F5F5F5F5F5F5F5F5F5F5F5F5F5F5F5F5F5F5F5F5F5F5F5F5F5F5F5F5F5F5F5F5F5F5F5F5
310
F5F5F5F5F5F5F5F5F5F5F5F5F5E2E2F5F5F5E2F5F5F5F5F5F5F5F5F5F5F5F5F5F5F5F5F5F5F5F5F5F5F5F5F5F5F5F5F5F5F5F5F5F5F5F5F5F5F5F5F5F5F5F5F5F5F5F5F5F5F5F5F5F5F5F5F5F5F5F5F5F5F5F5F5F5F5F5F5F5F5F5F5F5F5F5F5F5F5F5F5F5F5F5F5F5F5F5F5F5F5F5F5F5F5F5F5F5F5F5F5F5F5F5F5F5F5F5
310
F5F5F5F5F5F5F5F5F5F5F5F5F5F5F5F5F5F5F5F5F5F5F5F5F5F5F5F5F5F5F5F5F5F5F5F5F5F5F5F5F5F5F5F5F5F5F5F5F5F5F5F5F5F5F5F5F5F5F5F5F5F5E2F5F5F5E2E2F5F5F5E2F5F5F5F5F5F5F5F5F5F5F5F5F5F5F5F5F5F5F5F5F5F5F5F5F5F5F5F5F5F5F5F5F5F5F5F5F5F5F5F5F5F5F5F5F5F5F5F5F5F5F5F5F5F5F5
310
F5F5F5F5F5F5F5F5F5F5F5F5F5F5F5F5F5F5F5F5F5F5F5F5F5F5F5F5F5F5F5F5F5F5F5F5F5F5F5F5F5F5F5F5F5F5F5F5F5F5F5F5F5F5F5F5F5F5F5F5F5F5F5F5F5F5F5F5F5F5F5F5F5F5F5F5F5F5F5F5F5F5F5F5F5F5F5F5F5F5F5F5F5F5F5F5F5F5F5F5F5F5F5F5F5F5F5F5F5F5F5F5F5F5F5E2F5F5F5E2E2F5F5F5E2F5F5
310
F5F5F5F5F5F5F5F5F5F5F5F5F5F5F5F5F5F5F5F5F5F5F5F5F5F5F5F5F5F5F5F5F5F5F5F5F5F5F5F5F5F5F5F5F5F5F5F5F5F5F5F5F5F5F5F5F5F5F5F5F5F5F5F5F5F5F5F5F5F5F5F5F5F5F5F5F5F5F5F5F5F5F5F5F5F5F5F5F5F5F5F5F5F5F5F5F5F5F5F5F5F5F5F5F5F5F5F5F5F5F5F5F5F5F5F5F5F5F5F5F5F5F5F5F5F5F5
310
F5F5F5F5F5F5F5F5F5F5F5F5F5F5F5F5F5F5F5F5F5F5F5F5F5F5F5F5F5F5F5F5F5F5F5F5F5F5F5F5F5E2F5F5F5E2E2F5F5F5E2F5F5F5F5F5F5F5F5F5F5F5F5F5F5F5F5F5F5F5F5F5F5F5F5F5F5F5F5F5F5F5F5F5F5F5F5F5F5F5F5F5F5F5F5F5F5F5F5F5F5F5F5F5F5F5F5F5F5F5F5F5F5F5F5F5F5F5F5F5F5F5F5F5F5F5F5
310
F5F5F5F5F5F5F5F5F5F5F5F5F5F5F5F5F5F5F5F5F5F5F5F5F5F5F5F5F5F5F5F5F5F5F5F5F5F5F5F5F5F5F5F5F5F5F5F5F5F5F5F5F5F5F5F5F5F5F5F5F5F5F5F5F5F5F5F5F5F5F5F5F5F5F5F5F5F5F5F5F5F5F5F5F5F5F5F5F5F5F5F5F5F5E2F5F5F5E2E2F5F5F5E2F5F5F5F5F5F5F5F5F5F5F5F5F5F5F5F5F5F5F5F5F5F5F5
310
F5F5F5F5F5F5F5F5F5F5F5F5F5F5F5F5F5F5F5F5F5F5F5F5F5F5F5F5F5F5F5F5F5F5F5F5F5F5F5F5F5F5F5F5F5F5F5F5F5F5F5F5F5F5F5F5F5F5F5F5F5F5F5F5F5F5F5F5F5F5F5F5F5F5F5F5F5F5F5F5F5F5F5F5F5F5F5F5F5F5F5F5F5F5F5F5F5F5F5F5F5F5F5F5F5F5F5F5F5F5F5F5F5F5F5F5F5F5F5F5F5F5F5F5F5F5F5
310
F5F5F5F5F5F5F5F5F5F5F5F5F5F5F5F5F5F5F5F5E2F5F5F5E2E2F5F5F5E2F5F5F5F5F5F5F5F5F5F5F5F5F5F5F5F5F5F5F5F5F5F5F5F5F5F5F5F5F5F5F5F5F5F5F5F5F5F5F5F5F5F5F5F5F5F5F5F5F5F5F5F5F5F5F5F5F5F5F5F5F5F5F5F5F5F5F5F5F5F5F5F5F5F5F5F5F5F5F5F5F5F5F5F5F5F5F5F5F5F5F5F5F5F5F5F5F5
310
F5F5F5F5F5F5F5F5F5F5F5F5F5F5F5F5F5F5F5F5F5F5F5F5F5F5F5F5F5F5F5F5F5F5F5F5F5F5F5F5F5F5F5F5F5F5F5F5F5F5F5F5F5F5F5F5F5F5F5F5F5F5F5F5F5F5F5F5F5F5F5F5F5E2F5F5F5E2E2F5F5F5E2F5F5F5F5F5F5F5F5F5F5F5F5F5F5F5F5F5F5F5F5F5F5F5F5F5F5F5F5F5F5F5F5F5F5F5F5F5F5F5F5F5F5F5F5
310
F5F5F5F5F5F5F5F5F5F5F5F5F5F5F5F5F5F5F5F5F5F5F5F5F5F5F5F5F5F5F5F5F5F5F5F5F5F5F5F5F5F5F5F5F5F5F5F5F5F5F5F5F5F5F5F5F5F5F5F5F5F5F5F5F5F5F5F5F5F5F5F5F5F5F5F5F5F5F5F5F5F5F5F5F5F5F5F5F5F5F5F5F5F5F5F5F5F5F5F5F5F5F5F5F5F5F5F5F5F5F5F5F5F5F5F5F5F5F5F5F5F5F5F5F5F5E2
310
F5F5F5E2E2F5F5F5E2F5F5F5F5F5F5F5F5F5F5F5F5F5F5F5F5F5F5F5F5F5F5F5F5F5F5F5F5F5F5F5F5F5F5F5F5F5F5F5F5F5F5F5F5F5F5F5F5F5F5F5F5F5F5F5F5F5F5F5F5F5F5F5F5F5F5F5F5F5F5F5F5F5F5F5F5F5F5F5F5F5F5F5F5F5F5F5F5F5F5F5F5F5F5F5F5F5F5F5F5F5F5F5F5F5F5F5F5F5F5F5F5F5F5F5F5F5F5
310
F5F5F5F5F5F5F5F5F5F5F5F5F5F5F5F5F5F5F5F5F5F5F5F5F5F5F5F5F5F5F5F5F5F5F5F5F5F5F5F5F5F5F5F5F5F5F5F5F5F5F5F5E2F5F5F5E2E2F5F5F5E2F5F5F5F5F5F5F5F5F5F5F5F5F5F5F5F5F5F5F5F5F5F5F5F5F5F5F5F5F5F5F5F5F5F5F5F5F5F5F5F5F5F5F5F5F5F5F5F5F5F5F5F5F5F5F5F5F5F5F5F5F5F5F5F5F5
310
F5F5F5F5F5F5F5F5F5F5F5F5F5F5F5F5F5F5F5F5F5F5F5F5F5F5F5F5F5F5F5F5F5F5F5F5F5F5F5F5F5F5F5F5F5F5F5F5F5F5F5F5F5F5F5F5F5F5F5F5F5F5F5F5F5F5F5F5F5F5F5F5F5F5F5F5F5F5F5F5F5F5F5F5F5F5F5F5F5F5F5F5F5F5F5F5F5F5F5F5F5F5F5F5F5E2F5F5F5E2E2F5F5F5E2F5F5F5F5F5F5F5F5F5F5F5F5
310
F5F5F5F5F5F5F5F5F5F5F5F5F5F5F5F5F5F5F5F5F5F5F5F5F5F5F5F5F5F5F5F5F5F5F5F5F5F5F5F5F5F5F5F5F5F5F5F5F5F5F5F5F5F5F5F5F5F5F5F5F5F5F5F5F5F5F5F5F5F5F5F5F5F5F5F5F5F5F5F5F5F5F5F5F5F5F5F5F5F5F5F5F5F5F5F5F5F5F5F5F5F5F5F5F5F5F5F5F5F5F5F5F5F5F5F5F5F5F5F5F5F5F5F5F5F5F5
310
F5F5F5F5F5F5F5F5F5F5F5F5F5F5F5F5F5F5F5F5F5F5F5F5F5F5F5F5F5F5F5E2F5F5F5E2E2F5F5F5E2F5F5F5F5F5F5F5F5F5F5F5F5F5F5F5F5F5F5F5F5F5F5F5F5F5F5F5F5F5F5F5F5F5F5F5F5F5F5F5F5F5F5F5F5F5F5F5F5F5F5F5F5F5F5F5F5F5F5F5F5F5F5F5F5F5F5F5F5F5F5F5F5F5F5F5F5F5F5F5F5F5F5F5F5F5F5
310
F5F5F5F5F5F5F5F5F5F5F5F5F5F5F5F5F5F5F5F5F5F5F5F5F5F5F5F5F5F5F5F5F5F5F5F5F5F5F5F5F5F5F5F5F5F5F5F5F5F5F5F5F5F5F5F5F5F5F5F5F5F5F5F5F5F5F5F5F5F5F5F5F5F5F5F5F5F5F5F5F5F5F5F5E2F5F5F5E2E2F5F5F5E2F5F5F5F5F5F5F5F5F5F5F5F5F5F5F5F5F5F5F5F5F5F5F5F5F5F5F5F5F5F5F5F5F5
310
F5F5F5F5F5F5F5F5F5F5F5F5F5F5F5F5F5F5F5F5F5F5F5F5F5F5F5F5F5F5F5F5F5F5F5F5F5F5F5F5F5F5F5F5F5F5F5F5F5F5F5F5F5F5F5F5F5F5F5F5F5F5F5F5F5F5F5F5F5F5F5F5F5F5F5F5F5F5F5F5F5F5F5F5F5F5F5F5F5F5F5F5F5F5F5F5F5F5F5F5F5F5F5F5F5F5F5F5F5F5F5F5F5F5F5F5F5F5F5F5F5F5F5F5F5F5F5
310
F5F5F5F5F5F5F5F5F5F5E2F5F5F5E2E2F5F5F5E2F5F5F5F5F5F5F5F5F5F5F5F5F5F5F5F5F5F5F5F5F5F5F5F5F5F5F5F5F5F5F5F5F5F5F5F5F5F5F5F5F5F5F5F5F5F5F5F5F5F5F5F5F5F5F5F5F5F5F5F5F5F5F5F5F5F5F5F5F5F5F5F5F5F5F5F5F5F5F5F5F5F5F5F5F5F5F5F5F5F5F5F5F5F5F5F5F5F5F5F5F5F5F5F5F5F5F5
310
F5F5F5F5F5F5F5F5F5F5F5F5F5F5F5F5F5F5F5F5F5F5F5F5F5F5F5F5F5F5F5F5F5F5F5F5F5F5F5F5F5F5F5F5F5F5F5F5F5F5F5F5F5F5F5F5F5F5F5F5F5F5F5E2F5F5F5E2E2F5F5F5E2F5F5F5F5F5F5F5F5F5F5F5F5F5F5F5F5F5F5F5F5F5F5F5F5F5F5F5F5F5F5F5F5F5F5F5F5F5F5F5F5F5F5F5F5F5F5F5F5F5F5F5F5F5F5
310
F5F5F5F5F5F5F5F5F5F5F5F5F5F5F5F5F5F5F5F5F5F5F5F5F5F5F5F5F5F5F5F5F5F5F5F5F5F5F5F5F5F5F5F5F5F5F5F5F5F5F5F5F5F5F5F5F5F5F5F5F5F5F5F5F5F5F5F5F5F5F5F5F5F5F5F5F5F5F5F5F5F5F5F5F5F5F5F5F5F5F5F5F5F5F5F5F5F5F5F5F5F5F5F5F5F5F5F5F5F5F5F5F5F5F5F5E2F5F5F5E2E2F5F5F5E2F5
310
F5F5F5F5F5F5F5F5F5F5F5F5F5F5F5F5F5F5F5F5F5F5F5F5F5F5F5F5F5F5F5F5F5F5F5F5F5F5F5F5F5F5F5F5F5F5F5F5F5F5F5F5F5F5F5F5F5F5F5F5F5F5F5F5F5F5F5F5F5F5F5F5F5F5F5F5F5F5F5F5F5F5F5F5F5F5F5F5F5F5F5F5F5F5F5F5F5F5F5F5F5F5F5F5F5F5F5F5F5F5F5F5F5F5F5F5F5F5F5F5F5F5F5F5F5F5F5
310
F5F5F5F5F5F5F5F5F5F5F5F5F5F5F5F5F5F5F5F5F5F5F5F5F5F5F5F5F5F5F5F5F5F5F5F5F5F5F5F5F5F5E2F5F5F5E2E2F5F5F5E2F5F5F5F5F5F5F5F5F5F5F5F5F5F5F5F5F5F5F5F5F5F5F5F5F5F5F5F5F5F5F5F5F5F5F5F5F5F5F5F5F5F5F5F5F5F5F5F5F5F5F5F5F5F5F5F5F5F5F5F5F5F5F5F5F5F5F5F5F5F5F5F5F5F5F5
310
F5F5F5F5F5F5F5F5F5F5F5F5F5F5F5F5F5F5F5F5F5F5F5F5F5F5F5F5F5F5F5F5F5F5F5F5F5F5F5F5F5F5F5F5F5F5F5F5F5F5F5F5F5F5F5F5F5F5F5F5F5F5F5F5F5F5F5F5F5F5F5F5F5F5F5F5F5F5F5F5F5F5F5F5F5F5F5F5F5F5F5F5F5F5F5E2F5F5F5E2E2F5F5F5F5F5F5F5F5F5F5F5F5F5F5F5F5F5F5F5F5F5F5F5F5F5F5
310
F5F5F5F5F5F5F5F5F5F5F5F5F5F5F5F5F5F5F5F5F5F5F5F5F5F5F5F5F5F5F5F5F5F5F5F5F5F5F5F5F5F5F5F5F5F5F5F5F5F5F5F5F5F5F5F5F5F5F5F5F5F5F5F5F5F5F5F5F5F5F5F5F5F5F5F5F5F5F5F5F5F5F5F5F5F5F5F5F5F5F5F5F5F5F5F5F5F5F5F5F5F5F5F5F5F5F5F5F5F5F5F5F5F5F5F5F5F5F5F5F5F5F5F5F5F5F5
310
F5F5F5F5F5F5F5F5F5F5F5F5F5F5F5F5F5F5F5F5F5F5F5F5F5E2E2F5F5F5F5F5F5F5F5F5F5F5F5F5F5F5F5F5F5F5F5F5F5F5F5F5F5F5F5F5F5F5F5F5F5F5F5F5F5F5F5F5F5F5F5F5F5F5F5F5F5F5F5F5F5F5F5F5F5F5F5F5F5F5F5F5F5F5F5F5F5F5F5F5F5F5F5F5F5F5F5F5F5F5F5F5F5F5F5F5F5F5F5F5F5F5F5F5F5F5F5
310
F5F5F5F5F5F5F5F5F5F5F5F5F5F5F5F5F5F5F5F5F5F5F5F5F5F5F5F5F5F5F5F5F5F5F5F5F5F5F5F5F5F5F5F5F5F5F5F5F5F5F5F5F5F5F5F5F5F5F5F5F5F5F5F5F5F5F5F5F5F5F5F5F5F5F5F5F5F5E2E2F5F5F5F5F5F5F5F5F5F5F5F5F5F5F5F5F5F5F5F5F5F5F5F5F5F5F5F5F5F5F5F5F5F5F5F5F5F5F5F5F5F5F5F5F5F5F5
310
F5F5F5F5F5F5F5F5F5F5F5F5F5F5F5F5F5F5F5F5F5F5F5F5F5F5F5F5F5F5F5F5F5F5F5F5F5F5F5F5F5F5F5F5F5F5F5F5F5F5F5F5F5F5F5F5F5F5F5F5F5F5F5F5F5F5F5F5F5F5F5F5F5F5F5F5F5F5F5F5F5F5F5F5F5F5F5F5F5F5F5F5F5F5F5F5F5F5F5F5F5F5F5F5F5F5F5F5F5F5F5F5F5F5F5F5F5F5F5F5F5F5F5F5F5F5F5
310
F5F5F5F5E2E2F5F5F5F5F5F5F5F5F5F5F5F5F5F5F5F5F5F5F5F5F5F5F5F5F5F5F5F5F5F5F5F5F5F5F5F5F5F5F5F5F5F5F5F5F5F5F5F5F5F5F5F5F5F5F5F5F5F5F5F5F5F5F5F5F5F5F5F5F5F5F5F5F5F5F5F5F5F5F5F5F5F5F5F5F5F5F5F5F5F5F5F5F5F5F5F5F5F5F5F5F5F5F5F5F5F5F5F5F5F5F5F5F5F5F5F5F5F5F5F5F5
310
F5F5F5F5F5F5F5F5F5F5F5F5F5F5F5F5F5F5F5F5F5F5F5F5F5F5F5F5F5F5F5F5F5F5F5F5F5F5F5F5F5F5F5F5F5F5F5F5F5F5F5F5F5F5F5F5F5E2E2F5F5F5F5F5F5F5F5F5F5F5F5F5F5F5F5F5F5F5F5F5F5F5F5F5F5F5F5F5F5F5F5F5F5F5F5F5F5F5F5F5F5F5F5F5F5F5F5F5F5F5F5F5F5F5F5F5F5F5F5F5F5F5F5F5F5F5F5
310
F5F5F5F5F5F5F5F5F5F5F5F5F5F5F5F5F5F5F5F5F5F5F5F5F5F5F5F5F5F5F5F5F5F5F5F5F5F5F5F5F5F5F5F5F5F5F5F5F5F5F5F5F5F5F5F5F5F5F5F5F5F5F5F5F5F5F5F5F5F5F5F5F5F5F5F5F5F5F5F5F5F5F5F5F5F5F5F5F5F5F5F5F5F5F5F5F5F5F5F5F5F5F5F5F5F5F5F5F5F5E2E2F5F5F5F5F5F5F5F5F5F5F5F5F5F5F5
310
F5F5F5F5F5F5F5F5F5F5F5F5F5F5F5F5F5F5F5F5F5F5F5F5F5F5F5F5F5F5F5F5F5F5F5F5F5F5F5F5F5F5F5F5F5F5F5F5F5F5F5F5F5F5F5F5F5F5F5F5F5F5F5F5F5F5F5F5F5F5F5F5F5F5F5F5F5F5F5F5F5F5F5F5F5F5F5F5F5F5F5F5F5F5F5F5F5F5F5F5F5F5F5F5F5F5F5F5F5F5F5F5F5F5F5F5F5F5F5F5F5F5F5F5F5F5F5
310
F5F5F5F5F5F5F5F5F5F5F5F5F5F5F5F5F5F5F5F5F5F5F5F5F5F5F5F5F5F5F5F5F5F5F5F5E2E2F5F5F5F5F5F5F5F5F5F5F5F5F5F5F5F5F5F5F5F5F5F5F5F5F5F5F5F5F5F5F5F5F5F5F5F5F5F5F5F5F5F5F5F5F5F5F5F5F5F5F5F5F5F5F5F5F5F5F5F5F5F5F5F5F5F5F5F5F5F5F5F5F5F5F5F5F5F5F5F5F5F5F5F5F5F5F5F5F5
310
F5F5F5F5F5F5F5F5F5F5F5F5F5F5F5F5F5F5F5F5F5F5F5F5F5F5F5F5F5F5F5F5F5F5F5F5F5F5F5F5F5F5F5F5F5F5F5F5F5F5F5F5F5F5F5F5F5F5F5F5F5F5F5F5F5F5F5F5F5F5F5F5F5F5F5F5F5F5F5F5F5F5F5F5F5F5F5F5F5E2E2F5F5F5F5F5F5F5F5F5F5F5F5F5F5F5F5F5F5F5F5F5F5F5F5F5F5F5F5F5F5F5F5F5F5F5F5
310
F5F5F5F5F5F5F5F5F5F5F5F5F5F5F5F5F5F5F5F5F5F5F5F5F5F5F5F5F5F5F5F5F5F5F5F5F5F5F5F5F5F5F5F5F5F5F5F5F5F5F5F5F5F5F5F5F5F5F5F5F5F5F5F5F5F5F5F5F5F5F5F5F5F5F5F5F5F5F5F5F5F5F5F5F5F5F5F5F5F5F5F5F5F5F5F5F5F5F5F5F5F5F5F5F5F5F5F5F5F5F5F5F5F5F5F5F5F5F5F5F5F5F5F5F5F5F5
310
F5F5F5F5F5F5F5F5F5F5F5F5F5F5F5E2E2F5F5F5F5F5F5F5F5F5F5F5F5F5F5F5F5F5F5F5F5F5F5F5F5F5F5F5F5F5F5F5F5F5F5F5F5F5F5F5F5F5F5F5F5F5F5F5F5F5F5F5F5F5F5F5F5F5F5F5F5F5F5F5F5F5F5F5F5F5F5F5F5F5F5F5F5F5F5F5F5F5F5F5F5F5F5F5F5F5F5F5F5F5F5F5F5F5F5F5F5F5F5F5F5F5F5F5F5F5F5
310
F5F5F5F5F5F5F5F5F5F5F5F5F5F5F5F5F5F5F5F5F5F5F5F5F5F5F5F5F5F5F5F5F5F5F5F5F5F5F5F5F5F5F5F5F5F5F5F5F5F5F5F5F5F5F5F5F5F5F5F5F5F5F5F5F5F5F5F5E2E2F5F5F5E2F5F5F5F5F5F5F5F5F5F5F5F5F5F5F5F5F5F5F5F5F5F5F5F5F5F5F5F5F5F5F5F5F5F5F5F5F5F5F5F5F5F5F5F5F5F5F5F5F5F5F5F5F5
310
F5F5F5F5F5F5F5F5F5F5F5F5F5F5F5F5F5F5F5F5F5F5F5F5F5F5F5F5F5F5F5F5F5F5F5F5F5F5F5F5F5F5F5F5F5F5F5F5F5F5F5F5F5F5F5F5F5F5F5F5F5F5F5F5F5F5F5F5F5F5F5F5F5F5F5F5F5F5F5F5F5F5F5F5F5F5F5F5F5F5F5F5F5F5F5F5F5F5F5F5F5F5F5F5F5F5F5F5F5F5F5F5F5F5F5F5F5E2F5F5F5E2E2F5F5F5E2
310
F5F5F5F5F5F5F5F5F5F5F5F5F5F5F5F5F5F5F5F5F5F5F5F5F5F5F5F5F5F5F5F5F5F5F5F5F5F5F5F5F5F5F5F5F5F5F5F5F5F5F5F5F5F5F5F5F5F5F5F5F5F5F5F5F5F5F5F5F5F5F5F5F5F5F5F5F5F5F5F5F5F5F5F5F5F5F5F5F5F5F5F5F5F5F5F5F5F5F5F5F5F5F5F5F5F5F5F5F5F5F5F5F5F5F5F5F5F5F5F5F5F5F5F5F5F5F5
310
F5F5F5F5F5F5F5F5F5F5F5F5F5F5F5F5F5F5F5F5F5F5F5F5F5F5F5F5F5F5F5F5F5F5F5F5F5F5F5F5F5F5F5E2F5F5F5E2E2F5F5F5E2F5F5F5F5F5F5F5F5F5F5F5F5F5F5F5F5F5F5F5F5F5F5F5F5F5F5F5F5F5F5F5F5F5F5F5F5F5F5F5F5F5F5F5F5F5F5F5F5F5F5F5F5F5F5F5F5F5F5F5F5F5F5F5F5F5F5F5F5F5F5F5F5F5F5
310
F5F5F5F5F5F5F5F5F5F5F5F5F5F5F5F5F5F5F5F5F5F5F5F5F5F5F5F5F5F5F5F5F5F5F5F5F5F5F5F5F5F5F5F5F5F5F5F5F5F5F5F5F5F5F5F5F5F5F5F5F5F5F5F5F5F5F5F5F5F5F5F5F5F5F5F5F5F5F5F5F5F5F5F5F5F5F5F5F5F5F5F5F5F5F5F5E2F5F5F5E2E2F5F5F5E2F5F5F5F5F5F5F5F5F5F5F5F5F5F5F5F5F5F5F5F5F5
310
F5F5F5F5F5F5F5F5F5F5F5F5F5F5F5F5F5F5F5F5F5F5F5F5F5F5F5F5F5F5F5F5F5F5F5F5F5F5F5F5F5F5F5F5F5F5F5F5F5F5F5F5F5F5F5F5F5F5F5F5F5F5F5F5F5F5F5F5F5F5F5F5F5F5F5F5F5F5F5F5F5F5F5F5F5F5F5F5F5F5F5F5F5F5F5F5F5F5F5F5F5F5F5F5F5F5F5F5F5F5F5F5F5F5F5F5F5F5F5F5F5F5F5F5F5F5F5
310
F5F5F5F5F5F5F5F5F5F5F5F5F5F5F5F5F5F5F5F5F5F5E2F5F5F5E2E2F5F5F5E2F5F5F5F5F5F5F5F5F5F5F5F5F5F5F5F5F5F5F5F5F5F5F5F5F5F5F5F5F5F5F5F5F5F5F5F5F5F5F5F5F5F5F5F5F5F5F5F5F5F5F5F5F5F5F5F5F5F5F5F5F5F5F5F5F5F5F5F5F5F5F5F5F5F5F5F5F5F5F5F5F5F5F5F5F5F5F5F5F5F5F5F5F5F5F5
310
F5F5F5F5F5F5F5F5F5F5F5F5F5F5F5F5F5F5F5F5F5F5F5F5F5F5F5F5F5F5F5F5F5F5F5F5F5F5F5F5F5F5F5F5F5F5F5F5F5F5F5F5F5F5F5F5F5F5F5F5F5F5F5F5F5F5F5F5F5F5F5F5F5F5F5E2F5F5F5E2E2F5F5F5E2F5F5F5F5F5F5F5F5F5F5F5F5F5F5F5F5F5F5F5F5F5F5F5F5F5F5F5F5F5F5F5F5F5F5F5F5F5F5F5F5F5F5
310
F5F5F5F5F5F5F5F5F5F5F5F5F5F5F5F5F5F5F5F5F5F5F5F5F5F5F5F5F5F5F5F5F5F5F5F5F5F5F5F5F5F5F5F5F5F5F5F5F5F5F5F5F5F5F5F5F5F5F5F5F5F5F5F5F5F5F5F5F5F5F5F5F5F5F5F5F5F5F5F5F5F5F5F5F5F5F5F5F5F5F5F5F5F5F5F5F5F5F5F5F5F5F5F5F5F5F5F5F5F5F5F5F5F5F5F5F5F5F5F5F5F5F5F5F5F5F5
310
F5E2F5F5F5E2E2F5F5F5E2F5F5F5F5F5F5F5F5F5F5F5F5F5F5F5F5F5F5F5F5F5F5F5F5F5F5F5F5F5F5F5F5F5F5F5F5F5F5F5F5F5F5F5F5F5F5F5F5F5F5F5F5F5F5F5F5F5F5F5F5F5F5F5F5F5F5F5F5F5F5F5F5F5F5F5F5F5F5F5F5F5F5F5F5F5F5F5F5F5F5F5F5F5F5F5F5F5F5F5F5F5F5F5F5F5F5F5F5F5F5F5F5F5F5F5F5
310
F5F5F5F5F5F5F5F5F5F5F5F5F5F5F5F5F5F5F5F5F5F5F5F5F5F5F5F5F5F5F5F5F5F5F5F5F5F5F5F5F5F5F5F5F5F5F5F5F5F5F5F5F5F5E2F5F5F5E2E2F5F5F5E2F5F5F5F5F5F5F5F5F5F5F5F5F5F5F5F5F5F5F5F5F5F5F5F5F5F5F5F5F5F5F5F5F5F5F5F5F5F5F5F5F5F5F5F5F5F5F5F5F5F5F5F5F5F5F5F5F5F5F5F5F5F5F5
310
F5F5F5F5F5F5F5F5F5F5F5F5F5F5F5F5F5F5F5F5F5F5F5F5F5F5F5F5F5F5F5F5F5F5F5F5F5F5F5F5F5F5F5F5F5F5F5F5F5F5F5F5F5F5F5F5F5F5F5F5F5F5F5F5F5F5F5F5F5F5F5F5F5F5F5F5F5F5F5F5F5F5F5F5F5F5F5F5F5F5F5F5F5F5F5F5F5F5F5F5F5F5F5F5F5F5F5E2F5F5F5E2E2F5F5F5E2E2E2E2E2E2E2E2F5F5F5
310
F5F5F5F5F5F5E2E2E2E2E2E2E2E2E2E2E2E2E2E2E2E2F5F5F5F5F5F5F5F5F5E2E2E2E2E2E2E2E2E2E2E2E2E2E2E2F5F5F5F5F5F5F5F5F5E2E2E2E2E2E2E2E2E2E2E2E2E2E2E2E2F5F5F5F5F5F5F5F5E2E2E2E2E2E2E2E2E2E2E2E2E2E2E2E2F5F5F5F5F5F5F5F5F5E2E2E2E2E2E2E2E2E2E2E2E2E2E2E2F5F5F5F5F5F5F5F5
310
F5E2E2E2E2E2E2E2E2E2E2E2E2E2E2E2E2F5F5F5F5F5F5F5F5F5E2E2E2E2E2E2E2E2F5F5F5E2E2F5F5F5F5F5F5F5F5F5F5F5F5F5F5F5F5F5F5F5F5F5F5F5F5F5F5F5F5F5F5F5F5F5F5F5F5F5F5F5F5F5F5F5F5F5F5F5F5F5F5F5F5F5F5F5F5F5F5F5F5F5F5F5F5F5F5F5F5F5F5F5F5F5F5F5F5F5F5F5F5F5F5F5F5F5F5F5F5
310
F5F5F5F5F5F5F5F5F5F5F5F5F5F5F5F5F5F5F5F5F5F5F5F5F5F5F5F5F5F5F5F5F5F5F5F5F5F5F5F5F5F5F5F5F5F5F5F5F5F5F5F5F5F5F5F5F5F5F5F5F5F5F5F5F5F5F5F5F5F5F5F5F5F5F5F5F5F5F5F5F5F5F5F5F5F5F5F5F5F5E2E2F5F5F5F5F5F5F5F5F5F5F5F5F5F5F5F5F5F5F5F5F5F5F5F5F5F5F5F5F5F5F5F5F5F5F5
310
F5F5F5F5F5F5F5F5F5F5F5F5F5F5F5F5F5F5F5F5F5F5F5F5F5F5F5F5F5F5F5F5F5F5F5F5F5F5F5F5F5F5F5F5F5F5F5F5F5F5F5F5F5F5F5F5F5F5F5F5F5F5F5F5F5F5F5F5F5F5F5F5F5F5F5F5F5F5F5F5F5F5F5F5F5F5F5F5F5F5F5F5F5F5F5F5F5F5F5F5F5F5F5F5F5F5F5F5F5F5F5F5F5F5F5F5F5F5F5F5F5F5F5F5F5F5F5
310
F5F5F5F5F5F5F5F5F5F5F5F5F5F5F5F5E2E2F5F5F5F5F5F5F5F5F5F5F5F5F5F5F5F5F5F5F5F5F5F5F5F5F5F5F5F5F5F5F5F5F5F5F5F5F5F5F5F5F5F5F5F5F5F5F5F5F5F5F5F5F5F5F5F5F5F5F5F5F5F5F5F5F5F5F5F5F5F5F5F5F5F5F5F5F5F5F5F5F5F5F5F5F5F5F5F5F5F5F5F5F5F5F5F5F5F5F5F5F5F5F5F5F5F5F5F5F5
310
F5F5F5F5F5F5F5F5F5F5F5F5F5F5F5F5F5F5F5F5F5F5F5F5F5F5F5F5F5F5F5F5F5F5F5F5F5F5F5F5F5F5F5F5F5F5F5F5F5F5F5F5F5F5F5F5F5F5F5F5F5F5F5F5F5F5F5F5F5E2E2F5F5F5F5F5F5F5F5F5F5F5F5F5F5F5F5F5F5F5F5F5F5F5F5F5F5F5F5F5F5F5F5F5F5F5F5F5F5F5F5F5F5F5F5F5F5F5F5F5F5F5F5F5F5F5F5
310
F5F5F5F5F5F5F5F5F5F5F5F5F5F5F5F5F5F5F5F5F5F5F5F5F5F5F5F5F5F5F5F5F5F5F5F5F5F5F5F5F5F5F5F5F5F5F5F5F5F5F5F5F5F5F5F5F5F5F5F5F5F5F5F5F5F5F5F5F5F5F5F5F5F5F5F5F5F5F5F5F5F5F5F5F5F5F5F5F5F5F5F5F5F5F5F5F5F5F5F5F5F5F5F5F5F5F5F5F5F5F5F5F5F5F5F5F5F5F5F5F5F5E2E2E2E2E2
310
E2E2E2E2E2E2E2E2E2E2E2E2E2E2E2E2E2E2E2E2E2E2E2E2E2E2E2E2E2E2E2E2E2E2E2E2E2E2E2E2E2E2E2E2E2E2E2E2E2E2E2E2E2E2E2E2E2E2E2E2E2E2E2E2E2E2E2E2E2E2E2E2E2E2E2E2E2E2E2E2E2E2E2E2E2E2E2E2E2E2E2E2E2E2E2E2E2E2E2E2E2E2E2E2E2E2E2E2E2E2E2E2E2E2E2E2E2E2E2E2E2E2E2E2E2E2E2
310
E2E2E2E2E2E2E2E2E2E2E2E2E2E2E2E2E2E2E2E2E2E2E2E2E2E2E2E2E2E2E2E2E2E2E2E2E2E2E2E2E2E2E2E2E2E2E2E2E2
  0
XRECORD
  5
C74
102
{ACAD_REACTORS
330
C73
102
}
330
C73
100
AcDbXrecord
280
     1
102
SHADEPLOT
 70
     0
102
SHADEPLOTRESLEVEL
 70
     2
102
SHADEPLOTCUSTOMDPI
 70
   300
  0
ENDSEC
  0
EOF
