  0
SECTION
  2
HEADER
  9
$ACADVER
  1
AC1015
  9
$ACADMAINTVER
 70
    20
  9
$DWGCODEPAGE
  3
ANSI_1252
  9
$INSBASE
 10
0.0
 20
0.0
 30
0.0
  9
$EXTMIN
 10
-0.2354349757578831
 20
-0.7047500308523809
 30
-0.000000000001831
  9
$EXTMAX
 10
16.76716822184096
 20
10.29698861921171
 30
0.0000000100018311
  9
$LIMMIN
 10
0.0
 20
0.0
  9
$LIMMAX
 10
12.0
 20
9.0
  9
$ORTHOMODE
 70
     0
  9
$REGENMODE
 70
     1
  9
$FILLMODE
 70
     1
  9
$QTEXTMODE
 70
     0
  9
$MIRRTEXT
 70
     1
  9
$LTSCALE
 40
1.0
  9
$ATTMODE
 70
     1
  9
$TEXTSIZE
 40
0.125
  9
$TRACEWID
 40
0.05
  9
$TEXTSTYLE
  7
Standard
  9
$CLAYER
  8
0
  9
$CELTYPE
  6
ByLayer
  9
$CECOLOR
 62
     1
  9
$CELTSCALE
 40
1.0
  9
$DISPSILH
 70
     0
  9
$DIMSCALE
 40
1.0
  9
$DIMASZ
 40
0.125
  9
$DIMEXO
 40
0.0625
  9
$DIMDLI
 40
0.38
  9
$DIMRND
 40
0.0
  9
$DIMDLE
 40
0.0
  9
$DIMEXE
 40
0.0625
  9
$DIMTP
 40
0.0
  9
$DIMTM
 40
0.0
  9
$DIMTXT
 40
0.125
  9
$DIMCEN
 40
0.09
  9
$DIMTSZ
 40
0.0
  9
$DIMTOL
 70
     0
  9
$DIMLIM
 70
     0
  9
$DIMTIH
 70
     1
  9
$DIMTOH
 70
     1
  9
$DIMSE1
 70
     0
  9
$DIMSE2
 70
     0
  9
$DIMTAD
 70
     0
  9
$DIMZIN
 70
     0
  9
$DIMBLK
  1

  9
$DIMASO
 70
     1
  9
$DIMSHO
 70
     1
  9
$DIMPOST
  1

  9
$DIMAPOST
  1

  9
$DIMALT
 70
     0
  9
$DIMALTD
 70
     2
  9
$DIMALTF
 40
25.4
  9
$DIMLFAC
 40
1.0
  9
$DIMTOFL
 70
     0
  9
$DIMTVP
 40
0.0
  9
$DIMTIX
 70
     0
  9
$DIMSOXD
 70
     0
  9
$DIMSAH
 70
     0
  9
$DIMBLK1
  1

  9
$DIMBLK2
  1

  9
$DIMSTYLE
  2
Standard
  9
$DIMCLRD
 70
     0
  9
$DIMCLRE
 70
     0
  9
$DIMCLRT
 70
     0
  9
$DIMTFAC
 40
1.0
  9
$DIMGAP
 40
0.09
  9
$DIMJUST
 70
     0
  9
$DIMSD1
 70
     0
  9
$DIMSD2
 70
     0
  9
$DIMTOLJ
 70
     1
  9
$DIMTZIN
 70
     0
  9
$DIMALTZ
 70
     0
  9
$DIMALTTZ
 70
     0
  9
$DIMUPT
 70
     0
  9
$DIMDEC
 70
     4
  9
$DIMTDEC
 70
     4
  9
$DIMALTU
 70
     2
  9
$DIMALTTD
 70
     2
  9
$DIMTXSTY
  7
Standard
  9
$DIMAUNIT
 70
     0
  9
$DIMADEC
 70
     0
  9
$DIMALTRND
 40
0.0
  9
$DIMAZIN
 70
     0
  9
$DIMDSEP
 70
    46
  9
$DIMATFIT
 70
     3
  9
$DIMFRAC
 70
     0
  9
$DIMLDRBLK
  1

  9
$DIMLUNIT
 70
     5
  9
$DIMLWD
 70
    -2
  9
$DIMLWE
 70
    -2
  9
$DIMTMOVE
 70
     0
  9
$LUNITS
 70
     2
  9
$LUPREC
 70
     4
  9
$SKETCHINC
 40
0.1
  9
$FILLETRAD
 40
0.0
  9
$AUNITS
 70
     0
  9
$AUPREC
 70
     0
  9
$MENU
  1
.
  9
$ELEVATION
 40
0.0
  9
$PELEVATION
 40
0.0
  9
$THICKNESS
 40
0.0
  9
$LIMCHECK
 70
     0
  9
$CHAMFERA
 40
0.5
  9
$CHAMFERB
 40
0.5
  9
$CHAMFERC
 40
1.0
  9
$CHAMFERD
 40
0.0
  9
$SKPOLY
 70
     0
  9
$TDCREATE
 40
2451760.492491679
  9
$TDUCREATE
 40
2451760.659158345
  9
$TDUPDATE
 40
2453936.548895834
  9
$TDUUPDATE
 40
2453936.715562500
  9
$TDINDWG
 40
1.1139342477
  9
$TDUSRTIMER
 40
1.1139338889
  9
$USRTIMER
 70
     1
  9
$ANGBASE
 50
0.0
  9
$ANGDIR
 70
     0
  9
$PDMODE
 70
     0
  9
$PDSIZE
 40
0.0
  9
$PLINEWID
 40
0.0
  9
$SPLFRAME
 70
     0
  9
$SPLINETYPE
 70
     6
  9
$SPLINESEGS
 70
     8
  9
$HANDSEED
  5
501
  9
$SURFTAB1
 70
     6
  9
$SURFTAB2
 70
     6
  9
$SURFTYPE
 70
     6
  9
$SURFU
 70
     6
  9
$SURFV
 70
     6
  9
$UCSBASE
  2

  9
$UCSNAME
  2

  9
$UCSORG
 10
0.0
 20
0.0
 30
0.0
  9
$UCSXDIR
 10
1.0
 20
0.0
 30
0.0
  9
$UCSYDIR
 10
0.0
 20
1.0
 30
0.0
  9
$UCSORTHOREF
  2

  9
$UCSORTHOVIEW
 70
     0
  9
$UCSORGTOP
 10
0.0
 20
0.0
 30
0.0
  9
$UCSORGBOTTOM
 10
0.0
 20
0.0
 30
0.0
  9
$UCSORGLEFT
 10
0.0
 20
0.0
 30
0.0
  9
$UCSORGRIGHT
 10
0.0
 20
0.0
 30
0.0
  9
$UCSORGFRONT
 10
0.0
 20
0.0
 30
0.0
  9
$UCSORGBACK
 10
0.0
 20
0.0
 30
0.0
  9
$PUCSBASE
  2

  9
$PUCSNAME
  2

  9
$PUCSORG
 10
0.0
 20
0.0
 30
0.0
  9
$PUCSXDIR
 10
1.0
 20
0.0
 30
0.0
  9
$PUCSYDIR
 10
0.0
 20
1.0
 30
0.0
  9
$PUCSORTHOREF
  2

  9
$PUCSORTHOVIEW
 70
     0
  9
$PUCSORGTOP
 10
0.0
 20
0.0
 30
0.0
  9
$PUCSORGBOTTOM
 10
0.0
 20
0.0
 30
0.0
  9
$PUCSORGLEFT
 10
0.0
 20
0.0
 30
0.0
  9
$PUCSORGRIGHT
 10
0.0
 20
0.0
 30
0.0
  9
$PUCSORGFRONT
 10
0.0
 20
0.0
 30
0.0
  9
$PUCSORGBACK
 10
0.0
 20
0.0
 30
0.0
  9
$USERI1
 70
     0
  9
$USERI2
 70
     0
  9
$USERI3
 70
     0
  9
$USERI4
 70
     0
  9
$USERI5
 70
     0
  9
$USERR1
 40
0.0
  9
$USERR2
 40
0.0
  9
$USERR3
 40
0.0
  9
$USERR4
 40
0.0
  9
$USERR5
 40
0.0
  9
$WORLDVIEW
 70
     1
  9
$SHADEDGE
 70
     3
  9
$SHADEDIF
 70
    70
  9
$TILEMODE
 70
     1
  9
$MAXACTVP
 70
    64
  9
$PINSBASE
 10
0.0
 20
0.0
 30
0.0
  9
$PLIMCHECK
 70
     0
  9
$PEXTMIN
 10
-0.234391150367761
 20
-0.7041953403541972
 30
-0.4600000000000001
  9
$PEXTMAX
 10
16.76560884963224
 20
10.2958046596458
 30
0.0
  9
$PLIMMIN
 10
-0.2281003861915408
 20
-0.7005413686196637
  9
$PLIMMAX
 10
16.77189913321667
 20
10.29945839108444
  9
$UNITMODE
 70
     0
  9
$VISRETAIN
 70
     1
  9
$PLINEGEN
 70
     0
  9
$PSLTSCALE
 70
     1
  9
$TREEDEPTH
 70
  3020
  9
$CMLSTYLE
  2
Standard
  9
$CMLJUST
 70
     0
  9
$CMLSCALE
 40
1.0
  9
$PROXYGRAPHICS
 70
     1
  9
$MEASUREMENT
 70
     0
  9
$CELWEIGHT
370
    -1
  9
$ENDCAPS
280
     0
  9
$JOINSTYLE
280
     0
  9
$LWDISPLAY
290
     0
  9
$INSUNITS
 70
     1
  9
$HYPERLINKBASE
  1

  9
$STYLESHEET
  1

  9
$XEDIT
290
     1
  9
$CEPSNTYPE
380
     0
  9
$PSTYLEMODE
290
     1
  9
$FINGERPRINTGUID
  2
{7A4B08F9-8B4D-4CCD-84DC-415BD42B2889}
  9
$VERSIONGUID
  2
{B4948DA9-3BA8-4D92-B2CA-B5F65DDD211A}
  9
$EXTNAMES
290
     1
  9
$PSVPSCALE
 40
0.0
  9
$OLESTARTUP
290
     0
  0
ENDSEC
  0
SECTION
  2
CLASSES
  0
CLASS
  1
ACDBDICTIONARYWDFLT
  2
AcDbDictionaryWithDefault
  3
ObjectDBX Classes
 90
        0
280
     0
281
     0
  0
CLASS
  1
ACDBPLACEHOLDER
  2
AcDbPlaceHolder
  3
ObjectDBX Classes
 90
        0
280
     0
281
     0
  0
CLASS
  1
LAYOUT
  2
AcDbLayout
  3
ObjectDBX Classes
 90
        0
280
     0
281
     0
  0
CLASS
  1
ACME_DOCUMENT
  2
AcMeDbDoc
  3
AcMeServices
 90
        0
280
     0
281
     0
  0
CLASS
  1
ACMESCOPE
  2
AcMeScope
  3
AcMeServices
 90
        0
280
     0
281
     0
  0
CLASS
  1
ACMECOMMANDHISTORY
  2
AcMeCommandHistory
  3
AcMeServices
 90
        0
280
     0
281
     0
  0
CLASS
  1
DICTIONARYVAR
  2
AcDbDictionaryVar
  3
ObjectDBX Classes
 90
        0
280
     0
281
     0
  0
CLASS
  1
ACIMSYSVARMAN
  2
AcImSysVarManager
  3
AcMeServices
 90
        0
280
     0
281
     0
  0
CLASS
  1
ACIMREALSYSVAR
  2
AcImRealSysVar
  3
AcMeServices
 90
        0
280
     0
281
     0
  0
CLASS
  1
ACIMINTSYSVAR
  2
AcImIntSysVar
  3
AcMeServices
 90
        0
280
     0
281
     0
  0
CLASS
  1
ACMEDRAWINGMAN
  2
AcMeDrawingMan
  3
AcMeServices
 90
        0
280
     0
281
     0
  0
CLASS
  1
ACMEVIEW
  2
AcMeView
  3
AcMeServices
 90
        0
280
     0
281
     0
  0
CLASS
  1
ACDBENTITYCACHE
  2
AcMeEntityCache
  3
AcMeServices
 90
        0
280
     0
281
     0
  0
CLASS
  1
GSMANAGER
  2
AcMeGSManager
  3
AcMeServices
 90
        0
280
     0
281
     0
  0
CLASS
  1
AMDTINTERNALREACTOR
  2
AmdtInternalReactor
  3
AcMeServices
 90
        0
280
     0
281
     0
  0
CLASS
  1
ACMESTATEMGR
  2
AcMeStateMgr
  3
AcMeServices
 90
        0
280
     0
281
     0
  0
CLASS
  1
ACGREFMASTER
  2
AcGrefMaster
  3
AcAttribServices
 90
        0
280
     0
281
     0
  0
CLASS
  1
AM_DRAWING_MGR
  2
AcDmDwgMgr
  3
AcMechDwgViewMgmt
 90
        0
280
     0
281
     0
  0
CLASS
  1
AM_DWG_DOCUMENT
  2
AcDmDwgDocument
  3
AcMechDwgViewMgmt
 90
        0
280
     0
281
     0
  0
CLASS
  1
AM_DWG_SHEET
  2
AcDmSheet
  3
AcMechDwgViewMgmt
 90
        0
280
     0
281
     0
  0
CLASS
  1
AM_VIEWDIMPARMAP
  2
AcDmViewDimParMap
  3
AcMechDwgViewMgmt
 90
        0
280
     0
281
     0
  0
CLASS
  1
AM_DWGMGR_NAME
  2
AcDmDwgMgrName
  3
AcMechDwgViewMgmt
 90
        0
280
     0
281
     0
  0
CLASS
  1
ACME_DATABASE
  2
AcMeDbDatabase
  3
AcMeServices
 90
        0
280
     0
281
     0
  0
CLASS
  1
ACRFINSADJUSTERMGR
  2
AcRfInsAdjusterMgr
  3
AcMeServices
 90
        0
280
     0
281
     0
  0
CLASS
  1
ACGREFACADMASTER
  2
AcGrefacadMaster
  3
AcGrefServices
 90
        0
280
     0
281
     0
  0
CLASS
  1
AMDTMENUSTATEMGR
  2
AmdtMenuStateMgr
  3
McadcomServices
 90
        0
280
     0
281
     0
  0
CLASS
  1
AMDTMCOMMENUSTATE
  2
AmdtMcomMenuState
  3
McadcomServices
 90
        0
280
     0
281
     0
  0
CLASS
  1
ASAPP
  2
AcAsAppObject
  3
AutoSurfServices
 90
        0
280
     0
281
     0
  0
CLASS
  1
IM_STATIC_MAN
  2
AcImStaticVarManager
  3
AcMeServices
 90
        0
280
     0
281
     0
  0
CLASS
  1
ACIMSTRSYSVAR
  2
AcImStrSysVar
  3
AcMeServices
 90
        0
280
     0
281
     0
  0
CLASS
  1
ACIMDBLSTATICVAR
  2
AcImDblStaticVar
  3
AcMeServices
 90
        0
280
     0
281
     0
  0
CLASS
  1
ACIMSTRSTATICVAR
  2
AcImStrStaticVar
  3
AcMeServices
 90
        0
280
     0
281
     0
  0
CLASS
  1
ACIMINTSTATICVAR
  2
AcImIntStaticVar
  3
AcMeServices
 90
        0
280
     0
281
     0
  0
CLASS
  1
ACADGREFMODULE
  2
AcAdGrefModule
  3
AdGrefServices
 90
        0
280
     0
281
     0
  0
CLASS
  1
AMIMASTER
  2
AmiMaster
  3
AmiServices
 90
        0
280
     0
281
     0
  0
CLASS
  1
ACASGREFMASTER
  2
AcAsGrefMaster
  3
AutoSurfResolverServices
 90
        0
280
     0
281
     0
  0
CLASS
  1
MAPIAMMOUDLE
  2
MApiAmModule
  3
MApiAmServices
 90
        0
280
     0
281
     0
  0
CLASS
  1
AMDTDMMENUSTATE
  2
AmdtDmMenuState
  3
AcMechDwgViewMgmt
 90
        0
280
     0
281
     0
  0
CLASS
  1
AMDTADMENUSTATE
  2
AmdtAdMenuState
  3
DesignerServices
 90
        0
280
     0
281
     0
  0
CLASS
  1
ADAPPL
  2
AcAdAppl
  3
DesignerServices
 90
        0
280
     0
281
     0
  0
CLASS
  1
DEPMGR
  2
AcAdDepMgr
  3
DesignerServices
 90
        0
280
     0
281
     0
  0
CLASS
  1
PARAMMGR
  2
AcAdParamMgr
  3
DesignerServices
 90
        0
280
     0
281
     0
  0
CLASS
  1
PARAMSCOPE
  2
AcAdParamScope
  3
DesignerServices
 90
        0
280
     0
281
     0
  0
CLASS
  1
NAMEDAPPL
  2
AcAdNamedAppl
  3
DesignerServices
 90
        0
280
     0
281
     0
  0
CLASS
  1
ADHNTMPLT
  2
AdHoleNoteTemplateMgr
  3
DesignerServices
 90
    32768
280
     0
281
     0
  0
CLASS
  1
AM_HNTEMPLATE_MGR_NAME
  2
AdHoleNoteTemplateMgrName
  3
DesignerServices
 90
    32768
280
     0
281
     0
  0
CLASS
  1
AMDTAMMENUSTATE
  2
AmdtAmMenuState
  3
DesignerAssemblies
 90
        0
280
     0
281
     0
  0
CLASS
  1
ACAMPROJECT
  2
AcAmProject
  3
DesignerAssemblies
 90
        0
280
     0
281
     0
  0
CLASS
  1
ACAMGRCOMPDEF
  2
AcAmGrCompDef
  3
DesignerAssemblies
 90
        0
280
     0
281
     0
  0
CLASS
  1
ACCMCONTEXT
  2
AcCmContext
  3
DesignerAssemblies
 90
        0
280
     0
281
     0
  0
CLASS
  1
ACAMCOMPDEF
  2
AcAmCompDef
  3
DesignerAssemblies
 90
        0
280
     0
281
     0
  0
CLASS
  1
ACAMCOMPDEFMGR
  2
AcAmCompDefMgr
  3
DesignerAssemblies
 90
        0
280
     0
281
     0
  0
CLASS
  1
AMCONTEXTMGR
  2
AcAmContextMgr
  3
DesignerAssemblies
 90
        0
280
     0
281
     0
  0
CLASS
  1
ACAMCONTEXTMODELER
  2
AcAmContextModeler
  3
DesignerAssemblies
 90
        0
280
     0
281
     0
  0
CLASS
  1
MAPIADMODULE
  2
MApiAdModule
  3
MApiAdServices
 90
        0
280
     0
281
     0
  0
CLASS
  1
ACMDATADICTIONARY
  2
AcmDataDictionary
  3
"AcmSymBB|Product Description: AutoCAD Mechanical 2004 DX|Company: Autodesk"
 90
        0
280
     0
281
     0
  0
CLASS
  1
ACMDATAENTRYBLOCK
  2
AcmDataEntryBlock
  3
"AcmSymBB|Product Description: AutoCAD Mechanical 2004 DX|Company: Autodesk"
 90
        0
280
     0
281
     0
  0
CLASS
  1
AMDTBROWSERDBTAB
  2
AmdtBrowserDbTab
  3
McadcomServices
 90
        0
280
     0
281
     0
  0
CLASS
  1
CBROWSERAPPOBJECT
  2
CBrowserAppObject
  3
McadcomServices
 90
        0
280
     0
281
     0
  0
CLASS
  1
DM_PLACEHOLDER
  2
AcDmSelsetPlaceholder
  3
AcMechDwgViewMgmt
 90
        0
280
     0
281
     0
  0
CLASS
  1
CATALOGSTATE
  2
AcAmCatalogState
  3
DesignerAssemblies
 90
        0
280
     0
281
     0
  0
CLASS
  1
ACAMGRCOMPDEFSET
  2
AcAmGrCompDefSet
  3
DesignerAssemblies
 90
        0
280
     0
281
     0
  0
CLASS
  1
AMGOBJPROPCFG
  2
AmgObjPropCfg
  3
"AmgLay|Product Description: AutoCAD Mechanical 2000|Company: Autodesk"
 90
        1
280
     0
281
     0
  0
CLASS
  1
ACRFATTGENMGR
  2
AcRfAttGeneralMgr
  3
AcAttribServices
 90
    32768
280
     0
281
     0
  0
CLASS
  1
LAYER_INDEX
  2
AcDbLayerIndex
  3
ObjectDBX Classes
 90
        0
280
     0
281
     0
  0
CLASS
  1
IDBUFFER
  2
AcDbIdBuffer
  3
ObjectDBX Classes
 90
        0
280
     0
281
     0
  0
CLASS
  1
ACCMBODY
  2
AcCmBody
  3
DesignerAssemblies
 90
    32768
280
     0
281
     0
  0
CLASS
  1
ACAMCOMPENT
  2
AcAmCompEnt
  3
DesignerAssemblies
 90
    32768
280
     0
281
     1
  0
CLASS
  1
ACAMCOMPFEEDBACK
  2
AcAmCompFeedback
  3
DesignerAssemblies
 90
    32768
280
     0
281
     0
  0
CLASS
  1
ACAMCOMP
  2
AcAmComp
  3
DesignerAssemblies
 90
    32768
280
     0
281
     0
  0
CLASS
  1
ACAMCOMPENTCLONE
  2
AcAmCompEntClone
  3
DesignerAssemblies
 90
    32768
280
     0
281
     1
  0
CLASS
  1
ACAMCLONEREACTOR
  2
AcAmGrCompCloneReactor
  3
DesignerAssemblies
 90
    32768
280
     0
281
     0
  0
CLASS
  1
AM_VIEW_SELECT_FILTER
  2
AcDmSelectViewEntFilter
  3
AcMechDwgViewMgmt
 90
    32768
280
     0
281
     0
  0
CLASS
  1
ACDBSOLPLANERES
  2
AcDbSolPlaneRes
  3
AcGrefServices
 90
    32768
280
     0
281
     0
  0
CLASS
  1
AM_GREF_PLANE
  2
AcDmGrefPlnDef
  3
AcMechDwgViewMgmt
 90
    32768
280
     0
281
     0
  0
CLASS
  1
AM_ABS_AXIS
  2
AcDmAbsAxisDef
  3
AcMechDwgViewMgmt
 90
    32768
280
     0
281
     0
  0
CLASS
  1
AM_BASE_VIEW_ORIENT
  2
AcDmBaseViewOr
  3
AcMechDwgViewMgmt
 90
    32768
280
     0
281
     0
  0
CLASS
  1
ACMELINEARARROW
  2
AcImLinearArrowDisplay
  3
AcMeServices
 90
    32768
280
     0
281
     1
  0
CLASS
  1
AM_DWG_VIEWPORT
  2
AcDmViewport
  3
AcMechDwgViewMgmt
 90
    32768
280
     0
281
     0
  0
CLASS
  1
AM_VIEW_DISPLAY
  2
AcDmDwgViewDisplay
  3
AcMechDwgViewMgmt
 90
    32768
280
     0
281
     0
  0
CLASS
  1
AM_CLDFLTS
  2
AcDmClDflts
  3
AcMechDwgViewMgmt
 90
    32768
280
     0
281
     0
  0
CLASS
  1
AM_BASE_VIEW
  2
AcDmBaseView
  3
AcMechDwgViewMgmt
 90
    32768
280
     0
281
     0
  0
CLASS
  1
ACDMVWEDLINE
  2
AcDmViewEdgeLine
  3
AcMechDwgViewMgmt
 90
    32768
280
     0
281
     1
  0
CLASS
  1
ACDMVWEDARC
  2
AcDmViewEdgeArc
  3
AcMechDwgViewMgmt
 90
    32768
280
     0
281
     1
  0
CLASS
  1
AM_ORTHO_VIEW_ORIENT
  2
AcDmOrthoViewOr
  3
AcMechDwgViewMgmt
 90
    32768
280
     0
281
     0
  0
CLASS
  1
AM_ORTHO_VIEW
  2
AcDmOrthoView
  3
AcMechDwgViewMgmt
 90
    32768
280
     0
281
     0
  0
CLASS
  1
AM_ISO_VIEW_ORIENT
  2
AcDmIsoViewOr
  3
AcMechDwgViewMgmt
 90
    32768
280
     0
281
     0
  0
CLASS
  1
AM_ISO_VIEW
  2
AcDmIsoView
  3
AcMechDwgViewMgmt
 90
    32768
280
     0
281
     0
  0
CLASS
  1
ACDMVWEDCIRC
  2
AcDmViewEdgeCircle
  3
AcMechDwgViewMgmt
 90
    32768
280
     0
281
     1
  0
CLASS
  1
ACDMVIEWGEOM
  2
AcDmViewGeometry
  3
AcMechDwgViewMgmt
 90
    32768
280
     0
281
     1
  0
CLASS
  1
ACMBOM
  2
AcmBom
  3
"AcmSymBB|Product Description: AutoCAD Mechanical 2004 DX|Company: Autodesk"
 90
    32768
280
     0
281
     0
  0
CLASS
  1
ACMBOMROW
  2
AcmBomRow
  3
"AcmSymBB|Product Description: AutoCAD Mechanical 2004 DX|Company: Autodesk"
 90
    32768
280
     0
281
     0
  0
CLASS
  1
ACMSTANDARDANSI
  2
AcmStandardANSI
  3
"Amdt_StdImp|Product Description: AutoCAD Mechanical 2004 DX|Company: Autodesk"
 90
        0
280
     0
281
     0
  0
CLASS
  1
ACMSURFSTANDARDANSI
  2
AcmSurfTextStdANSI
  3
"Amdt_StdImp|Product Description: AutoCAD Mechanical 2004 DX|Company: Autodesk"
 90
        0
280
     0
281
     0
  0
CLASS
  1
ACMFCFSTANDARDANSI
  2
AcmFCFStdANSI
  3
"Amdt_StdImp|Product Description: AutoCAD Mechanical 2004 DX|Company: Autodesk"
 90
        0
280
     0
281
     0
  0
CLASS
  1
ACMWELDSTANDARDANSI
  2
AcmWeldingStdANSI
  3
"Amdt_StdImp|Product Description: AutoCAD Mechanical 2004 DX|Company: Autodesk"
 90
        0
280
     0
281
     0
  0
CLASS
  1
ACMIDSTANDARDANSI
  2
AcmIdStdANSI
  3
"Amdt_StdImp|Product Description: AutoCAD Mechanical 2004 DX|Company: Autodesk"
 90
        0
280
     0
281
     0
  0
CLASS
  1
ACMDATUMSTANDARDANSI
  2
AcmDatumStdANSI
  3
"Amdt_StdImp|Product Description: AutoCAD Mechanical 2004 DX|Company: Autodesk"
 90
        0
280
     0
281
     0
  0
CLASS
  1
ACMBOMSTANDARDANSI
  2
AcmBOMStdANSI
  3
"Amdt_StdImp|Product Description: AutoCAD Mechanical 2004 DX|Company: Autodesk"
 90
        0
280
     0
281
     0
  0
CLASS
  1
ACMDATAENTRYPART
  2
AcmDataEntryPart
  3
"AcmSymBB|Product Description: AutoCAD Mechanical 2004 DX|Company: Autodesk"
 90
    32768
280
     0
281
     0
  0
CLASS
  1
ACMPARTREF
  2
AcmPartRef
  3
"AcmSymBB|Product Description: AutoCAD Mechanical 2004 DX|Company: Autodesk"
 90
    33791
280
     0
281
     1
  0
CLASS
  1
ACMBALLOON
  2
AcmBalloon
  3
"AcmSymBB|Product Description: AutoCAD Mechanical 2004 DX|Company: Autodesk"
 90
    33791
280
     0
281
     1
  0
CLASS
  1
ACDBSOLLINEDGRES
  2
AcDbSolLinEdgRes
  3
AcGrefServices
 90
    32768
280
     0
281
     0
  0
CLASS
  1
AM_GREF_AXIS
  2
AcDmGrefAxisDef
  3
AcMechDwgViewMgmt
 90
    32768
280
     0
281
     0
  0
CLASS
  1
ACAMGRBLOCKRECORD
  2
AcAmGrBlockRecord
  3
DesignerAssemblies
 90
    32768
280
     0
281
     0
  0
CLASS
  1
ACAMVIEWREACTOR
  2
AcAmViewReactor
  3
DesignerAssemblies
 90
    32768
280
     0
281
     0
  0
CLASS
  1
AMVIEW
  2
AcAmView
  3
DesignerAssemblies
 90
    32768
280
     0
281
     0
  0
CLASS
  1
ACAMVIEWCONTEXT
  2
AcAmViewContext
  3
DesignerAssemblies
 90
    32768
280
     0
281
     0
  0
CLASS
  1
ACAMCOMPVIEWREACTOR
  2
AcAmGrCompViewReactor
  3
DesignerAssemblies
 90
    32768
280
     0
281
     0
  0
CLASS
  1
ACAMCOMPENTVIEW
  2
AcAmCompEntView
  3
DesignerAssemblies
 90
    32768
280
     0
281
     1
  0
CLASS
  1
ACAMVIEWENTITYFILTER
  2
AcAmViewEntityFilter
  3
DesignerAssemblies
 90
    32768
280
     0
281
     0
  0
CLASS
  1
TABLESTYLE
  2
AcDbTableStyle
  3
ObjectDBX Classes
 90
     2047
280
     0
281
     0
  0
CLASS
  1
AMGSETTINGSOBJ
  2
AmgSettingsObj
  3
"AcadM|Product Description: AutoCAD Mechanical 2000|Company: Autodesk"
 90
        0
280
     0
281
     0
  0
CLASS
  1
AMDTMAPISURFMOUDULE
  2
AmdtMApiSurfModule
  3
MApiSurfServices
 90
        0
280
     0
281
     0
  0
CLASS
  1
ACDMPARTVIEWDATA
  2
AcDmPartViewData
  3
AcMechDwgViewMgmt
 90
    32768
280
     0
281
     0
  0
CLASS
  1
ACDMDISPLAYATTRIBS
  2
AcDmDisplayAttribs
  3
AcMechDwgViewMgmt
 90
    32768
280
     0
281
     0
  0
CLASS
  1
ACDMBODYINSTANCEDATA
  2
AcDmBodyInstanceData
  3
AcMechDwgViewMgmt
 90
    32768
280
     0
281
     0
  0
CLASS
  1
AMDTFORMULAUPDATEDISPATCHER
  2
AmdtFormulaUpdateDispatcher
  3
AcMeServices
 90
    32768
280
     0
281
     0
  0
CLASS
  1
ACAMGTITLESTD
  2
AcAmgTitleStd
  3
"TITLEAPP"
 90
        0
280
     0
281
     0
  0
CLASS
  1
ACMDETAILSTANDARDANSI
  2
AmdtDetailSymStdANSI
  3
"Amdt_StdImp|Product Description: AutoCAD Mechanical 2004 DX|Company: Autodesk"
 90
        0
280
     0
281
     0
  0
CLASS
  1
ACMSECTIONSTANDARDANSI
  2
AmdtSectionSymStdANSI
  3
"Amdt_StdImp|Product Description: AutoCAD Mechanical 2004 DX|Company: Autodesk"
 90
        0
280
     0
281
     0
  0
CLASS
  1
ACMCENTERLINESTANDARDANSI
  2
AmdtCenterLineStdANSI
  3
"Amdt_StdImp|Product Description: AutoCAD Mechanical 2004 DX|Company: Autodesk"
 90
        0
280
     0
281
     0
  0
CLASS
  1
ACMTHREADLINESTANDARDANSI
  2
AmdtThreadLineStdANSI
  3
"Amdt_StdImp|Product Description: AutoCAD Mechanical 2004 DX|Company: Autodesk"
 90
        0
280
     0
281
     0
  0
CLASS
  1
ACMNOTESTANDARDANSI
  2
AmdtNoteStdANSI
  3
"Amdt_StdImp|Product Description: AutoCAD Mechanical 2004 DX|Company: Autodesk"
 90
        0
280
     0
281
     0
  0
CLASS
  1
AMDTNOTETEMPLATEDB
  2
AmdtNoteTemplateDB
  3
AMDT_STDIMP_MODULE_NAME
 90
        0
280
     0
281
     0
  0
CLASS
  1
ACAMGLAYSTD
  2
AcAmgLayStd
  3
"AcAmgLayStd|Product Description: AutoCAD Mechanical 2000|Company: Autodesk"
 90
        0
280
     0
281
     0
  0
CLASS
  1
ACAMGDIMSTD
  2
AcAmgDimStd
  3
"AcAmgDimStd|Product Description: AutoCAD Mechanical 2000|Company: Autodesk"
 90
        0
280
     0
281
     0
  0
CLASS
  1
ACAMGHOLECHARTSTDANSI
  2
AcAmgHoleChartStdANSI
  3
ACMSYMBB_MODULE_NAME
 90
        0
280
     0
281
     0
  0
CLASS
  1
VAACXREFPANELOBJECT
  2
VaAcXREFPanelObject
  3
VAAC_ADDIN
 90
        0
280
     0
281
     0
  0
CLASS
  1
VAACIMAGEINVENTORY
  2
VaAcImageInventory
  3
VAAC_ADDIN
 90
        0
280
     0
281
     0
  0
CLASS
  1
ACAMGFILTERDAT
  2
AcAmgFilterDat
  3
"AcadM|Product Description: AutoCAD Mechanical 2000|Company: Autodesk"
 90
        0
280
     0
281
     0
  0
ENDSEC
  0
SECTION
  2
TABLES
  0
TABLE
  2
VPORT
  5
1A
330
0
100
AcDbSymbolTable
 70
     4
  0
VPORT
  5
4FA
330
1A
100
AcDbSymbolTableRecord
100
AcDbViewportTableRecord
  2
*Active
 70
     0
 10
0.0
 20
0.0
 11
1.0
 21
1.0
 12
-8.603082279858611
 22
-6.786305816515456
 13
0.0
 23
0.0
 14
0.5
 24
0.5
 15
0.5
 25
0.5
 16
0.0
 26
0.0
 36
1.0
 17
16.86894890290015
 27
11.58242511069512
 37
0.0
 40
12.26300034262134
 41
1.392029657089898
 42
50.0
 43
0.0
 44
0.0
 50
0.0
 51
0.0
 71
     0
 72
   100
 73
     1
 74
     1
 75
     0
 76
     0
 77
     0
 78
     0
281
     0
 65
     0
110
0.0
120
0.0
130
0.0
111
1.0
121
0.0
131
0.0
112
0.0
122
1.0
132
0.0
 79
     0
146
0.0
  0
ENDTAB
  0
TABLE
  2
LTYPE
  5
15
330
0
100
AcDbSymbolTable
 70
    19
  0
LTYPE
  5
16
330
15
100
AcDbSymbolTableRecord
100
AcDbLinetypeTableRecord
  2
ByBlock
 70
     0
  3

 72
    65
 73
     0
 40
0.0
  0
LTYPE
  5
17
330
15
100
AcDbSymbolTableRecord
100
AcDbLinetypeTableRecord
  2
ByLayer
 70
     0
  3

 72
    65
 73
     0
 40
0.0
  0
LTYPE
  5
9
330
15
100
AcDbSymbolTableRecord
100
AcDbLinetypeTableRecord
  2
Continuous
 70
     0
  3
Solid line
 72
    65
 73
     0
 40
0.0
  0
LTYPE
  5
24A
330
15
100
AcDbSymbolTableRecord
100
AcDbLinetypeTableRecord
  2
HIDDEN
 70
     0
  3
Hidden __ __ __ __ __ __ __ __ __ __ __ __ __ _
 72
    65
 73
     2
 40
0.375
 49
0.25
 74
     0
 49
-0.125
 74
     0
  0
LTYPE
  5
121
330
15
100
AcDbSymbolTableRecord
100
AcDbLinetypeTableRecord
  2
CENTER2
 70
     0
  3
Center (.5x) ___ _ ___ _ ___ _ ___ _ ___ _ ___
 72
    65
 73
     4
 40
1.125
 49
0.75
 74
     0
 49
-0.125
 74
     0
 49
0.125
 74
     0
 49
-0.125
 74
     0
  0
LTYPE
  5
53
330
15
100
AcDbSymbolTableRecord
100
AcDbLinetypeTableRecord
  2
PHANTOM
 70
     0
  3
Phantom ______  __  __  ______  __  __  ______
 72
    65
 73
     6
 40
2.5
 49
1.25
 74
     0
 49
-0.25
 74
     0
 49
0.25
 74
     0
 49
-0.25
 74
     0
 49
0.25
 74
     0
 49
-0.25
 74
     0
  0
LTYPE
  5
41D
330
15
100
AcDbSymbolTableRecord
100
AcDbLinetypeTableRecord
  2
PHANTOM2
 70
     0
  3
Phantom (.5x) ___ _ _ ___ _ _ ___ _ _ ___ _ _
 72
    65
 73
     6
 40
1.25
 49
0.625
 74
     0
 49
-0.125
 74
     0
 49
0.125
 74
     0
 49
-0.125
 74
     0
 49
0.125
 74
     0
 49
-0.125
 74
     0
  0
LTYPE
  5
41E
330
15
100
AcDbSymbolTableRecord
100
AcDbLinetypeTableRecord
  2
CENTER
 70
     0
  3
Center ____ _ ____ _ ____ _ ____ _ ____ _ ____
 72
    65
 73
     4
 40
2.0
 49
1.25
 74
     0
 49
-0.25
 74
     0
 49
0.25
 74
     0
 49
-0.25
 74
     0
  0
LTYPE
  5
46D
330
15
100
AcDbSymbolTableRecord
100
AcDbLinetypeTableRecord
  2
ASULTYPE
 70
     0
  3
Solid line
 72
    65
 73
     2
 40
3.0
 49
2.5
 74
     0
 49
0.5
 74
     0
  0
LTYPE
  5
46E
330
15
100
AcDbSymbolTableRecord
100
AcDbLinetypeTableRecord
  2
ASVLTYPE
 70
     0
  3
__ __ __ __ __ __ __ __ __ __ __ __ __ __ __ __ __ __ __ __ __
 72
    65
 73
     2
 40
0.75
 49
0.5
 74
     0
 49
-0.25
 74
     0
  0
LTYPE
  5
4B6
330
15
100
AcDbSymbolTableRecord
100
AcDbLinetypeTableRecord
  2
AM_ISO02W050
 70
     0
  3
__ __ __ __ __ __ __ __ __ __ __ __ __ __ __
 72
    65
 73
     2
 40
7.5
 49
6.0
 74
     0
 49
-1.5
 74
     0
  0
LTYPE
  5
4B7
330
15
100
AcDbSymbolTableRecord
100
AcDbLinetypeTableRecord
  2
AM_ISO08W050
 70
     0
  3
____ . ____ . ____ . ____ . ____ . ____ . ____
 72
    65
 73
     4
 40
18.0
 49
12.0
 74
     0
 49
-1.5
 74
     0
 49
3.0
 74
     0
 49
-1.5
 74
     0
  0
LTYPE
  5
4B8
330
15
100
AcDbSymbolTableRecord
100
AcDbLinetypeTableRecord
  2
AM_ISO09W050
 70
     0
  3
_____ . . _____ . . _____ . . ____ .. ____
 72
    65
 73
     6
 40
22.5
 49
12.0
 74
     0
 49
-1.5
 74
     0
 49
3.0
 74
     0
 49
-1.5
 74
     0
 49
3.0
 74
     0
 49
-1.5
 74
     0
  0
LTYPE
  5
4B9
330
15
100
AcDbSymbolTableRecord
100
AcDbLinetypeTableRecord
  2
Amconstr
 70
     0
  3
_______________________
 72
    65
 73
     2
 40
9999.0
 49
9999.0
 74
     0
 49
0.0
 74
     0
  0
LTYPE
  5
4BA
330
15
100
AcDbSymbolTableRecord
100
AcDbLinetypeTableRecord
  2
AM_ISO08W050x2
 70
     0
  3
__ . __ . __ . __ . __ . __
 72
    65
 73
     4
 40
9.0
 49
6.0
 74
     0
 49
-0.75
 74
     0
 49
1.5
 74
     0
 49
-0.75
 74
     0
  0
LTYPE
  5
4BB
330
15
100
AcDbSymbolTableRecord
100
AcDbLinetypeTableRecord
  2
AM_ISO02W050x2
 70
     0
  3
 _ _ _ _ _ _ _ _ _ _ _ _
 72
    65
 73
     2
 40
3.75
 49
3.0
 74
     0
 49
-0.75
 74
     0
  0
LTYPE
  5
4BE
330
15
100
AcDbSymbolTableRecord
100
AcDbLinetypeTableRecord
  2
Amzigzag
 70
     0
  3
/\/-/\/-/\/-/\/-/\/-/\/
 72
    65
 73
     2
 40
11.0001
 49
0.0001
 74
     4
 75
   135
340
4BD
 46
0.04
 50
0.0
 44
0.0
 45
0.0
 49
-11.0
 74
     0
  0
LTYPE
  5
4BF
330
15
100
AcDbSymbolTableRecord
100
AcDbLinetypeTableRecord
  2
HIDDEN2
 70
     0
  3
Hidden (.5x) _ _ _ _ _ _ _ _ _ _ _ _ _ _ _ _ _
 72
    65
 73
     2
 40
0.1875
 49
0.125
 74
     0
 49
-0.0625
 74
     0
  0
LTYPE
  5
4C0
330
15
100
AcDbSymbolTableRecord
100
AcDbLinetypeTableRecord
  2
Amzigzag2
 70
     0
  3
/\/-/\/-/\/-/\/-/\/-/\/
 72
    65
 73
     2
 40
0.4401
 49
0.0001
 74
     4
 75
   135
340
4BD
 46
0.0016
 50
0.0
 44
0.0
 45
0.0
 49
-0.4400000000000001
 74
     0
  0
LTYPE
  5
4CE
330
15
100
AcDbSymbolTableRecord
100
AcDbLinetypeTableRecord
  2
ACANSTGB
 70
     0
  3
__ . . __ . .
 72
    65
 73
     6
 40
0.35433070866
 49
0.15748031496
 74
     0
 49
-0.03937007874
 74
     0
 49
0.03937007874
 74
     0
 49
-0.03937007874
 74
     0
 49
0.03937007874
 74
     0
 49
-0.03937007874
 74
     0
  0
LTYPE
  5
4CF
330
15
100
AcDbSymbolTableRecord
100
AcDbLinetypeTableRecord
  2
ACANSTGL
 70
     0
  3
_ _ _ _ _
 72
    65
 73
     2
 40
0.11811023622
 49
0.07874015748
 74
     0
 49
-0.03937007874
 74
     0
  0
ENDTAB
  0
TABLE
  2
LAYER
  5
11
330
0
100
AcDbSymbolTable
 70
     8
  0
LAYER
  5
5
330
11
100
AcDbSymbolTableRecord
100
AcDbLayerTableRecord
  2
0
 70
     0
 62
     7
  6
Continuous
370
    -3
390
6
  0
LAYER
  5
11B
330
11
100
AcDbSymbolTableRecord
100
AcDbLayerTableRecord
  2
DEFPOINTS
 70
     0
 62
     7
  6
Continuous
290
     0
370
    -3
390
6
  0
LAYER
  5
229
330
11
100
AcDbSymbolTableRecord
100
AcDbLayerTableRecord
  2
AM_VIS
 70
     0
 62
     7
  6
Continuous
370
    30
390
6
  0
LAYER
  5
249
330
11
100
AcDbSymbolTableRecord
100
AcDbLayerTableRecord
  2
AM_HID
 70
     0
 62
     7
  6
HIDDEN
370
    15
390
6
  0
LAYER
  5
55
330
11
100
AcDbSymbolTableRecord
100
AcDbLayerTableRecord
  2
CENTER
 70
     0
 62
     5
  6
Continuous
370
    -3
390
6
  0
LAYER
  5
52
330
11
100
AcDbSymbolTableRecord
100
AcDbLayerTableRecord
  2
PHANTOM
 70
     0
 62
     2
  6
PHANTOM
370
    -3
390
6
  0
LAYER
  5
5A
330
11
100
AcDbSymbolTableRecord
100
AcDbLayerTableRecord
  2
10
 70
     0
 62
     7
  6
Continuous
370
    -3
390
6
  0
LAYER
  5
D2
330
11
100
AcDbSymbolTableRecord
100
AcDbLayerTableRecord
  2
DIMENSION
 70
     0
 62
     1
  6
Continuous
370
    -3
390
6
  0
ENDTAB
  0
TABLE
  2
STYLE
  5
12
330
0
100
AcDbSymbolTable
 70
     4
  0
STYLE
  5
13
330
12
100
AcDbSymbolTableRecord
100
AcDbTextStyleTableRecord
  2
Standard
 70
     0
 40
0.125
 41
1.0
 50
0.0
 71
     0
 42
0.125
  3
simplex.shx
  4

  0
STYLE
  5
4BD
330
12
100
AcDbSymbolTableRecord
100
AcDbTextStyleTableRecord
  2

 70
     1
 40
0.0
 41
1.0
 50
0.0
 71
     0
 42
0.125
  3
ltypeshp.shx
  4

  0
STYLE
  5
4C1
330
12
100
AcDbSymbolTableRecord
100
AcDbTextStyleTableRecord
  2
ACANSTS
 70
     0
 40
1.0
 41
1.0
 50
0.0
 71
     0
 42
0.125
  3
romans.shx
  4

  0
STYLE
  5
4CD
330
12
100
AcDbSymbolTableRecord
100
AcDbTextStyleTableRecord
  2
ACANSGDT
 70
     0
 40
0.0
 41
1.0
 50
0.0
 71
     0
 42
0.125
  3
amgdtans.shx
  4

  0
ENDTAB
  0
TABLE
  2
VIEW
  5
18
330
0
100
AcDbSymbolTable
 70
     0
  0
ENDTAB
  0
TABLE
  2
UCS
  5
19
330
0
100
AcDbSymbolTable
 70
     0
  0
ENDTAB
  0
TABLE
  2
APPID
  5
1C
330
0
100
AcDbSymbolTable
 70
    13
  0
APPID
  5
1D
330
1C
100
AcDbSymbolTableRecord
100
AcDbRegAppTableRecord
  2
ACAD
 70
     0
  0
APPID
  5
3E9
330
1C
100
AcDbSymbolTableRecord
100
AcDbRegAppTableRecord
  2
GENIUS_GENDIM_13
 70
     0
  0
APPID
  5
3EA
330
1C
100
AcDbSymbolTableRecord
100
AcDbRegAppTableRecord
  2
GENIUS_GENDTOL_13
 70
     0
  0
APPID
  5
3EB
330
1C
100
AcDbSymbolTableRecord
100
AcDbRegAppTableRecord
  2
GENIUS_GE3DTOL_13
 70
     0
  0
APPID
  5
3EE
330
1C
100
AcDbSymbolTableRecord
100
AcDbRegAppTableRecord
  2
MCAD_NO_VIS
 70
     0
  0
APPID
  5
3EF
330
1C
100
AcDbSymbolTableRecord
100
AcDbRegAppTableRecord
  2
ACAD_TEMP_GRAPHIC
 70
     0
  0
APPID
  5
420
330
1C
100
AcDbSymbolTableRecord
100
AcDbRegAppTableRecord
  2
AD_DRAW
 70
     0
  0
APPID
  5
423
330
1C
100
AcDbSymbolTableRecord
100
AcDbRegAppTableRecord
  2
ACATTRIBSERVICES
 70
     0
  0
APPID
  5
46F
330
1C
100
AcDbSymbolTableRecord
100
AcDbRegAppTableRecord
  2
ASURF_PCURVE_APPNAME
 70
     0
  0
APPID
  5
474
330
1C
100
AcDbSymbolTableRecord
100
AcDbRegAppTableRecord
  2
AMG_3D2D_5.0
 70
     0
  0
APPID
  5
4A3
330
1C
100
AcDbSymbolTableRecord
100
AcDbRegAppTableRecord
  2
DESIGNERASSEMBLIES
 70
     0
  0
APPID
  5
4AA
330
1C
100
AcDbSymbolTableRecord
100
AcDbRegAppTableRecord
  2
ACADM_DIM_EDIT
 70
     0
  0
APPID
  5
4AB
330
1C
100
AcDbSymbolTableRecord
100
AcDbRegAppTableRecord
  2
AMDT_DM_ADJ
 70
     0
  0
ENDTAB
  0
TABLE
  2
DIMSTYLE
  5
1E
330
0
100
AcDbSymbolTable
 70
     7
100
AcDbDimStyleTable
 71
     1
340
1F
  0
DIMSTYLE
105
1F
102
{ACAD_REACTORS
330
1B8
330
1C4
330
1D2
330
1E2
330
1F0
330
1FE
330
20C
330
21A
330
110
330
125
330
133
330
141
330
14F
330
15D
330
172
330
180
330
18E
330
19C
330
1AA
102
}
330
1E
100
AcDbSymbolTableRecord
100
AcDbDimStyleTableRecord
  2
Standard
 70
     0
 41
0.125
 44
0.0625
140
0.125
277
     5
340
13
  0
DIMSTYLE
105
4D9
330
1E
100
AcDbSymbolTableRecord
100
AcDbDimStyleTableRecord
  2
AM_ANSI
 70
     0
  4
mm
 41
0.1
 42
0.05
 43
0.5
 44
0.1
 47
0.1
 48
0.1
 78
     7
 79
     2
140
0.12
141
0.0
146
0.71
147
0.06
176
   256
177
   256
178
     2
274
     4
284
     7
340
13
371
    -1
372
    -1
  0
DIMSTYLE
105
4DA
330
1E
100
AcDbSymbolTableRecord
100
AcDbDimStyleTableRecord
  2
AM_ANSI$3
 70
     0
  4
mm
 41
0.1
 42
0.05
 43
0.5
 44
0.1
 47
0.1
 48
0.1
 78
     7
 79
     2
140
0.12
141
0.0
146
0.71
147
0.06
176
   256
177
   256
178
     2
274
     4
284
     7
288
     1
289
     0
340
13
371
    -1
372
    -1
  0
DIMSTYLE
105
4DB
330
1E
100
AcDbSymbolTableRecord
100
AcDbDimStyleTableRecord
  2
AM_ANSI$4
 70
     0
  4
mm
 41
0.1
 42
0.05
 43
0.5
 44
0.1
 47
0.1
 48
0.1
 78
     7
 79
     2
140
0.12
141
0.0
146
0.71
147
0.06
176
   256
177
   256
178
     2
274
     4
284
     7
288
     1
289
     0
340
13
371
    -1
372
    -1
  0
DIMSTYLE
105
4DC
330
1E
100
AcDbSymbolTableRecord
100
AcDbDimStyleTableRecord
  2
AM_ANSI$7
 70
     0
  4
mm
 41
0.1
 42
0.05
 43
0.5
 44
0.1
 47
0.1
 48
0.1
 78
     7
 79
     2
140
0.24
141
0.0
146
0.71
147
0.06
176
   256
177
   256
178
     2
274
     4
284
     7
340
13
371
    -1
372
    -1
  0
DIMSTYLE
105
4DD
330
1E
100
AcDbSymbolTableRecord
100
AcDbDimStyleTableRecord
  2
AM_ANSI$SF
 70
     0
  4
mm
 41
0.1
 42
0.05
 43
0.5
 44
0.1
 47
0.1
 48
0.1
 75
     1
 76
     1
 78
     7
 79
     2
140
0.12
141
0.0
146
0.71
147
0.06
176
   256
177
   256
178
     2
274
     4
284
     7
340
13
371
    -1
372
    -1
  0
DIMSTYLE
105
4E2
330
1E
100
AcDbSymbolTableRecord
100
AcDbDimStyleTableRecord
  2
AM_ANSI$SH
 70
     0
  4
mm
 41
0.1
 42
0.05
 43
0.5
 44
0.1
 47
0.1
 48
0.1
 75
     1
 76
     1
 78
     7
 79
     2
140
0.12
141
0.0
146
0.71
147
0.06
173
     1
176
   256
177
   256
178
     2
274
     4
284
     7
340
13
343
4DE
371
    -1
372
    -1
  0
ENDTAB
  0
TABLE
  2
BLOCK_RECORD
  5
1
330
0
100
AcDbSymbolTable
 70
    31
  0
BLOCK_RECORD
  5
2
102
{ACAD_XDICTIONARY
360
3
102
}
330
1
100
AcDbSymbolTableRecord
100
AcDbBlockTableRecord
  2
*Model_Space
340
B
  0
BLOCK_RECORD
  5
D
330
1
100
AcDbSymbolTableRecord
100
AcDbBlockTableRecord
  2
*Paper_Space
340
10
  0
BLOCK_RECORD
  5
2A
330
1
100
AcDbSymbolTableRecord
100
AcDbBlockTableRecord
  2
*U0
340
0
102
{BLKREFS
331
29
102
}
  0
BLOCK_RECORD
  5
2F
330
1
100
AcDbSymbolTableRecord
100
AcDbBlockTableRecord
  2
*U1
340
0
102
{BLKREFS
331
2E
102
}
  0
BLOCK_RECORD
  5
34
330
1
100
AcDbSymbolTableRecord
100
AcDbBlockTableRecord
  2
*U2
340
0
102
{BLKREFS
331
33
102
}
  0
BLOCK_RECORD
  5
39
330
1
100
AcDbSymbolTableRecord
100
AcDbBlockTableRecord
  2
*U3
340
0
102
{BLKREFS
331
38
102
}
  0
BLOCK_RECORD
  5
63
330
1
100
AcDbSymbolTableRecord
100
AcDbBlockTableRecord
  2
A$C708B5813
340
0
102
{BLKREFS
331
D5
331
62
102
}
  0
BLOCK_RECORD
  5
3E
330
1
100
AcDbSymbolTableRecord
100
AcDbBlockTableRecord
  2
*U5
340
0
102
{BLKREFS
331
3D
102
}
  0
BLOCK_RECORD
  5
43
330
1
100
AcDbSymbolTableRecord
100
AcDbBlockTableRecord
  2
*U6
340
0
102
{BLKREFS
331
42
102
}
  0
BLOCK_RECORD
  5
48
330
1
100
AcDbSymbolTableRecord
100
AcDbBlockTableRecord
  2
*U7
340
0
102
{BLKREFS
331
47
102
}
  0
BLOCK_RECORD
  5
4D
330
1
100
AcDbSymbolTableRecord
100
AcDbBlockTableRecord
  2
*U8
340
0
102
{BLKREFS
331
4C
102
}
  0
BLOCK_RECORD
  5
D3
330
1
100
AcDbSymbolTableRecord
100
AcDbBlockTableRecord
  2
A$C2BF30918
340
0
102
{BLKREFS
331
D1
102
}
  0
BLOCK_RECORD
  5
1B9
330
1
100
AcDbSymbolTableRecord
100
AcDbBlockTableRecord
  2
*D10
340
0
  0
BLOCK_RECORD
  5
1C5
330
1
100
AcDbSymbolTableRecord
100
AcDbBlockTableRecord
  2
*D11
340
0
  0
BLOCK_RECORD
  5
1D3
330
1
100
AcDbSymbolTableRecord
100
AcDbBlockTableRecord
  2
*D12
340
0
  0
BLOCK_RECORD
  5
1E3
330
1
100
AcDbSymbolTableRecord
100
AcDbBlockTableRecord
  2
*D13
340
0
  0
BLOCK_RECORD
  5
1F1
330
1
100
AcDbSymbolTableRecord
100
AcDbBlockTableRecord
  2
*D14
340
0
  0
BLOCK_RECORD
  5
1FF
330
1
100
AcDbSymbolTableRecord
100
AcDbBlockTableRecord
  2
*D15
340
0
  0
BLOCK_RECORD
  5
20D
330
1
100
AcDbSymbolTableRecord
100
AcDbBlockTableRecord
  2
*D16
340
0
  0
BLOCK_RECORD
  5
21B
330
1
100
AcDbSymbolTableRecord
100
AcDbBlockTableRecord
  2
*D17
340
0
  0
BLOCK_RECORD
  5
111
330
1
100
AcDbSymbolTableRecord
100
AcDbBlockTableRecord
  2
*D18
340
0
  0
BLOCK_RECORD
  5
126
330
1
100
AcDbSymbolTableRecord
100
AcDbBlockTableRecord
  2
*D19
340
0
  0
BLOCK_RECORD
  5
134
330
1
100
AcDbSymbolTableRecord
100
AcDbBlockTableRecord
  2
*D20
340
0
  0
BLOCK_RECORD
  5
142
330
1
100
AcDbSymbolTableRecord
100
AcDbBlockTableRecord
  2
*D21
340
0
  0
BLOCK_RECORD
  5
150
330
1
100
AcDbSymbolTableRecord
100
AcDbBlockTableRecord
  2
*D22
340
0
  0
BLOCK_RECORD
  5
15E
330
1
100
AcDbSymbolTableRecord
100
AcDbBlockTableRecord
  2
*D23
340
0
  0
BLOCK_RECORD
  5
173
330
1
100
AcDbSymbolTableRecord
100
AcDbBlockTableRecord
  2
*D24
340
0
  0
BLOCK_RECORD
  5
181
330
1
100
AcDbSymbolTableRecord
100
AcDbBlockTableRecord
  2
*D25
340
0
  0
BLOCK_RECORD
  5
18F
330
1
100
AcDbSymbolTableRecord
100
AcDbBlockTableRecord
  2
*D26
340
0
  0
BLOCK_RECORD
  5
19D
330
1
100
AcDbSymbolTableRecord
100
AcDbBlockTableRecord
  2
*D27
340
0
  0
BLOCK_RECORD
  5
1AB
330
1
100
AcDbSymbolTableRecord
100
AcDbBlockTableRecord
  2
*D28
340
0
  0
BLOCK_RECORD
  5
4DE
330
1
100
AcDbSymbolTableRecord
100
AcDbBlockTableRecord
  2
GENAXEH
340
0
  0
ENDTAB
  0
ENDSEC
  0
SECTION
  2
BLOCKS
  0
BLOCK
  5
4
330
2
100
AcDbEntity
  8
0
100
AcDbBlockBegin
  2
*Model_Space
 70
     0
 10
0.0
 20
0.0
 30
0.0
  3
*Model_Space
  1

  0
ENDBLK
  5
A
330
2
100
AcDbEntity
  8
0
100
AcDbBlockEnd
  0
BLOCK
  5
E
330
D
100
AcDbEntity
 67
     1
  8
0
100
AcDbBlockBegin
  2
*Paper_Space
 70
     0
 10
0.0
 20
0.0
 30
0.0
  3
*Paper_Space
  1

  0
ENDBLK
  5
F
330
D
100
AcDbEntity
 67
     1
  8
0
100
AcDbBlockEnd
  0
BLOCK
  5
2B
330
2A
100
AcDbEntity
  8
0
  6
ByBlock
 62
     2
100
AcDbBlockBegin
  2
*U0
 70
     1
 10
0.0
 20
0.0
 30
0.0
  3
*U0
  1

  0
TEXT
  5
2C
330
2A
100
AcDbEntity
  8
0
  6
ByBlock
 62
     2
100
AcDbText
 10
15.253
 20
1.7495
 30
0.0
 40
0.094
  1
 
 41
0.8842105263157966
 72
     5
 11
15.3282
 21
1.7495
 31
0.0
100
AcDbText
  0
ENDBLK
  5
2D
330
2A
100
AcDbEntity
  8
0
100
AcDbBlockEnd
  0
BLOCK
  5
30
330
2F
100
AcDbEntity
  8
0
  6
ByBlock
 62
     2
100
AcDbBlockBegin
  2
*U1
 70
     1
 10
0.0
 20
0.0
 30
0.0
  3
*U1
  1

  0
TEXT
  5
31
330
2F
100
AcDbEntity
  8
0
  6
ByBlock
 62
     2
100
AcDbText
 10
15.253
 20
1.436999999999999
 30
0.0
 40
0.094
  1
 
 41
0.8842105263157966
 72
     5
 11
15.3282
 21
1.436999999999999
 31
0.0
100
AcDbText
  0
ENDBLK
  5
32
330
2F
100
AcDbEntity
  8
0
100
AcDbBlockEnd
  0
BLOCK
  5
35
330
34
100
AcDbEntity
  8
0
  6
ByBlock
 62
     2
100
AcDbBlockBegin
  2
*U2
 70
     1
 10
0.0
 20
0.0
 30
0.0
  3
*U2
  1

  0
TEXT
  5
36
330
34
100
AcDbEntity
  8
0
  6
ByBlock
 62
     2
100
AcDbText
 10
15.253
 20
1.1245
 30
0.0
 40
0.094
  1
 
 41
0.8842105263157966
 72
     5
 11
15.3282
 21
1.1245
 31
0.0
100
AcDbText
  0
ENDBLK
  5
37
330
34
100
AcDbEntity
  8
0
100
AcDbBlockEnd
  0
BLOCK
  5
3A
330
39
100
AcDbEntity
  8
0
  6
ByBlock
 62
     2
100
AcDbBlockBegin
  2
*U3
 70
     1
 10
0.0
 20
0.0
 30
0.0
  3
*U3
  1

  0
TEXT
  5
3B
330
39
100
AcDbEntity
  8
0
  6
ByBlock
 62
     2
100
AcDbText
 10
15.253
 20
0.812
 30
0.0
 40
0.094
  1
 
 41
0.8842105263157966
 72
     5
 11
15.3282
 21
0.812
 31
0.0
100
AcDbText
  0
ENDBLK
  5
3C
330
39
100
AcDbEntity
  8
0
100
AcDbBlockEnd
  0
BLOCK
  5
64
330
63
100
AcDbEntity
  8
0
100
AcDbBlockBegin
  2
A$C708B5813
 70
     0
 10
0.0
 20
0.0
 30
0.0
  3
A$C708B5813
  1

  0
LINE
  5
65
330
63
100
AcDbEntity
  8
10
100
AcDbLine
 10
0.2399999692803618
 20
0.2640315084226485
 30
0.0
 11
0.2436013672279564
 21
0.2661107764971518
 31
0.0
  0
CIRCLE
  5
66
330
63
100
AcDbEntity
  8
10
100
AcDbCircle
 10
0.2399999692803618
 20
0.2640315084226485
 30
0.0
 40
0.0041585361490064
  0
ARC
  5
67
330
63
100
AcDbEntity
  8
10
100
AcDbCircle
 10
0.2399999692803512
 20
0.2871255191902322
 30
0.0
 40
0.01
100
AcDbArc
 50
240.0000000000001
 51
300.0000000000008
  0
ARC
  5
68
330
63
100
AcDbEntity
  8
10
100
AcDbCircle
 10
0.2399999692803618
 20
0.529612632249878
 30
0.0
 40
0.01
100
AcDbArc
 50
60.00000000000078
 51
119.9999999999996
  0
ARC
  5
69
330
63
100
AcDbEntity
  8
10
100
AcDbCircle
 10
0.2399999692511088
 20
0.3949160812035983
 30
0.0
 40
0.01
100
AcDbArc
 50
239.9999999674645
 51
300.0000000465846
  0
ARC
  5
6A
330
63
100
AcDbEntity
  8
10
100
AcDbCircle
 10
0.2393667475655192
 20
0.4214564796978131
 30
0.0
 40
0.01
100
AcDbArc
 50
60.0
 51
119.9999999818938
  0
LINE
  5
6B
330
63
100
AcDbEntity
  8
10
100
AcDbLine
 10
0.0249999692803549
 20
0.3997088216822098
 30
0.0
 11
0.2349999692803522
 21
0.2784652651523878
 31
0.0
  0
LINE
  5
6C
330
63
100
AcDbEntity
  8
10
100
AcDbLine
 10
-0.0000000307196402
 20
0.3737280595686747
 30
0.0
 11
-0.0000000307196366
 21
0.1312409465090325
 31
0.0
  0
LINE
  5
6D
330
63
100
AcDbEntity
  8
10
100
AcDbLine
 10
0.0149999692803604
 20
0.3823883136065191
 30
0.0
 11
0.2249999692803613
 21
0.2611447570767011
 31
0.0
  0
LINE
  5
6E
330
63
100
AcDbEntity
  8
10
100
AcDbLine
 10
0.2399999692803618
 20
0.2640315084226485
 30
0.0
 11
0.2399999692803618
 21
0.2598729722736421
 31
0.0
  0
LINE
  5
6F
330
63
100
AcDbEntity
  8
10
100
AcDbLine
 10
0.2363985713327672
 20
0.2661107764971531
 30
0.0
 11
0.2399999692803618
 21
0.2640315084226485
 31
0.0
  0
LINE
  5
70
330
63
100
AcDbEntity
  8
10
100
AcDbLine
 10
0.2299999692803709
 20
0.1139204384333419
 30
0.0
 11
0.1356921705519909
 21
0.168369071415853
 31
0.0
  0
LINE
  5
71
330
63
100
AcDbEntity
  8
10
100
AcDbLine
 10
0.2299999692803674
 20
0.1370144492009269
 30
0.0
 11
0.1366506043749744
 21
0.1909097301577374
 31
0.0
  0
LINE
  5
72
330
63
100
AcDbEntity
  8
10
100
AcDbLine
 10
0.2299999692803709
 20
0.113920438433345
 30
0.0
 11
0.2299999692803674
 21
0.0099973899792092
 31
0.0
  0
LINE
  5
73
330
63
100
AcDbEntity
  8
10
100
AcDbLine
 10
0.2299999692803638
 20
0.2524845030388567
 30
0.0
 11
0.2299999692803674
 21
0.1370144492009304
 31
0.0
  0
ARC
  5
74
330
63
100
AcDbEntity
  8
10
100
AcDbCircle
 10
0.1266506043749622
 20
0.1726410827766105
 30
0.0
 40
0.01
100
AcDbArc
 50
239.9999999999996
 51
334.709932108123
  0
LINE
  5
75
330
63
100
AcDbEntity
  8
10
100
AcDbLine
 10
0.1366506043749744
 20
0.1909097301577414
 30
0.0
 11
0.1366506043749673
 21
0.1985892220820524
 31
0.0
  0
LINE
  5
76
330
63
100
AcDbEntity
  8
10
100
AcDbLine
 10
0.1216506043749632
 20
0.1639808287387661
 30
0.0
 11
0.0983493341857553
 21
0.177433823354967
 31
0.0
  0
ARC
  5
77
330
63
100
AcDbEntity
  8
10
100
AcDbCircle
 10
0.1266506043749658
 20
0.1985892220820524
 30
0.0
 40
0.01
100
AcDbArc
 50
0.0
 51
59.99999999999917
  0
LINE
  5
78
330
63
100
AcDbEntity
  8
10
100
AcDbLine
 10
0.1316506043749648
 20
0.2072494761198969
 30
0.0
 11
0.1083493341857533
 21
0.2207024707360996
 31
0.0
  0
ARC
  5
79
330
63
100
AcDbEntity
  8
10
100
AcDbCircle
 10
0.1033493341857543
 20
0.1860940773928115
 30
0.0
 40
0.01
100
AcDbArc
 50
180.0
 51
240.0
  0
LINE
  5
7A
330
63
100
AcDbEntity
  8
10
100
AcDbLine
 10
0.0933493341857528
 20
0.1860940773928115
 30
0.0
 11
0.0933493341857528
 21
0.2120422166982552
 31
0.0
  0
ARC
  5
7B
330
63
100
AcDbEntity
  8
10
100
AcDbCircle
 10
0.1033493341857543
 20
0.2120422166982552
 30
0.0
 40
0.01
100
AcDbArc
 50
60.0
 51
180.0
  0
ARC
  5
7C
330
63
100
AcDbEntity
  8
10
100
AcDbCircle
 10
0.009999969280365
 20
0.1312409465090325
 30
0.0
 40
0.01
100
AcDbArc
 50
180.0000000000008
 51
240.0000000000004
  0
LINE
  5
7D
330
63
100
AcDbEntity
  8
10
100
AcDbLine
 10
0.0049999692803659
 20
0.1225806924711881
 30
0.0
 11
0.2149999692803668
 21
0.0013371359413648
 31
0.0
  0
ARC
  5
7E
330
63
100
AcDbEntity
  8
10
100
AcDbCircle
 10
0.2199999692803658
 20
0.0099973899792092
 30
0.0
 40
0.01
100
AcDbArc
 50
240.0
 51
0.0
  0
ARC
  5
7F
330
63
100
AcDbEntity
  8
10
100
AcDbCircle
 10
0.2199999692803622
 20
0.2524845030388567
 30
0.0
 40
0.01
100
AcDbArc
 50
0.0000000000007124
 51
60.00000000000078
  0
LINE
  5
80
330
63
100
AcDbEntity
  8
10
100
AcDbLine
 10
0.0249999692803549
 20
0.4170293297578988
 30
0.0
 11
0.2349999692803628
 21
0.5382728862877224
 31
0.0
  0
ARC
  5
81
330
63
100
AcDbEntity
  8
10
100
AcDbCircle
 10
0.0299999692803539
 20
0.4083690757200542
 30
0.0
 40
0.01
100
AcDbArc
 50
119.9999999999997
 51
240.0000000000002
  0
LINE
  5
82
330
63
100
AcDbEntity
  8
10
100
AcDbLine
 10
0.2349999692461928
 20
0.3862558271685934
 30
0.0
 11
0.2116986990911549
 21
0.3997088217818918
 31
0.0
  0
LINE
  5
83
330
63
100
AcDbEntity
  8
10
100
AcDbLine
 10
0.2116986990911549
 20
0.4170293298575807
 30
0.0
 11
0.2343667475682558
 21
0.4301167337372376
 31
0.0
  0
ARC
  5
84
330
63
100
AcDbEntity
  8
10
100
AcDbCircle
 10
0.2166986990911539
 20
0.4083690758197364
 30
0.0
 40
0.01
100
AcDbArc
 50
120.0
 51
240.0
  0
ARC
  5
85
330
63
100
AcDbEntity
  8
10
100
AcDbCircle
 10
0.0099999692803614
 20
0.3737280595686747
 30
0.0
 40
0.01
100
AcDbArc
 50
60.00000000000071
 51
180.0
  0
LINE
  5
86
330
63
100
AcDbEntity
  8
10
100
AcDbLine
 10
0.2449999692803502
 20
0.2784652651523878
 30
0.0
 11
0.4549999692803617
 21
0.399708821682216
 31
0.0
  0
LINE
  5
87
330
63
100
AcDbEntity
  8
10
100
AcDbLine
 10
0.2599999692803685
 20
0.2640315084226534
 30
0.0
 11
0.4499999692803557
 21
0.3737280595686805
 31
0.0
  0
ARC
  5
88
330
63
100
AcDbEntity
  8
10
100
AcDbCircle
 10
0.4599999692803573
 20
0.3564075514929916
 30
0.0
 40
0.02
100
AcDbArc
 50
0.0000000000006997
 51
119.9999999999999
  0
LINE
  5
89
330
63
100
AcDbEntity
  8
10
100
AcDbLine
 10
0.3853226110081884
 20
0.1920490020623578
 30
0.0
 11
0.4799999692803604
 21
0.2467110003469632
 31
0.0
  0
LINE
  5
8A
330
63
100
AcDbEntity
  8
10
100
AcDbLine
 10
0.3860173827363553
 20
0.2155441394742277
 30
0.0
 11
0.4799999692803567
 21
0.269805011114542
 31
0.0
  0
ARC
  5
8B
330
63
100
AcDbEntity
  8
10
100
AcDbCircle
 10
0.3766506043749799
 20
0.2120422166982596
 30
0.0
 40
0.01
100
AcDbArc
 50
20.49907611913283
 51
120.0000000000061
  0
LINE
  5
8C
330
63
100
AcDbEntity
  8
10
100
AcDbLine
 10
0.3853226110081849
 20
0.192049002062356
 30
0.0
 11
0.3853226110081813
 21
0.1857245431213443
 31
0.0
  0
LINE
  5
8D
330
63
100
AcDbEntity
  8
10
100
AcDbLine
 10
0.4799999692803604
 20
0.2467110003469597
 30
0.0
 11
0.4799999692803639
 21
0.1370144492009322
 31
0.0
  0
LINE
  5
8E
330
63
100
AcDbEntity
  8
10
100
AcDbLine
 10
0.4799999692803567
 20
0.3564075514929921
 30
0.0
 11
0.4799999692803567
 21
0.2698050111145451
 31
0.0
  0
ARC
  5
8F
330
63
100
AcDbEntity
  8
10
100
AcDbCircle
 10
0.3533493341857579
 20
0.1722355030579732
 30
0.0
 40
0.01
100
AcDbArc
 50
180.0
 51
301.5450923819967
  0
LINE
  5
90
330
63
100
AcDbEntity
  8
10
100
AcDbLine
 10
0.3805543054044094
 20
0.1772022562366846
 30
0.0
 11
0.358581028581991
 21
0.1637132161733139
 31
0.0
  0
LINE
  5
91
330
63
100
AcDbEntity
  8
10
100
AcDbLine
 10
0.3433493341857599
 20
0.1793627247739491
 30
0.0
 11
0.3433493341857563
 21
0.1722355030579732
 31
0.0
  0
ARC
  5
92
330
63
100
AcDbEntity
  8
10
100
AcDbCircle
 10
0.3753226110081798
 20
0.1857245431213443
 30
0.0
 40
0.01
100
AcDbArc
 50
301.5450923819923
 51
0.0
  0
LINE
  5
93
330
63
100
AcDbEntity
  8
10
100
AcDbLine
 10
0.3483493341857553
 20
0.2072494761198902
 30
0.0
 11
0.3716506043749774
 21
0.2207024707361036
 31
0.0
  0
ARC
  5
94
330
63
100
AcDbEntity
  8
10
100
AcDbCircle
 10
0.3533493341857579
 20
0.1985892220820467
 30
0.0
 40
0.01
100
AcDbArc
 50
120.0000000000091
 51
180.0
  0
LINE
  5
95
330
63
100
AcDbEntity
  8
10
100
AcDbLine
 10
0.3433493341857599
 20
0.1793627247739509
 30
0.0
 11
0.3433493341857563
 21
0.1985892220820467
 31
0.0
  0
ARC
  5
96
330
63
100
AcDbEntity
  8
10
100
AcDbCircle
 10
0.2699999692803701
 20
0.2467110003469646
 30
0.0
 40
0.02
100
AcDbArc
 50
120.0000000000001
 51
180.0000000000028
  0
LINE
  5
97
330
63
100
AcDbEntity
  8
10
100
AcDbLine
 10
0.2499999692803705
 20
0.2467110003469637
 30
0.0
 11
0.2499999692803705
 21
0.0273178980548985
 31
0.0
  0
ARC
  5
98
330
63
100
AcDbEntity
  8
10
100
AcDbCircle
 10
0.2699999692803701
 20
0.0273178980548989
 30
0.0
 40
0.02
100
AcDbArc
 50
180.0000000000015
 51
300.0000000000004
  0
LINE
  5
99
330
63
100
AcDbEntity
  8
10
100
AcDbLine
 10
0.2799999692803716
 20
0.0099973899792101
 30
0.0
 11
0.4699999692803658
 21
0.1196939411252429
 31
0.0
  0
ARC
  5
9A
330
63
100
AcDbEntity
  8
10
100
AcDbCircle
 10
0.4599999692803644
 20
0.1370144492009317
 30
0.0
 40
0.02
100
AcDbArc
 50
300.0000000000004
 51
0.0000000000017175
  0
ARC
  5
9B
330
63
100
AcDbEntity
  8
10
100
AcDbCircle
 10
0.2699999692803594
 20
0.2467110003469637
 30
0.0
 40
0.02
100
AcDbArc
 50
120.0000000000008
 51
180.0000000000007
  0
ARC
  5
9C
330
63
100
AcDbEntity
  8
10
100
AcDbCircle
 10
0.4499999692803627
 20
0.4083690757200606
 30
0.0
 40
0.01
100
AcDbArc
 50
300.000000000001
 51
60.00000000000074
  0
LINE
  5
9D
330
63
100
AcDbEntity
  8
10
100
AcDbLine
 10
0.3599999691803148
 20
0.4718776053886781
 30
0.0
 11
0.4549999692803617
 21
0.417029329757905
 31
0.0
  0
LINE
  5
9E
330
63
100
AcDbEntity
  8
10
100
AcDbLine
 10
0.2449999692803608
 20
0.5382728862877224
 30
0.0
 11
0.3399999691803188
 21
0.4834246107724695
 31
0.0
  0
LINE
  5
9F
330
63
100
AcDbEntity
  8
10
100
AcDbLine
 10
0.2660173827513717
 20
0.4176167338147875
 30
0.0
 11
0.3599999691803148
 21
0.4718776053886781
 31
0.0
  0
LINE
  5
A0
330
63
100
AcDbEntity
  8
10
100
AcDbLine
 10
0.2460173826459275
 20
0.429163739137699
 30
0.0
 11
0.3399999691803188
 21
0.4834246107724695
 31
0.0
  0
LINE
  5
A1
330
63
100
AcDbEntity
  8
10
100
AcDbLine
 10
0.2460173826459311
 20
0.4291637391376977
 30
0.0
 11
0.2443667475655182
 21
0.4301167337356575
 31
0.0
  0
LINE
  5
A2
330
63
100
AcDbEntity
  8
10
100
AcDbLine
 10
0.267668017831781
 20
0.4166637392168293
 30
0.0
 11
0.2660173827513788
 21
0.417616733814787
 31
0.0
  0
LINE
  5
A3
330
63
100
AcDbEntity
  8
10
100
AcDbLine
 10
0.2449999692581493
 20
0.3862558271698191
 30
0.0
 11
0.2676680178317312
 21
0.3993432311411684
 31
0.0
  0
ARC
  5
A4
330
63
100
AcDbEntity
  8
10
100
AcDbCircle
 10
0.2626680178317322
 20
0.408003485179013
 30
0.0
 40
0.01
100
AcDbArc
 50
300.0
 51
59.99999999968121
  0
ENDBLK
  5
A5
330
63
100
AcDbEntity
  8
0
100
AcDbBlockEnd
  0
BLOCK
  5
3F
330
3E
100
AcDbEntity
  8
0
  6
ByBlock
 62
     2
100
AcDbBlockBegin
  2
*U5
 70
     1
 10
0.0
 20
0.0
 30
0.0
  3
*U5
  1

  0
TEXT
  5
40
330
3E
100
AcDbEntity
  8
0
  6
ByBlock
 62
     2
100
AcDbText
 10
15.253
 20
1.7495
 30
0.0
 40
0.094
  1
 
 41
0.8842105263157966
 72
     5
 11
15.3282
 21
1.7495
 31
0.0
100
AcDbText
  0
ENDBLK
  5
41
330
3E
100
AcDbEntity
  8
0
100
AcDbBlockEnd
  0
BLOCK
  5
44
330
43
100
AcDbEntity
  8
0
  6
ByBlock
 62
     2
100
AcDbBlockBegin
  2
*U6
 70
     1
 10
0.0
 20
0.0
 30
0.0
  3
*U6
  1

  0
TEXT
  5
45
330
43
100
AcDbEntity
  8
0
  6
ByBlock
 62
     2
100
AcDbText
 10
15.253
 20
1.436999999999999
 30
0.0
 40
0.094
  1
 
 41
0.8842105263157966
 72
     5
 11
15.3282
 21
1.436999999999999
 31
0.0
100
AcDbText
  0
ENDBLK
  5
46
330
43
100
AcDbEntity
  8
0
100
AcDbBlockEnd
  0
BLOCK
  5
49
330
48
100
AcDbEntity
  8
0
  6
ByBlock
 62
     2
100
AcDbBlockBegin
  2
*U7
 70
     1
 10
0.0
 20
0.0
 30
0.0
  3
*U7
  1

  0
TEXT
  5
4A
330
48
100
AcDbEntity
  8
0
  6
ByBlock
 62
     2
100
AcDbText
 10
15.253
 20
1.1245
 30
0.0
 40
0.094
  1
 
 41
0.8842105263157966
 72
     5
 11
15.3282
 21
1.1245
 31
0.0
100
AcDbText
  0
ENDBLK
  5
4B
330
48
100
AcDbEntity
  8
0
100
AcDbBlockEnd
  0
BLOCK
  5
4E
330
4D
100
AcDbEntity
  8
0
  6
ByBlock
 62
     2
100
AcDbBlockBegin
  2
*U8
 70
     1
 10
0.0
 20
0.0
 30
0.0
  3
*U8
  1

  0
TEXT
  5
4F
330
4D
100
AcDbEntity
  8
0
  6
ByBlock
 62
     2
100
AcDbText
 10
15.253
 20
0.812
 30
0.0
 40
0.094
  1
 
 41
0.8842105263157966
 72
     5
 11
15.3282
 21
0.812
 31
0.0
100
AcDbText
  0
ENDBLK
  5
50
330
4D
100
AcDbEntity
  8
0
100
AcDbBlockEnd
  0
BLOCK
  5
D4
330
D3
100
AcDbEntity
  8
0
100
AcDbBlockBegin
  2
A$C2BF30918
 70
     0
 10
0.0
 20
0.0
 30
0.0
  3
A$C2BF30918
  1

  0
INSERT
  5
D5
330
D3
100
AcDbEntity
  8
10
100
AcDbBlockReference
  2
A$C708B5813
 10
0.0000000098500248
 20
-0.0001119937962062
 30
0.0
 41
0.75
 42
0.75
 43
0.75
  0
ENDBLK
  5
D6
330
D3
100
AcDbEntity
  8
0
100
AcDbBlockEnd
  0
BLOCK
  5
1BA
330
1B9
100
AcDbEntity
  8
0
 62
     1
100
AcDbBlockBegin
  2
*D10
 70
     1
 10
0.0
 20
0.0
 30
0.0
  3
*D10
  1

  0
LINE
  5
1BB
330
1B9
100
AcDbEntity
  8
0
 62
     0
370
    -2
100
AcDbLine
 10
6.128424192941396
 20
9.394648251891164
 30
0.0
 11
6.003424192941396
 21
9.394648251891164
 31
0.0
  0
LINE
  5
1BC
330
1B9
100
AcDbEntity
  8
0
 62
     0
370
    -2
100
AcDbLine
 10
6.003424192941396
 20
9.394648251891164
 30
0.0
 11
5.331611215100016
 21
8.403235484936919
 31
0.0
  0
MTEXT
  5
1BD
330
1B9
100
AcDbEntity
  8
0
 62
     0
100
AcDbMText
 10
6.408900383417585
 20
9.394648251891164
 30
0.0
 40
0.125
 41
0.0
 71
     5
 72
     1
  1
\A1;\U+22051{\H1.000000x;\S3/16;}
 73
     1
 44
1.0
1001
ACAD
1000
MTEXTBEGIN
1070
    73
1070
     1
1070
    44
1040
1.0
1070
    74
1070
     0
1000
MTEXTEND
  0
SOLID
  5
1BE
330
1B9
100
AcDbEntity
  8
0
 62
     0
100
AcDbTrace
 10
5.314364611833686
 20
8.414922334536001
 30
0.0
 11
5.348857818366347
 21
8.391548635337839
 31
0.0
 12
5.261490117505531
 22
8.299755865338932
 32
0.0
 13
5.261490117505531
 23
8.299755865338932
 33
0.0
  0
LINE
  5
1BF
330
1B9
100
AcDbEntity
  8
0
 62
     0
370
    -2
100
AcDbLine
 10
4.832104005148217
 20
7.798914506484662
 30
0.0
 11
5.012104005148215
 21
7.798914506484662
 31
0.0
  0
LINE
  5
1C0
330
1B9
100
AcDbEntity
  8
0
 62
     0
370
    -2
100
AcDbLine
 10
4.922104005148216
 20
7.708914506484662
 30
0.0
 11
4.922104005148216
 21
7.888914506484661
 31
0.0
  0
POINT
  5
1C1
330
1B9
100
AcDbEntity
  8
DEFPOINTS
 62
     0
100
AcDbPoint
 10
5.261490117505531
 20
8.299755865338932
 30
0.0
  0
POINT
  5
1C2
330
1B9
100
AcDbEntity
  8
DEFPOINTS
 62
     0
100
AcDbPoint
 10
4.582717892790903
 20
7.298073147630393
 30
0.0
  0
ENDBLK
  5
1C3
330
1B9
100
AcDbEntity
  8
0
 62
     1
100
AcDbBlockEnd
  0
BLOCK
  5
1C6
330
1C5
100
AcDbEntity
  8
0
 62
     1
100
AcDbBlockBegin
  2
*D11
 70
     1
 10
0.0
 20
0.0
 30
0.0
  3
*D11
  1

  0
LINE
  5
1C7
330
1C5
100
AcDbEntity
  8
0
 62
     0
370
    -2
100
AcDbLine
 10
5.399853101427243
 20
8.801414506484674
 30
0.0
 11
7.561159636444273
 21
8.801414506484674
 31
0.0
  0
LINE
  5
1C8
330
1C5
100
AcDbEntity
  8
0
 62
     0
370
    -2
100
AcDbLine
 10
5.358431745189943
 20
6.796414506484656
 30
0.0
 11
7.561159636444273
 21
6.796414506484655
 31
0.0
  0
LINE
  5
1C9
330
1C5
100
AcDbEntity
  8
0
 62
     0
370
    -2
100
AcDbLine
 10
7.498659636444273
 20
8.676414506484674
 30
0.0
 11
7.498659636444273
 21
7.951414506484663
 31
0.0
  0
LINE
  5
1CA
330
1C5
100
AcDbEntity
  8
0
 62
     0
370
    -2
100
AcDbLine
 10
7.498659636444273
 20
6.921414506484655
 30
0.0
 11
7.498659636444273
 21
7.646414506484663
 31
0.0
  0
SOLID
  5
1CB
330
1C5
100
AcDbEntity
  8
0
 62
     0
100
AcDbTrace
 10
7.47782630311094
 20
8.676414506484674
 30
0.0
 11
7.519492969777606
 21
8.676414506484674
 31
0.0
 12
7.498659636444273
 22
8.801414506484674
 32
0.0
 13
7.498659636444273
 23
8.801414506484674
 33
0.0
  0
SOLID
  5
1CC
330
1C5
100
AcDbEntity
  8
0
 62
     0
100
AcDbTrace
 10
7.47782630311094
 20
6.921414506484655
 30
0.0
 11
7.519492969777606
 21
6.921414506484655
 31
0.0
 12
7.498659636444273
 22
6.796414506484655
 32
0.0
 13
7.498659636444273
 23
6.796414506484655
 33
0.0
  0
MTEXT
  5
1CD
330
1C5
100
AcDbEntity
  8
0
 62
     0
100
AcDbMText
 10
7.498659636444273
 20
7.798914506484664
 30
0.0
 40
0.125
 41
0.0
 71
     5
 72
     1
  1
\A1;2
 73
     1
 44
1.0
1001
ACAD
1000
MTEXTBEGIN
1070
    73
1070
     1
1070
    44
1040
1.0
1070
    74
1070
     0
1000
MTEXTEND
  0
POINT
  5
1CE
330
1C5
100
AcDbEntity
  8
DEFPOINTS
 62
     0
100
AcDbPoint
 10
5.337353101427243
 20
8.801414506484674
 30
0.0
  0
POINT
  5
1CF
330
1C5
100
AcDbEntity
  8
DEFPOINTS
 62
     0
100
AcDbPoint
 10
5.295931745189943
 20
6.796414506484656
 30
0.0
  0
POINT
  5
1D0
330
1C5
100
AcDbEntity
  8
DEFPOINTS
 62
     0
100
AcDbPoint
 10
7.498659636444273
 20
6.796414506484655
 30
0.0
  0
ENDBLK
  5
1D1
330
1C5
100
AcDbEntity
  8
0
 62
     1
100
AcDbBlockEnd
  0
BLOCK
  5
1D4
330
1D3
100
AcDbEntity
  8
0
 62
     1
100
AcDbBlockBegin
  2
*D12
 70
     1
 10
0.0
 20
0.0
 30
0.0
  3
*D12
  1

  0
LINE
  5
1D5
330
1D3
100
AcDbEntity
  8
0
 62
     0
370
    -2
100
AcDbLine
 10
5.366716016437405
 20
8.721414506484673
 30
0.0
 11
6.974294560682758
 21
8.721414506484673
 31
0.0
  0
LINE
  5
1D6
330
1D3
100
AcDbEntity
  8
0
 62
     0
370
    -2
100
AcDbLine
 10
5.366716016437405
 20
6.876414506484656
 30
0.0
 11
6.974294560682758
 21
6.876414506484655
 31
0.0
  0
LINE
  5
1D7
330
1D3
100
AcDbEntity
  8
0
 62
     0
370
    -2
100
AcDbLine
 10
6.911794560682758
 20
8.596414506484673
 30
0.0
 11
6.911794560682758
 21
8.034747839817999
 31
0.0
  0
LINE
  5
1D8
330
1D3
100
AcDbEntity
  8
0
 62
     0
370
    -2
100
AcDbLine
 10
6.911794560682758
 20
7.001414506484655
 30
0.0
 11
6.911794560682758
 21
7.56308117315133
 31
0.0
  0
SOLID
  5
1D9
330
1D3
100
AcDbEntity
  8
0
 62
     0
100
AcDbTrace
 10
6.890961227349424
 20
8.596414506484673
 30
0.0
 11
6.932627894016089
 21
8.596414506484673
 31
0.0
 12
6.911794560682758
 22
8.721414506484673
 32
0.0
 13
6.911794560682758
 23
8.721414506484673
 33
0.0
  0
SOLID
  5
1DA
330
1D3
100
AcDbEntity
  8
0
 62
     0
100
AcDbTrace
 10
6.890961227349424
 20
7.001414506484655
 30
0.0
 11
6.932627894016089
 21
7.001414506484655
 31
0.0
 12
6.911794560682758
 22
6.876414506484655
 32
0.0
 13
6.911794560682758
 23
6.876414506484655
 33
0.0
  0
MTEXT
  5
1DB
330
1D3
100
AcDbEntity
  8
0
 62
     0
100
AcDbMText
 10
6.911794560682755
 20
7.798914506484668
 30
0.0
 40
0.125
 41
0.0
 71
     5
 72
     1
  1
\A1;1{\H1.000000x;\S7/8;}
 73
     1
 44
1.0
1001
ACAD
1000
MTEXTBEGIN
1070
    73
1070
     1
1070
    44
1040
1.0
1070
    74
1070
     0
1000
MTEXTEND
  0
POINT
  5
1DC
330
1D3
100
AcDbEntity
  8
DEFPOINTS
 62
     0
100
AcDbPoint
 10
5.304216016437405
 20
8.721414506484673
 30
0.0
  0
POINT
  5
1DD
330
1D3
100
AcDbEntity
  8
DEFPOINTS
 62
     0
100
AcDbPoint
 10
5.304216016437405
 20
6.876414506484656
 30
0.0
  0
POINT
  5
1DE
330
1D3
100
AcDbEntity
  8
DEFPOINTS
 62
     0
100
AcDbPoint
 10
6.911794560682758
 20
6.876414506484655
 30
0.0
  0
ENDBLK
  5
1DF
330
1D3
100
AcDbEntity
  8
0
 62
     1
100
AcDbBlockEnd
  0
BLOCK
  5
1E4
330
1E3
100
AcDbEntity
  8
0
 62
     1
100
AcDbBlockBegin
  2
*D13
 70
     1
 10
0.0
 20
0.0
 30
0.0
  3
*D13
  1

  0
LINE
  5
1E5
330
1E3
100
AcDbEntity
  8
0
 62
     0
370
    -2
100
AcDbLine
 10
12.3943387601969
 20
7.101264466008949
 30
0.0
 11
15.16967737932899
 21
7.101264466008946
 31
0.0
  0
LINE
  5
1E6
330
1E3
100
AcDbEntity
  8
0
 62
     0
370
    -2
100
AcDbLine
 10
12.3943387601969
 20
8.632514466008936
 30
0.0
 11
15.16967737932899
 21
8.632514466008936
 31
0.0
  0
LINE
  5
1E7
330
1E3
100
AcDbEntity
  8
0
 62
     0
370
    -2
100
AcDbLine
 10
15.10717737932899
 20
7.226264466008946
 30
0.0
 11
15.10717737932899
 21
7.600029146933143
 31
0.0
  0
LINE
  5
1E8
330
1E3
100
AcDbEntity
  8
0
 62
     0
370
    -2
100
AcDbLine
 10
15.10717737932899
 20
8.507514466008936
 30
0.0
 11
15.10717737932899
 21
8.238362480266477
 31
0.0
  0
SOLID
  5
1E9
330
1E3
100
AcDbEntity
  8
0
 62
     0
100
AcDbTrace
 10
15.08634404599565
 20
7.226264466008946
 30
0.0
 11
15.12801071266232
 21
7.226264466008946
 31
0.0
 12
15.10717737932899
 22
7.101264466008946
 32
0.0
 13
15.10717737932899
 23
7.101264466008946
 33
0.0
  0
SOLID
  5
1EA
330
1E3
100
AcDbEntity
  8
0
 62
     0
100
AcDbTrace
 10
15.08634404599565
 20
8.507514466008936
 30
0.0
 11
15.12801071266232
 21
8.507514466008936
 31
0.0
 12
15.10717737932899
 22
8.632514466008936
 32
0.0
 13
15.10717737932899
 23
8.632514466008936
 33
0.0
  0
MTEXT
  5
1EB
330
1E3
100
AcDbEntity
  8
0
 62
     0
100
AcDbMText
 10
15.10717737932899
 20
7.919195813599812
 30
0.0
 40
0.125
 41
0.0
 71
     5
 72
     1
  1
\A1;1{\H1.000000x;\S1/2;}\PCLOSED HT
 73
     1
 44
1.0
1001
ACAD
1000
MTEXTBEGIN
1070
    73
1070
     1
1070
    44
1040
1.0
1070
    74
1070
     0
1000
MTEXTEND
  0
POINT
  5
1EC
330
1E3
100
AcDbEntity
  8
DEFPOINTS
 62
     0
100
AcDbPoint
 10
12.3318387601969
 20
7.101264466008949
 30
0.0
  0
POINT
  5
1ED
330
1E3
100
AcDbEntity
  8
DEFPOINTS
 62
     0
100
AcDbPoint
 10
12.3318387601969
 20
8.632514466008936
 30
0.0
  0
POINT
  5
1EE
330
1E3
100
AcDbEntity
  8
DEFPOINTS
 62
     0
100
AcDbPoint
 10
15.10717737932899
 20
8.632514466008936
 30
0.0
  0
ENDBLK
  5
1EF
330
1E3
100
AcDbEntity
  8
0
 62
     1
100
AcDbBlockEnd
  0
BLOCK
  5
1F2
330
1F1
100
AcDbEntity
  8
0
 62
     1
100
AcDbBlockBegin
  2
*D14
 70
     1
 10
0.0
 20
0.0
 30
0.0
  3
*D14
  1

  0
LINE
  5
1F3
330
1F1
100
AcDbEntity
  8
0
 62
     0
370
    -2
100
AcDbLine
 10
12.31433876019689
 20
8.532514466008942
 30
0.0
 11
13.77935578631344
 21
8.532514466008942
 31
0.0
  0
LINE
  5
1F4
330
1F1
100
AcDbEntity
  8
0
 62
     0
370
    -2
100
AcDbLine
 10
12.31433876019689
 20
7.201264466008947
 30
0.0
 11
13.77935578631344
 21
7.201264466008947
 31
0.0
  0
LINE
  5
1F5
330
1F1
100
AcDbEntity
  8
0
 62
     0
370
    -2
100
AcDbLine
 10
13.71685578631345
 20
8.407514466008942
 30
0.0
 11
13.71685578631345
 21
8.139766181891014
 31
0.0
  0
LINE
  5
1F6
330
1F1
100
AcDbEntity
  8
0
 62
     0
370
    -2
100
AcDbLine
 10
13.71685578631345
 20
7.326264466008947
 30
0.0
 11
13.71685578631345
 21
7.501432848557682
 31
0.0
  0
SOLID
  5
1F7
330
1F1
100
AcDbEntity
  8
0
 62
     0
100
AcDbTrace
 10
13.69602245298011
 20
8.407514466008942
 30
0.0
 11
13.73768911964678
 21
8.407514466008942
 31
0.0
 12
13.71685578631345
 22
8.532514466008942
 32
0.0
 13
13.71685578631345
 23
8.532514466008942
 33
0.0
  0
SOLID
  5
1F8
330
1F1
100
AcDbEntity
  8
0
 62
     0
100
AcDbTrace
 10
13.69602245298011
 20
7.326264466008947
 30
0.0
 11
13.73768911964678
 21
7.326264466008947
 31
0.0
 12
13.71685578631345
 22
7.201264466008947
 32
0.0
 13
13.71685578631345
 23
7.201264466008947
 33
0.0
  0
MTEXT
  5
1F9
330
1F1
100
AcDbEntity
  8
0
 62
     0
100
AcDbMText
 10
13.71685578631344
 20
7.820599515224351
 30
0.0
 40
0.125
 41
0.0
 71
     5
 72
     1
  1
\A1;1{\H1.000000x;\S5/16;}\PCAVITY HT.
 73
     1
 44
1.0
1001
ACAD
1000
MTEXTBEGIN
1070
    73
1070
     1
1070
    44
1040
1.0
1070
    74
1070
     0
1000
MTEXTEND
  0
POINT
  5
1FA
330
1F1
100
AcDbEntity
  8
DEFPOINTS
 62
     0
100
AcDbPoint
 10
12.25183876019689
 20
8.532514466008942
 30
0.0
  0
POINT
  5
1FB
330
1F1
100
AcDbEntity
  8
DEFPOINTS
 62
     0
100
AcDbPoint
 10
12.2518387601969
 20
7.201264466008947
 30
0.0
  0
POINT
  5
1FC
330
1F1
100
AcDbEntity
  8
DEFPOINTS
 62
     0
100
AcDbPoint
 10
13.71685578631345
 20
7.201264466008947
 30
0.0
  0
ENDBLK
  5
1FD
330
1F1
100
AcDbEntity
  8
0
 62
     1
100
AcDbBlockEnd
  0
BLOCK
  5
200
330
1FF
100
AcDbEntity
  8
0
 62
     1
100
AcDbBlockBegin
  2
*D15
 70
     1
 10
0.0
 20
0.0
 30
0.0
  3
*D15
  1

  0
LINE
  5
201
330
1FF
100
AcDbEntity
  8
0
 62
     0
370
    -2
100
AcDbLine
 10
12.83433876019689
 20
8.198764466008942
 30
0.0
 11
12.83433876019689
 21
9.459623655277248
 31
0.0
  0
LINE
  5
202
330
1FF
100
AcDbEntity
  8
0
 62
     0
370
    -2
100
AcDbLine
 10
10.1568387601967
 20
8.198764466008945
 30
0.0
 11
10.1568387601967
 21
9.459623655277248
 31
0.0
  0
LINE
  5
203
330
1FF
100
AcDbEntity
  8
0
 62
     0
370
    -2
100
AcDbLine
 10
12.70933876019689
 20
9.397123655277248
 30
0.0
 11
11.73142209353013
 21
9.397123655277248
 31
0.0
  0
LINE
  5
204
330
1FF
100
AcDbEntity
  8
0
 62
     0
370
    -2
100
AcDbLine
 10
10.2818387601967
 20
9.397123655277248
 30
0.0
 11
11.25975542686346
 21
9.397123655277248
 31
0.0
  0
SOLID
  5
205
330
1FF
100
AcDbEntity
  8
0
 62
     0
100
AcDbTrace
 10
12.70933876019689
 20
9.417956988610582
 30
0.0
 11
12.70933876019689
 21
9.376290321943914
 31
0.0
 12
12.83433876019689
 22
9.397123655277248
 32
0.0
 13
12.83433876019689
 23
9.397123655277248
 33
0.0
  0
SOLID
  5
206
330
1FF
100
AcDbEntity
  8
0
 62
     0
100
AcDbTrace
 10
10.2818387601967
 20
9.417956988610582
 30
0.0
 11
10.2818387601967
 21
9.376290321943914
 31
0.0
 12
10.1568387601967
 22
9.397123655277248
 32
0.0
 13
10.1568387601967
 23
9.397123655277248
 33
0.0
  0
MTEXT
  5
207
330
1FF
100
AcDbEntity
  8
0
 62
     0
100
AcDbMText
 10
11.49558876019679
 20
9.397123655277248
 30
0.0
 40
0.125
 41
0.0
 71
     5
 72
     1
  1
\A1;2{\H1.000000x;\S11/16;}
 73
     1
 44
1.0
1001
ACAD
1000
MTEXTBEGIN
1070
    73
1070
     1
1070
    44
1040
1.0
1070
    74
1070
     0
1000
MTEXTEND
  0
POINT
  5
208
330
1FF
100
AcDbEntity
  8
DEFPOINTS
 62
     0
100
AcDbPoint
 10
12.83433876019689
 20
8.136264466008942
 30
0.0
  0
POINT
  5
209
330
1FF
100
AcDbEntity
  8
DEFPOINTS
 62
     0
100
AcDbPoint
 10
10.1568387601967
 20
8.136264466008945
 30
0.0
  0
POINT
  5
20A
330
1FF
100
AcDbEntity
  8
DEFPOINTS
 62
     0
100
AcDbPoint
 10
10.1568387601967
 20
9.397123655277248
 30
0.0
  0
ENDBLK
  5
20B
330
1FF
100
AcDbEntity
  8
0
 62
     1
100
AcDbBlockEnd
  0
BLOCK
  5
20E
330
20D
100
AcDbEntity
  8
0
 62
     1
100
AcDbBlockBegin
  2
*D16
 70
     1
 10
0.0
 20
0.0
 30
0.0
  3
*D16
  1

  0
LINE
  5
20F
330
20D
100
AcDbEntity
  8
0
 62
     0
370
    -2
100
AcDbLine
 10
10.28183876019665
 20
7.788764466008945
 30
0.0
 11
10.28183876019665
 21
5.949039837328072
 31
0.0
  0
LINE
  5
210
330
20D
100
AcDbEntity
  8
0
 62
     0
370
    -2
100
AcDbLine
 10
12.8318387601969
 20
7.601264466008949
 30
0.0
 11
12.8318387601969
 21
5.949039837328072
 31
0.0
  0
LINE
  5
211
330
20D
100
AcDbEntity
  8
0
 62
     0
370
    -2
100
AcDbLine
 10
10.40683876019665
 20
6.011539837328072
 30
0.0
 11
10.90136256972058
 21
6.011539837328072
 31
0.0
  0
LINE
  5
212
330
20D
100
AcDbEntity
  8
0
 62
     0
370
    -2
100
AcDbLine
 10
12.7068387601969
 20
6.011539837328072
 30
0.0
 11
12.21231495067296
 21
6.011539837328072
 31
0.0
  0
SOLID
  5
213
330
20D
100
AcDbEntity
  8
0
 62
     0
100
AcDbTrace
 10
10.40683876019665
 20
6.032373170661405
 30
0.0
 11
10.40683876019665
 21
5.990706503994737
 31
0.0
 12
10.28183876019665
 22
6.011539837328072
 32
0.0
 13
10.28183876019665
 23
6.011539837328072
 33
0.0
  0
SOLID
  5
214
330
20D
100
AcDbEntity
  8
0
 62
     0
100
AcDbTrace
 10
12.7068387601969
 20
6.032373170661405
 30
0.0
 11
12.7068387601969
 21
5.990706503994737
 31
0.0
 12
12.8318387601969
 22
6.011539837328072
 32
0.0
 13
12.8318387601969
 23
6.011539837328072
 33
0.0
  0
MTEXT
  5
215
330
20D
100
AcDbEntity
  8
0
 62
     0
100
AcDbMText
 10
11.55683876019677
 20
6.011539837328072
 30
0.0
 40
0.125
 41
0.0
 71
     5
 72
     1
  1
\A1;2{\H1.000000x;\S9/16;}\PFROM HINGE
 73
     1
 44
1.0
1001
ACAD
1000
MTEXTBEGIN
1070
    73
1070
     1
1070
    44
1040
1.0
1070
    74
1070
     0
1000
MTEXTEND
  0
POINT
  5
216
330
20D
100
AcDbEntity
  8
DEFPOINTS
 62
     0
100
AcDbPoint
 10
10.28183876019665
 20
7.851264466008945
 30
0.0
  0
POINT
  5
217
330
20D
100
AcDbEntity
  8
DEFPOINTS
 62
     0
100
AcDbPoint
 10
12.8318387601969
 20
7.663764466008949
 30
0.0
  0
POINT
  5
218
330
20D
100
AcDbEntity
  8
DEFPOINTS
 62
     0
100
AcDbPoint
 10
12.8318387601969
 20
6.011539837328072
 30
0.0
  0
ENDBLK
  5
219
330
20D
100
AcDbEntity
  8
0
 62
     1
100
AcDbBlockEnd
  0
BLOCK
  5
21C
330
21B
100
AcDbEntity
  8
0
 62
     1
100
AcDbBlockBegin
  2
*D17
 70
     1
 10
0.0
 20
0.0
 30
0.0
  3
*D17
  1

  0
LINE
  5
21D
330
21B
100
AcDbEntity
  8
0
 62
     0
370
    -2
100
AcDbLine
 10
12.3318387601969
 20
7.038764466008949
 30
0.0
 11
12.3318387601969
 21
6.55904657844175
 31
0.0
  0
LINE
  5
21E
330
21B
100
AcDbEntity
  8
0
 62
     0
370
    -2
100
AcDbLine
 10
10.28183876019665
 20
7.788764466008945
 30
0.0
 11
10.28183876019665
 21
6.55904657844175
 31
0.0
  0
LINE
  5
21F
330
21B
100
AcDbEntity
  8
0
 62
     0
370
    -2
100
AcDbLine
 10
12.2068387601969
 20
6.62154657844175
 30
0.0
 11
11.96231495067296
 21
6.62154657844175
 31
0.0
  0
LINE
  5
220
330
21B
100
AcDbEntity
  8
0
 62
     0
370
    -2
100
AcDbLine
 10
10.40683876019665
 20
6.62154657844175
 30
0.0
 11
10.65136256972058
 21
6.62154657844175
 31
0.0
  0
SOLID
  5
221
330
21B
100
AcDbEntity
  8
0
 62
     0
100
AcDbTrace
 10
12.2068387601969
 20
6.642379911775083
 30
0.0
 11
12.2068387601969
 21
6.600713245108418
 31
0.0
 12
12.3318387601969
 22
6.62154657844175
 32
0.0
 13
12.3318387601969
 23
6.62154657844175
 33
0.0
  0
SOLID
  5
222
330
21B
100
AcDbEntity
  8
0
 62
     0
100
AcDbTrace
 10
10.40683876019665
 20
6.642379911775083
 30
0.0
 11
10.40683876019665
 21
6.600713245108418
 31
0.0
 12
10.28183876019665
 22
6.62154657844175
 32
0.0
 13
10.28183876019665
 23
6.62154657844175
 33
0.0
  0
MTEXT
  5
223
330
21B
100
AcDbEntity
  8
0
 62
     0
100
AcDbMText
 10
11.30683876019677
 20
6.62154657844175
 30
0.0
 40
0.125
 41
0.0
 71
     5
 72
     1
  1
\A1;2{\H1.000000x;\S1/16;}\PFROM HINGE
 73
     1
 44
1.0
1001
ACAD
1000
MTEXTBEGIN
1070
    73
1070
     1
1070
    44
1040
1.0
1070
    74
1070
     0
1000
MTEXTEND
  0
POINT
  5
224
330
21B
100
AcDbEntity
  8
DEFPOINTS
 62
     0
100
AcDbPoint
 10
12.3318387601969
 20
7.101264466008949
 30
0.0
  0
POINT
  5
225
330
21B
100
AcDbEntity
  8
DEFPOINTS
 62
     0
100
AcDbPoint
 10
10.28183876019665
 20
7.851264466008945
 30
0.0
  0
POINT
  5
226
330
21B
100
AcDbEntity
  8
DEFPOINTS
 62
     0
100
AcDbPoint
 10
10.28183876019665
 20
6.62154657844175
 30
0.0
  0
ENDBLK
  5
227
330
21B
100
AcDbEntity
  8
0
 62
     1
100
AcDbBlockEnd
  0
BLOCK
  5
112
330
111
100
AcDbEntity
  8
0
 62
     1
100
AcDbBlockBegin
  2
*D18
 70
     1
 10
0.0
 20
0.0
 30
0.0
  3
*D18
  1

  0
LINE
  5
113
330
111
100
AcDbEntity
  8
0
 62
     0
370
    -2
100
AcDbLine
 10
5.987104005148227
 20
3.016053427210451
 30
0.0
 11
7.51900011832543
 21
3.016053427210449
 31
0.0
  0
LINE
  5
114
330
111
100
AcDbEntity
  8
0
 62
     0
370
    -2
100
AcDbLine
 10
6.487104005148231
 20
3.891053427210451
 30
0.0
 11
7.51900011832543
 21
3.891053427210449
 31
0.0
  0
LINE
  5
115
330
111
100
AcDbEntity
  8
0
 62
     0
370
    -2
100
AcDbLine
 10
7.45650011832543
 20
3.141053427210449
 30
0.0
 11
7.45650011832543
 21
3.204661629558256
 31
0.0
  0
LINE
  5
116
330
111
100
AcDbEntity
  8
0
 62
     0
370
    -2
100
AcDbLine
 10
7.45650011832543
 20
3.766053427210449
 30
0.0
 11
7.45650011832543
 21
3.676328296224923
 31
0.0
  0
SOLID
  5
117
330
111
100
AcDbEntity
  8
0
 62
     0
100
AcDbTrace
 10
7.435666784992097
 20
3.141053427210449
 30
0.0
 11
7.477333451658762
 21
3.141053427210449
 31
0.0
 12
7.45650011832543
 22
3.016053427210449
 32
0.0
 13
7.45650011832543
 23
3.016053427210449
 33
0.0
  0
SOLID
  5
118
330
111
100
AcDbEntity
  8
0
 62
     0
100
AcDbTrace
 10
7.435666784992097
 20
3.766053427210449
 30
0.0
 11
7.477333451658762
 21
3.766053427210449
 31
0.0
 12
7.45650011832543
 22
3.891053427210449
 32
0.0
 13
7.45650011832543
 23
3.891053427210449
 33
0.0
  0
MTEXT
  5
119
330
111
100
AcDbEntity
  8
0
 62
     0
100
AcDbMText
 10
7.456500118325428
 20
3.440494962891591
 30
0.0
 40
0.125
 41
0.0
 71
     5
 72
     1
  1
\A1;{\H1.000000x;\S7/8;}
 73
     1
 44
1.0
1001
ACAD
1000
MTEXTBEGIN
1070
    73
1070
     1
1070
    44
1040
1.0
1070
    74
1070
     0
1000
MTEXTEND
  0
POINT
  5
11A
330
111
100
AcDbEntity
  8
DEFPOINTS
 62
     0
100
AcDbPoint
 10
5.924604005148227
 20
3.016053427210451
 30
0.0
  0
POINT
  5
11C
330
111
100
AcDbEntity
  8
DEFPOINTS
 62
     0
100
AcDbPoint
 10
6.424604005148231
 20
3.891053427210451
 30
0.0
  0
POINT
  5
11D
330
111
100
AcDbEntity
  8
DEFPOINTS
 62
     0
100
AcDbPoint
 10
7.45650011832543
 20
3.891053427210449
 30
0.0
  0
ENDBLK
  5
11E
330
111
100
AcDbEntity
  8
0
 62
     1
100
AcDbBlockEnd
  0
BLOCK
  5
127
330
126
100
AcDbEntity
  8
0
 62
     1
100
AcDbBlockBegin
  2
*D19
 70
     1
 10
0.0
 20
0.0
 30
0.0
  3
*D19
  1

  0
LINE
  5
128
330
126
100
AcDbEntity
  8
0
 62
     0
370
    -2
100
AcDbLine
 10
3.874604005147978
 20
2.521383107247658
 30
0.0
 11
3.874604005147978
 21
2.074320925747314
 31
0.0
  0
LINE
  5
129
330
126
100
AcDbEntity
  8
0
 62
     0
370
    -2
100
AcDbLine
 10
5.924604005148231
 20
2.953553427210451
 30
0.0
 11
5.924604005148231
 21
2.074320925747314
 31
0.0
  0
LINE
  5
12A
330
126
100
AcDbEntity
  8
0
 62
     0
370
    -2
100
AcDbLine
 10
3.999604005147978
 20
2.136820925747314
 30
0.0
 11
4.663770671814771
 21
2.136820925747314
 31
0.0
  0
LINE
  5
12B
330
126
100
AcDbEntity
  8
0
 62
     0
370
    -2
100
AcDbLine
 10
5.799604005148231
 20
2.136820925747314
 30
0.0
 11
5.135437338481438
 21
2.136820925747314
 31
0.0
  0
SOLID
  5
12C
330
126
100
AcDbEntity
  8
0
 62
     0
100
AcDbTrace
 10
3.999604005147978
 20
2.157654259080648
 30
0.0
 11
3.999604005147978
 21
2.115987592413981
 31
0.0
 12
3.874604005147978
 22
2.136820925747314
 32
0.0
 13
3.874604005147978
 23
2.136820925747314
 33
0.0
  0
SOLID
  5
12D
330
126
100
AcDbEntity
  8
0
 62
     0
100
AcDbTrace
 10
5.799604005148231
 20
2.157654259080648
 30
0.0
 11
5.799604005148231
 21
2.115987592413981
 31
0.0
 12
5.924604005148231
 22
2.136820925747314
 32
0.0
 13
5.924604005148231
 23
2.136820925747314
 33
0.0
  0
MTEXT
  5
12E
330
126
100
AcDbEntity
  8
0
 62
     0
100
AcDbMText
 10
4.899604005148106
 20
2.136820925747314
 30
0.0
 40
0.125
 41
0.0
 71
     5
 72
     1
  1
\A1;2{\H1.000000x;\S1/16;}
 73
     1
 44
1.0
1001
ACAD
1000
MTEXTBEGIN
1070
    73
1070
     1
1070
    44
1040
1.0
1070
    74
1070
     0
1000
MTEXTEND
  0
POINT
  5
12F
330
126
100
AcDbEntity
  8
DEFPOINTS
 62
     0
100
AcDbPoint
 10
3.874604005147978
 20
2.583883107247658
 30
0.0
  0
POINT
  5
130
330
126
100
AcDbEntity
  8
DEFPOINTS
 62
     0
100
AcDbPoint
 10
5.924604005148231
 20
3.016053427210451
 30
0.0
  0
POINT
  5
131
330
126
100
AcDbEntity
  8
DEFPOINTS
 62
     0
100
AcDbPoint
 10
5.924604005148231
 20
2.136820925747314
 30
0.0
  0
ENDBLK
  5
132
330
126
100
AcDbEntity
  8
0
 62
     1
100
AcDbBlockEnd
  0
BLOCK
  5
135
330
134
100
AcDbEntity
  8
0
 62
     1
100
AcDbBlockBegin
  2
*D20
 70
     1
 10
0.0
 20
0.0
 30
0.0
  3
*D20
  1

  0
LINE
  5
136
330
134
100
AcDbEntity
  8
0
 62
     0
370
    -2
100
AcDbLine
 10
3.874604005147978
 20
2.521383107247658
 30
0.0
 11
3.874604005147978
 21
1.42679663554427
 31
0.0
  0
LINE
  5
137
330
134
100
AcDbEntity
  8
0
 62
     0
370
    -2
100
AcDbLine
 10
6.424604005148231
 20
3.516053427210451
 30
0.0
 11
6.424604005148231
 21
1.42679663554427
 31
0.0
  0
LINE
  5
138
330
134
100
AcDbEntity
  8
0
 62
     0
370
    -2
100
AcDbLine
 10
3.999604005147978
 20
1.48929663554427
 30
0.0
 11
4.913770671814771
 21
1.48929663554427
 31
0.0
  0
LINE
  5
139
330
134
100
AcDbEntity
  8
0
 62
     0
370
    -2
100
AcDbLine
 10
6.299604005148231
 20
1.48929663554427
 30
0.0
 11
5.385437338481438
 21
1.48929663554427
 31
0.0
  0
SOLID
  5
13A
330
134
100
AcDbEntity
  8
0
 62
     0
100
AcDbTrace
 10
3.999604005147978
 20
1.510129968877603
 30
0.0
 11
3.999604005147978
 21
1.468463302210936
 31
0.0
 12
3.874604005147978
 22
1.48929663554427
 32
0.0
 13
3.874604005147978
 23
1.48929663554427
 33
0.0
  0
SOLID
  5
13B
330
134
100
AcDbEntity
  8
0
 62
     0
100
AcDbTrace
 10
6.299604005148231
 20
1.510129968877603
 30
0.0
 11
6.299604005148231
 21
1.468463302210936
 31
0.0
 12
6.424604005148231
 22
1.48929663554427
 32
0.0
 13
6.424604005148231
 23
1.48929663554427
 33
0.0
  0
MTEXT
  5
13C
330
134
100
AcDbEntity
  8
0
 62
     0
100
AcDbMText
 10
5.149604005148106
 20
1.48929663554427
 30
0.0
 40
0.125
 41
0.0
 71
     5
 72
     1
  1
\A1;2{\H1.000000x;\S9/16;}
 73
     1
 44
1.0
1001
ACAD
1000
MTEXTBEGIN
1070
    73
1070
     1
1070
    44
1040
1.0
1070
    74
1070
     0
1000
MTEXTEND
  0
POINT
  5
13D
330
134
100
AcDbEntity
  8
DEFPOINTS
 62
     0
100
AcDbPoint
 10
3.874604005147978
 20
2.583883107247658
 30
0.0
  0
POINT
  5
13E
330
134
100
AcDbEntity
  8
DEFPOINTS
 62
     0
100
AcDbPoint
 10
6.424604005148231
 20
3.578553427210451
 30
0.0
  0
POINT
  5
13F
330
134
100
AcDbEntity
  8
DEFPOINTS
 62
     0
100
AcDbPoint
 10
6.424604005148231
 20
1.48929663554427
 30
0.0
  0
ENDBLK
  5
140
330
134
100
AcDbEntity
  8
0
 62
     1
100
AcDbBlockEnd
  0
BLOCK
  5
143
330
142
100
AcDbEntity
  8
0
 62
     1
100
AcDbBlockBegin
  2
*D21
 70
     1
 10
0.0
 20
0.0
 30
0.0
  3
*D21
  1

  0
LINE
  5
144
330
142
100
AcDbEntity
  8
0
 62
     0
370
    -2
100
AcDbLine
 10
3.874604005147978
 20
2.521383107247658
 30
0.0
 11
3.874604005147978
 21
2.074320925747314
 31
0.0
  0
LINE
  5
145
330
142
100
AcDbEntity
  8
0
 62
     0
370
    -2
100
AcDbLine
 10
1.832216051896608
 20
2.922303427210451
 30
0.0
 11
1.832216051896608
 21
2.074320925747314
 31
0.0
  0
LINE
  5
146
330
142
100
AcDbEntity
  8
0
 62
     0
370
    -2
100
AcDbLine
 10
3.749604005147978
 20
2.136820925747314
 30
0.0
 11
3.089243361855626
 21
2.136820925747314
 31
0.0
  0
LINE
  5
147
330
142
100
AcDbEntity
  8
0
 62
     0
370
    -2
100
AcDbLine
 10
1.957216051896608
 20
2.136820925747314
 30
0.0
 11
2.617576695188959
 21
2.136820925747314
 31
0.0
  0
SOLID
  5
148
330
142
100
AcDbEntity
  8
0
 62
     0
100
AcDbTrace
 10
3.749604005147978
 20
2.157654259080648
 30
0.0
 11
3.749604005147978
 21
2.115987592413981
 31
0.0
 12
3.874604005147978
 22
2.136820925747314
 32
0.0
 13
3.874604005147978
 23
2.136820925747314
 33
0.0
  0
SOLID
  5
149
330
142
100
AcDbEntity
  8
0
 62
     0
100
AcDbTrace
 10
1.957216051896608
 20
2.157654259080648
 30
0.0
 11
1.957216051896608
 21
2.115987592413981
 31
0.0
 12
1.832216051896608
 22
2.136820925747314
 32
0.0
 13
1.832216051896608
 23
2.136820925747314
 33
0.0
  0
MTEXT
  5
14A
330
142
100
AcDbEntity
  8
0
 62
     0
100
AcDbMText
 10
2.853410028522294
 20
2.136820925747314
 30
0.0
 40
0.125
 41
0.0
 71
     5
 72
     1
  1
\A1;2{\H1.000000x;\S1/16;}
 73
     1
 44
1.0
1001
ACAD
1000
MTEXTBEGIN
1070
    73
1070
     1
1070
    44
1040
1.0
1070
    74
1070
     0
1000
MTEXTEND
  0
POINT
  5
14B
330
142
100
AcDbEntity
  8
DEFPOINTS
 62
     0
100
AcDbPoint
 10
3.874604005147978
 20
2.583883107247658
 30
0.0
  0
POINT
  5
14C
330
142
100
AcDbEntity
  8
DEFPOINTS
 62
     0
100
AcDbPoint
 10
1.832216051896608
 20
2.984803427210451
 30
0.0
  0
POINT
  5
14D
330
142
100
AcDbEntity
  8
DEFPOINTS
 62
     0
100
AcDbPoint
 10
1.832216051896608
 20
2.136820925747314
 30
0.0
  0
ENDBLK
  5
14E
330
142
100
AcDbEntity
  8
0
 62
     1
100
AcDbBlockEnd
  0
BLOCK
  5
151
330
150
100
AcDbEntity
  8
0
 62
     1
100
AcDbBlockBegin
  2
*D22
 70
     1
 10
0.0
 20
0.0
 30
0.0
  3
*D22
  1

  0
LINE
  5
152
330
150
100
AcDbEntity
  8
0
 62
     0
370
    -2
100
AcDbLine
 10
3.874604005147978
 20
2.521383107247658
 30
0.0
 11
3.874604005147978
 21
1.42679663554427
 31
0.0
  0
LINE
  5
153
330
150
100
AcDbEntity
  8
0
 62
     0
370
    -2
100
AcDbLine
 10
1.322104005147742
 20
3.418553427210446
 30
0.0
 11
1.322104005147741
 21
1.42679663554427
 31
0.0
  0
LINE
  5
154
330
150
100
AcDbEntity
  8
0
 62
     0
370
    -2
100
AcDbLine
 10
3.749604005147978
 20
1.48929663554427
 30
0.0
 11
2.834187338481193
 21
1.48929663554427
 31
0.0
  0
LINE
  5
155
330
150
100
AcDbEntity
  8
0
 62
     0
370
    -2
100
AcDbLine
 10
1.447104005147742
 20
1.48929663554427
 30
0.0
 11
2.362520671814527
 21
1.48929663554427
 31
0.0
  0
SOLID
  5
156
330
150
100
AcDbEntity
  8
0
 62
     0
100
AcDbTrace
 10
3.749604005147978
 20
1.510129968877603
 30
0.0
 11
3.749604005147978
 21
1.468463302210936
 31
0.0
 12
3.874604005147978
 22
1.48929663554427
 32
0.0
 13
3.874604005147978
 23
1.48929663554427
 33
0.0
  0
SOLID
  5
157
330
150
100
AcDbEntity
  8
0
 62
     0
100
AcDbTrace
 10
1.447104005147742
 20
1.510129968877603
 30
0.0
 11
1.447104005147742
 21
1.468463302210936
 31
0.0
 12
1.322104005147741
 22
1.48929663554427
 32
0.0
 13
1.322104005147741
 23
1.48929663554427
 33
0.0
  0
MTEXT
  5
158
330
150
100
AcDbEntity
  8
0
 62
     0
100
AcDbMText
 10
2.598354005147859
 20
1.48929663554427
 30
0.0
 40
0.125
 41
0.0
 71
     5
 72
     1
  1
\A1;2{\H1.000000x;\S9/16;}
 73
     1
 44
1.0
1001
ACAD
1000
MTEXTBEGIN
1070
    73
1070
     1
1070
    44
1040
1.0
1070
    74
1070
     0
1000
MTEXTEND
  0
POINT
  5
159
330
150
100
AcDbEntity
  8
DEFPOINTS
 62
     0
100
AcDbPoint
 10
3.874604005147978
 20
2.583883107247658
 30
0.0
  0
POINT
  5
15A
330
150
100
AcDbEntity
  8
DEFPOINTS
 62
     0
100
AcDbPoint
 10
1.322104005147742
 20
3.481053427210446
 30
0.0
  0
POINT
  5
15B
330
150
100
AcDbEntity
  8
DEFPOINTS
 62
     0
100
AcDbPoint
 10
1.322104005147741
 20
1.48929663554427
 30
0.0
  0
ENDBLK
  5
15C
330
150
100
AcDbEntity
  8
0
 62
     1
100
AcDbBlockEnd
  0
BLOCK
  5
15F
330
15E
100
AcDbEntity
  8
0
 62
     1
100
AcDbBlockBegin
  2
*D23
 70
     1
 10
0.0
 20
0.0
 30
0.0
  3
*D23
  1

  0
LINE
  5
160
330
15E
100
AcDbEntity
  8
0
 62
     0
370
    -2
100
AcDbLine
 10
1.791393327029084
 20
2.984803427210451
 30
0.0
 11
0.3666401300335456
 21
2.984803427210451
 31
0.0
  0
LINE
  5
161
330
15E
100
AcDbEntity
  8
0
 62
     0
370
    -2
100
AcDbLine
 10
1.572104005147743
 20
4.253553427210444
 30
0.0
 11
0.3666401300335458
 21
4.253553427210444
 31
0.0
  0
LINE
  5
162
330
15E
100
AcDbEntity
  8
0
 62
     0
370
    -2
100
AcDbLine
 10
0.4291401300335457
 20
3.109803427210451
 30
0.0
 11
0.4291401300335457
 21
3.360225521365646
 31
0.0
  0
LINE
  5
163
330
15E
100
AcDbEntity
  8
0
 62
     0
370
    -2
100
AcDbLine
 10
0.429140130033546
 20
4.128553427210444
 30
0.0
 11
0.4291401300335459
 21
3.831892188032314
 31
0.0
  0
SOLID
  5
164
330
15E
100
AcDbEntity
  8
0
 62
     0
100
AcDbTrace
 10
0.4083067967002123
 20
3.109803427210451
 30
0.0
 11
0.4499734633668789
 21
3.109803427210451
 31
0.0
 12
0.4291401300335457
 22
2.984803427210451
 32
0.0
 13
0.4291401300335457
 23
2.984803427210451
 33
0.0
  0
SOLID
  5
165
330
15E
100
AcDbEntity
  8
0
 62
     0
100
AcDbTrace
 10
0.4083067967002127
 20
4.128553427210444
 30
0.0
 11
0.4499734633668793
 21
4.128553427210444
 31
0.0
 12
0.429140130033546
 22
4.253553427210444
 32
0.0
 13
0.429140130033546
 23
4.253553427210444
 33
0.0
  0
MTEXT
  5
166
330
15E
100
AcDbEntity
  8
0
 62
     0
100
AcDbMText
 10
0.4291401300335452
 20
3.596058854698981
 30
0.0
 40
0.125
 41
0.0
 71
     5
 72
     1
  1
\A1;1{\H1.000000x;\S1/4;}
 73
     1
 44
1.0
1001
ACAD
1000
MTEXTBEGIN
1070
    73
1070
     1
1070
    44
1040
1.0
1070
    74
1070
     0
1000
MTEXTEND
  0
POINT
  5
167
330
15E
100
AcDbEntity
  8
DEFPOINTS
 62
     0
100
AcDbPoint
 10
1.853893327029084
 20
2.984803427210451
 30
0.0
  0
POINT
  5
168
330
15E
100
AcDbEntity
  8
DEFPOINTS
 62
     0
100
AcDbPoint
 10
1.634604005147743
 20
4.253553427210444
 30
0.0
  0
POINT
  5
169
330
15E
100
AcDbEntity
  8
DEFPOINTS
 62
     0
100
AcDbPoint
 10
0.429140130033546
 20
4.253553427210444
 30
0.0
  0
ENDBLK
  5
16A
330
15E
100
AcDbEntity
  8
0
 62
     1
100
AcDbBlockEnd
  0
BLOCK
  5
174
330
173
100
AcDbEntity
  8
0
 62
     1
100
AcDbBlockBegin
  2
*D24
 70
     1
 10
0.0
 20
0.0
 30
0.0
  3
*D24
  1

  0
LINE
  5
175
330
173
100
AcDbEntity
  8
0
 62
     0
370
    -2
100
AcDbLine
 10
1.762104005147736
 20
2.984803427210451
 30
0.0
 11
0.8302842684396908
 21
2.984803427210451
 31
0.0
  0
LINE
  5
176
330
173
100
AcDbEntity
  8
0
 62
     0
370
    -2
100
AcDbLine
 10
1.762104005147736
 20
3.641053427210446
 30
0.0
 11
0.830284268439691
 21
3.641053427210448
 31
0.0
  0
LINE
  5
177
330
173
100
AcDbEntity
  8
0
 62
     0
370
    -2
100
AcDbLine
 10
0.8927842684396908
 20
2.859803427210451
 30
0.0
 11
0.8927842684396908
 21
2.734803427210451
 31
0.0
  0
LINE
  5
178
330
173
100
AcDbEntity
  8
0
 62
     0
370
    -2
100
AcDbLine
 10
0.8927842684396914
 20
3.766053427210448
 30
0.0
 11
0.8927842684396914
 21
3.891053427210448
 31
0.0
  0
SOLID
  5
179
330
173
100
AcDbEntity
  8
0
 62
     0
100
AcDbTrace
 10
0.8719509351063578
 20
2.859803427210451
 30
0.0
 11
0.9136176017730244
 21
2.859803427210451
 31
0.0
 12
0.8927842684396908
 22
2.984803427210451
 32
0.0
 13
0.8927842684396908
 23
2.984803427210451
 33
0.0
  0
SOLID
  5
17A
330
173
100
AcDbEntity
  8
0
 62
     0
100
AcDbTrace
 10
0.8719509351063578
 20
3.766053427210448
 30
0.0
 11
0.9136176017730248
 21
3.766053427210448
 31
0.0
 12
0.892784268439691
 22
3.641053427210448
 32
0.0
 13
0.892784268439691
 23
3.641053427210448
 33
0.0
  0
MTEXT
  5
17B
330
173
100
AcDbEntity
  8
0
 62
     0
100
AcDbMText
 10
0.8927842684396907
 20
3.325621964067586
 30
0.0
 40
0.125
 41
0.0
 71
     5
 72
     1
  1
\A1;{\H1.000000x;\S5/8;}
 73
     1
 44
1.0
1001
ACAD
1000
MTEXTBEGIN
1070
    73
1070
     1
1070
    44
1040
1.0
1070
    74
1070
     0
1000
MTEXTEND
  0
POINT
  5
17C
330
173
100
AcDbEntity
  8
DEFPOINTS
 62
     0
100
AcDbPoint
 10
1.824604005147736
 20
2.984803427210451
 30
0.0
  0
POINT
  5
17D
330
173
100
AcDbEntity
  8
DEFPOINTS
 62
     0
100
AcDbPoint
 10
1.824604005147736
 20
3.641053427210446
 30
0.0
  0
POINT
  5
17E
330
173
100
AcDbEntity
  8
DEFPOINTS
 62
     0
100
AcDbPoint
 10
0.892784268439691
 20
3.641053427210448
 30
0.0
  0
ENDBLK
  5
17F
330
173
100
AcDbEntity
  8
0
 62
     1
100
AcDbBlockEnd
  0
BLOCK
  5
182
330
181
100
AcDbEntity
  8
0
 62
     1
100
AcDbBlockBegin
  2
*D25
 70
     1
 10
0.0
 20
0.0
 30
0.0
  3
*D25
  1

  0
LINE
  5
183
330
181
100
AcDbEntity
  8
0
 62
     0
370
    -2
100
AcDbLine
 10
3.749604005147752
 20
8.253526517773853
 30
0.0
 11
3.749604005147752
 21
9.558171832417881
 31
0.0
  0
LINE
  5
184
330
181
100
AcDbEntity
  8
0
 62
     0
370
    -2
100
AcDbLine
 10
1.904604005147738
 20
8.253526517773844
 30
0.0
 11
1.904604005147738
 21
9.558171832417881
 31
0.0
  0
LINE
  5
185
330
181
100
AcDbEntity
  8
0
 62
     0
370
    -2
100
AcDbLine
 10
3.624604005147752
 20
9.495671832417881
 30
0.0
 11
3.006389719433459
 21
9.495671832417881
 31
0.0
  0
LINE
  5
186
330
181
100
AcDbEntity
  8
0
 62
     0
370
    -2
100
AcDbLine
 10
2.029604005147738
 20
9.495671832417881
 30
0.0
 11
2.647818290862029
 21
9.495671832417881
 31
0.0
  0
SOLID
  5
187
330
181
100
AcDbEntity
  8
0
 62
     0
100
AcDbTrace
 10
3.624604005147752
 20
9.516505165751215
 30
0.0
 11
3.624604005147752
 21
9.474838499084546
 31
0.0
 12
3.749604005147752
 22
9.495671832417881
 32
0.0
 13
3.749604005147752
 23
9.495671832417881
 33
0.0
  0
SOLID
  5
188
330
181
100
AcDbEntity
  8
0
 62
     0
100
AcDbTrace
 10
2.029604005147738
 20
9.516505165751215
 30
0.0
 11
2.029604005147738
 21
9.474838499084546
 31
0.0
 12
1.904604005147738
 22
9.495671832417881
 32
0.0
 13
1.904604005147738
 23
9.495671832417881
 33
0.0
  0
MTEXT
  5
189
330
181
100
AcDbEntity
  8
0
 62
     0
100
AcDbMText
 10
2.827104005147745
 20
9.495671832417881
 30
0.0
 40
0.125
 41
0.0
 71
     5
 72
     1
  1
\A1;1{\H1.000000x;\S7/8;}
 73
     1
 44
1.0
1001
ACAD
1000
MTEXTBEGIN
1070
    73
1070
     1
1070
    44
1040
1.0
1070
    74
1070
     0
1000
MTEXTEND
  0
POINT
  5
18A
330
181
100
AcDbEntity
  8
DEFPOINTS
 62
     0
100
AcDbPoint
 10
3.749604005147752
 20
8.191026517773853
 30
0.0
  0
POINT
  5
18B
330
181
100
AcDbEntity
  8
DEFPOINTS
 62
     0
100
AcDbPoint
 10
1.904604005147738
 20
8.191026517773844
 30
0.0
  0
POINT
  5
18C
330
181
100
AcDbEntity
  8
DEFPOINTS
 62
     0
100
AcDbPoint
 10
1.904604005147738
 20
9.495671832417881
 30
0.0
  0
ENDBLK
  5
18D
330
181
100
AcDbEntity
  8
0
 62
     1
100
AcDbBlockEnd
  0
BLOCK
  5
190
330
18F
100
AcDbEntity
  8
0
 62
     1
100
AcDbBlockBegin
  2
*D26
 70
     1
 10
0.0
 20
0.0
 30
0.0
  3
*D26
  1

  0
LINE
  5
191
330
18F
100
AcDbEntity
  8
0
 62
     0
370
    -2
100
AcDbLine
 10
2.382491993858559
 20
8.731414506484679
 30
0.0
 11
0.7626844193321248
 21
8.731414506484679
 31
0.0
  0
LINE
  5
192
330
18F
100
AcDbEntity
  8
0
 62
     0
370
    -2
100
AcDbLine
 10
2.382491993858566
 20
6.886414506484657
 30
0.0
 11
0.7626844193321247
 21
6.886414506484657
 31
0.0
  0
LINE
  5
193
330
18F
100
AcDbEntity
  8
0
 62
     0
370
    -2
100
AcDbLine
 10
0.8251844193321248
 20
8.606414506484679
 30
0.0
 11
0.8251844193321247
 21
8.044747839818002
 31
0.0
  0
LINE
  5
194
330
18F
100
AcDbEntity
  8
0
 62
     0
370
    -2
100
AcDbLine
 10
0.8251844193321245
 20
7.011414506484657
 30
0.0
 11
0.8251844193321245
 21
7.573081173151334
 31
0.0
  0
SOLID
  5
195
330
18F
100
AcDbEntity
  8
0
 62
     0
100
AcDbTrace
 10
0.8043510859987915
 20
8.606414506484679
 30
0.0
 11
0.8460177526654582
 21
8.606414506484679
 31
0.0
 12
0.8251844193321248
 22
8.731414506484679
 32
0.0
 13
0.8251844193321248
 23
8.731414506484679
 33
0.0
  0
SOLID
  5
196
330
18F
100
AcDbEntity
  8
0
 62
     0
100
AcDbTrace
 10
0.8043510859987911
 20
7.011414506484657
 30
0.0
 11
0.8460177526654579
 21
7.011414506484657
 31
0.0
 12
0.8251844193321245
 22
6.886414506484657
 32
0.0
 13
0.8251844193321245
 23
6.886414506484657
 33
0.0
  0
MTEXT
  5
197
330
18F
100
AcDbEntity
  8
0
 62
     0
100
AcDbMText
 10
0.8251844193321231
 20
7.808914506484669
 30
0.0
 40
0.125
 41
0.0
 71
     5
 72
     1
  1
\A1;1{\H1.000000x;\S7/8;}
 73
     1
 44
1.0
1001
ACAD
1000
MTEXTBEGIN
1070
    73
1070
     1
1070
    44
1040
1.0
1070
    74
1070
     0
1000
MTEXTEND
  0
POINT
  5
198
330
18F
100
AcDbEntity
  8
DEFPOINTS
 62
     0
100
AcDbPoint
 10
2.444991993858559
 20
8.731414506484679
 30
0.0
  0
POINT
  5
199
330
18F
100
AcDbEntity
  8
DEFPOINTS
 62
     0
100
AcDbPoint
 10
2.444991993858566
 20
6.886414506484657
 30
0.0
  0
POINT
  5
19A
330
18F
100
AcDbEntity
  8
DEFPOINTS
 62
     0
100
AcDbPoint
 10
0.8251844193321245
 20
6.886414506484657
 30
0.0
  0
ENDBLK
  5
19B
330
18F
100
AcDbEntity
  8
0
 62
     1
100
AcDbBlockEnd
  0
BLOCK
  5
19E
330
19D
100
AcDbEntity
  8
0
 62
     1
100
AcDbBlockBegin
  2
*D27
 70
     1
 10
0.0
 20
0.0
 30
0.0
  3
*D27
  1

  0
LINE
  5
19F
330
19D
100
AcDbEntity
  8
0
 62
     0
370
    -2
100
AcDbLine
 10
2.390776265106024
 20
8.81141450648468
 30
0.0
 11
0.25009946485541
 21
8.81141450648468
 31
0.0
  0
LINE
  5
1A0
330
19D
100
AcDbEntity
  8
0
 62
     0
370
    -2
100
AcDbLine
 10
2.390776265106024
 20
6.806414506484649
 30
0.0
 11
0.2500994648554095
 21
6.806414506484651
 31
0.0
  0
LINE
  5
1A1
330
19D
100
AcDbEntity
  8
0
 62
     0
370
    -2
100
AcDbLine
 10
0.31259946485541
 20
8.686414506484679
 30
0.0
 11
0.3125994648554098
 21
7.961414506484664
 31
0.0
  0
LINE
  5
1A2
330
19D
100
AcDbEntity
  8
0
 62
     0
370
    -2
100
AcDbLine
 10
0.3125994648554096
 20
6.931414506484651
 30
0.0
 11
0.3125994648554098
 21
7.656414506484664
 31
0.0
  0
SOLID
  5
1A3
330
19D
100
AcDbEntity
  8
0
 62
     0
100
AcDbTrace
 10
0.2917661315220767
 20
8.686414506484679
 30
0.0
 11
0.3334327981887433
 21
8.686414506484679
 31
0.0
 12
0.31259946485541
 22
8.81141450648468
 32
0.0
 13
0.31259946485541
 23
8.81141450648468
 33
0.0
  0
SOLID
  5
1A4
330
19D
100
AcDbEntity
  8
0
 62
     0
100
AcDbTrace
 10
0.2917661315220763
 20
6.931414506484651
 30
0.0
 11
0.3334327981887429
 21
6.931414506484651
 31
0.0
 12
0.3125994648554096
 22
6.806414506484651
 32
0.0
 13
0.3125994648554096
 23
6.806414506484651
 33
0.0
  0
MTEXT
  5
1A5
330
19D
100
AcDbEntity
  8
0
 62
     0
100
AcDbMText
 10
0.3125994648554085
 20
7.808914506484664
 30
0.0
 40
0.125
 41
0.0
 71
     5
 72
     1
  1
\A1;2
 73
     1
 44
1.0
1001
ACAD
1000
MTEXTBEGIN
1070
    73
1070
     1
1070
    44
1040
1.0
1070
    74
1070
     0
1000
MTEXTEND
  0
POINT
  5
1A6
330
19D
100
AcDbEntity
  8
DEFPOINTS
 62
     0
100
AcDbPoint
 10
2.453276265106024
 20
8.81141450648468
 30
0.0
  0
POINT
  5
1A7
330
19D
100
AcDbEntity
  8
DEFPOINTS
 62
     0
100
AcDbPoint
 10
2.453276265106024
 20
6.806414506484649
 30
0.0
  0
POINT
  5
1A8
330
19D
100
AcDbEntity
  8
DEFPOINTS
 62
     0
100
AcDbPoint
 10
0.3125994648554096
 20
6.806414506484651
 30
0.0
  0
ENDBLK
  5
1A9
330
19D
100
AcDbEntity
  8
0
 62
     1
100
AcDbBlockEnd
  0
BLOCK
  5
1AC
330
1AB
100
AcDbEntity
  8
0
 62
     1
100
AcDbBlockBegin
  2
*D28
 70
     1
 10
0.0
 20
0.0
 30
0.0
  3
*D28
  1

  0
LINE
  5
1AD
330
1AB
100
AcDbEntity
  8
0
 62
     0
370
    -2
100
AcDbLine
 10
3.829604005147761
 20
8.245242246526391
 30
0.0
 11
3.829604005147761
 21
9.898741326248348
 31
0.0
  0
LINE
  5
1AE
330
1AB
100
AcDbEntity
  8
0
 62
     0
370
    -2
100
AcDbLine
 10
1.824604005147735
 20
8.245242246526391
 30
0.0
 11
1.824604005147735
 21
9.898741326248348
 31
0.0
  0
LINE
  5
1AF
330
1AB
100
AcDbEntity
  8
0
 62
     0
370
    -2
100
AcDbLine
 10
3.704604005147761
 20
9.836241326248348
 30
0.0
 11
2.958770671814414
 21
9.836241326248348
 31
0.0
  0
LINE
  5
1B0
330
1AB
100
AcDbEntity
  8
0
 62
     0
370
    -2
100
AcDbLine
 10
1.949604005147735
 20
9.836241326248348
 30
0.0
 11
2.695437338481081
 21
9.836241326248348
 31
0.0
  0
SOLID
  5
1B1
330
1AB
100
AcDbEntity
  8
0
 62
     0
100
AcDbTrace
 10
3.704604005147761
 20
9.85707465958168
 30
0.0
 11
3.704604005147761
 21
9.815407992915014
 31
0.0
 12
3.829604005147761
 22
9.836241326248348
 32
0.0
 13
3.829604005147761
 23
9.836241326248348
 33
0.0
  0
SOLID
  5
1B2
330
1AB
100
AcDbEntity
  8
0
 62
     0
100
AcDbTrace
 10
1.949604005147735
 20
9.85707465958168
 30
0.0
 11
1.949604005147735
 21
9.815407992915014
 31
0.0
 12
1.824604005147735
 22
9.836241326248348
 32
0.0
 13
1.824604005147735
 23
9.836241326248348
 33
0.0
  0
MTEXT
  5
1B3
330
1AB
100
AcDbEntity
  8
0
 62
     0
100
AcDbMText
 10
2.827104005147747
 20
9.836241326248348
 30
0.0
 40
0.125
 41
0.0
 71
     5
 72
     1
  1
\A1;2
 73
     1
 44
1.0
1001
ACAD
1000
MTEXTBEGIN
1070
    73
1070
     1
1070
    44
1040
1.0
1070
    74
1070
     0
1000
MTEXTEND
  0
POINT
  5
1B4
330
1AB
100
AcDbEntity
  8
DEFPOINTS
 62
     0
100
AcDbPoint
 10
3.829604005147761
 20
8.182742246526391
 30
0.0
  0
POINT
  5
1B5
330
1AB
100
AcDbEntity
  8
DEFPOINTS
 62
     0
100
AcDbPoint
 10
1.824604005147735
 20
8.182742246526391
 30
0.0
  0
POINT
  5
1B6
330
1AB
100
AcDbEntity
  8
DEFPOINTS
 62
     0
100
AcDbPoint
 10
1.824604005147735
 20
9.836241326248348
 30
0.0
  0
ENDBLK
  5
1B7
330
1AB
100
AcDbEntity
  8
0
 62
     1
100
AcDbBlockEnd
  0
BLOCK
  5
4E0
330
4DE
100
AcDbEntity
  8
0
 62
     1
100
AcDbBlockBegin
  2
GENAXEH
 70
     0
 10
0.0
 20
0.0
 30
0.0
  3
GENAXEH
  1

  0
LINE
  5
4DF
330
4DE
100
AcDbEntity
  8
0
100
AcDbLine
 10
-1.0
 20
0.0
 30
0.0
 11
1.0
 21
0.0
 31
0.0
  0
ENDBLK
  5
4E1
330
4DE
100
AcDbEntity
  8
0
 62
     1
100
AcDbBlockEnd
  0
ENDSEC
  0
SECTION
  2
ENTITIES
  0
INSERT
  5
29
330
2
100
AcDbEntity
  8
0
 62
     2
100
AcDbBlockReference
  2
*U0
 10
-0.1468911503677646
 20
-0.4541953403541969
 30
0.0
  0
INSERT
  5
2E
330
2
100
AcDbEntity
  8
0
 62
     2
100
AcDbBlockReference
  2
*U1
 10
-0.1468911503677646
 20
-0.4541953403541969
 30
0.0
  0
INSERT
  5
33
330
2
100
AcDbEntity
  8
0
 62
     2
100
AcDbBlockReference
  2
*U2
 10
-0.1468911503677646
 20
-0.4541953403541969
 30
0.0
  0
INSERT
  5
38
330
2
100
AcDbEntity
  8
0
 62
     2
100
AcDbBlockReference
  2
*U3
 10
-0.1468911503677646
 20
-0.4541953403541969
 30
0.0
  0
INSERT
  5
3D
330
2
100
AcDbEntity
  8
0
 62
     2
100
AcDbBlockReference
  2
*U5
 10
-0.5273536403178483
 20
13.66076711093816
 30
0.0
  0
INSERT
  5
42
330
2
100
AcDbEntity
  8
0
 62
     2
100
AcDbBlockReference
  2
*U6
 10
-0.5273536403178483
 20
13.66076711093816
 30
0.0
  0
INSERT
  5
47
330
2
100
AcDbEntity
  8
0
 62
     2
100
AcDbBlockReference
  2
*U7
 10
-0.5273536403178483
 20
13.66076711093816
 30
0.0
  0
INSERT
  5
4C
330
2
100
AcDbEntity
  8
0
 62
     2
100
AcDbBlockReference
  2
*U8
 10
-0.5273536403178483
 20
13.66076711093816
 30
0.0
  0
MTEXT
  5
51
330
2
100
AcDbEntity
  8
PHANTOM
 62
     7
100
AcDbMText
 10
23.17679265997022
 20
15.4488989924134
 30
0.0
 40
0.18
 41
0.0
 71
     4
 72
     5
  1

 73
     1
 44
1.0
1001
ACAD
1000
MTEXTBEGIN
1070
    73
1070
     1
1070
    44
1040
1.0
1070
    74
1070
     0
1000
MTEXTEND
  0
MTEXT
  5
54
330
2
100
AcDbEntity
  8
CENTER
 62
     7
100
AcDbMText
 10
14.51369026632218
 20
4.766145731653431
 30
0.0
 40
0.18
 41
0.0
 71
     4
 72
     5
  1

 73
     1
 44
1.0
1001
ACAD
1000
MTEXTBEGIN
1070
    73
1070
     1
1070
    44
1040
1.0
1070
    74
1070
     0
1000
MTEXTEND
  0
MTEXT
  5
56
330
2
100
AcDbEntity
  8
PHANTOM
 62
     7
100
AcDbMText
 10
31.33774120812236
 20
12.07558544897026
 30
0.0
 40
0.18
 41
0.0
 71
     6
 72
     5
  1

 73
     1
 44
1.0
1001
ACAD
1000
MTEXTBEGIN
1070
    73
1070
     1
1070
    44
1040
1.0
1070
    74
1070
     0
1000
MTEXTEND
  0
MTEXT
  5
57
330
2
100
AcDbEntity
  8
PHANTOM
 62
     7
100
AcDbMText
 10
33.55658291491412
 20
17.38328971493551
 30
0.0
 40
0.18
 41
0.0
 71
     4
 72
     5
  1

 73
     1
 44
1.0
1001
ACAD
1000
MTEXTBEGIN
1070
    73
1070
     1
1070
    44
1040
1.0
1070
    74
1070
     0
1000
MTEXTEND
  0
MTEXT
  5
58
330
2
100
AcDbEntity
  8
PHANTOM
 62
     7
100
AcDbMText
 10
33.97228895616807
 20
16.99311519388912
 30
0.0
 40
0.18
 41
0.0
 71
     4
 72
     5
  1

 73
     1
 44
1.0
1001
ACAD
1000
MTEXTBEGIN
1070
    73
1070
     1
1070
    44
1040
1.0
1070
    74
1070
     0
1000
MTEXTEND
  0
LINE
  5
59
330
2
100
AcDbEntity
  8
10
100
AcDbLine
 10
16.76560884963224
 20
10.2958046596458
 30
0.0
 11
16.76560884963223
 21
10.0458046596458
 31
0.0
  0
LINE
  5
5B
330
2
100
AcDbEntity
  8
10
100
AcDbLine
 10
-0.234391150367761
 20
-0.7041953403541969
 30
0.0
 11
0.015608849632239
 21
-0.7041953403541972
 31
0.0
  0
LINE
  5
5C
330
2
100
AcDbEntity
  8
10
100
AcDbLine
 10
-0.234391150367761
 20
10.2958046596458
 30
0.0
 11
0.015608849632239
 21
10.2958046596458
 31
0.0
  0
LINE
  5
5D
330
2
100
AcDbEntity
  8
10
100
AcDbLine
 10
-0.234391150367761
 20
10.2958046596458
 30
0.0
 11
-0.2343911503677575
 21
10.0458046596458
 31
0.0
  0
LINE
  5
5E
330
2
100
AcDbEntity
  8
10
100
AcDbLine
 10
16.76560884963223
 20
-0.4541953403541951
 30
0.0
 11
16.76560884963224
 21
-0.7041953403541945
 31
0.0
  0
LINE
  5
5F
330
2
100
AcDbEntity
  8
10
100
AcDbLine
 10
16.51560884963223
 20
-0.7041953403541945
 30
0.0
 11
16.76560884963224
 21
-0.7041953403541945
 31
0.0
  0
LINE
  5
60
330
2
100
AcDbEntity
  8
10
100
AcDbLine
 10
16.51560884963223
 20
10.2958046596458
 30
0.0
 11
16.76560884963224
 21
10.2958046596458
 31
0.0
  0
LINE
  5
61
330
2
100
AcDbEntity
  8
10
100
AcDbLine
 10
-0.2343911503677575
 20
-0.4541953403541969
 30
0.0
 11
-0.234391150367761
 21
-0.7041953403541969
 31
0.0
  0
INSERT
  5
62
330
2
100
AcDbEntity
  8
10
100
AcDbBlockReference
  2
A$C708B5813
 10
6.549763732040146
 20
-0.40941082902993
 30
0.0000000075
 41
0.75
 42
0.75
 43
0.7500000000000001
  0
MTEXT
  5
A6
330
2
100
AcDbEntity
  8
10
 62
     7
100
AcDbMText
 10
11.44191343190681
 20
0.0167128428003547
 30
0.0
 40
0.1
 41
6.799999999999999
 71
     1
 72
     5
  1
P.O. BOX 496\P664 STATE STREET\PBEAVER, PA 15009
 73
     1
 44
1.0
1001
ACAD
1000
MTEXTBEGIN
1070
    73
1070
     1
1070
    44
1040
1.0
1070
    74
1070
     0
1000
MTEXTEND
  0
MTEXT
  5
A7
330
2
100
AcDbEntity
  8
10
 62
     7
100
AcDbMText
 10
14.92974549647501
 20
-0.0382543477610597
 30
0.0
 40
0.09
 41
4.5
 71
     1
 72
     5
  1
\LDRAWING NO.
 73
     1
 44
1.0
1001
ACAD
1000
MTEXTBEGIN
1070
    73
1070
     1
1070
    44
1040
1.0
1070
    74
1070
     0
1000
MTEXTEND
  0
MTEXT
  5
A8
330
2
100
AcDbEntity
  8
10
 62
     7
100
AcDbMText
 10
15.09147014506951
 20
-0.2101811301662395
 30
0.0
 40
0.125
 41
1.8464
 71
     1
 72
     5
  1
WC10094
 73
     1
 44
1.0
1001
ACAD
1000
MTEXTBEGIN
1070
    73
1070
     1
1070
    44
1040
1.0
1070
    74
1070
     0
1000
MTEXTEND
  0
LINE
  5
A9
330
2
100
AcDbEntity
  8
10
100
AcDbLine
 10
14.87169924713274
 20
-0.4466229992481116
 30
0.0
 11
14.87169924713274
 21
0.0533770007518886
 31
0.0
  0
MTEXT
  5
AA
330
2
100
AcDbEntity
  8
10
 62
     7
100
AcDbMText
 10
13.62742486634077
 20
1.374924952106745
 30
0.0
 40
0.125
 41
2.799999999999998
 71
     1
 72
     5
  1
30MM PRODUCT LINE\PFULL COVER\PLOCKOFF ATTACHMENT\PDATA SHEET
 73
     1
 44
1.0
1001
ACAD
1000
MTEXTBEGIN
1070
    73
1070
     1
1070
    44
1040
1.0
1070
    74
1070
     0
1000
MTEXTEND
  0
LINE
  5
AB
330
2
100
AcDbEntity
  8
10
100
AcDbLine
 10
8.769515083967363
 20
0.5023480633204544
 30
0.0
 11
13.51560883396735
 21
0.5023480633204544
 31
0.0
  0
TEXT
  5
AC
330
2
100
AcDbEntity
  8
10
 62
     7
100
AcDbText
 10
8.892452417149021
 20
0.1134042694040183
 30
0.0
 40
0.094921875
  1
REV
100
AcDbText
  0
TEXT
  5
AD
330
2
100
AcDbEntity
  8
10
 62
     7
100
AcDbText
 10
10.38094172520373
 20
0.1182416726977582
 30
0.0
 40
0.094921875
  1
DESCRIPTION
100
AcDbText
  0
TEXT
  5
AE
330
2
100
AcDbEntity
  8
10
 62
     7
100
AcDbText
 10
12.50347645977606
 20
0.115315128880157
 30
0.0
 40
0.094921875
  1
DATE
100
AcDbText
  0
TEXT
  5
AF
330
2
100
AcDbEntity
  8
10
 62
     7
100
AcDbText
 10
13.217542657518
 20
0.1201526710588716
 30
0.0
 40
0.094921875
  1
BY
100
AcDbText
  0
LINE
  5
B0
330
2
100
AcDbEntity
  8
10
100
AcDbLine
 10
8.769515083967363
 20
0.3045941570704542
 30
0.0
 11
13.51560883396735
 21
0.3045941570704542
 31
0.0
  0
LINE
  5
B1
330
2
100
AcDbEntity
  8
10
100
AcDbLine
 10
9.244124458967359
 20
0.5023480633204544
 30
0.0
 11
9.244124458967327
 21
0.0458046596458048
 31
0.0
  0
LINE
  5
B2
330
2
100
AcDbEntity
  8
10
100
AcDbLine
 10
13.04099945896736
 20
0.5023480633204544
 30
0.0
 11
13.04099945896736
 21
0.045804659645805
 31
0.0
  0
LINE
  5
B3
330
2
100
AcDbEntity
  8
10
100
AcDbLine
 10
12.32908539646737
 20
0.5023480633204544
 30
0.0
 11
12.3290853964674
 21
0.045804659645805
 31
0.0
  0
MTEXT
  5
B4
330
2
100
AcDbEntity
  8
10
 62
     7
100
AcDbMText
 10
13.56380994300288
 20
-0.0471991822905751
 30
0.0
 40
0.09
 41
4.5
 71
     1
 72
     5
  1
\LSCALE:
 73
     1
 44
1.0
1001
ACAD
1000
MTEXTBEGIN
1070
    73
1070
     1
1070
    44
1040
1.0
1070
    74
1070
     0
1000
MTEXTEND
  0
TEXT
  5
B5
330
2
100
AcDbEntity
  8
10
 62
     7
100
AcDbText
 10
8.885999608228837
 20
0.3434133686230396
 30
0.0
 40
0.094921875
  1
XXX
100
AcDbText
  0
TEXT
  5
B6
330
2
100
AcDbEntity
  8
10
 62
     7
100
AcDbText
 10
10.37448891628355
 20
0.3482507719167813
 30
0.0
 40
0.094921875
  1
XXXXXXXXXXX
100
AcDbText
  0
TEXT
  5
B7
330
2
100
AcDbEntity
  8
10
 62
     7
100
AcDbText
 10
12.49702365085588
 20
0.3453242280991802
 30
0.0
 40
0.094921875
  1
XXXX
100
AcDbText
  0
TEXT
  5
B8
330
2
100
AcDbEntity
  8
10
 62
     7
100
AcDbText
 10
13.16100976764042
 20
0.350161770277893
 30
0.0
 40
0.094921875
  1
XXX
100
AcDbText
  0
LINE
  5
B9
330
2
100
AcDbEntity
  8
10
100
AcDbLine
 10
0.015608849632239
 20
-0.4541953403541963
 30
0.0
 11
16.51560884963223
 21
-0.4541953403542065
 31
0.0
  0
LINE
  5
BA
330
2
100
AcDbEntity
  8
10
100
AcDbLine
 10
8.769515083967348
 20
0.5023480633204544
 30
0.0
 11
8.769515083967331
 21
0.0458046596458048
 31
0.0
  0
LINE
  5
BB
330
2
100
AcDbEntity
  8
10
100
AcDbLine
 10
13.51560884600696
 20
1.522367159645805
 30
0.0
 11
13.51560880994516
 21
0.0458046596458144
 31
0.0
  0
LINE
  5
BC
330
2
100
AcDbEntity
  8
10
100
AcDbLine
 10
16.51560884963223
 20
10.0458046596458
 30
0.0
 11
16.51560884963223
 21
-0.4541953403542065
 31
0.0
  0
CIRCLE
  5
BD
330
2
100
AcDbEntity
  8
10
 62
     1
100
AcDbCircle
 10
0.0156088496322354
 20
-0.4541953403541969
 30
0.00000001
 40
0.1415883773737505
  0
LINE
  5
BE
330
2
100
AcDbEntity
  8
10
100
AcDbLine
 10
0.0156088496322461
 20
10.0458046596458
 30
0.0
 11
16.51560884963223
 21
10.0458046596458
 31
0.0
  0
LINE
  5
BF
330
2
100
AcDbEntity
  8
10
100
AcDbLine
 10
0.0156088496322461
 20
10.0458046596458
 30
0.0
 11
0.015608849632239
 21
-0.454195340354196
 31
0.0
  0
LINE
  5
C0
330
2
100
AcDbEntity
  8
10
100
AcDbLine
 10
13.58560884963222
 20
1.481742243867219
 30
0.0
 11
16.44560884963222
 21
1.481742243867219
 31
0.0
  0
LINE
  5
C1
330
2
100
AcDbEntity
  8
10
100
AcDbLine
 10
16.46560884963223
 20
1.461742243867219
 30
0.0
 11
16.46560884963223
 21
0.5658046596458051
 31
0.0
  0
LINE
  5
C2
330
2
100
AcDbEntity
  8
10
100
AcDbLine
 10
13.56560884963223
 20
1.461742243867219
 30
0.0
 11
13.56560884963223
 21
0.5658046596458051
 31
0.0
  0
LINE
  5
C3
330
2
100
AcDbEntity
  8
10
100
AcDbLine
 10
13.58560884963223
 20
0.5458046596458051
 30
0.0
 11
16.44560884963223
 21
0.5458046596458051
 31
0.0
  0
LINE
  5
C4
330
2
100
AcDbEntity
  8
10
100
AcDbLine
 10
13.51560882093542
 20
0.5023480100240925
 30
0.0
 11
16.51560884963223
 21
0.5023480100240925
 31
0.0
  0
MTEXT
  5
C5
330
2
100
AcDbEntity
  8
10
 62
     7
100
AcDbMText
 10
13.80902317848896
 20
-0.22313229084852
 30
0.0
 40
0.125
 41
1.8464
 71
     1
 72
     5
  1
1:1
 73
     1
 44
1.0
1001
ACAD
1000
MTEXTBEGIN
1070
    73
1070
     1
1070
    44
1040
1.0
1070
    74
1070
     0
1000
MTEXTEND
  0
MTEXT
  5
C6
330
2
100
AcDbEntity
  8
10
 62
     7
100
AcDbMText
 10
13.57942765108055
 20
0.4160190883969276
 30
0.0
 40
0.09
 41
4.5
 71
     1
 72
     5
  1
\LDRAWN BY:
 73
     1
 44
1.0
1001
ACAD
1000
MTEXTBEGIN
1070
    73
1070
     1
1070
    44
1040
1.0
1070
    74
1070
     0
1000
MTEXTEND
  0
MTEXT
  5
C7
330
2
100
AcDbEntity
  8
10
 62
     7
100
AcDbMText
 10
14.00498971172655
 20
0.240085979838982
 30
0.0
 40
0.125
 41
1.8464
 71
     1
 72
     5
  1
RCG
 73
     1
 44
1.0
1001
ACAD
1000
MTEXTBEGIN
1070
    73
1070
     1
1070
    44
1040
1.0
1070
    74
1070
     0
1000
MTEXTEND
  0
MTEXT
  5
C8
330
2
100
AcDbEntity
  8
10
 62
     7
100
AcDbMText
 10
14.94337666561058
 20
0.431633201956844
 30
0.0
 40
0.09
 41
4.5
 71
     1
 72
     5
  1
\LDATE:
 73
     1
 44
1.0
1001
ACAD
1000
MTEXTBEGIN
1070
    73
1070
     1
1070
    44
1040
1.0
1070
    74
1070
     0
1000
MTEXTEND
  0
MTEXT
  5
C9
330
2
100
AcDbEntity
  8
10
 62
     7
100
AcDbMText
 10
15.27632714699886
 20
0.2557000933988984
 30
0.0
 40
0.125
 41
1.8464
 71
     1
 72
     5
  1
11-05-01
 73
     1
 44
1.0
1001
ACAD
1000
MTEXTBEGIN
1070
    73
1070
     1
1070
    44
1040
1.0
1070
    74
1070
     0
1000
MTEXTEND
  0
LINE
  5
CA
330
2
100
AcDbEntity
  8
10
100
AcDbLine
 10
14.87169924713274
 20
0.0458046596458051
 30
0.0
 11
14.87169924713274
 21
0.4958046596458053
 31
0.0000000000000001
  0
LINE
  5
CB
330
2
100
AcDbEntity
  8
10
100
AcDbLine
 10
13.58560884963222
 20
1.481742243867219
 30
0.0
 11
13.56560884963222
 21
1.461742243867219
 31
0.0
  0
LINE
  5
CC
330
2
100
AcDbEntity
  8
10
100
AcDbLine
 10
16.44560884963222
 20
1.481742243867219
 30
0.0
 11
16.46560884963222
 21
1.461742243867219
 31
0.0
  0
LINE
  5
CD
330
2
100
AcDbEntity
  8
10
100
AcDbLine
 10
16.46560884963223
 20
0.5658046596458051
 30
0.0
 11
16.44560884963223
 21
0.5458046596458051
 31
0.0
  0
LINE
  5
CE
330
2
100
AcDbEntity
  8
10
100
AcDbLine
 10
13.58560884963223
 20
0.5458046596458051
 30
0.0
 11
13.56560884963223
 21
0.5658046596458051
 31
0.0
  0
LINE
  5
CF
330
2
100
AcDbEntity
  8
10
100
AcDbLine
 10
13.51560880994516
 20
0.0458046596458051
 30
0.0
 11
13.51560880994516
 21
-0.4541953403542049
 31
0.0
  0
MTEXT
  5
D0
330
2
100
AcDbEntity
  8
10
 62
     7
100
AcDbMText
 10
7.066753786686959
 20
-0.1067646720823534
 30
0.0
 40
0.2
 41
4.7621
 71
     1
 72
     5
  1
CONTROL CONCEPTS CORP.
 73
     1
 44
1.0
1001
ACAD
1000
MTEXTBEGIN
1070
    73
1070
     1
1070
    44
1040
1.0
1070
    74
1070
     0
1000
MTEXTEND
  0
INSERT
  5
D1
330
2
100
AcDbEntity
  8
DIMENSION
100
AcDbBlockReference
  2
A$C2BF30918
 10
13.04437831923237
 20
-0.4092988352337237
 30
0.0000000075
  0
LINE
  5
D7
330
2
100
AcDbEntity
  8
10
100
AcDbLine
 10
6.515608800398394
 20
0.0458046596458064
 30
0.0
 11
6.515608800398394
 21
-0.4541953403542003
 31
0.0
  0
LINE
  5
D8
330
2
100
AcDbEntity
  8
10
100
AcDbLine
 10
6.515608800398394
 20
-0.2041953403541967
 30
0.0
 11
0.0156088496322392
 21
-0.2041953403541923
 31
0.0
  0
LINE
  5
D9
330
2
100
AcDbEntity
  8
10
100
AcDbLine
 10
5.215608800398394
 20
0.0458046596458064
 30
0.0
 11
5.215608800398394
 21
-0.4541953403542003
 31
0.0
  0
LINE
  5
DA
330
2
100
AcDbEntity
  8
10
100
AcDbLine
 10
3.915608800398394
 20
0.0458046596458064
 30
0.0
 11
3.915608800398394
 21
-0.4541953403542003
 31
0.0
  0
LINE
  5
DB
330
2
100
AcDbEntity
  8
10
100
AcDbLine
 10
2.615608800398395
 20
0.0458046596458064
 30
0.0
 11
2.615608800398395
 21
-0.4541953403542003
 31
0.0
  0
LINE
  5
DC
330
2
100
AcDbEntity
  8
10
100
AcDbLine
 10
1.315608800398395
 20
0.0458046596458064
 30
0.0
 11
1.315608800398395
 21
-0.4541953403542003
 31
0.0
  0
LINE
  5
DD
330
2
100
AcDbEntity
  8
10
100
AcDbLine
 10
8.769515070935414
 20
1.293363421838642
 30
0.0
 11
13.5156088209354
 21
1.293363421838642
 31
0.0
  0
TEXT
  5
DE
330
2
100
AcDbEntity
  8
10
 62
     7
100
AcDbText
 10
8.885999595196892
 20
1.332182633391228
 30
0.0
 40
0.094921875
  1
XXX
100
AcDbText
  0
LINE
  5
DF
330
2
100
AcDbEntity
  8
10
100
AcDbLine
 10
8.769515070935405
 20
1.522367159645805
 30
0.0
 11
8.769515070935392
 21
1.293363421838642
 31
0.0
  0
LINE
  5
E0
330
2
100
AcDbEntity
  8
10
100
AcDbLine
 10
9.244124445935414
 20
1.522367159645805
 30
0.0
 11
9.244124445935399
 21
1.293363421838642
 31
0.0
  0
TEXT
  5
E1
330
2
100
AcDbEntity
  8
10
 62
     7
100
AcDbText
 10
10.37448890325161
 20
1.33702003668497
 30
0.0
 40
0.094921875
  1
XXXXXXXXXXX
100
AcDbText
  0
LINE
  5
E2
330
2
100
AcDbEntity
  8
10
100
AcDbLine
 10
12.32908538343542
 20
1.522367159645805
 30
0.0
 11
12.32908538343544
 21
1.293363421838642
 31
0.0
  0
LINE
  5
E3
330
2
100
AcDbEntity
  8
10
100
AcDbLine
 10
13.04099944593541
 20
1.522367159645805
 30
0.0
 11
13.04099944593541
 21
1.293363421838642
 31
0.0
  0
TEXT
  5
E4
330
2
100
AcDbEntity
  8
10
 62
     7
100
AcDbText
 10
12.49702363782393
 20
1.334093492867369
 30
0.0
 40
0.094921875
  1
XXXX
100
AcDbText
  0
TEXT
  5
E5
330
2
100
AcDbEntity
  8
10
 62
     7
100
AcDbText
 10
13.16100975460847
 20
1.338931035046081
 30
0.0
 40
0.094921875
  1
XXX
100
AcDbText
  0
LINE
  5
E6
330
2
100
AcDbEntity
  8
10
100
AcDbLine
 10
8.769515070935414
 20
1.095609568885004
 30
0.0
 11
13.5156088209354
 21
1.095609568885004
 31
0.0
  0
LINE
  5
E7
330
2
100
AcDbEntity
  8
10
100
AcDbLine
 10
8.769515070935414
 20
1.293363475135004
 30
0.0
 11
13.5156088209354
 21
1.293363475135004
 31
0.0
  0
TEXT
  5
E8
330
2
100
AcDbEntity
  8
10
 62
     7
100
AcDbText
 10
8.885999595196892
 20
1.13442878043759
 30
0.0
 40
0.094921875
  1
XXX
100
AcDbText
  0
LINE
  5
E9
330
2
100
AcDbEntity
  8
10
100
AcDbLine
 10
8.769515070935405
 20
1.293363475135002
 30
0.0
 11
8.769515070935392
 21
1.095609568885004
 31
0.0
  0
LINE
  5
EA
330
2
100
AcDbEntity
  8
10
100
AcDbLine
 10
9.244124445935412
 20
1.293363475135002
 30
0.0
 11
9.244124445935399
 21
1.095609568885004
 31
0.0
  0
TEXT
  5
EB
330
2
100
AcDbEntity
  8
10
 62
     7
100
AcDbText
 10
10.37448890325161
 20
1.139266183731332
 30
0.0
 40
0.094921875
  1
XXXXXXXXXXX
100
AcDbText
  0
LINE
  5
EC
330
2
100
AcDbEntity
  8
10
100
AcDbLine
 10
12.32908538343542
 20
1.293363475135004
 30
0.0
 11
12.32908538343544
 21
1.095609568885004
 31
0.0
  0
LINE
  5
ED
330
2
100
AcDbEntity
  8
10
100
AcDbLine
 10
13.04099944593541
 20
1.293363475135004
 30
0.0
 11
13.04099944593541
 21
1.095609568885004
 31
0.0
  0
TEXT
  5
EE
330
2
100
AcDbEntity
  8
10
 62
     7
100
AcDbText
 10
12.49702363782393
 20
1.136339639913729
 30
0.0
 40
0.094921875
  1
XXXX
100
AcDbText
  0
TEXT
  5
EF
330
2
100
AcDbEntity
  8
10
 62
     7
100
AcDbText
 10
13.16100975460847
 20
1.141177182092442
 30
0.0
 40
0.094921875
  1
XXX
100
AcDbText
  0
LINE
  5
F0
330
2
100
AcDbEntity
  8
10
100
AcDbLine
 10
8.769515077451387
 20
0.7001018629777316
 30
0.0
 11
13.51560882745137
 21
0.7001018629777316
 31
0.0
  0
LINE
  5
F1
330
2
100
AcDbEntity
  8
10
100
AcDbLine
 10
8.769515077451387
 20
0.8978557692277316
 30
0.0
 11
13.51560882745137
 21
0.8978557692277316
 31
0.0
  0
TEXT
  5
F2
330
2
100
AcDbEntity
  8
10
 62
     7
100
AcDbText
 10
8.885999601712862
 20
0.7389210745303179
 30
0.0
 40
0.094921875
  1
XXX
100
AcDbText
  0
LINE
  5
F3
330
2
100
AcDbEntity
  8
10
100
AcDbLine
 10
8.769515077451378
 20
0.8978557692277311
 30
0.0
 11
8.769515077451364
 21
0.7001018629777316
 31
0.0
  0
LINE
  5
F4
330
2
100
AcDbEntity
  8
10
100
AcDbLine
 10
9.244124452451382
 20
0.8978557692277311
 30
0.0
 11
9.244124452451373
 21
0.7001018629777316
 31
0.0
  0
TEXT
  5
F5
330
2
100
AcDbEntity
  8
10
 62
     7
100
AcDbText
 10
10.37448890976758
 20
0.7437584778240601
 30
0.0
 40
0.094921875
  1
XXXXXXXXXXX
100
AcDbText
  0
LINE
  5
F6
330
2
100
AcDbEntity
  8
10
100
AcDbLine
 10
12.3290853899514
 20
0.8978557692277316
 30
0.0
 11
12.32908538995141
 21
0.7001018629777316
 31
0.0
  0
LINE
  5
F7
330
2
100
AcDbEntity
  8
10
100
AcDbLine
 10
13.04099945245138
 20
0.8978557692277316
 30
0.0
 11
13.04099945245138
 21
0.7001018629777316
 31
0.0
  0
TEXT
  5
F8
330
2
100
AcDbEntity
  8
10
 62
     7
100
AcDbText
 10
12.4970236443399
 20
0.7408319340064581
 30
0.0
 40
0.094921875
  1
XXXX
100
AcDbText
  0
TEXT
  5
F9
330
2
100
AcDbEntity
  8
10
 62
     7
100
AcDbText
 10
13.16100976112444
 20
0.7456694761851709
 30
0.0
 40
0.094921875
  1
XXX
100
AcDbText
  0
LINE
  5
FA
330
2
100
AcDbEntity
  8
10
100
AcDbLine
 10
8.769515077451387
 20
0.8978557159313687
 30
0.0
 11
13.51560882745137
 21
0.8978557159313687
 31
0.0
  0
LINE
  5
FB
330
2
100
AcDbEntity
  8
10
100
AcDbLine
 10
8.769515077451387
 20
1.095609622181367
 30
0.0
 11
13.51560882745137
 21
1.095609622181367
 31
0.0
  0
TEXT
  5
FC
330
2
100
AcDbEntity
  8
10
 62
     7
100
AcDbText
 10
8.885999601712862
 20
0.9366749274839547
 30
0.0
 40
0.094921875
  1
XXX
100
AcDbText
  0
LINE
  5
FD
330
2
100
AcDbEntity
  8
10
100
AcDbLine
 10
8.769515077451378
 20
1.095609622181367
 30
0.0
 11
8.769515077451364
 21
0.8978557159313687
 31
0.0
  0
LINE
  5
FE
330
2
100
AcDbEntity
  8
10
100
AcDbLine
 10
9.244124452451382
 20
1.095609622181367
 30
0.0
 11
9.244124452451373
 21
0.8978557159313687
 31
0.0
  0
TEXT
  5
FF
330
2
100
AcDbEntity
  8
10
 62
     7
100
AcDbText
 10
10.37448890976758
 20
0.9415123307776973
 30
0.0
 40
0.094921875
  1
XXXXXXXXXXX
100
AcDbText
  0
LINE
  5
100
330
2
100
AcDbEntity
  8
10
100
AcDbLine
 10
12.3290853899514
 20
1.095609622181367
 30
0.0
 11
12.32908538995141
 21
0.8978557159313687
 31
0.0
  0
LINE
  5
101
330
2
100
AcDbEntity
  8
10
100
AcDbLine
 10
13.04099945245138
 20
1.095609622181367
 30
0.0
 11
13.04099945245138
 21
0.8978557159313687
 31
0.0
  0
TEXT
  5
102
330
2
100
AcDbEntity
  8
10
 62
     7
100
AcDbText
 10
12.4970236443399
 20
0.9385857869600949
 30
0.0
 40
0.094921875
  1
XXXX
100
AcDbText
  0
TEXT
  5
103
330
2
100
AcDbEntity
  8
10
 62
     7
100
AcDbText
 10
13.16100976112444
 20
0.943423329138808
 30
0.0
 40
0.094921875
  1
XXX
100
AcDbText
  0
LINE
  5
104
330
2
100
AcDbEntity
  8
10
100
AcDbLine
 10
8.769515077451387
 20
0.5023480100240925
 30
0.0
 11
13.51560882745137
 21
0.5023480100240926
 31
0.0
  0
LINE
  5
105
330
2
100
AcDbEntity
  8
10
100
AcDbLine
 10
8.769515077451387
 20
0.7001019162740927
 30
0.0
 11
13.51560882745137
 21
0.7001019162740927
 31
0.0
  0
TEXT
  5
106
330
2
100
AcDbEntity
  8
10
 62
     7
100
AcDbText
 10
8.885999601712862
 20
0.5411672215766789
 30
0.0
 40
0.094921875
  1
XXX
100
AcDbText
  0
LINE
  5
107
330
2
100
AcDbEntity
  8
10
100
AcDbLine
 10
8.769515077451378
 20
0.7001019162740924
 30
0.0
 11
8.769515077451364
 21
0.5023480100240925
 31
0.0
  0
LINE
  5
108
330
2
100
AcDbEntity
  8
10
100
AcDbLine
 10
9.244124452451382
 20
0.7001019162740924
 30
0.0
 11
9.244124452451373
 21
0.5023480100240925
 31
0.0
  0
TEXT
  5
109
330
2
100
AcDbEntity
  8
10
 62
     7
100
AcDbText
 10
10.37448890976758
 20
0.5460046248704211
 30
0.0
 40
0.094921875
  1
XXXXXXXXXXX
100
AcDbText
  0
LINE
  5
10A
330
2
100
AcDbEntity
  8
10
100
AcDbLine
 10
12.3290853899514
 20
0.7001019162740927
 30
0.0
 11
12.32908538995141
 21
0.5023480100240925
 31
0.0
  0
LINE
  5
10B
330
2
100
AcDbEntity
  8
10
100
AcDbLine
 10
13.04099945245138
 20
0.7001019162740927
 30
0.0
 11
13.04099945245138
 21
0.5023480100240926
 31
0.0
  0
TEXT
  5
10C
330
2
100
AcDbEntity
  8
10
 62
     7
100
AcDbText
 10
12.4970236443399
 20
0.543078081052819
 30
0.0
 40
0.094921875
  1
XXXX
100
AcDbText
  0
TEXT
  5
10D
330
2
100
AcDbEntity
  8
10
 62
     7
100
AcDbText
 10
13.16100976112444
 20
0.5479156232315324
 30
0.0
 40
0.094921875
  1
XXX
100
AcDbText
  0
LINE
  5
10E
330
2
100
AcDbEntity
  8
10
100
AcDbLine
 10
8.769515070935401
 20
1.522367159645805
 30
0.0
 11
16.51560884963223
 21
1.522367159645803
 31
0.0
  0
LINE
  5
10F
330
2
100
AcDbEntity
  8
10
100
AcDbLine
 10
0.0156088496322386
 20
0.0458046596458033
 30
0.0
 11
16.51560884963223
 21
0.0458046596458033
 31
0.0
  0
DIMENSION
  5
110
330
2
100
AcDbEntity
  8
0
 62
     1
100
AcDbDimension
  2
*D18
 10
7.45650011832543
 20
3.891053427210449
 30
0.0
 11
7.456500118325428
 21
3.440494962891591
 31
0.0
 70
   128
 71
     5
 42
0.875
  3
Standard
100
AcDbAlignedDimension
 13
5.924604005148227
 23
3.016053427210451
 33
0.0
 14
6.424604005148231
 24
3.891053427210451
 34
0.0
 50
90.0
100
AcDbRotatedDimension
  0
ARC
  5
11F
330
2
100
AcDbEntity
  8
0
 62
     1
100
AcDbCircle
 10
3.874604005147978
 20
3.766053427210446
 30
0.0
 40
2.245342401506088
100
AcDbArc
 50
31.43231093168362
 51
165.169165222753
  0
LINE
  5
120
330
2
100
AcDbEntity
  8
0
  6
CENTER2
 62
     5
100
AcDbLine
 10
3.874604005147978
 20
3.766053427210446
 30
0.0
 11
3.874604005147978
 21
4.948223747173237
 31
0.0
  0
LINE
  5
122
330
2
100
AcDbEntity
  8
0
  6
CENTER2
 62
     5
100
AcDbLine
 10
3.874604005147978
 20
3.766053427210446
 30
0.0
 11
2.692433685185189
 21
3.766053427210446
 31
0.0
  0
LINE
  5
123
330
2
100
AcDbEntity
  8
0
  6
CENTER2
 62
     5
100
AcDbLine
 10
3.874604005147978
 20
3.766053427210448
 30
0.0
 11
3.874604005147978
 21
2.583883107247658
 31
0.0
  0
LINE
  5
124
330
2
100
AcDbEntity
  8
0
  6
CENTER2
 62
     5
100
AcDbLine
 10
3.874604005147978
 20
3.766053427210446
 30
0.0
 11
5.056774325110768
 21
3.766053427210446
 31
0.0
  0
DIMENSION
  5
125
330
2
100
AcDbEntity
  8
0
 62
     1
100
AcDbDimension
  2
*D19
 10
5.924604005148231
 20
2.136820925747314
 30
0.0
 11
4.899604005148106
 21
2.136820925747314
 31
0.0
 71
     5
 42
2.050000000000253
  3
Standard
100
AcDbAlignedDimension
 13
3.874604005147978
 23
2.583883107247658
 33
0.0
 14
5.924604005148231
 24
3.016053427210451
 34
0.0
100
AcDbRotatedDimension
  0
DIMENSION
  5
133
330
2
100
AcDbEntity
  8
0
 62
     1
100
AcDbDimension
  2
*D20
 10
6.424604005148231
 20
1.48929663554427
 30
0.0
 11
5.149604005148106
 21
1.48929663554427
 31
0.0
 71
     5
 42
2.550000000000252
  3
Standard
100
AcDbAlignedDimension
 13
3.874604005147978
 23
2.583883107247658
 33
0.0
 14
6.424604005148231
 24
3.578553427210451
 34
0.0
100
AcDbRotatedDimension
  0
DIMENSION
  5
141
330
2
100
AcDbEntity
  8
0
 62
     1
100
AcDbDimension
  2
*D21
 10
1.832216051896608
 20
2.136820925747314
 30
0.0
 11
2.853410028522294
 21
2.136820925747314
 31
0.0
 71
     5
 42
2.04238795325137
  3
Standard
100
AcDbAlignedDimension
 13
3.874604005147978
 23
2.583883107247658
 33
0.0
 14
1.832216051896608
 24
2.984803427210451
 34
0.0
100
AcDbRotatedDimension
  0
DIMENSION
  5
14F
330
2
100
AcDbEntity
  8
0
 62
     1
100
AcDbDimension
  2
*D22
 10
1.322104005147741
 20
1.48929663554427
 30
0.0
 11
2.598354005147859
 21
1.48929663554427
 31
0.0
 71
     5
 42
2.552500000000235
  3
Standard
100
AcDbAlignedDimension
 13
3.874604005147978
 23
2.583883107247658
 33
0.0
 14
1.322104005147742
 24
3.481053427210446
 34
0.0
100
AcDbRotatedDimension
  0
DIMENSION
  5
15D
330
2
100
AcDbEntity
  8
0
 62
     1
100
AcDbDimension
  2
*D23
 10
0.429140130033546
 20
4.253553427210444
 30
0.0
 11
0.4291401300335452
 21
3.596058854698981
 31
0.0
 70
   128
 71
     5
 42
1.268749999999992
  3
Standard
100
AcDbAlignedDimension
 13
1.853893327029084
 23
2.984803427210451
 33
0.0
 14
1.634604005147743
 24
4.253553427210444
 34
0.0
 50
90.0
100
AcDbRotatedDimension
  0
LINE
  5
16B
330
2
100
AcDbEntity
  8
0
 62
     1
100
AcDbLine
 10
5.912874122909003
 20
4.730774689234955
 30
0.0
 11
5.864889341940027
 21
4.981416116665684
 31
0.0
  0
LINE
  5
16C
330
2
100
AcDbEntity
  8
0
 62
     1
100
AcDbLine
 10
5.864889341940027
 20
4.981416116665684
 30
0.0
 11
5.715006444066815
 21
4.891933139273294
 31
0.0
  0
LINE
  5
16D
330
2
100
AcDbEntity
  8
0
 62
     1
100
AcDbLine
 10
5.715006444066815
 20
4.891933139273294
 30
0.0
 11
5.912874122909003
 21
4.730774689234955
 31
0.0
  0
LINE
  5
16E
330
2
100
AcDbEntity
  8
0
  6
CENTER2
 62
     5
100
AcDbLine
 10
4.922104005148216
 20
7.798914506484662
 30
0.0
 11
6.572359377631277
 21
7.798914506484662
 31
0.0
  0
LINE
  5
16F
330
2
100
AcDbEntity
  8
0
  6
CENTER2
 62
     5
100
AcDbLine
 10
4.922104005148216
 20
7.798914506484662
 30
0.0
 11
4.922104005148216
 21
9.449169878967726
 31
0.0
  0
LINE
  5
170
330
2
100
AcDbEntity
  8
0
  6
CENTER2
 62
     5
100
AcDbLine
 10
4.922104005148217
 20
7.798914506484663
 30
0.0
 11
3.271848632665156
 21
7.798914506484663
 31
0.0
  0
LINE
  5
171
330
2
100
AcDbEntity
  8
0
  6
CENTER2
 62
     5
100
AcDbLine
 10
4.922104005148216
 20
7.798914506484663
 30
0.0
 11
4.922104005148216
 21
6.148659134001603
 31
0.0
  0
DIMENSION
  5
172
330
2
100
AcDbEntity
  8
0
 62
     1
100
AcDbDimension
  2
*D24
 10
0.892784268439691
 20
3.641053427210448
 30
0.0
 11
0.8927842684396907
 21
3.325621964067586
 31
0.0
 70
   128
 71
     5
 42
0.6562499999999965
  3
Standard
100
AcDbAlignedDimension
 13
1.824604005147736
 23
2.984803427210451
 33
0.0
 14
1.824604005147736
 24
3.641053427210446
 34
0.0
 50
90.0
100
AcDbRotatedDimension
  0
DIMENSION
  5
180
330
2
100
AcDbEntity
  8
0
 62
     1
100
AcDbDimension
  2
*D25
 10
1.904604005147738
 20
9.495671832417881
 30
0.0
 11
2.827104005147745
 21
9.495671832417881
 31
0.0
 71
     5
 42
1.845000000000013
  3
Standard
100
AcDbAlignedDimension
 13
3.749604005147752
 23
8.191026517773853
 33
0.0
 14
1.904604005147738
 24
8.191026517773844
 34
0.0
100
AcDbRotatedDimension
  0
DIMENSION
  5
18E
330
2
100
AcDbEntity
  8
0
 62
     1
100
AcDbDimension
  2
*D26
 10
0.8251844193321245
 20
6.886414506484657
 30
0.0
 11
0.8251844193321231
 21
7.808914506484669
 31
0.0
 71
     5
 42
1.84500000000002
  3
Standard
100
AcDbAlignedDimension
 13
2.444991993858559
 23
8.731414506484679
 33
0.0
 14
2.444991993858566
 24
6.886414506484657
 34
0.0
 50
90.0
100
AcDbRotatedDimension
  0
DIMENSION
  5
19C
330
2
100
AcDbEntity
  8
0
 62
     1
100
AcDbDimension
  2
*D27
 10
0.3125994648554096
 20
6.806414506484651
 30
0.0
 11
0.3125994648554085
 21
7.808914506484664
 31
0.0
 71
     5
 42
2.005000000000026
  3
Standard
100
AcDbAlignedDimension
 13
2.453276265106024
 23
8.81141450648468
 33
0.0
 14
2.453276265106024
 24
6.806414506484649
 34
0.0
 50
90.0
100
AcDbRotatedDimension
  0
DIMENSION
  5
1AA
330
2
100
AcDbEntity
  8
0
 62
     1
100
AcDbDimension
  2
*D28
 10
1.824604005147735
 20
9.836241326248348
 30
0.0
 11
2.827104005147747
 21
9.836241326248348
 31
0.0
 71
     5
 42
2.005000000000024
  3
Standard
100
AcDbAlignedDimension
 13
3.829604005147761
 23
8.182742246526391
 33
0.0
 14
1.824604005147735
 24
8.182742246526391
 34
0.0
100
AcDbRotatedDimension
  0
DIMENSION
  5
1B8
330
2
100
AcDbEntity
  8
0
 62
     1
100
AcDbDimension
  2
*D10
 10
4.582717892790903
 20
7.298073147630393
 30
0.0
 11
6.408900383417585
 21
9.394648251891164
 31
0.0
 70
   131
 71
     5
 42
1.210000000000001
  3
Standard
100
AcDbDiametricDimension
 15
5.261490117505531
 25
8.299755865338932
 35
0.0
 40
0.0
1001
ACAD
1000
DSTYLE
1002
{
1070
   288
1070
     1
1002
}
  0
DIMENSION
  5
1C4
330
2
100
AcDbEntity
  8
0
 62
     1
100
AcDbDimension
  2
*D11
 10
7.498659636444273
 20
6.796414506484655
 30
0.0
 11
7.498659636444273
 21
7.798914506484664
 31
0.0
 71
     5
 42
2.005000000000018
  3
Standard
100
AcDbAlignedDimension
 13
5.337353101427243
 23
8.801414506484674
 33
0.0
 14
5.295931745189943
 24
6.796414506484656
 34
0.0
 50
90.0
100
AcDbRotatedDimension
  0
DIMENSION
  5
1D2
330
2
100
AcDbEntity
  8
0
 62
     1
100
AcDbDimension
  2
*D12
 10
6.911794560682758
 20
6.876414506484655
 30
0.0
 11
6.911794560682755
 21
7.798914506484668
 31
0.0
 71
     5
 42
1.84500000000002
  3
Standard
100
AcDbAlignedDimension
 13
5.304216016437405
 23
8.721414506484673
 33
0.0
 14
5.304216016437405
 24
6.876414506484656
 34
0.0
 50
90.0
100
AcDbRotatedDimension
  0
MTEXT
  5
1E0
330
2
100
AcDbEntity
  8
0
 62
     1
100
AcDbMText
 10
3.925452435029549
 20
5.42148275449
 30
0.0
 40
0.125
 41
1.3064
 71
     2
 72
     5
  1
C IS HINGE POINT
 73
     1
 44
1.0
1001
ACAD
1000
MTEXTBEGIN
1070
    73
1070
     1
1070
    44
1040
1.0
1070
    74
1070
     0
1000
MTEXTEND
  0
MTEXT
  5
1E1
330
2
100
AcDbEntity
  8
0
 62
     1
100
AcDbMText
 10
3.453005304563602
 20
5.363975186791613
 30
0.0
 40
0.125
 41
0.6244
 71
     1
 72
     5
  1
L
 73
     1
 44
1.0
1001
ACAD
1000
MTEXTBEGIN
1070
    73
1070
     1
1070
    44
1040
1.0
1070
    74
1070
     0
1000
MTEXTEND
  0
DIMENSION
  5
1E2
330
2
100
AcDbEntity
  8
0
 62
     1
100
AcDbDimension
  2
*D13
 10
15.10717737932899
 20
8.632514466008936
 30
0.0
 11
15.10717737932899
 21
7.919195813599812
 31
0.0
 70
   128
  1
<>\PCLOSED HT
 71
     5
 42
1.531249999999989
  3
Standard
100
AcDbAlignedDimension
 13
12.3318387601969
 23
7.101264466008949
 33
0.0
 14
12.3318387601969
 24
8.632514466008936
 34
0.0
 50
90.0
100
AcDbRotatedDimension
  0
DIMENSION
  5
1F0
330
2
100
AcDbEntity
  8
0
 62
     1
100
AcDbDimension
  2
*D14
 10
13.71685578631345
 20
7.201264466008947
 30
0.0
 11
13.71685578631344
 21
7.820599515224351
 31
0.0
 70
   128
  1
<>\PCAVITY HT.
 71
     5
 42
1.331249999999995
  3
Standard
100
AcDbAlignedDimension
 13
12.25183876019689
 23
8.532514466008942
 33
0.0
 14
12.2518387601969
 24
7.201264466008947
 34
0.0
 50
90.0
100
AcDbRotatedDimension
  0
DIMENSION
  5
1FE
330
2
100
AcDbEntity
  8
0
 62
     1
100
AcDbDimension
  2
*D15
 10
10.1568387601967
 20
9.397123655277248
 30
0.0
 11
11.49558876019679
 21
9.397123655277248
 31
0.0
 71
     5
 42
2.677500000000193
  3
Standard
100
AcDbAlignedDimension
 13
12.83433876019689
 23
8.136264466008942
 33
0.0
 14
10.1568387601967
 24
8.136264466008945
 34
0.0
100
AcDbRotatedDimension
  0
DIMENSION
  5
20C
330
2
100
AcDbEntity
  8
0
 62
     1
100
AcDbDimension
  2
*D16
 10
12.8318387601969
 20
6.011539837328072
 30
0.0
 11
11.55683876019677
 21
6.011539837328072
 31
0.0
  1
<>\PFROM HINGE
 71
     5
 42
2.550000000000251
  3
Standard
100
AcDbAlignedDimension
 13
10.28183876019665
 23
7.851264466008945
 33
0.0
 14
12.8318387601969
 24
7.663764466008949
 34
0.0
100
AcDbRotatedDimension
  0
DIMENSION
  5
21A
330
2
100
AcDbEntity
  8
0
 62
     1
100
AcDbDimension
  2
*D17
 10
10.28183876019665
 20
6.62154657844175
 30
0.0
 11
11.30683876019677
 21
6.62154657844175
 31
0.0
  1
<>\PFROM HINGE
 71
     5
 42
2.050000000000251
  3
Standard
100
AcDbAlignedDimension
 13
12.3318387601969
 23
7.101264466008949
 33
0.0
 14
10.28183876019665
 24
7.851264466008945
 34
0.0
100
AcDbRotatedDimension
  0
LINE
  5
228
330
2
100
AcDbEntity
  8
AM_VIS
100
AcDbLine
 10
3.999604005147978
 20
6.806414506484652
 30
0.0
 11
3.814428995571951
 21
6.806414506484652
 31
0.0
  0
LINE
  5
22A
330
2
100
AcDbEntity
  8
AM_VIS
100
AcDbLine
 10
3.999604005147982
 20
6.941414506484652
 30
0.0
 11
3.999604005147981
 21
6.806414506484652
 31
0.0
  0
LINE
  5
22B
330
2
100
AcDbEntity
  8
AM_VIS
100
AcDbLine
 10
3.387353101426775
 20
6.806414506484652
 30
0.0
 11
3.814428995571951
 21
6.806414506484652
 31
0.0
  0
LINE
  5
22C
330
2
100
AcDbEntity
  8
AM_VIS
100
AcDbLine
 10
3.387353101426779
 20
6.941414506484652
 30
0.0
 11
3.749604005148039
 21
6.941414506484652
 31
0.0
  0
LINE
  5
22D
330
2
100
AcDbEntity
  8
AM_VIS
100
AcDbLine
 10
3.387353101426775
 20
6.806414506484652
 30
0.0
 11
3.387353101426775
 21
6.941414506484652
 31
0.0
  0
LINE
  5
22E
330
2
100
AcDbEntity
  8
AM_VIS
100
AcDbLine
 10
3.209216016436939
 20
8.731414506484677
 30
0.0
 11
3.749604005147757
 21
8.191026517773853
 31
0.0
  0
LINE
  5
22F
330
2
100
AcDbEntity
  8
AM_VIS
100
AcDbLine
 10
3.749604005147752
 20
8.191026517773853
 30
0.0
 11
3.749604005147752
 21
7.426802495195483
 31
0.0
  0
LINE
  5
230
330
2
100
AcDbEntity
  8
AM_VIS
100
AcDbLine
 10
3.749604005147758
 20
7.426802495195483
 30
0.0
 11
3.209216016436934
 21
6.886414506484663
 31
0.0
  0
LINE
  5
231
330
2
100
AcDbEntity
  8
AM_VIS
100
AcDbLine
 10
3.209216016436936
 20
6.886414506484662
 30
0.0
 11
2.444991993858558
 21
6.88641450648466
 31
0.0
  0
LINE
  5
232
330
2
100
AcDbEntity
  8
AM_VIS
100
AcDbLine
 10
2.444991993858558
 20
6.886414506484659
 30
0.0
 11
1.904604005147739
 21
7.426802495195483
 31
0.0
  0
LINE
  5
233
330
2
100
AcDbEntity
  8
AM_VIS
100
AcDbLine
 10
1.904604005147741
 20
7.426802495195483
 30
0.0
 11
1.904604005147739
 21
8.191026517773853
 31
0.0
  0
LINE
  5
234
330
2
100
AcDbEntity
  8
AM_VIS
100
AcDbLine
 10
1.904604005147739
 20
8.191026517773853
 30
0.0
 11
2.444991993858562
 21
8.731414506484679
 31
0.0
  0
LINE
  5
235
330
2
100
AcDbEntity
  8
AM_VIS
100
AcDbLine
 10
2.444991993858564
 20
8.73141450648468
 30
0.0
 11
3.209216016436939
 21
8.731414506484679
 31
0.0
  0
LINE
  5
236
330
2
100
AcDbEntity
  8
AM_VIS
100
AcDbLine
 10
3.735818964798478
 20
7.299880369856343
 30
0.0
 11
3.735818964798478
 21
6.941414506484652
 31
0.0
  0
LINE
  5
237
330
2
100
AcDbEntity
  8
AM_VIS
100
AcDbLine
 10
3.800314683266413
 20
7.36437608832429
 30
0.0
 11
3.735818964798471
 21
7.299880369856348
 31
0.0
  0
ARC
  5
238
330
2
100
AcDbEntity
  8
AM_VIS
100
AcDbCircle
 10
3.729604005147758
 20
7.435086766442946
 30
0.0
 40
0.1000000000000001
100
AcDbArc
 50
314.9999999999999
 51
359.9999999999998
  0
LINE
  5
239
330
2
100
AcDbEntity
  8
AM_VIS
100
AcDbLine
 10
3.829604005147761
 20
8.182742246526391
 30
0.0
 11
3.829604005147758
 21
7.435086766442946
 31
0.0
  0
ARC
  5
23A
330
2
100
AcDbEntity
  8
AM_VIS
100
AcDbCircle
 10
3.729604005147758
 20
8.182742246526391
 30
0.0
 40
0.1
100
AcDbArc
 50
359.9999999999998
 51
44.99999999999986
  0
LINE
  5
23B
330
2
100
AcDbEntity
  8
AM_VIS
100
AcDbLine
 10
3.735818964798474
 20
8.317948643112982
 30
0.0
 11
3.800314683266413
 21
8.253452924645044
 31
0.0
  0
LINE
  5
23C
330
2
100
AcDbEntity
  8
AM_VIS
100
AcDbLine
 10
3.735818964798478
 20
8.317948643112986
 30
0.0
 11
3.73581896479848
 21
8.676414506484677
 31
0.0
  0
LINE
  5
23D
330
2
100
AcDbEntity
  8
AM_VIS
100
AcDbLine
 10
3.387353101426786
 20
8.811414506484677
 30
0.0
 11
3.387353101426784
 21
8.676414506484677
 31
0.0
  0
LINE
  5
23E
330
2
100
AcDbEntity
  8
AM_VIS
100
AcDbLine
 10
2.453276265106029
 20
8.81141450648468
 30
0.0
 11
3.387353101426786
 21
8.81141450648468
 31
0.0
  0
ARC
  5
23F
330
2
100
AcDbEntity
  8
AM_VIS
100
AcDbCircle
 10
2.453276265106029
 20
8.711414506484683
 30
0.0
 40
0.1
100
AcDbArc
 50
89.99999999999987
 51
135.0000000000013
  0
LINE
  5
240
330
2
100
AcDbEntity
  8
AM_VIS
100
AcDbLine
 10
2.256854908868716
 20
8.656414506484683
 30
0.0
 11
2.382565586987376
 21
8.782125184603337
 31
0.0
  0
LINE
  5
241
330
2
100
AcDbEntity
  8
AM_VIS
100
AcDbLine
 10
2.25685490886872
 20
8.656414506484679
 30
0.0
 11
1.947104005147743
 21
8.656414506484679
 31
0.0
  0
ARC
  5
242
330
2
100
AcDbEntity
  8
AM_VIS
100
AcDbCircle
 10
1.704604005147735
 20
8.406414506484679
 30
0.0
 40
0.1200000000000001
100
AcDbArc
 50
0.0000000000002799
 51
90.00000000000156
  0
LINE
  5
243
330
2
100
AcDbEntity
  8
AM_VIS
100
AcDbLine
 10
1.824604005147736
 20
7.43508676644295
 30
0.0
 11
1.824604005147739
 21
8.406414506484679
 31
0.0
  0
ARC
  5
244
330
2
100
AcDbEntity
  8
AM_VIS
100
AcDbCircle
 10
1.924604005147738
 20
7.43508676644295
 30
0.0
 40
0.1000000000000005
100
AcDbArc
 50
180.0000000000009
 51
225.0000000000002
  0
LINE
  5
245
330
2
100
AcDbEntity
  8
AM_VIS
100
AcDbLine
 10
2.382565586987368
 20
6.835703828365999
 30
0.0
 11
1.85389332702908
 21
7.364376088324295
 31
0.0
  0
ARC
  5
246
330
2
100
AcDbEntity
  8
AM_VIS
100
AcDbCircle
 10
2.453276265106023
 20
6.906414506484653
 30
0.0
 40
0.1
100
AcDbArc
 50
224.9999999999999
 51
269.9999999999999
  0
LINE
  5
247
330
2
100
AcDbEntity
  8
AM_VIS
100
AcDbLine
 10
3.387353101426775
 20
6.806414506484655
 30
0.0
 11
2.453276265106023
 21
6.806414506484657
 31
0.0
  0
LINE
  5
248
330
2
100
AcDbEntity
  8
AM_HID
100
AcDbLine
 10
1.824604005147736
 20
8.224163602763722
 30
0.0
 11
2.256854908868714
 21
8.656414506484683
 31
0.0
  0
ARC
  5
24B
330
2
100
AcDbEntity
  8
AM_HID
100
AcDbCircle
 10
3.200931745189477
 20
8.711414506484679
 30
0.0
 40
0.1
100
AcDbArc
 50
45.00000000000059
 51
90.0000000000019
  0
LINE
  5
24C
330
2
100
AcDbEntity
  8
AM_HID
100
AcDbLine
 10
3.271642423308128
 20
8.782125184603334
 30
0.0
 11
3.735818964798482
 21
8.317948643112982
 31
0.0
  0
ARC
  5
24D
330
2
100
AcDbEntity
  8
AM_HID
100
AcDbCircle
 10
3.200931745189464
 20
6.906414506484651
 30
0.0
 40
0.1000000000000001
100
AcDbArc
 50
270.000000000004
 51
315.000000000002
  0
LINE
  5
24E
330
2
100
AcDbEntity
  8
AM_HID
100
AcDbLine
 10
3.735818964798471
 20
7.299880369856348
 30
0.0
 11
3.271642423308124
 21
6.835703828365995
 31
0.0
  0
LINE
  5
24F
330
2
100
AcDbEntity
  8
AM_VIS
100
AcDbLine
 10
1.322104005147742
 20
8.526414506484679
 30
0.0
 11
1.322104005147742
 21
8.656414506484678
 31
0.0
  0
LINE
  5
250
330
2
100
AcDbEntity
  8
AM_VIS
100
AcDbLine
 10
1.947104005147743
 20
8.526414506484677
 30
0.0
 11
1.947104005147743
 21
8.656414506484676
 31
0.0
  0
LINE
  5
251
330
2
100
AcDbEntity
  8
AM_VIS
100
AcDbLine
 10
1.322104005147742
 20
8.656414506484678
 30
0.0
 11
1.947104005147743
 21
8.656414506484676
 31
0.0
  0
LINE
  5
252
330
2
100
AcDbEntity
  8
AM_VIS
100
AcDbLine
 10
1.947104005147743
 20
8.526414506484677
 30
0.0
 11
1.322104005147742
 21
8.526414506484679
 31
0.0
  0
LINE
  5
253
330
2
100
AcDbEntity
  8
AM_VIS
100
AcDbLine
 10
3.999604005147986
 20
8.676414506484674
 30
0.0
 11
3.814428995571957
 21
8.676414506484674
 31
0.0
  0
LINE
  5
254
330
2
100
AcDbEntity
  8
AM_VIS
100
AcDbLine
 10
3.999604005147992
 20
8.811414506484677
 30
0.0
 11
3.999604005147992
 21
8.676414506484677
 31
0.0
  0
LINE
  5
255
330
2
100
AcDbEntity
  8
AM_VIS
100
AcDbLine
 10
3.999604005147986
 20
8.811414506484677
 30
0.0
 11
3.814428995571957
 21
8.811414506484677
 31
0.0
  0
LINE
  5
256
330
2
100
AcDbEntity
  8
AM_VIS
100
AcDbLine
 10
3.387353101426786
 20
8.676414506484677
 30
0.0
 11
3.814428995571962
 21
8.676414506484674
 31
0.0
  0
LINE
  5
257
330
2
100
AcDbEntity
  8
AM_VIS
100
AcDbLine
 10
3.387353101426786
 20
8.811414506484677
 30
0.0
 11
3.814428995571962
 21
8.811414506484675
 31
0.0
  0
LINE
  5
258
330
2
100
AcDbEntity
  8
AM_HID
100
AcDbLine
 10
3.843354005147978
 20
6.806414506484652
 30
0.0
 11
3.843354005147978
 21
6.941414506484652
 31
0.0
  0
LINE
  5
259
330
2
100
AcDbEntity
  8
AM_HID
100
AcDbLine
 10
3.905854005147978
 20
6.806414506484652
 30
0.0
 11
3.905854005147978
 21
6.941414506484652
 31
0.0
  0
LINE
  5
25A
330
2
100
AcDbEntity
  8
AM_HID
100
AcDbLine
 10
1.47060400514774
 20
8.526414506484679
 30
0.0
 11
1.47060400514774
 21
8.656414506484678
 31
0.0
  0
LINE
  5
25B
330
2
100
AcDbEntity
  8
AM_HID
100
AcDbLine
 10
1.798604005147744
 20
8.526414506484677
 30
0.0
 11
1.798604005147744
 21
8.656414506484676
 31
0.0
  0
LINE
  5
25C
330
2
100
AcDbEntity
  8
AM_HID
100
AcDbLine
 10
3.843354005147986
 20
8.676414506484674
 30
0.0
 11
3.843354005147986
 21
8.811414506484675
 31
0.0
  0
LINE
  5
25D
330
2
100
AcDbEntity
  8
AM_HID
100
AcDbLine
 10
3.905854005147986
 20
8.676414506484674
 30
0.0
 11
3.905854005147986
 21
8.811414506484675
 31
0.0
  0
LINE
  5
25E
330
2
100
AcDbEntity
  8
AM_HID
100
AcDbLine
 10
5.002104005148214
 20
8.39860192506204
 30
0.0
 11
5.002104005148214
 21
8.458914506484662
 31
0.0
  0
LINE
  5
25F
330
2
100
AcDbEntity
  8
AM_VIS
100
AcDbLine
 10
5.002104005148214
 20
8.39860192506204
 30
0.0
 11
5.002104005148214
 21
8.348914506484662
 31
0.0
  0
LINE
  5
260
330
2
100
AcDbEntity
  8
AM_VIS
100
AcDbLine
 10
5.002104005148214
 20
8.348914506484662
 30
0.0
 11
4.842104005148217
 21
8.348914506484662
 31
0.0
  0
LINE
  5
261
330
2
100
AcDbEntity
  8
AM_HID
100
AcDbLine
 10
5.002104005148217
 20
8.458914506484662
 30
0.0
 11
4.842104005148222
 21
8.458914506484662
 31
0.0
  0
LINE
  5
262
330
2
100
AcDbEntity
  8
AM_HID
100
AcDbLine
 10
4.842104005148222
 20
8.458914506484664
 30
0.0
 11
4.842104005148222
 21
8.398601925062042
 31
0.0
  0
LINE
  5
263
330
2
100
AcDbEntity
  8
AM_VIS
100
AcDbLine
 10
4.842104005148217
 20
8.348914506484662
 30
0.0
 11
4.842104005148217
 21
8.398601925062042
 31
0.0
  0
ARC
  5
264
330
2
100
AcDbEntity
  8
AM_VIS
100
AcDbCircle
 10
4.922104005148216
 20
7.79891450648466
 30
0.0
 40
0.6050000000000019
100
AcDbArc
 50
97.59855576341735
 51
82.4014442365817
  0
LINE
  5
265
330
2
100
AcDbEntity
  8
AM_HID
100
AcDbLine
 10
5.337353101427247
 20
8.801414506484668
 30
0.0
 11
5.633063779545909
 21
8.50570382836601
 31
0.0
  0
LINE
  5
266
330
2
100
AcDbEntity
  8
AM_VIS
100
AcDbLine
 10
5.703774457664565
 20
8.676414506484665
 30
0.0
 11
6.424604005148231
 21
8.676414506484665
 31
0.0
  0
ARC
  5
267
330
2
100
AcDbEntity
  8
AM_VIS
100
AcDbCircle
 10
5.703774457664565
 20
8.576414506484665
 30
0.0
 40
0.1000000000000016
100
AcDbArc
 50
89.99999999999987
 51
224.9999999999984
  0
LINE
  5
268
330
2
100
AcDbEntity
  8
AM_VIS
100
AcDbLine
 10
6.424604005148231
 20
8.676414506484665
 30
0.0
 11
6.424604005148227
 21
8.801414506484663
 31
0.0
  0
LINE
  5
269
330
2
100
AcDbEntity
  8
AM_HID
100
AcDbLine
 10
4.016854908869187
 20
7.286414506484653
 30
0.0
 11
4.016854908869187
 21
6.941414506484655
 31
0.0
  0
LINE
  5
26A
330
2
100
AcDbEntity
  8
AM_HID
100
AcDbLine
 10
4.36185490886918
 20
6.941414506484655
 30
0.0
 11
4.016854908869184
 21
7.286414506484656
 31
0.0
  0
LINE
  5
26B
330
2
100
AcDbEntity
  8
AM_VIS
100
AcDbLine
 10
3.749604005148039
 20
7.286414506484647
 30
0.0
 11
4.016854908869181
 21
7.286414506484644
 31
0.0
  0
LINE
  5
26C
330
2
100
AcDbEntity
  8
AM_VIS
100
AcDbLine
 10
3.749604005148039
 20
6.941414506484651
 30
0.0
 11
3.749604005148039
 21
7.286414506484647
 31
0.0
  0
LINE
  5
26D
330
2
100
AcDbEntity
  8
AM_VIS
100
AcDbLine
 10
4.36185490886918
 20
6.941414506484655
 30
0.0
 11
3.749604005148039
 21
6.941414506484655
 31
0.0
  0
LINE
  5
26E
330
2
100
AcDbEntity
  8
AM_HID
100
AcDbLine
 10
4.016854908869191
 20
8.656414506484669
 30
0.0
 11
4.01685490886919
 21
8.31141450648467
 31
0.0
  0
LINE
  5
26F
330
2
100
AcDbEntity
  8
AM_HID
100
AcDbLine
 10
4.016854908869181
 20
8.31141450648467
 30
0.0
 11
4.36185490886918
 21
8.656414506484669
 31
0.0
  0
LINE
  5
270
330
2
100
AcDbEntity
  8
AM_VIS
100
AcDbLine
 10
3.749604005148043
 20
8.656414506484676
 30
0.0
 11
3.749604005148041
 21
8.311414506484679
 31
0.0
  0
LINE
  5
271
330
2
100
AcDbEntity
  8
AM_VIS
100
AcDbLine
 10
3.749604005148039
 20
8.311414506484679
 30
0.0
 11
4.016854908869181
 21
8.31141450648468
 31
0.0
  0
LINE
  5
272
330
2
100
AcDbEntity
  8
AM_VIS
100
AcDbLine
 10
4.361854908869182
 20
8.656414506484662
 30
0.0
 11
3.749604005148043
 21
8.656414506484676
 31
0.0
  0
LINE
  5
273
330
2
100
AcDbEntity
  8
AM_VIS
100
AcDbLine
 10
4.361854908869187
 20
8.656414506484667
 30
0.0
 11
4.477565586987846
 21
8.772125184603327
 31
0.0
  0
LINE
  5
274
330
2
100
AcDbEntity
  8
AM_VIS
100
AcDbLine
 10
3.948893327029555
 20
8.243452924645039
 30
0.0
 11
4.016854908869183
 21
8.311414506484668
 31
0.0
  0
LINE
  5
275
330
2
100
AcDbEntity
  8
AM_VIS
100
AcDbLine
 10
3.99960400514821
 20
8.172742246526386
 30
0.0
 11
4.005461869524481
 21
8.186884382150115
 31
0.0
  0
LINE
  5
276
330
2
100
AcDbEntity
  8
AM_VIS
100
AcDbLine
 10
3.99960400514821
 20
7.416802495195481
 30
0.0
 11
3.999604005148211
 21
8.172742246526386
 31
0.0
  0
LINE
  5
277
330
2
100
AcDbEntity
  8
AM_VIS
100
AcDbLine
 10
4.539991993859035
 20
6.876414506484657
 30
0.0
 11
3.999604005148208
 21
7.416802495195481
 31
0.0
  0
LINE
  5
278
330
2
100
AcDbEntity
  8
AM_VIS
100
AcDbLine
 10
5.304216016437401
 20
6.876414506484652
 30
0.0
 11
4.539991993859032
 21
6.876414506484655
 31
0.0
  0
LINE
  5
279
330
2
100
AcDbEntity
  8
AM_VIS
100
AcDbLine
 10
5.844604005148222
 20
7.416802495195473
 30
0.0
 11
5.304216016437401
 21
6.876414506484652
 31
0.0
  0
LINE
  5
27A
330
2
100
AcDbEntity
  8
AM_VIS
100
AcDbLine
 10
5.844604005148227
 20
8.181026517773839
 30
0.0
 11
5.84460400514822
 21
7.416802495195473
 31
0.0
  0
LINE
  5
27B
330
2
100
AcDbEntity
  8
AM_VIS
100
AcDbLine
 10
5.304216016437408
 20
8.721414506484668
 30
0.0
 11
5.844604005148232
 21
8.181026517773837
 31
0.0
  0
LINE
  5
27C
330
2
100
AcDbEntity
  8
AM_VIS
100
AcDbLine
 10
4.539991993859035
 20
8.721414506484672
 30
0.0
 11
5.304216016437408
 21
8.721414506484668
 31
0.0
  0
LINE
  5
27D
330
2
100
AcDbEntity
  8
AM_VIS
100
AcDbLine
 10
4.005461869524481
 20
8.186884382150115
 30
0.0
 11
4.539991993859032
 21
8.721414506484672
 31
0.0
  0
ARC
  5
27E
330
2
100
AcDbEntity
  8
AM_VIS
100
AcDbCircle
 10
4.548276265106487
 20
6.896414506484652
 30
0.0
 40
0.0999999999999994
100
AcDbArc
 50
225.0000000000006
 51
269.9999999999999
  0
LINE
  5
27F
330
2
100
AcDbEntity
  8
AM_VIS
100
AcDbLine
 10
5.295931745189938
 20
6.796414506484652
 30
0.0
 11
4.548276265106487
 21
6.796414506484652
 31
0.0
  0
ARC
  5
280
330
2
100
AcDbEntity
  8
AM_VIS
100
AcDbCircle
 10
5.295931745189938
 20
6.896414506484648
 30
0.0
 40
0.0999999999999951
100
AcDbArc
 50
269.9999999999999
 51
315.0000000000002
  0
LINE
  5
281
330
2
100
AcDbEntity
  8
AM_VIS
100
AcDbLine
 10
5.895314683266885
 20
7.354376088324282
 30
0.0
 11
5.366642423308596
 21
6.825703828365996
 31
0.0
  0
ARC
  5
282
330
2
100
AcDbEntity
  8
AM_VIS
100
AcDbCircle
 10
5.824604005148231
 20
7.425086766442938
 30
0.0
 40
0.1000000000000005
100
AcDbArc
 50
314.9999999999995
 51
359.9999999999988
  0
LINE
  5
283
330
2
100
AcDbEntity
  8
AM_VIS
100
AcDbLine
 10
5.924604005148227
 20
8.172742246526384
 30
0.0
 11
5.92460400514823
 21
7.425086766442937
 31
0.0
  0
ARC
  5
284
330
2
100
AcDbEntity
  8
AM_VIS
100
AcDbCircle
 10
5.824604005148227
 20
8.172742246526384
 30
0.0
 40
0.0999999999999994
100
AcDbArc
 50
359.9999999999998
 51
44.99999999999916
  0
LINE
  5
285
330
2
100
AcDbEntity
  8
AM_VIS
100
AcDbLine
 10
5.63306377954591
 20
8.505703828366012
 30
0.0
 11
5.895314683266887
 21
8.243452924645037
 31
0.0
  0
LINE
  5
286
330
2
100
AcDbEntity
  8
AM_VIS
100
AcDbLine
 10
4.5482762651065
 20
8.801414506484672
 30
0.0
 11
6.424604005148231
 21
8.801414506484661
 31
0.0
  0
ARC
  5
287
330
2
100
AcDbEntity
  8
AM_VIS
100
AcDbCircle
 10
4.5482762651065
 20
8.701414506484674
 30
0.0
 40
0.0999999999999999
100
AcDbArc
 50
89.99999999999987
 51
135.0000000000006
  0
ARC
  5
288
330
2
100
AcDbEntity
  8
AM_VIS
100
AcDbCircle
 10
4.019604005148205
 20
8.172742246526386
 30
0.0
 40
0.0999999999999996
100
AcDbArc
 50
134.9999999999977
 51
179.9999999999998
  0
LINE
  5
289
330
2
100
AcDbEntity
  8
AM_VIS
100
AcDbLine
 10
3.919604005148205
 20
7.425086766442944
 30
0.0
 11
3.91960400514821
 21
8.172742246526386
 31
0.0
  0
ARC
  5
28A
330
2
100
AcDbEntity
  8
AM_VIS
100
AcDbCircle
 10
4.01960400514821
 20
7.425086766442944
 30
0.0
 40
0.1000000000000031
100
AcDbArc
 50
180.0000000000004
 51
225.0000000000013
  0
LINE
  5
28B
330
2
100
AcDbEntity
  8
AM_VIS
100
AcDbLine
 10
4.016854908869183
 20
7.286414506484657
 30
0.0
 11
3.948893327029555
 21
7.354376088324286
 31
0.0
  0
LINE
  5
28C
330
2
100
AcDbEntity
  8
AM_VIS
100
AcDbLine
 10
4.477565586987835
 20
6.825703828365996
 30
0.0
 11
4.36185490886918
 21
6.941414506484655
 31
0.0
  0
LINE
  5
28D
330
2
100
AcDbEntity
  8
AM_HID
100
AcDbLine
 10
3.905854005147982
 20
8.656414506484669
 30
0.0
 11
3.905854005147981
 21
8.311414506484677
 31
0.0
  0
LINE
  5
28E
330
2
100
AcDbEntity
  8
AM_HID
100
AcDbLine
 10
3.843354005147982
 20
8.656414506484669
 30
0.0
 11
3.843354005147981
 21
8.311414506484677
 31
0.0
  0
LINE
  5
28F
330
2
100
AcDbEntity
  8
AM_HID
100
AcDbLine
 10
3.905854005147978
 20
7.286414506484644
 30
0.0
 11
3.905854005147978
 21
6.941414506484651
 31
0.0
  0
LINE
  5
290
330
2
100
AcDbEntity
  8
AM_HID
100
AcDbLine
 10
3.843354005147978
 20
7.286414506484644
 30
0.0
 11
3.843354005147978
 21
6.94141450648465
 31
0.0
  0
LINE
  5
291
330
2
100
AcDbEntity
  8
AM_HID
100
AcDbLine
 10
5.948104005148231
 20
8.676414506484674
 30
0.0
 11
5.948104005148227
 21
8.801414506484681
 31
0.0
  0
LINE
  5
292
330
2
100
AcDbEntity
  8
AM_HID
100
AcDbLine
 10
6.276104005148232
 20
8.676414506484681
 30
0.0
 11
6.27610400514823
 21
8.801414506484682
 31
0.0
  0
LINE
  5
293
330
2
100
AcDbEntity
  8
AM_HID
100
AcDbLine
 10
3.905854005147975
 20
6.911414506484644
 30
0.0
 11
3.843354005147975
 21
6.911414506484644
 31
0.0
  0
LINE
  5
294
330
2
100
AcDbEntity
  8
AM_HID
100
AcDbLine
 10
3.905854005147978
 20
7.286414506484644
 30
0.0
 11
3.905854005147978
 21
6.911414506484644
 31
0.0
  0
LINE
  5
295
330
2
100
AcDbEntity
  8
AM_HID
100
AcDbLine
 10
3.843354005147978
 20
7.286414506484644
 30
0.0
 11
3.843354005147978
 21
6.911414506484644
 31
0.0
  0
LINE
  5
296
330
2
100
AcDbEntity
  8
AM_HID
100
AcDbLine
 10
3.843354005147982
 20
8.686414506484677
 30
0.0
 11
3.905854005147982
 21
8.686414506484677
 31
0.0
  0
LINE
  5
297
330
2
100
AcDbEntity
  8
AM_HID
100
AcDbLine
 10
3.905854005147982
 20
8.686414506484677
 30
0.0
 11
3.905854005147982
 21
8.676414506484674
 31
0.0
  0
LINE
  5
298
330
2
100
AcDbEntity
  8
AM_VIS
100
AcDbLine
 10
3.905854005147982
 20
8.676414506484674
 30
0.0
 11
3.905854005147982
 21
8.656414506484672
 31
0.0
  0
LINE
  5
299
330
2
100
AcDbEntity
  8
AM_HID
100
AcDbLine
 10
3.905854005147982
 20
8.656414506484674
 30
0.0
 11
3.905854005147981
 21
8.311414506484677
 31
0.0
  0
LINE
  5
29A
330
2
100
AcDbEntity
  8
AM_HID
100
AcDbLine
 10
3.843354005147982
 20
8.686414506484677
 30
0.0
 11
3.843354005147982
 21
8.676414506484674
 31
0.0
  0
LINE
  5
29B
330
2
100
AcDbEntity
  8
AM_VIS
100
AcDbLine
 10
3.843354005147982
 20
8.676414506484674
 30
0.0
 11
3.843354005147982
 21
8.656414506484672
 31
0.0
  0
LINE
  5
29C
330
2
100
AcDbEntity
  8
AM_HID
100
AcDbLine
 10
3.843354005147982
 20
8.656414506484674
 30
0.0
 11
3.843354005147981
 21
8.311414506484677
 31
0.0
  0
CIRCLE
  5
29D
330
2
100
AcDbEntity
  8
AM_VIS
100
AcDbCircle
 10
3.874604005147978
 20
3.766053427210446
 30
0.0
 40
0.03125
  0
ARC
  5
29E
330
2
100
AcDbEntity
  8
AM_VIS
100
AcDbCircle
 10
3.874604005147978
 20
3.766053427210446
 30
0.0
 40
0.125
100
AcDbArc
 50
0.0
 51
118.7768832094683
  0
LINE
  5
29F
330
2
100
AcDbEntity
  8
AM_VIS
100
AcDbLine
 10
3.387353101426775
 20
3.641053427210446
 30
0.0
 11
3.814428995571951
 21
3.875616049589272
 31
0.0
  0
LINE
  5
2A0
330
2
100
AcDbEntity
  8
AM_HID
100
AcDbLine
 10
3.387353101426775
 20
3.641053427210446
 30
0.0
 11
3.735818964798474
 21
3.641053427210446
 31
0.0
  0
LINE
  5
2A1
330
2
100
AcDbEntity
  8
AM_HID
100
AcDbLine
 10
3.749604005148039
 20
3.641053427210451
 30
0.0
 11
3.735818964798471
 21
3.641053427210451
 31
0.0
  0
LINE
  5
2A2
330
2
100
AcDbEntity
  8
AM_VIS
100
AcDbLine
 10
1.704604005147731
 20
3.641053427210451
 30
0.0
 11
1.824604005147736
 21
3.641053427210451
 31
0.0
  0
LINE
  5
2A3
330
2
100
AcDbEntity
  8
AM_VIS
100
AcDbLine
 10
1.824604005147736
 20
3.641053427210451
 30
0.0
 11
1.853893327029084
 21
3.641053427210451
 31
0.0
  0
LINE
  5
2A4
330
2
100
AcDbEntity
  8
AM_VIS
100
AcDbLine
 10
2.382565586987368
 20
3.641053427210451
 30
0.0
 11
1.85389332702908
 21
3.641053427210451
 31
0.0
  0
LINE
  5
2A5
330
2
100
AcDbEntity
  8
AM_VIS
100
AcDbLine
 10
2.382565586987368
 20
3.641053427210451
 30
0.0
 11
2.453276265106023
 21
3.641053427210451
 31
0.0
  0
LINE
  5
2A6
330
2
100
AcDbEntity
  8
AM_VIS
100
AcDbLine
 10
3.387353101426775
 20
3.641053427210451
 30
0.0
 11
2.453276265106023
 21
3.641053427210451
 31
0.0
  0
LINE
  5
2A7
330
2
100
AcDbEntity
  8
AM_VIS
100
AcDbLine
 10
1.704604005147731
 20
3.481053427210446
 30
0.0
 11
1.824604005147739
 21
3.481053427210446
 31
0.0
  0
LINE
  5
2A8
330
2
100
AcDbEntity
  8
AM_HID
100
AcDbLine
 10
1.824604005147736
 20
3.481053427210446
 30
0.0
 11
2.256854908868714
 21
3.481053427210446
 31
0.0
  0
LINE
  5
2A9
330
2
100
AcDbEntity
  8
AM_VIS
100
AcDbLine
 10
1.322104005147739
 20
3.481053427210446
 30
0.0
 11
1.704604005147731
 21
3.481053427210446
 31
0.0
  0
LINE
  5
2AA
330
2
100
AcDbEntity
  8
AM_VIS
100
AcDbLine
 10
3.999604005147978
 20
3.766053427210446
 30
0.0
 11
3.999604005147851
 21
3.481053427210446
 31
0.0
  0
LINE
  5
2AB
330
2
100
AcDbEntity
  8
AM_HID
100
AcDbLine
 10
3.735818964798474
 20
3.641053427210446
 30
0.0
 11
3.735818964798474
 21
3.481053427210446
 31
0.0
  0
LINE
  5
2AC
330
2
100
AcDbEntity
  8
AM_VIS
100
AcDbLine
 10
3.200931745189471
 20
3.481053427210446
 30
0.0
 11
3.999604005147928
 21
3.481053427210446
 31
0.0
  0
LINE
  5
2AD
330
2
100
AcDbEntity
  8
AM_VIS
100
AcDbLine
 10
3.271642423308118
 20
2.984803427210451
 30
0.0
 11
3.800314683266408
 21
2.984803427210451
 31
0.0
  0
LINE
  5
2AE
330
2
100
AcDbEntity
  8
AM_VIS
100
AcDbLine
 10
3.271642423308122
 20
2.984803427210451
 30
0.0
 11
3.200931745189471
 21
2.984803427210451
 31
0.0
  0
LINE
  5
2AF
330
2
100
AcDbEntity
  8
AM_HID
100
AcDbLine
 10
1.904604005147741
 20
3.641053427210446
 30
0.0
 11
1.904604005147741
 21
3.084803427210444
 31
0.0
  0
LINE
  5
2B0
330
2
100
AcDbEntity
  8
AM_HID
100
AcDbLine
 10
1.904604005147746
 20
3.084803427210444
 30
0.0
 11
2.444991993858562
 21
3.084803427210444
 31
0.0
  0
LINE
  5
2B1
330
2
100
AcDbEntity
  8
AM_HID
100
AcDbLine
 10
2.444991993858558
 20
3.641053427210446
 30
0.0
 11
2.444991993858558
 21
3.084803427210444
 31
0.0
  0
LINE
  5
2B2
330
2
100
AcDbEntity
  8
AM_HID
100
AcDbLine
 10
2.444991993858561
 20
3.084803427210444
 30
0.0
 11
3.209216016436936
 21
3.084803427210444
 31
0.0
  0
LINE
  5
2B3
330
2
100
AcDbEntity
  8
AM_HID
100
AcDbLine
 10
3.209216016436936
 20
3.641053427210446
 30
0.0
 11
3.209216016436936
 21
3.084803427210444
 31
0.0
  0
LINE
  5
2B4
330
2
100
AcDbEntity
  8
AM_HID
100
AcDbLine
 10
3.209216016436936
 20
3.084803427210444
 30
0.0
 11
3.749604005147759
 21
3.084803427210444
 31
0.0
  0
LINE
  5
2B5
330
2
100
AcDbEntity
  8
AM_HID
100
AcDbLine
 10
3.749604005147758
 20
3.641053427210451
 30
0.0
 11
3.749604005147758
 21
3.084803427210444
 31
0.0
  0
LINE
  5
2B6
330
2
100
AcDbEntity
  8
AM_VIS
100
AcDbLine
 10
1.853893327029084
 20
2.984803427210451
 30
0.0
 11
2.38256558698737
 21
2.984803427210451
 31
0.0
  0
LINE
  5
2B7
330
2
100
AcDbEntity
  8
AM_VIS
100
AcDbLine
 10
2.453276265106023
 20
2.984803427210451
 30
0.0
 11
2.382565586987368
 21
2.984803427210451
 31
0.0
  0
LINE
  5
2B8
330
2
100
AcDbEntity
  8
AM_VIS
100
AcDbLine
 10
2.453276265106023
 20
2.984803427210446
 30
0.0
 11
3.200931745189471
 21
2.984803427210446
 31
0.0
  0
LINE
  5
2B9
330
2
100
AcDbEntity
  8
AM_VIS
100
AcDbLine
 10
3.829604005147761
 20
2.984803427210446
 30
0.0
 11
3.80031468326641
 21
2.984803427210446
 31
0.0
  0
LINE
  5
2BA
330
2
100
AcDbEntity
  8
AM_HID
100
AcDbLine
 10
3.829604005147761
 20
3.641053427210446
 30
0.0
 11
3.829604005147761
 21
3.481053427210446
 31
0.0
  0
LINE
  5
2BB
330
2
100
AcDbEntity
  8
AM_VIS
100
AcDbLine
 10
3.829604005147761
 20
3.481053427210446
 30
0.0
 11
3.829604005147761
 21
2.984803427210446
 31
0.0
  0
LINE
  5
2BC
330
2
100
AcDbEntity
  8
AM_HID
100
AcDbLine
 10
2.25685490886871
 20
3.481053427210446
 30
0.0
 11
2.25685490886871
 21
3.641053427210446
 31
0.0
  0
LINE
  5
2BD
330
2
100
AcDbEntity
  8
AM_VIS
100
AcDbLine
 10
1.824604005147736
 20
3.641053427210446
 30
0.0
 11
1.824604005147736
 21
2.984803427210446
 31
0.0
  0
LINE
  5
2BE
330
2
100
AcDbEntity
  8
AM_VIS
100
AcDbLine
 10
1.853893327029084
 20
2.984803427210451
 30
0.0
 11
1.824604005147736
 21
2.984803427210451
 31
0.0
  0
CIRCLE
  5
2BF
330
2
100
AcDbEntity
  8
AM_VIS
100
AcDbCircle
 10
1.634604005147739
 20
3.941053427210443
 30
0.0
 40
0.164
  0
LINE
  5
2C0
330
2
100
AcDbEntity
  8
AM_VIS
100
AcDbLine
 10
1.322104005147739
 20
3.941053427210443
 30
0.0
 11
1.322104005147739
 21
3.481053427210446
 31
0.0
  0
LINE
  5
2C1
330
2
100
AcDbEntity
  8
AM_VIS
100
AcDbLine
 10
1.947104005147739
 20
3.941053427210443
 30
0.0
 11
1.947104005147739
 21
3.641053427210451
 31
0.0
  0
ARC
  5
2C2
330
2
100
AcDbEntity
  8
AM_VIS
100
AcDbCircle
 10
1.634604005147739
 20
3.941053427210443
 30
0.0
 40
0.3125
100
AcDbArc
 50
0.0
 51
180.0
  0
LINE
  5
2C3
330
2
100
AcDbEntity
  8
AM_HID
100
AcDbLine
 10
5.002104005148214
 20
3.11605342721045
 30
0.0
 11
5.002104005148214
 21
3.016053427210451
 31
0.0
  0
LINE
  5
2C4
330
2
100
AcDbEntity
  8
AM_VIS
100
AcDbLine
 10
5.002104005148214
 20
3.016053427210451
 30
0.0
 11
5.002104005148214
 21
2.92855342721045
 31
0.0
  0
LINE
  5
2C5
330
2
100
AcDbEntity
  8
AM_VIS
100
AcDbLine
 10
4.842104005148217
 20
2.92855342721045
 30
0.0
 11
5.002104005148214
 21
2.92855342721045
 31
0.0
  0
LINE
  5
2C6
330
2
100
AcDbEntity
  8
AM_HID
100
AcDbLine
 10
4.842104005148217
 20
3.11605342721045
 30
0.0
 11
4.842104005148217
 21
3.016053427210451
 31
0.0
  0
LINE
  5
2C7
330
2
100
AcDbEntity
  8
AM_VIS
100
AcDbLine
 10
4.842104005148217
 20
3.016053427210451
 30
0.0
 11
4.842104005148217
 21
2.92855342721045
 31
0.0
  0
LINE
  5
2C8
330
2
100
AcDbEntity
  8
AM_VIS
100
AcDbLine
 10
4.548276265106487
 20
3.016053427210451
 30
0.0
 11
4.477565586987831
 21
3.016053427210451
 31
0.0
  0
LINE
  5
2C9
330
2
100
AcDbEntity
  8
AM_VIS
100
AcDbLine
 10
3.948893327029555
 20
3.016053427210451
 30
0.0
 11
4.477565586987839
 21
3.016053427210451
 31
0.0
  0
LINE
  5
2CA
330
2
100
AcDbEntity
  8
AM_VIS
100
AcDbLine
 10
3.948893327029555
 20
3.016053427210451
 30
0.0
 11
3.919604005148208
 21
3.016053427210451
 31
0.0
  0
LINE
  5
2CB
330
2
100
AcDbEntity
  8
AM_VIS
100
AcDbLine
 10
5.924604005148231
 20
3.016053427210451
 30
0.0
 11
5.895314683266885
 21
3.016053427210451
 31
0.0
  0
LINE
  5
2CC
330
2
100
AcDbEntity
  8
AM_VIS
100
AcDbLine
 10
5.366642423308593
 20
3.016053427210451
 30
0.0
 11
5.895314683266883
 21
3.016053427210451
 31
0.0
  0
LINE
  5
2CD
330
2
100
AcDbEntity
  8
AM_VIS
100
AcDbLine
 10
5.366642423308589
 20
3.016053427210451
 30
0.0
 11
5.295931745189938
 21
3.016053427210451
 31
0.0
  0
LINE
  5
2CE
330
2
100
AcDbEntity
  8
AM_VIS
100
AcDbLine
 10
4.548276265106487
 20
3.016053427210451
 30
0.0
 11
5.295931745189938
 21
3.016053427210451
 31
0.0
  0
CIRCLE
  5
2CF
330
2
100
AcDbEntity
  8
AM_VIS
100
AcDbCircle
 10
6.112104005148231
 20
3.578553427210451
 30
0.0
 40
0.164
  0
ARC
  5
2D0
330
2
100
AcDbEntity
  8
AM_VIS
100
AcDbCircle
 10
6.112104005148231
 20
3.578553427210451
 30
0.0
 40
0.3125
100
AcDbArc
 50
270.0
 51
0.0
  0
LINE
  5
2D1
330
2
100
AcDbEntity
  8
AM_HID
100
AcDbLine
 10
5.703774457664565
 20
3.266053427210451
 30
0.0
 11
5.924604005148227
 21
3.266053427210451
 31
0.0
  0
LINE
  5
2D2
330
2
100
AcDbEntity
  8
AM_VIS
100
AcDbLine
 10
5.924604005148227
 20
3.266053427210451
 30
0.0
 11
6.112104005148231
 21
3.266053427210451
 31
0.0
  0
LINE
  5
2D3
330
2
100
AcDbEntity
  8
AM_HID
100
AcDbLine
 10
5.633063779545906
 20
3.266053427210451
 30
0.0
 11
5.703774457664565
 21
3.266053427210451
 31
0.0
  0
LINE
  5
2D4
330
2
100
AcDbEntity
  8
AM_HID
100
AcDbLine
 10
5.337353101427247
 20
3.266053427210451
 30
0.0
 11
5.633063779545909
 21
3.266053427210451
 31
0.0
  0
LINE
  5
2D5
330
2
100
AcDbEntity
  8
AM_VIS
100
AcDbLine
 10
6.424604005148231
 20
3.891053427210451
 30
0.0
 11
6.424604005148231
 21
3.578553427210451
 31
0.0
  0
LINE
  5
2D6
330
2
100
AcDbEntity
  8
AM_VIS
100
AcDbLine
 10
5.924604005148231
 20
3.891053427210451
 30
0.0
 11
6.424604005148231
 21
3.891053427210451
 31
0.0
  0
LINE
  5
2D7
330
2
100
AcDbEntity
  8
AM_VIS
100
AcDbLine
 10
4.361854908869176
 20
3.766053427210451
 30
0.0
 11
4.016854908869183
 21
3.766053427210451
 31
0.0
  0
LINE
  5
2D8
330
2
100
AcDbEntity
  8
AM_VIS
100
AcDbLine
 10
4.016854908869183
 20
3.766053427210451
 30
0.0
 11
4.016854908869183
 21
3.641053427210451
 31
0.0
  0
LINE
  5
2D9
330
2
100
AcDbEntity
  8
AM_HID
100
AcDbLine
 10
4.016854908869195
 20
3.766053427210451
 30
0.0
 11
4.016854908869195
 21
3.891053427210451
 31
0.0
  0
LINE
  5
2DA
330
2
100
AcDbEntity
  8
AM_VIS
100
AcDbLine
 10
3.749604005148035
 20
3.891053427210451
 30
0.0
 11
3.749604005148035
 21
3.840012261227603
 31
0.0
  0
LINE
  5
2DB
330
2
100
AcDbEntity
  8
AM_HID
100
AcDbLine
 10
3.749604005148035
 20
3.840012261227603
 30
0.0
 11
3.749604005148035
 21
3.641053427210451
 31
0.0
  0
LINE
  5
2DC
330
2
100
AcDbEntity
  8
AM_HID
100
AcDbLine
 10
3.749604005148035
 20
3.641053427210451
 30
0.0
 11
3.999604005147957
 21
3.641053427210451
 31
0.0
  0
LINE
  5
2DD
330
2
100
AcDbEntity
  8
AM_VIS
100
AcDbLine
 10
3.999604005147957
 20
3.641053427210451
 30
0.0
 11
4.016854908869183
 21
3.641053427210451
 31
0.0
  0
LINE
  5
2DE
330
2
100
AcDbEntity
  8
AM_VIS
100
AcDbLine
 10
4.361854908869172
 20
3.891053427210451
 30
0.0
 11
4.361854908869172
 21
3.766053427210451
 31
0.0
  0
LINE
  5
2DF
330
2
100
AcDbEntity
  8
AM_VIS
100
AcDbLine
 10
4.361854908869176
 20
3.891053427210451
 30
0.0
 11
3.749604005148035
 21
3.891053427210451
 31
0.0
  0
LINE
  5
2E0
330
2
100
AcDbEntity
  8
AM_HID
100
AcDbLine
 10
4.005461869524476
 20
3.891053427210451
 30
0.0
 11
4.005461869524476
 21
3.11605342721045
 31
0.0
  0
LINE
  5
2E1
330
2
100
AcDbEntity
  8
AM_HID
100
AcDbLine
 10
3.99960400514821
 20
3.891053427210451
 30
0.0
 11
3.99960400514821
 21
3.766053427210446
 31
0.0
  0
LINE
  5
2E2
330
2
100
AcDbEntity
  8
AM_HID
100
AcDbLine
 10
3.99960400514821
 20
3.481053427210446
 30
0.0
 11
3.99960400514821
 21
3.11605342721045
 31
0.0
  0
LINE
  5
2E3
330
2
100
AcDbEntity
  8
AM_HID
100
AcDbLine
 10
3.999604005148205
 20
3.11605342721045
 30
0.0
 11
4.539991993859033
 21
3.11605342721045
 31
0.0
  0
LINE
  5
2E4
330
2
100
AcDbEntity
  8
AM_HID
100
AcDbLine
 10
4.539991993859032
 20
3.891053427210451
 30
0.0
 11
4.539991993859032
 21
3.11605342721045
 31
0.0
  0
LINE
  5
2E5
330
2
100
AcDbEntity
  8
AM_HID
100
AcDbLine
 10
4.539991993859032
 20
3.11605342721045
 30
0.0
 11
5.304216016437401
 21
3.11605342721045
 31
0.0
  0
LINE
  5
2E6
330
2
100
AcDbEntity
  8
AM_HID
100
AcDbLine
 10
5.304216016437401
 20
3.891053427210451
 30
0.0
 11
5.304216016437401
 21
3.11605342721045
 31
0.0
  0
LINE
  5
2E7
330
2
100
AcDbEntity
  8
AM_HID
100
AcDbLine
 10
5.304216016437401
 20
3.11605342721045
 30
0.0
 11
5.84460400514822
 21
3.11605342721045
 31
0.0
  0
LINE
  5
2E8
330
2
100
AcDbEntity
  8
AM_HID
100
AcDbLine
 10
5.844604005148222
 20
3.891053427210451
 30
0.0
 11
5.844604005148222
 21
3.11605342721045
 31
0.0
  0
LINE
  5
2E9
330
2
100
AcDbEntity
  8
AM_VIS
100
AcDbLine
 10
4.477565586987831
 20
3.891053427210451
 30
0.0
 11
4.548276265106487
 21
3.891053427210451
 31
0.0
  0
LINE
  5
2EA
330
2
100
AcDbEntity
  8
AM_VIS
100
AcDbLine
 10
5.295931745189938
 20
3.891053427210451
 30
0.0
 11
4.548276265106487
 21
3.891053427210451
 31
0.0
  0
LINE
  5
2EB
330
2
100
AcDbEntity
  8
AM_VIS
100
AcDbLine
 10
5.295931745189938
 20
3.891053427210451
 30
0.0
 11
5.366642423308589
 21
3.891053427210451
 31
0.0
  0
LINE
  5
2EC
330
2
100
AcDbEntity
  8
AM_VIS
100
AcDbLine
 10
5.895314683266885
 20
3.891053427210451
 30
0.0
 11
5.366642423308596
 21
3.891053427210451
 31
0.0
  0
LINE
  5
2ED
330
2
100
AcDbEntity
  8
AM_VIS
100
AcDbLine
 10
5.924604005148227
 20
3.891053427210451
 30
0.0
 11
5.924604005148227
 21
3.016053427210451
 31
0.0
  0
LINE
  5
2EE
330
2
100
AcDbEntity
  8
AM_VIS
100
AcDbLine
 10
5.895314683266885
 20
3.891053427210451
 30
0.0
 11
5.924604005148231
 21
3.891053427210451
 31
0.0
  0
LINE
  5
2EF
330
2
100
AcDbEntity
  8
AM_HID
100
AcDbLine
 10
5.337353101427247
 20
3.266053427210451
 30
0.0
 11
5.337353101427247
 21
3.016053427210451
 31
0.0
  0
LINE
  5
2F0
330
2
100
AcDbEntity
  8
AM_HID
100
AcDbLine
 10
3.919604005148205
 20
3.891053427210451
 30
0.0
 11
3.919604005148205
 21
3.481053427210448
 31
0.0
  0
LINE
  5
2F1
330
2
100
AcDbEntity
  8
AM_VIS
100
AcDbLine
 10
3.919604005148205
 20
3.481053427210448
 30
0.0
 11
3.919604005148205
 21
3.016053427210451
 31
0.0
  0
LINE
  5
2F2
330
2
100
AcDbEntity
  8
AM_VIS
100
AcDbLine
 10
4.477565586987835
 20
3.891053427210451
 30
0.0
 11
4.36185490886918
 21
3.891053427210451
 31
0.0
  0
LINE
  5
2F3
330
2
100
AcDbEntity
  8
AM_HID
100
AcDbLine
 10
5.527104005148216
 20
3.116053427210451
 30
0.0
 11
5.527104005148216
 21
3.016053427210451
 31
0.0
  0
LINE
  5
2F4
330
2
100
AcDbEntity
  8
AM_HID
100
AcDbLine
 10
4.317104005148216
 20
3.116053427210451
 30
0.0
 11
4.317104005148216
 21
3.016053427210451
 31
0.0
  0
LINE
  5
2F5
330
2
100
AcDbEntity
  8
AM_HID
100
AcDbLine
 10
5.603774457664563
 20
3.891053427210451
 30
0.0
 11
5.603774457664563
 21
3.266053427210451
 31
0.0
  0
ELLIPSE
  5
2F6
330
2
100
AcDbEntity
  8
AM_VIS
100
AcDbEllipse
 10
12.60712959841076
 20
2.325363089965033
 30
0.0
 11
-0.125
 21
0.0000000000000003
 31
0.0
210
0.0
220
0.0
230
1.0
 40
0.5773502691896271
 41
0.2831468029303552
 42
2.356194490192346
  0
LINE
  5
2F7
330
2
100
AcDbEntity
  8
AM_VIS
100
AcDbLine
 10
12.69551794605908
 20
2.282497019466325
 30
0.0
 11
12.69551794605908
 21
2.274332053657049
 31
0.0
  0
LINE
  5
2F8
330
2
100
AcDbEntity
  8
AM_VIS
100
AcDbLine
 10
12.48710696783293
 20
2.402823153847259
 30
0.0
 11
12.48710696783293
 21
2.305200681468198
 31
0.0
  0
LINE
  5
2F9
330
2
100
AcDbEntity
  8
AM_VIS
100
AcDbLine
 10
12.35097952789854
 20
2.575313474744167
 30
0.0
 11
12.48710696783293
 21
2.305200681468196
 31
0.0
  0
LINE
  5
2FA
330
2
100
AcDbEntity
  8
AM_VIS
100
AcDbLine
 10
12.35097952789854
 20
2.685540513169411
 30
0.0
 11
12.43035290311416
 21
2.528042773539801
 31
0.0
  0
LINE
  5
2FB
330
2
100
AcDbEntity
  8
AM_VIS
100
AcDbLine
 10
12.35097952789854
 20
2.575313474744167
 30
0.0
 11
12.35097952789854
 21
2.685540513169411
 31
0.0
  0
LINE
  5
2FC
330
2
100
AcDbEntity
  8
AM_VIS
100
AcDbLine
 10
12.22501758712142
 20
4.219793553445376
 30
0.0
 11
12.4425900970606
 21
3.842946911900421
 31
0.0
  0
LINE
  5
2FD
330
2
100
AcDbEntity
  8
AM_VIS
100
AcDbLine
 10
12.6071295984106
 20
3.452128371645399
 30
0.0
 11
12.6071295984106
 21
3.43804306773894
 31
0.0
  0
LINE
  5
2FE
330
2
100
AcDbEntity
  8
AM_VIS
100
AcDbLine
 10
12.55056105591599
 20
2.901309970975185
 30
0.0
 11
12.22501758712142
 21
2.713357361633715
 31
0.0
  0
LINE
  5
2FF
330
2
100
AcDbEntity
  8
AM_VIS
100
AcDbLine
 10
12.22501758712142
 20
2.713357361633709
 30
0.0
 11
11.68462959841059
 21
3.025350512382748
 31
0.0
  0
LINE
  5
300
330
2
100
AcDbEntity
  8
AM_VIS
100
AcDbLine
 10
11.68462959841059
 20
3.025350512382749
 30
0.0
 11
11.30251758712141
 21
3.687187930117945
 31
0.0
  0
LINE
  5
301
330
2
100
AcDbEntity
  8
AM_VIS
100
AcDbLine
 10
11.30251758712141
 20
3.687187930117946
 30
0.0
 11
11.30251758712141
 21
4.311174231616018
 31
0.0
  0
LINE
  5
302
330
2
100
AcDbEntity
  8
AM_VIS
100
AcDbLine
 10
11.30251758712141
 20
4.311174231616018
 30
0.0
 11
11.68462959841059
 21
4.531786704194418
 31
0.0
  0
LINE
  5
303
330
2
100
AcDbEntity
  8
AM_VIS
100
AcDbLine
 10
11.68462959841059
 20
4.531786704194417
 30
0.0
 11
12.22501758712142
 21
4.219793553445377
 31
0.0
  0
LINE
  5
304
330
2
100
AcDbEntity
  8
AM_VIS
100
AcDbLine
 10
12.35097952789854
 20
2.685540513169411
 30
0.0
 11
12.43035290311416
 21
2.639714273622186
 31
0.0
  0
LINE
  5
305
330
2
100
AcDbEntity
  8
AM_VIS
100
AcDbLine
 10
12.35097952789855
 20
4.212389119504276
 30
0.0
 11
12.35097952789855
 21
4.102162081079034
 31
0.0
  0
LINE
  5
306
330
2
100
AcDbEntity
  8
AM_VIS
100
AcDbLine
 10
11.69048746278686
 20
4.593724391094121
 30
0.0
 11
12.35097952789854
 21
4.212389119504277
 31
0.0
  0
ELLIPSE
  5
307
330
2
100
AcDbEntity
  8
AM_VIS
100
AcDbEllipse
 10
11.69048746278686
 20
4.512074733001347
 30
0.0
 11
-0.05
 21
0.0866025403784438
 31
0.0
210
0.0
220
0.0
230
1.0
 40
0.5773502691896262
 41
5.497787143782127
 42
6.2831853071796
  0
LINE
  5
308
330
2
100
AcDbEntity
  8
AM_VIS
100
AcDbLine
 10
11.55159658982159
 20
4.547356103944801
 30
0.0
 11
11.64048746278686
 21
4.598677273379793
 31
0.0
  0
LINE
  5
309
330
2
100
AcDbEntity
  8
AM_VIS
100
AcDbLine
 10
11.55159658982159
 20
4.547356103944798
 30
0.0
 11
11.33256962532183
 21
4.673811380858523
 31
0.0
  0
LINE
  5
30A
330
2
100
AcDbEntity
  8
AM_VIS
100
AcDbLine
 10
11.33256962532183
 20
4.567666825337917
 30
0.0
 11
11.33256962532183
 21
4.673811380858519
 31
0.0
  0
LINE
  5
30B
330
2
100
AcDbEntity
  8
AM_VIS
100
AcDbLine
 10
11.24594904462648
 20
3.726611872504091
 30
0.0
 11
11.24594904462648
 21
4.517656409756091
 31
0.0
  0
ELLIPSE
  5
30C
330
2
100
AcDbEntity
  8
AM_VIS
100
AcDbEllipse
 10
11.31665972274513
 20
3.685787043457703
 30
0.0
 11
-0.0500000000000003
 21
0.0866025403784443
 31
0.0
210
0.0
220
0.0
230
1.0
 40
0.5773502691896262
 41
0.7853981633974642
 42
1.5707963267949
  0
LINE
  5
30D
330
2
100
AcDbEntity
  8
AM_VIS
100
AcDbLine
 10
11.64048746278686
 20
3.009430890967301
 30
0.0
 11
11.26665972274514
 21
3.656919529998223
 31
0.0
  0
ELLIPSE
  5
30E
330
2
100
AcDbEntity
  8
AM_VIS
100
AcDbEllipse
 10
11.69048746278686
 20
3.038298404426781
 30
0.0
 11
-0.05
 21
0.0866025403784439
 31
0.0
210
0.0
220
0.0
230
0.9999999999999998
 40
0.5773502691896261
 41
1.570796326794885
 42
2.356194490192332
  0
LINE
  5
30F
330
2
100
AcDbEntity
  8
AM_VIS
100
AcDbLine
 10
12.35097952789854
 20
2.575313474744168
 30
0.0
 11
11.69048746278686
 21
2.956648746334011
 31
0.0
  0
LINE
  5
310
330
2
100
AcDbEntity
  8
AM_VIS
100
AcDbLine
 10
11.66473367481145
 20
4.612675830419014
 30
0.0
 11
11.0037649720701
 21
4.994286288872653
 31
0.0
  0
LINE
  5
311
330
2
100
AcDbEntity
  8
AM_VIS
100
AcDbLine
 10
12.89704337869721
 20
4.027758461199376
 30
0.0
 11
12.332296807735
 21
4.353815045968327
 31
0.0
  0
LINE
  5
312
330
2
100
AcDbEntity
  8
AM_VIS
100
AcDbLine
 10
12.89704337869721
 20
3.917531422774136
 30
0.0
 11
12.89704337869721
 21
4.027758461199376
 31
0.0
  0
LINE
  5
313
330
2
100
AcDbEntity
  8
AM_VIS
100
AcDbLine
 10
12.69551794605908
 20
2.274332053657049
 30
0.0
 11
12.70258901387094
 21
2.278414536561689
 31
0.0
  0
LINE
  5
314
330
2
100
AcDbEntity
  8
AM_VIS
100
AcDbLine
 10
11.69584573415642
 20
4.525311065202297
 30
0.0
 11
11.69584573415642
 21
3.914276041688471
 31
0.0
  0
LINE
  5
315
330
2
100
AcDbEntity
  8
AM_VIS
100
AcDbLine
 10
11.30251758712141
 20
3.687187930117946
 30
0.0
 11
11.69584573415643
 21
3.914276041688471
 31
0.0
  0
LINE
  5
316
330
2
100
AcDbEntity
  8
AM_VIS
100
AcDbLine
 10
11.69584573415643
 20
3.914276041688471
 30
0.0
 11
12.07795774544561
 21
3.252438623953276
 31
0.0
  0
LINE
  5
317
330
2
100
AcDbEntity
  8
AM_VIS
100
AcDbLine
 10
11.68462959841058
 20
3.025350512382751
 30
0.0
 11
12.07795774544561
 21
3.252438623953276
 31
0.0
  0
LINE
  5
318
330
2
100
AcDbEntity
  8
AM_VIS
100
AcDbLine
 10
12.07795774544561
 20
3.252438623953274
 30
0.0
 11
12.550561055916
 21
2.979580975433288
 31
0.0
  0
LINE
  5
319
330
2
100
AcDbEntity
  8
AM_VIS
100
AcDbLine
 10
13.1277369660592
 20
3.738615871592963
 30
0.0
 11
13.1277369660592
 21
3.786445133940951
 31
0.0
  0
LINE
  5
31A
330
2
100
AcDbEntity
  8
AM_VIS
100
AcDbLine
 10
12.91024666033366
 20
3.66087704738418
 30
0.0
 11
13.1277369660592
 21
3.786445133940951
 31
0.0
  0
ELLIPSE
  5
31B
330
2
100
AcDbEntity
  8
AM_VIS
100
AcDbEllipse
 10
13.05702628794055
 20
3.827269962987336
 30
0.0
 11
-0.0500000000000052
 21
0.0866025403784409
 31
0.0
210
0.0
220
0.0
230
1.0
 40
0.5773502691896261
 41
3.926990816987076
 42
4.712388980384561
  0
LINE
  5
31C
330
2
100
AcDbEntity
  8
AM_VIS
100
AcDbLine
 10
12.83953598221501
 20
3.701701876430566
 30
0.0
 11
13.10702628794054
 21
3.856137476446818
 31
0.0
  0
LINE
  5
31D
330
2
100
AcDbEntity
  8
AM_VIS
100
AcDbLine
 10
13.10702628794054
 20
3.856137476446819
 30
0.0
 11
12.73319854789882
 21
4.503626115477731
 31
0.0
  0
LINE
  5
31E
330
2
100
AcDbEntity
  8
AM_VIS
100
AcDbLine
 10
12.40300748585365
 20
4.312990216921944
 30
0.0
 11
12.73319854789882
 21
4.503626115477731
 31
0.0
  0
ELLIPSE
  5
31F
330
2
100
AcDbEntity
  8
AM_VIS
100
AcDbEllipse
 10
12.68319854789883
 20
4.47475860201825
 30
0.0
 11
-0.0500000000000051
 21
0.0866025403784409
 31
0.0
210
0.0
220
0.0
230
0.9999999999999998
 40
0.577350269189626
 41
4.712388980384518
 42
5.497787143781991
  0
LINE
  5
320
330
2
100
AcDbEntity
  8
AM_VIS
100
AcDbLine
 10
12.332296807735
 20
4.353815045968332
 30
0.0
 11
12.68319854789882
 21
4.556408260111023
 31
0.0
  0
ELLIPSE
  5
321
330
2
100
AcDbEntity
  8
AM_VIS
100
AcDbEllipse
 10
12.15452628794053
 20
4.779987673618257
 30
0.0
 11
-0.0500000000000051
 21
0.0866025403784409
 31
0.0
210
0.0
220
0.0
230
0.9999999999999998
 40
0.577350269189626
 41
5.497787143781972
 42
6.283185307179445
  0
LINE
  5
322
330
2
100
AcDbEntity
  8
AM_VIS
100
AcDbLine
 10
11.64048746278686
 20
4.598677273379792
 30
0.0
 11
12.10452628794053
 21
4.866590213996702
 31
0.0
  0
LINE
  5
323
330
2
100
AcDbEntity
  8
AM_VIS
100
AcDbLine
 10
11.69048746278686
 20
4.593724391094121
 30
0.0
 11
12.15452628794053
 21
4.861637331711031
 31
0.0
  0
LINE
  5
324
330
2
100
AcDbEntity
  8
AM_VIS
100
AcDbLine
 10
12.68319854789882
 20
4.556408260111023
 30
0.0
 11
12.15452628794053
 21
4.861637331711031
 31
0.0
  0
ELLIPSE
  5
325
330
2
100
AcDbEntity
  8
AM_VIS
100
AcDbEllipse
 10
10.89946672184508
 20
4.678914484489322
 30
0.0
 11
-0.1639999999999999
 21
0.0000000000000102
 31
0.0
210
0.0
220
0.0
230
1.0
 40
0.5773502691896271
 41
2.356194490192508
 42
8.639379797372093
  0
ELLIPSE
  5
326
330
2
100
AcDbEntity
  8
AM_VIS
100
AcDbEllipse
 10
10.89946672184508
 20
4.572769928968718
 30
0.0
 11
-0.1639999999999999
 21
0.0000000000000004
 31
0.0
210
0.0
220
0.0
230
1.0
 40
0.577350269189627
 41
5.497787143782145
 42
5.688182024681282
  0
ELLIPSE
  5
327
330
2
100
AcDbEntity
  8
AM_VIS
100
AcDbEllipse
 10
10.89946672184508
 20
4.572769928968718
 30
0.0
 11
-0.1639999999999999
 21
0.0000000000000004
 31
0.0
210
0.0
220
0.0
230
1.0
 40
0.577350269189627
 41
3.736595936088122
 42
5.497787143782156
  0
LINE
  5
328
330
2
100
AcDbEntity
  8
AM_VIS
100
AcDbLine
 10
10.67849585272428
 20
4.80649207525928
 30
0.0
 11
11.00376497207009
 21
4.994286288872656
 31
0.0
  0
LINE
  5
329
330
2
100
AcDbEntity
  8
AM_VIS
100
AcDbLine
 10
11.33256962532183
 20
4.673811380858518
 30
0.0
 11
11.12043759096588
 21
4.551336893719363
 31
0.0
  0
LINE
  5
32A
330
2
100
AcDbEntity
  8
AM_VIS
100
AcDbLine
 10
11.12043759096588
 20
4.445192338198759
 30
0.0
 11
11.12043759096588
 21
4.551336893719363
 31
0.0
  0
LINE
  5
32B
330
2
100
AcDbEntity
  8
AM_VIS
100
AcDbLine
 10
11.12043759096588
 20
4.445192338198759
 30
0.0
 11
11.33256962532183
 21
4.567666825337916
 31
0.0
  0
ELLIPSE
  5
32C
330
2
100
AcDbEntity
  8
AM_VIS
100
AcDbEllipse
 10
10.89946672184508
 20
4.678914484489322
 30
0.0
 11
-0.3125
 21
0.0000000000000194
 31
0.0
210
0.0
220
0.0
230
1.0
 40
0.5773502691896271
 41
5.497787143782308
 42
8.639379797372102
  0
ELLIPSE
  5
32D
330
2
100
AcDbEntity
  8
AM_VIS
100
AcDbEllipse
 10
10.89946672184508
 20
4.572769928968718
 30
0.0
 11
-0.3125
 21
0.0000000000000008
 31
0.0
210
0.0
220
0.0
230
1.0
 40
0.5773502691896271
 41
-0.0000000000000027
 42
2.35619449019235
  0
ELLIPSE
  5
32E
330
2
100
AcDbEntity
  8
AM_VIS
100
AcDbEllipse
 10
12.60712959841076
 20
3.96243873472514
 30
0.0
 11
-0.0312500000000003
 21
0.0000000000000019
 31
0.0
210
0.0
220
0.0
230
1.0
 40
0.5773502691896271
 41
2.35619449019249
 42
8.639379797372075
  0
ELLIPSE
  5
32F
330
2
100
AcDbEntity
  8
AM_VIS
100
AcDbEllipse
 10
12.60712959841076
 20
3.852211696299895
 30
0.0
 11
-0.125
 21
0.0000000000000003
 31
0.0
210
0.0
220
0.0
230
1.0
 40
0.5773502691896271
 41
0.2831468029303481
 42
2.356194490192367
  0
LINE
  5
330
330
2
100
AcDbEntity
  8
AM_VIS
100
AcDbLine
 10
12.69551794605909
 20
3.911407698417154
 30
0.0
 11
12.69551794605909
 21
3.801180659991912
 31
0.0
  0
ELLIPSE
  5
331
330
2
100
AcDbEntity
  8
AM_VIS
100
AcDbEllipse
 10
12.60712959841076
 20
3.962438734725138
 30
0.0
 11
-0.125
 21
0.0000000000000003
 31
0.0
210
0.0
220
0.0
230
1.0
 40
0.5773502691896271
 41
0.2831468029303481
 42
2.356194490192367
  0
LINE
  5
332
330
2
100
AcDbEntity
  8
AM_VIS
100
AcDbLine
 10
12.48710696783294
 20
3.942276326228308
 30
0.0
 11
12.48710696783294
 21
3.832049287803064
 31
0.0
  0
LINE
  5
333
330
2
100
AcDbEntity
  8
AM_VIS
100
AcDbLine
 10
12.69551794605904
 20
3.801180659991937
 30
0.0
 11
12.89704337869721
 21
3.917531422774138
 31
0.0
  0
LINE
  5
334
330
2
100
AcDbEntity
  8
AM_VIS
100
AcDbLine
 10
12.69551794605909
 20
3.911407698417154
 30
0.0
 11
12.89704337869716
 21
4.027758461199407
 31
0.0
  0
LINE
  5
335
330
2
100
AcDbEntity
  8
AM_VIS
100
AcDbLine
 10
12.35097952789855
 20
4.102162081079034
 30
0.0
 11
12.48710696783294
 21
3.832049287803062
 31
0.0
  0
LINE
  5
336
330
2
100
AcDbEntity
  8
AM_VIS
100
AcDbLine
 10
12.35097952789855
 20
4.212389119504276
 30
0.0
 11
12.48710696783294
 21
3.942276326228306
 31
0.0
  0
LINE
  5
337
330
2
100
AcDbEntity
  8
AM_VIS
100
AcDbLine
 10
10.58696672184508
 20
4.572769928968718
 30
0.0
 11
10.58696672184508
 21
4.678914484489321
 31
0.0
  0
ELLIPSE
  5
338
330
2
100
AcDbEntity
  8
AM_VIS
100
AcDbEllipse
 10
13.6138179076146
 20
3.903784780209992
 30
0.0
 11
-0.0500000000000051
 21
0.0866025403784408
 31
0.0
210
0.0
220
0.0
230
1.0
 40
0.5773502691896258
 41
5.497787143781981
 42
6.283185307179442
  0
LINE
  5
339
330
2
100
AcDbEntity
  8
AM_VIS
100
AcDbLine
 10
14.17177948945423
 20
3.663295168830186
 30
0.0
 11
13.61381790761461
 21
3.985434438302767
 31
0.0
  0
LINE
  5
33A
330
2
100
AcDbEntity
  8
AM_VIS
100
AcDbLine
 10
14.34855618475087
 20
3.357108950982286
 30
0.0
 11
14.17177948945423
 21
3.663295168830183
 31
0.0
  0
ELLIPSE
  5
33B
330
2
100
AcDbEntity
  8
AM_VIS
100
AcDbEllipse
 10
14.51631790761461
 20
2.951067069579073
 30
0.0
 11
-0.0500000000000049
 21
0.0866025403784404
 31
0.0
210
0.0
220
0.0
230
1.0
 40
0.5773502691896258
 41
3.926990816987076
 42
4.036834517092859
  0
LINE
  5
33C
330
2
100
AcDbEntity
  8
AM_VIS
100
AcDbLine
 10
14.58702858573326
 20
2.299784097332675
 30
0.0
 11
14.58702858573326
 21
2.910242240532689
 31
0.0
  0
ELLIPSE
  5
33D
330
2
100
AcDbEntity
  8
AM_VIS
100
AcDbEllipse
 10
14.51631790761461
 20
2.340608926379061
 30
0.0
 11
-0.0500000000000054
 21
0.0866025403784414
 31
0.0
210
0.0
220
0.0
230
0.9999999999999998
 40
0.5773502691896258
 41
3.141592653589631
 42
3.926990816987066
  0
ELLIPSE
  5
33E
330
2
100
AcDbEntity
  8
AM_VIS
100
AcDbEllipse
 10
13.87815403759375
 20
3.014282080122709
 30
0.0
 11
-0.3025000000000321
 21
0.5239453692895692
 31
0.0
210
0.0
220
0.0
230
1.0
 40
0.5773502691896258
 41
0.7068048811614621
 42
2.434787772427994
  0
ELLIPSE
  5
33F
330
2
100
AcDbEntity
  8
AM_VIS
100
AcDbEllipse
 10
13.80744335947509
 20
2.973457251076323
 30
0.0
 11
-0.3025000000000009
 21
0.523945369289587
 31
0.0
210
0.0
220
0.0
230
1.0
 40
0.5773502691896258
 41
0.5391142953109497
 42
2.60247835827882
  0
ELLIPSE
  5
340
330
2
100
AcDbEntity
  8
AM_VIS
100
AcDbEllipse
 10
14.32186354278831
 20
3.117364773464848
 30
0.0
 11
-0.1639999999999999
 21
0.0000000000000104
 31
0.0
210
0.0
220
0.0
230
1.0
 40
0.5773502691896284
 41
2.35619449019251
 42
8.639379797372097
  0
ELLIPSE
  5
341
330
2
100
AcDbEntity
  8
AM_VIS
100
AcDbEllipse
 10
14.32186354278831
 20
3.015302700848875
 30
0.0
 11
-0.1639999999999999
 21
0.0000000000000003
 31
0.0
210
0.0
220
0.0
230
1.0
 40
0.5773502691896272
 41
3.71078669867846
 42
5.713991262090934
  0
ELLIPSE
  5
342
330
2
100
AcDbEntity
  8
AM_VIS
100
AcDbEllipse
 10
14.32186354278831
 20
3.117364773464853
 30
0.0
 11
-0.3125
 21
0.0000000000000199
 31
0.0
210
0.0
220
0.0
230
1.0
 40
0.5773502691896288
 41
2.356194490192516
 42
3.926990816987413
  0
LINE
  5
343
330
2
100
AcDbEntity
  8
AM_VIS
100
AcDbLine
 10
14.54283441190909
 20
2.989787182694876
 30
0.0
 11
14.54283441190911
 21
2.887725110078908
 31
0.0
  0
ELLIPSE
  5
344
330
2
100
AcDbEntity
  8
AM_VIS
100
AcDbEllipse
 10
14.32186354278831
 20
3.015302700848876
 30
0.0
 11
-0.3125
 21
0.0000000000000007
 31
0.0
210
0.0
220
0.0
230
1.0
 40
0.5773502691896273
 41
2.356194490192346
 42
3.141592653589801
  0
LINE
  5
345
330
2
100
AcDbEntity
  8
AM_VIS
100
AcDbLine
 10
14.54283441190911
 20
3.24494236423479
 30
0.0
 11
13.99500279415759
 21
3.561233096214218
 31
0.0
  0
LINE
  5
346
330
2
100
AcDbEntity
  8
AM_VIS
100
AcDbLine
 10
14.32186354278831
 20
2.760147519308953
 30
0.0
 11
14.54283441190911
 21
2.88772511007891
 31
0.0
  0
LINE
  5
347
330
2
100
AcDbEntity
  8
AM_VIS
100
AcDbLine
 10
13.81216008168298
 20
3.054424949785003
 30
0.0
 11
14.32186354278831
 21
2.760147519308953
 31
0.0
  0
ELLIPSE
  5
348
330
2
100
AcDbEntity
  8
AM_VIS
100
AcDbEllipse
 10
13.81216008168298
 20
2.972775291692227
 30
0.0
 11
-0.0500000000000008
 21
0.0866025403784453
 31
0.0
210
0.0
220
0.0
230
1.0
 40
0.5773502691896258
 41
5.497787143782127
 42
7.853981633974447
  0
LINE
  5
349
330
2
100
AcDbEntity
  8
AM_VIS
100
AcDbLine
 10
13.88287075980163
 20
3.013600120738613
 30
0.0
 11
13.76216008168298
 21
2.943907778232744
 31
0.0
  0
LINE
  5
34A
330
2
100
AcDbEntity
  8
AM_VIS
100
AcDbLine
 10
14.32186354278831
 20
2.862209591924917
 30
0.0
 11
14.54283441190909
 21
2.989787182694874
 31
0.0
  0
LINE
  5
34B
330
2
100
AcDbEntity
  8
AM_VIS
100
AcDbLine
 10
14.32186354278831
 20
2.760147519308953
 30
0.0
 11
14.32186354278831
 21
2.862209591924921
 31
0.0
  0
LINE
  5
34C
330
2
100
AcDbEntity
  8
AM_VIS
100
AcDbLine
 10
12.43035290311416
 20
2.717281448810312
 30
0.0
 11
12.55056105591599
 21
2.786683658189234
 31
0.0
  0
LINE
  5
34D
330
2
100
AcDbEntity
  8
AM_VIS
100
AcDbLine
 10
12.43035290311416
 20
2.717281448810312
 30
0.0
 11
12.61932782941362
 21
2.608176724241232
 31
0.0
  0
LINE
  5
34E
330
2
100
AcDbEntity
  8
AM_VIS
100
AcDbLine
 10
12.43035290311416
 20
2.435590128390248
 30
0.0
 11
12.43035290311416
 21
2.717281448810309
 31
0.0
  0
LINE
  5
34F
330
2
100
AcDbEntity
  8
AM_VIS
100
AcDbLine
 10
12.86327966892297
 20
2.185639743611141
 30
0.0
 11
12.43035290311416
 21
2.435590128390253
 31
0.0
  0
LINE
  5
350
330
2
100
AcDbEntity
  8
AM_VIS
100
AcDbLine
 10
12.70771617706194
 20
3.777808076420216
 30
0.0
 11
12.9516680165713
 21
3.636962416210185
 31
0.0
  0
LINE
  5
351
330
2
100
AcDbEntity
  8
AM_VIS
100
AcDbLine
 10
12.79610452471026
 20
3.726777040112231
 30
0.0
 11
12.79610452471026
 21
3.828839112728198
 31
0.0
  0
LINE
  5
352
330
2
100
AcDbEntity
  8
AM_VIS
100
AcDbLine
 10
12.70771617706194
 20
3.777808076420213
 30
0.0
 11
12.79610452471026
 21
3.828839112728196
 31
0.0
  0
LINE
  5
353
330
2
100
AcDbEntity
  8
AM_VIS
100
AcDbLine
 10
12.43035290311416
 20
3.835881764681316
 30
0.0
 11
12.43035290311416
 21
3.554190444261254
 31
0.0
  0
LINE
  5
354
330
2
100
AcDbEntity
  8
AM_VIS
100
AcDbLine
 10
12.43035290311416
 20
3.835881764681316
 30
0.0
 11
12.47281931714802
 21
3.860399760255285
 31
0.0
  0
LINE
  5
355
330
2
100
AcDbEntity
  8
AM_VIS
100
AcDbLine
 10
12.43035290311416
 20
3.554190444261256
 30
0.0
 11
12.61932782941362
 21
3.445085719692178
 31
0.0
  0
LINE
  5
356
330
2
100
AcDbEntity
  8
AM_VIS
100
AcDbLine
 10
12.79610452471026
 20
3.828839112728196
 30
0.0
 11
12.76976415808365
 21
3.844046730490621
 31
0.0
  0
LINE
  5
357
330
2
100
AcDbEntity
  8
AM_VIS
100
AcDbLine
 10
12.86327966892297
 20
3.585931379902194
 30
0.0
 11
12.43035290311417
 21
3.835881764681316
 31
0.0
  0
LINE
  5
358
330
2
100
AcDbEntity
  8
AM_VIS
100
AcDbLine
 10
12.86327966892298
 20
3.585931379902198
 30
0.0
 11
12.94509947407638
 21
3.633170066432553
 31
0.0
  0
LINE
  5
359
330
2
100
AcDbEntity
  8
AM_VIS
100
AcDbLine
 10
12.94509947407637
 20
3.633170066432556
 30
0.0
 11
13.5638179076146
 21
3.990387320588437
 31
0.0
  0
LINE
  5
35A
330
2
100
AcDbEntity
  8
AM_VIS
100
AcDbLine
 10
12.57127173403465
 20
3.417340520088921
 30
0.0
 11
12.61932782941362
 21
3.445085719692168
 31
0.0
  0
LINE
  5
35B
330
2
100
AcDbEntity
  8
AM_VIS
100
AcDbLine
 10
12.60712959841092
 20
3.338902945519753
 30
0.0
 11
12.61127173403465
 21
3.348058487786163
 31
0.0
  0
LINE
  5
35C
330
2
100
AcDbEntity
  8
AM_VIS
100
AcDbLine
 10
12.60712959841092
 20
3.338902945519753
 30
0.0
 11
12.99509947407637
 21
3.562897457672668
 31
0.0
  0
LINE
  5
35D
330
2
100
AcDbEntity
  8
AM_VIS
100
AcDbLine
 10
13.15513735383049
 20
3.470499544716088
 30
0.0
 11
13.15513735383049
 21
3.038073148280207
 31
0.0
  0
LINE
  5
35E
330
2
100
AcDbEntity
  8
AM_VIS
100
AcDbLine
 10
12.60712959841091
 20
2.721680723170713
 30
0.0
 11
12.60712959841092
 21
3.338902945519753
 31
0.0
  0
LINE
  5
35F
330
2
100
AcDbEntity
  8
AM_VIS
100
AcDbLine
 10
12.60712959841091
 20
2.721680723170713
 30
0.0
 11
13.15513735383049
 21
3.038073148280207
 31
0.0
  0
LINE
  5
360
330
2
100
AcDbEntity
  8
AM_VIS
100
AcDbLine
 10
13.15513735383049
 20
3.038073148280208
 30
0.0
 11
13.53724936511968
 21
2.376235730545009
 31
0.0
  0
LINE
  5
361
330
2
100
AcDbEntity
  8
AM_VIS
100
AcDbLine
 10
12.98924160970011
 20
2.059843305435514
 30
0.0
 11
12.60712959841092
 21
2.721680723170713
 31
0.0
  0
LINE
  5
362
330
2
100
AcDbEntity
  8
AM_VIS
100
AcDbLine
 10
12.9892416097001
 20
2.059843305435514
 30
0.0
 11
13.53724936511967
 21
2.376235730545009
 31
0.0
  0
LINE
  5
363
330
2
100
AcDbEntity
  8
AM_VIS
100
AcDbLine
 10
13.53724936511968
 20
2.376235730545009
 30
0.0
 11
13.91174160970011
 21
2.160022532327069
 31
0.0
  0
LINE
  5
364
330
2
100
AcDbEntity
  8
AM_VIS
100
AcDbLine
 10
13.52962959841093
 20
1.747850154686477
 30
0.0
 11
12.9892416097001
 21
2.059843305435514
 31
0.0
  0
LINE
  5
365
330
2
100
AcDbEntity
  8
AM_VIS
100
AcDbLine
 10
13.91174160970011
 20
1.968462627264876
 30
0.0
 11
13.52962959841093
 21
1.747850154686477
 31
0.0
  0
LINE
  5
366
330
2
100
AcDbEntity
  8
AM_VIS
100
AcDbLine
 10
13.91174160970011
 20
2.592448928762941
 30
0.0
 11
13.91174160970011
 21
1.968462627264876
 31
0.0
  0
LINE
  5
367
330
2
100
AcDbEntity
  8
AM_VIS
100
AcDbLine
 10
13.52962959841093
 20
3.254286346498143
 30
0.0
 11
13.91174160970011
 21
2.592448928762938
 31
0.0
  0
LINE
  5
368
330
2
100
AcDbEntity
  8
AM_VIS
100
AcDbLine
 10
12.9892416097001
 20
3.566279497247183
 30
0.0
 11
13.52962959841093
 21
3.254286346498144
 31
0.0
  0
LINE
  5
369
330
2
100
AcDbEntity
  8
AM_VIS
100
AcDbLine
 10
12.61127173403465
 20
3.348058487786162
 30
0.0
 11
12.9892416097001
 21
3.566279497247183
 31
0.0
  0
ELLIPSE
  5
36A
330
2
100
AcDbEntity
  8
AM_VIS
100
AcDbEllipse
 10
12.99509947407636
 20
2.072791197479554
 30
0.0
 11
-0.0499999999999997
 21
0.0866025403784433
 31
0.0
210
0.0
220
0.0
230
0.9999999999999998
 40
0.5773502691896259
 41
1.570796326794898
 42
2.356194490192334
  0
LINE
  5
36B
330
2
100
AcDbEntity
  8
AM_VIS
100
AcDbLine
 10
13.52377173403466
 20
1.685912467786775
 30
0.0
 11
12.99509947407637
 21
1.991141539386784
 31
0.0
  0
ELLIPSE
  5
36C
330
2
100
AcDbEntity
  8
AM_VIS
100
AcDbEllipse
 10
13.52377173403466
 20
1.767562125879543
 30
0.0
 11
-0.0499999999999976
 21
0.0866025403784396
 31
0.0
210
0.0
220
0.0
230
1.0
 40
0.5773502691896259
 41
2.356194490192343
 42
3.141592653589797
  0
LINE
  5
36D
330
2
100
AcDbEntity
  8
AM_VIS
100
AcDbLine
 10
13.94759947407638
 20
1.896789131844738
 30
0.0
 11
14.56631790761461
 21
2.254006386000619
 31
0.0
  0
LINE
  5
36E
330
2
100
AcDbEntity
  8
AM_VIS
100
AcDbLine
 10
13.94759947407638
 20
1.896789131844738
 30
0.0
 11
13.57377173403465
 21
1.680959585501103
 31
0.0
  0
LINE
  5
36F
330
2
100
AcDbEntity
  8
AM_VIS
100
AcDbLine
 10
13.96831015219504
 20
1.942566843176796
 30
0.0
 11
14.58702858573326
 21
2.299784097332676
 31
0.0
  0
ELLIPSE
  5
370
330
2
100
AcDbEntity
  8
AM_VIS
100
AcDbEllipse
 10
13.89759947407638
 20
1.983391672223183
 30
0.0
 11
-0.0500000000000003
 21
0.0866025403784443
 31
0.0
210
0.0
220
0.0
230
1.0
 40
0.5773502691896258
 41
3.141592653589802
 42
3.92699081698724
  0
LINE
  5
371
330
2
100
AcDbEntity
  8
AM_VIS
100
AcDbLine
 10
13.96831015219504
 20
2.553024986376809
 30
0.0
 11
14.58702858573327
 21
2.910242240532689
 31
0.0
  0
LINE
  5
372
330
2
100
AcDbEntity
  8
AM_VIS
100
AcDbLine
 10
13.96831015219504
 20
2.553024986376809
 30
0.0
 11
13.96831015219504
 21
1.942566843176795
 31
0.0
  0
LINE
  5
373
330
2
100
AcDbEntity
  8
AM_VIS
100
AcDbLine
 10
13.94759947407639
 20
2.622717328882675
 30
0.0
 11
14.25374954458844
 21
2.799473154505232
 31
0.0
  0
ELLIPSE
  5
374
330
2
100
AcDbEntity
  8
AM_VIS
100
AcDbEllipse
 10
13.89759947407638
 20
2.593849815423194
 30
0.0
 11
-0.0499999999999997
 21
0.0866025403784433
 31
0.0
210
0.0
220
0.0
230
0.9999999999999998
 40
0.5773502691896259
 41
3.92699081698723
 42
4.712388980384665
  0
LINE
  5
375
330
2
100
AcDbEntity
  8
AM_VIS
100
AcDbLine
 10
13.76216008168298
 20
2.943907778232748
 30
0.0
 11
13.94759947407638
 21
2.622717328882673
 31
0.0
  0
LINE
  5
376
330
2
100
AcDbEntity
  8
AM_VIS
100
AcDbLine
 10
13.99500279415759
 20
3.561233096214218
 30
0.0
 11
14.17177948945423
 21
3.663295168830185
 31
0.0
  0
LINE
  5
377
330
2
100
AcDbEntity
  8
AM_VIS
100
AcDbLine
 10
12.99509947407638
 20
3.628217184146886
 30
0.0
 11
13.61381790761461
 21
3.985434438302766
 31
0.0
  0
LINE
  5
378
330
2
100
AcDbEntity
  8
AM_VIS
100
AcDbLine
 10
12.99509947407638
 20
3.628217184146886
 30
0.0
 11
14.32186354278831
 21
2.862209591924917
 31
0.0
  0
ELLIPSE
  5
379
330
2
100
AcDbEntity
  8
AM_VIS
100
AcDbEllipse
 10
12.99509947407638
 20
3.546567526054111
 30
0.0
 11
-0.05
 21
0.0866025403784438
 31
0.0
210
0.0
220
0.0
230
1.0
 40
0.5773502691896258
 41
5.497787143782145
 42
6.283185307179605
  0
ELLIPSE
  5
37A
330
2
100
AcDbEntity
  8
AM_VIS
100
AcDbEllipse
 10
12.62127173403465
 20
3.330737979710478
 30
0.0
 11
-0.0499999999999998
 21
0.0866025403784435
 31
0.0
210
0.0
220
0.0
230
1.0
 40
0.5773502691896258
 41
-0.0000000000000395
 42
0.7853981633974466
  0
LINE
  5
37B
330
2
100
AcDbEntity
  8
AM_VIS
100
AcDbLine
 10
12.55056105591599
 20
2.761104665556858
 30
0.0
 11
12.550561055916
 21
3.371562808756863
 31
0.0
  0
ELLIPSE
  5
37C
330
2
100
AcDbEntity
  8
AM_VIS
100
AcDbEllipse
 10
12.62127173403465
 20
2.72027983651047
 30
0.0
 11
-0.0500000000000016
 21
0.0866025403784465
 31
0.0
210
0.0
220
0.0
230
0.9999999999999998
 40
0.5773502691896259
 41
0.7853981633974647
 42
1.570796326794928
  0
LINE
  5
37D
330
2
100
AcDbEntity
  8
AM_VIS
100
AcDbLine
 10
12.61932782941362
 20
2.608176724241241
 30
0.0
 11
12.57127173403465
 21
2.691412323050988
 31
0.0
  0
LINE
  5
37E
330
2
100
AcDbEntity
  8
AM_VIS
100
AcDbLine
 10
12.94509947407637
 20
2.043923684020072
 30
0.0
 11
12.86327966892297
 21
2.185639743611141
 31
0.0
  0
LINE
  5
37F
330
2
100
AcDbEntity
  8
AM_VIS
100
AcDbLine
 10
14.63436354278831
 20
3.015302700848881
 30
0.0
 11
14.63436354278831
 21
3.117364773464855
 31
0.0
  0
CIRCLE
  5
380
330
2
100
AcDbEntity
  8
AM_VIS
100
AcDbCircle
 10
10.28183876019665
 20
7.851264466008945
 30
0.0
 40
0.03125
  0
ARC
  5
381
330
2
100
AcDbEntity
  8
AM_VIS
100
AcDbCircle
 10
10.28183876019665
 20
7.851264466008945
 30
0.0
 40
0.125
100
AcDbArc
 50
180.0
 51
298.7768832094683
  0
LINE
  5
382
330
2
100
AcDbEntity
  8
AM_VIS
100
AcDbLine
 10
10.76908966391785
 20
7.976264466008945
 30
0.0
 11
10.34201376977267
 21
7.741701843630119
 31
0.0
  0
LINE
  5
383
330
2
100
AcDbEntity
  8
AM_HID
100
AcDbLine
 10
10.76908966391785
 20
7.976264466008945
 30
0.0
 11
10.42062380054615
 21
7.976264466008945
 31
0.0
  0
LINE
  5
384
330
2
100
AcDbEntity
  8
AM_VIS
100
AcDbLine
 10
12.4518387601969
 20
7.976264466008937
 30
0.0
 11
12.3318387601969
 21
7.976264466008937
 31
0.0
  0
LINE
  5
385
330
2
100
AcDbEntity
  8
AM_VIS
100
AcDbLine
 10
10.76908966391785
 20
7.976264466008942
 30
0.0
 11
10.91192203071976
 21
7.976264466008942
 31
0.0
  0
LINE
  5
386
330
2
100
AcDbEntity
  8
AM_VIS
100
AcDbLine
 10
12.4518387601969
 20
8.136264466008942
 30
0.0
 11
12.3318387601969
 21
8.136264466008942
 31
0.0
  0
LINE
  5
387
330
2
100
AcDbEntity
  8
AM_HID
100
AcDbLine
 10
12.33183876019689
 20
8.136264466008942
 30
0.0
 11
11.89958785647592
 21
8.136264466008942
 31
0.0
  0
LINE
  5
388
330
2
100
AcDbEntity
  8
AM_VIS
100
AcDbLine
 10
12.83433876019689
 20
8.136264466008942
 30
0.0
 11
12.4518387601969
 21
8.136264466008942
 31
0.0
  0
LINE
  5
389
330
2
100
AcDbEntity
  8
AM_VIS
100
AcDbLine
 10
10.15683876019665
 20
7.851264466008945
 30
0.0
 11
10.15683876019678
 21
8.136264466008945
 31
0.0
  0
LINE
  5
38A
330
2
100
AcDbEntity
  8
AM_HID
100
AcDbLine
 10
10.42062380054615
 20
7.976264466008945
 30
0.0
 11
10.42062380054615
 21
8.136264466008945
 31
0.0
  0
LINE
  5
38B
330
2
100
AcDbEntity
  8
AM_VIS
100
AcDbLine
 10
10.95551102015515
 20
8.136264466008945
 30
0.0
 11
10.1568387601967
 21
8.136264466008945
 31
0.0
  0
LINE
  5
38C
330
2
100
AcDbEntity
  8
AM_VIS
100
AcDbLine
 10
10.88480034203651
 20
8.632514466008942
 30
0.0
 11
10.35612808207822
 21
8.632514466008942
 31
0.0
  0
LINE
  5
38D
330
2
100
AcDbEntity
  8
AM_VIS
100
AcDbLine
 10
10.8848003420365
 20
8.632514466008942
 30
0.0
 11
10.95551102015515
 21
8.632514466008942
 31
0.0
  0
LINE
  5
38E
330
2
100
AcDbEntity
  8
AM_HID
100
AcDbLine
 10
12.2518387601969
 20
7.976264466008942
 30
0.0
 11
12.2518387601969
 21
8.532514466008942
 31
0.0
  0
LINE
  5
38F
330
2
100
AcDbEntity
  8
AM_HID
100
AcDbLine
 10
12.25183876019689
 20
8.532514466008942
 30
0.0
 11
11.71145077148607
 21
8.532514466008942
 31
0.0
  0
LINE
  5
390
330
2
100
AcDbEntity
  8
AM_HID
100
AcDbLine
 10
11.71145077148608
 20
7.976264466008942
 30
0.0
 11
11.71145077148608
 21
8.532514466008942
 31
0.0
  0
LINE
  5
391
330
2
100
AcDbEntity
  8
AM_HID
100
AcDbLine
 10
11.71145077148607
 20
8.532514466008942
 30
0.0
 11
10.94722674890769
 21
8.532514466008942
 31
0.0
  0
LINE
  5
392
330
2
100
AcDbEntity
  8
AM_HID
100
AcDbLine
 10
10.94722674890769
 20
7.976264466008945
 30
0.0
 11
10.94722674890769
 21
8.532514466008946
 31
0.0
  0
LINE
  5
393
330
2
100
AcDbEntity
  8
AM_HID
100
AcDbLine
 10
10.94722674890769
 20
8.532514466008946
 30
0.0
 11
10.40683876019687
 21
8.532514466008946
 31
0.0
  0
LINE
  5
394
330
2
100
AcDbEntity
  8
AM_HID
100
AcDbLine
 10
10.40683876019687
 20
7.976264466008942
 30
0.0
 11
10.40683876019687
 21
8.532514466008946
 31
0.0
  0
LINE
  5
395
330
2
100
AcDbEntity
  8
AM_VIS
100
AcDbLine
 10
12.30254943831555
 20
8.632514466008936
 30
0.0
 11
11.77387717835726
 21
8.632514466008936
 31
0.0
  0
LINE
  5
396
330
2
100
AcDbEntity
  8
AM_VIS
100
AcDbLine
 10
11.70316650023861
 20
8.632514466008936
 30
0.0
 11
11.77387717835726
 21
8.632514466008936
 31
0.0
  0
LINE
  5
397
330
2
100
AcDbEntity
  8
AM_VIS
100
AcDbLine
 10
11.70316650023861
 20
8.632514466008945
 30
0.0
 11
10.95551102015516
 21
8.632514466008945
 31
0.0
  0
LINE
  5
398
330
2
100
AcDbEntity
  8
AM_VIS
100
AcDbLine
 10
10.32683876019687
 20
8.632514466008945
 30
0.0
 11
10.35612808207822
 21
8.632514466008945
 31
0.0
  0
LINE
  5
399
330
2
100
AcDbEntity
  8
AM_HID
100
AcDbLine
 10
10.32683876019687
 20
7.976264466008945
 30
0.0
 11
10.32683876019687
 21
8.136264466008944
 31
0.0
  0
LINE
  5
39A
330
2
100
AcDbEntity
  8
AM_VIS
100
AcDbLine
 10
10.32683876019687
 20
8.136264466008944
 30
0.0
 11
10.32683876019687
 21
8.632514466008945
 31
0.0
  0
LINE
  5
39B
330
2
100
AcDbEntity
  8
AM_HID
100
AcDbLine
 10
11.89958785647592
 20
8.136264466008942
 30
0.0
 11
11.89958785647592
 21
7.976264466008942
 31
0.0
  0
LINE
  5
39C
330
2
100
AcDbEntity
  8
AM_VIS
100
AcDbLine
 10
12.33183876019689
 20
7.976264466008942
 30
0.0
 11
12.33183876019689
 21
8.632514466008942
 31
0.0
  0
LINE
  5
39D
330
2
100
AcDbEntity
  8
AM_VIS
100
AcDbLine
 10
12.30254943831555
 20
8.632514466008936
 30
0.0
 11
12.3318387601969
 21
8.632514466008936
 31
0.0
  0
CIRCLE
  5
39E
330
2
100
AcDbEntity
  8
AM_VIS
100
AcDbCircle
 10
12.52183876019689
 20
7.676264466008943
 30
0.0
 40
0.164
  0
LINE
  5
39F
330
2
100
AcDbEntity
  8
AM_VIS
100
AcDbLine
 10
12.83433876019689
 20
7.676264466008943
 30
0.0
 11
12.83433876019689
 21
8.136264466008942
 31
0.0
  0
LINE
  5
3A0
330
2
100
AcDbEntity
  8
AM_HID
100
AcDbLine
 10
12.20933876019689
 20
7.676264466008943
 30
0.0
 11
12.20933876019689
 21
7.976264466008937
 31
0.0
  0
ARC
  5
3A1
330
2
100
AcDbEntity
  8
AM_VIS
100
AcDbCircle
 10
12.52183876019689
 20
7.676264466008943
 30
0.0
 40
0.3125
100
AcDbArc
 50
232.554969986843
 51
0.0
  0
ARC
  5
3A2
330
2
100
AcDbEntity
  8
AM_HID
100
AcDbCircle
 10
12.52183876019689
 20
7.676264466008943
 30
0.0
 40
0.3125
100
AcDbArc
 50
180.0
 51
232.554969986843
  0
LINE
  5
3A3
330
2
100
AcDbEntity
  8
AM_HID
100
AcDbLine
 10
11.40933876019689
 20
7.201264466008947
 30
0.0
 11
11.40933876019689
 21
7.101264466008949
 31
0.0
  0
LINE
  5
3A4
330
2
100
AcDbEntity
  8
AM_VIS
100
AcDbLine
 10
11.40933876019689
 20
7.101264466008949
 30
0.0
 11
11.40933876019689
 21
7.013764466008947
 31
0.0
  0
LINE
  5
3A5
330
2
100
AcDbEntity
  8
AM_VIS
100
AcDbLine
 10
11.24933876019689
 20
7.013764466008947
 30
0.0
 11
11.40933876019689
 21
7.013764466008947
 31
0.0
  0
LINE
  5
3A6
330
2
100
AcDbEntity
  8
AM_HID
100
AcDbLine
 10
11.24933876019689
 20
7.201264466008947
 30
0.0
 11
11.24933876019689
 21
7.101264466008949
 31
0.0
  0
LINE
  5
3A7
330
2
100
AcDbEntity
  8
AM_VIS
100
AcDbLine
 10
11.24933876019689
 20
7.101264466008949
 30
0.0
 11
11.24933876019689
 21
7.013764466008947
 31
0.0
  0
LINE
  5
3A8
330
2
100
AcDbEntity
  8
AM_VIS
100
AcDbLine
 10
10.95551102015516
 20
7.101264466008949
 30
0.0
 11
10.8848003420365
 21
7.101264466008949
 31
0.0
  0
LINE
  5
3A9
330
2
100
AcDbEntity
  8
AM_VIS
100
AcDbLine
 10
10.35612808207823
 20
7.101264466008949
 30
0.0
 11
10.88480034203651
 21
7.101264466008949
 31
0.0
  0
LINE
  5
3AA
330
2
100
AcDbEntity
  8
AM_VIS
100
AcDbLine
 10
10.35612808207823
 20
7.101264466008949
 30
0.0
 11
10.32683876019688
 21
7.101264466008949
 31
0.0
  0
LINE
  5
3AB
330
2
100
AcDbEntity
  8
AM_VIS
100
AcDbLine
 10
12.3318387601969
 20
7.101264466008949
 30
0.0
 11
12.30254943831555
 21
7.101264466008949
 31
0.0
  0
LINE
  5
3AC
330
2
100
AcDbEntity
  8
AM_VIS
100
AcDbLine
 10
11.77387717835727
 20
7.101264466008949
 30
0.0
 11
12.30254943831556
 21
7.101264466008949
 31
0.0
  0
LINE
  5
3AD
330
2
100
AcDbEntity
  8
AM_VIS
100
AcDbLine
 10
11.77387717835727
 20
7.101264466008949
 30
0.0
 11
11.70316650023861
 21
7.101264466008949
 31
0.0
  0
LINE
  5
3AE
330
2
100
AcDbEntity
  8
AM_VIS
100
AcDbLine
 10
10.95551102015516
 20
7.101264466008949
 30
0.0
 11
11.70316650023861
 21
7.101264466008949
 31
0.0
  0
ARC
  5
3AF
330
2
100
AcDbEntity
  8
AM_VIS
100
AcDbCircle
 10
12.5193387601969
 20
7.663764466008949
 30
0.0
 40
0.164
100
AcDbArc
 50
350.9173990398173
 51
0.0
  0
ARC
  5
3B0
330
2
100
AcDbEntity
  8
AM_HID
100
AcDbCircle
 10
12.5193387601969
 20
7.663764466008949
 30
0.0
 40
0.164
100
AcDbArc
 50
166.4627360122201
 51
350.9173990398173
  0
ARC
  5
3B1
330
2
100
AcDbEntity
  8
AM_VIS
100
AcDbCircle
 10
12.5193387601969
 20
7.663764466008949
 30
0.0
 40
0.164
100
AcDbArc
 50
359.9999999999994
 51
166.4627360122201
  0
ARC
  5
3B2
330
2
100
AcDbEntity
  8
AM_HID
100
AcDbCircle
 10
12.5193387601969
 20
7.663764466008949
 30
0.0
 40
0.3125
100
AcDbArc
 50
349.8587577558953
 51
0.0
  0
ARC
  5
3B3
330
2
100
AcDbEntity
  8
AM_VIS
100
AcDbCircle
 10
12.5193387601969
 20
7.663764466008949
 30
0.0
 40
0.3125
100
AcDbArc
 50
270.0
 51
349.8587577558953
  0
LINE
  5
3B4
330
2
100
AcDbEntity
  8
AM_HID
100
AcDbLine
 10
12.11100921271323
 20
7.351264466008949
 30
0.0
 11
12.3318387601969
 21
7.351264466008949
 31
0.0
  0
LINE
  5
3B5
330
2
100
AcDbEntity
  8
AM_VIS
100
AcDbLine
 10
12.3318387601969
 20
7.351264466008949
 30
0.0
 11
12.5193387601969
 21
7.351264466008949
 31
0.0
  0
LINE
  5
3B6
330
2
100
AcDbEntity
  8
AM_HID
100
AcDbLine
 10
12.04029853459458
 20
7.351264466008949
 30
0.0
 11
12.11100921271323
 21
7.351264466008949
 31
0.0
  0
LINE
  5
3B7
330
2
100
AcDbEntity
  8
AM_HID
100
AcDbLine
 10
11.74458785647591
 20
7.351264466008949
 30
0.0
 11
12.04029853459458
 21
7.351264466008949
 31
0.0
  0
LINE
  5
3B8
330
2
100
AcDbEntity
  8
AM_HID
100
AcDbLine
 10
12.8318387601969
 20
7.976264466008949
 30
0.0
 11
12.8318387601969
 21
7.663764466008949
 31
0.0
  0
LINE
  5
3B9
330
2
100
AcDbEntity
  8
AM_HID
100
AcDbLine
 10
12.4518387601969
 20
7.976264466008949
 30
0.0
 11
12.8318387601969
 21
7.976264466008949
 31
0.0
  0
LINE
  5
3BA
330
2
100
AcDbEntity
  8
AM_VIS
100
AcDbLine
 10
10.76908966391785
 20
7.851264466008949
 30
0.0
 11
10.54149804583845
 21
7.851264466008949
 31
0.0
  0
LINE
  5
3BB
330
2
100
AcDbEntity
  8
AM_HID
100
AcDbLine
 10
10.54149804583845
 20
7.851264466008949
 30
0.0
 11
10.42408966391786
 21
7.851264466008949
 31
0.0
  0
LINE
  5
3BC
330
2
100
AcDbEntity
  8
AM_HID
100
AcDbLine
 10
10.42408966391786
 20
7.851264466008949
 30
0.0
 11
10.42408966391786
 21
7.786780334897612
 31
0.0
  0
LINE
  5
3BD
330
2
100
AcDbEntity
  8
AM_VIS
100
AcDbLine
 10
10.42408966391786
 20
7.786780334897612
 30
0.0
 11
10.42408966391786
 21
7.726264466008949
 31
0.0
  0
LINE
  5
3BE
330
2
100
AcDbEntity
  8
AM_HID
100
AcDbLine
 10
10.42408966391787
 20
7.851264466008949
 30
0.0
 11
10.42408966391787
 21
7.976264466008949
 31
0.0
  0
LINE
  5
3BF
330
2
100
AcDbEntity
  8
AM_VIS
100
AcDbLine
 10
10.15683876019671
 20
7.851264466008945
 30
0.0
 11
10.15683876019671
 21
7.726264466008949
 31
0.0
  0
LINE
  5
3C0
330
2
100
AcDbEntity
  8
AM_VIS
100
AcDbLine
 10
10.15683876019671
 20
7.726264466008949
 30
0.0
 11
10.42408966391786
 21
7.726264466008949
 31
0.0
  0
LINE
  5
3C1
330
2
100
AcDbEntity
  8
AM_VIS
100
AcDbLine
 10
10.76908966391784
 20
7.976264466008949
 30
0.0
 11
10.76908966391784
 21
7.851264466008949
 31
0.0
  0
LINE
  5
3C2
330
2
100
AcDbEntity
  8
AM_HID
100
AcDbLine
 10
10.76908966391785
 20
7.976264466008949
 30
0.0
 11
10.15683876019671
 21
7.976264466008949
 31
0.0
  0
LINE
  5
3C3
330
2
100
AcDbEntity
  8
AM_HID
100
AcDbLine
 10
10.41269662457315
 20
7.976264466008949
 30
0.0
 11
10.41269662457315
 21
7.201264466008947
 31
0.0
  0
LINE
  5
3C4
330
2
100
AcDbEntity
  8
AM_HID
100
AcDbLine
 10
10.40683876019688
 20
7.976264466008949
 30
0.0
 11
10.40683876019688
 21
7.201264466008947
 31
0.0
  0
LINE
  5
3C5
330
2
100
AcDbEntity
  8
AM_HID
100
AcDbLine
 10
10.40683876019688
 20
7.201264466008947
 30
0.0
 11
10.94722674890771
 21
7.201264466008947
 31
0.0
  0
LINE
  5
3C6
330
2
100
AcDbEntity
  8
AM_HID
100
AcDbLine
 10
10.9472267489077
 20
7.976264466008949
 30
0.0
 11
10.9472267489077
 21
7.201264466008947
 31
0.0
  0
LINE
  5
3C7
330
2
100
AcDbEntity
  8
AM_HID
100
AcDbLine
 10
10.9472267489077
 20
7.201264466008947
 30
0.0
 11
11.71145077148607
 21
7.201264466008947
 31
0.0
  0
LINE
  5
3C8
330
2
100
AcDbEntity
  8
AM_HID
100
AcDbLine
 10
11.71145077148608
 20
7.976264466008949
 30
0.0
 11
11.71145077148608
 21
7.201264466008947
 31
0.0
  0
LINE
  5
3C9
330
2
100
AcDbEntity
  8
AM_HID
100
AcDbLine
 10
11.71145077148608
 20
7.201264466008947
 30
0.0
 11
12.2518387601969
 21
7.201264466008947
 31
0.0
  0
LINE
  5
3CA
330
2
100
AcDbEntity
  8
AM_HID
100
AcDbLine
 10
12.2518387601969
 20
7.976264466008949
 30
0.0
 11
12.2518387601969
 21
7.201264466008947
 31
0.0
  0
LINE
  5
3CB
330
2
100
AcDbEntity
  8
AM_VIS
100
AcDbLine
 10
10.91192203071976
 20
7.976264466008949
 30
0.0
 11
10.95551102015516
 21
7.976264466008949
 31
0.0
  0
LINE
  5
3CC
330
2
100
AcDbEntity
  8
AM_VIS
100
AcDbLine
 10
11.70316650023861
 20
7.976264466008949
 30
0.0
 11
10.95551102015516
 21
7.976264466008949
 31
0.0
  0
LINE
  5
3CD
330
2
100
AcDbEntity
  8
AM_VIS
100
AcDbLine
 10
11.70316650023861
 20
7.976264466008949
 30
0.0
 11
11.77387717835727
 21
7.976264466008949
 31
0.0
  0
LINE
  5
3CE
330
2
100
AcDbEntity
  8
AM_VIS
100
AcDbLine
 10
12.30254943831556
 20
7.976264466008949
 30
0.0
 11
11.77387717835726
 21
7.976264466008949
 31
0.0
  0
LINE
  5
3CF
330
2
100
AcDbEntity
  8
AM_VIS
100
AcDbLine
 10
12.3318387601969
 20
7.976264466008949
 30
0.0
 11
12.3318387601969
 21
7.101264466008949
 31
0.0
  0
LINE
  5
3D0
330
2
100
AcDbEntity
  8
AM_VIS
100
AcDbLine
 10
12.30254943831555
 20
7.976264466008949
 30
0.0
 11
12.3318387601969
 21
7.976264466008949
 31
0.0
  0
LINE
  5
3D1
330
2
100
AcDbEntity
  8
AM_HID
100
AcDbLine
 10
11.74458785647591
 20
7.351264466008949
 30
0.0
 11
11.74458785647591
 21
7.101264466008949
 31
0.0
  0
LINE
  5
3D2
330
2
100
AcDbEntity
  8
AM_HID
100
AcDbLine
 10
10.32683876019688
 20
7.976264466008949
 30
0.0
 11
10.32683876019688
 21
7.726264466008949
 31
0.0
  0
LINE
  5
3D3
330
2
100
AcDbEntity
  8
AM_VIS
100
AcDbLine
 10
10.32683876019688
 20
7.726264466008949
 30
0.0
 11
10.32683876019688
 21
7.101264466008949
 31
0.0
  0
LINE
  5
3D4
330
2
100
AcDbEntity
  8
AM_HID
100
AcDbLine
 10
11.93433876019689
 20
7.201264466008947
 30
0.0
 11
11.93433876019689
 21
7.101264466008949
 31
0.0
  0
LINE
  5
3D5
330
2
100
AcDbEntity
  8
AM_HID
100
AcDbLine
 10
10.72433876019689
 20
7.201264466008947
 30
0.0
 11
10.72433876019689
 21
7.101264466008949
 31
0.0
  0
LINE
  5
3D6
330
2
100
AcDbEntity
  8
AM_HID
100
AcDbLine
 10
12.01100921271323
 20
7.976264466008949
 30
0.0
 11
12.01100921271323
 21
7.351264466008949
 31
0.0
  0
ENDSEC
  0
SECTION
  2
OBJECTS
  0
DICTIONARY
  5
8
330
0
100
AcDbDictionary
281
     1
  3
ACAD_COLOR
350
25
  3
ACAD_GROUP
350
21
  3
ACAD_LAYOUT
350
C
  3
ACAD_MATERIAL
350
24
  3
ACAD_MLINESTYLE
350
22
  3
ACAD_PLOTSETTINGS
350
23
  3
ACAD_PLOTSTYLENAME
350
7
  3
ACAD_TABLESTYLE
350
26
  3
ACDBHEADERROUNDTRIPXREC
350
4FC
  3
AcDbVariableDictionary
350
3D8
  3
AcmDictionary
350
4A4
  3
AMG
350
3E6
  3
AMGSNAPSETTINGS
350
4E7
  3
DWGPROPS
350
4FB
  3
MAPISURF_MODULE
350
472
  0
DICTIONARY
  5
3
330
2
100
AcDbDictionary
280
     1
281
     1
  3
ACAD_INDEX
360
4EF
  0
DICTIONARY
  5
25
102
{ACAD_REACTORS
330
8
102
}
330
8
100
AcDbDictionary
281
     1
  0
DICTIONARY
  5
21
102
{ACAD_REACTORS
330
8
102
}
330
8
100
AcDbDictionary
281
     1
  0
DICTIONARY
  5
C
102
{ACAD_REACTORS
330
8
102
}
330
8
100
AcDbDictionary
281
     1
  3
Layout1
350
10
  3
Model
350
B
  0
DICTIONARY
  5
24
102
{ACAD_REACTORS
330
8
102
}
330
8
100
AcDbDictionary
281
     1
  0
DICTIONARY
  5
22
102
{ACAD_REACTORS
330
8
102
}
330
8
100
AcDbDictionary
281
     1
  3
Standard
350
27
  0
DICTIONARY
  5
23
102
{ACAD_REACTORS
330
8
102
}
330
8
100
AcDbDictionary
281
     1
  0
ACDBDICTIONARYWDFLT
  5
7
102
{ACAD_REACTORS
330
8
102
}
330
8
100
AcDbDictionary
281
     1
  3
Normal
350
6
100
AcDbDictionaryWithDefault
340
6
  0
DICTIONARY
  5
26
102
{ACAD_REACTORS
330
8
102
}
330
8
100
AcDbDictionary
281
     1
  3
Standard
350
28
  0
DICTIONARY
  5
4FC
102
{ACAD_REACTORS
330
8
102
}
330
8
100
AcDbDictionary
281
     1
  0
DICTIONARY
  5
3D8
102
{ACAD_REACTORS
330
8
102
}
330
8
100
AcDbDictionary
281
     1
  3
CTABLESTYLE
350
3D9
  3
DIMASSOC
350
3DB
  3
HIDETEXT
350
3DA
  3
INDEXCTL
350
4F9
  3
PROJECTNAME
350
3DC
  0
DICTIONARY
  5
4A4
102
{ACAD_REACTORS
330
8
102
}
330
8
100
AcDbDictionary
281
     1
  3
AcmStdDictionary
350
4B3
  3
AMDTSECTSYM_ARROWCOLOR
350
4D1
  0
DICTIONARY
  5
3E6
102
{ACAD_REACTORS
330
8
102
}
330
8
100
AcDbDictionary
281
     1
  3
AcMgSettings
350
3E7
  0
DICTIONARY
  5
4E7
102
{ACAD_REACTORS
330
8
102
}
330
8
100
AcDbDictionary
281
     1
  3
DIMENSION
350
4EC
  3
FEA
350
4EB
  3
HATCH (1)
350
4E8
  3
HATCH (2)
350
4E9
  3
SIMPLE WELD
350
4ED
  3
SYMBOLS
350
4EA
  0
XRECORD
  5
4FB
102
{ACAD_REACTORS
330
8
102
}
330
8
100
AcDbXrecord
280
     1
  1
DWGPROPS COOKIE
  2

  3

  4

  6

  7

  8

  9

300
AmdtFileType=84
301
=
302
=
303
=
304
=
305
=
306
=
307
=
308
=
309
=
 40
1.113933888888889
 41
2451760.492491679
 42
2453936.548895834
  1

 90
        1
  0
DICTIONARY
  5
4EF
102
{ACAD_REACTORS
330
3
102
}
330
3
100
AcDbDictionary
281
     1
  3
*A1
350
4F0
  0
LAYOUT
  5
10
102
{ACAD_XDICTIONARY
360
4FF
102
}
102
{ACAD_REACTORS
330
C
102
}
330
C
100
AcDbPlotSettings
  1

  2
DWF Classic.pc3
  4
ANSI_B_(17.00_x_11.00_Inches)
  6

 40
5.793749809265136
 41
17.79375076293945
 42
5.79376220703125
 43
17.79376220703125
 44
431.7999877929686
 45
279.3999938964844
 46
0.0
 47
0.0
 48
0.0
 49
0.0
140
0.0
141
0.0
142
1.0
143
1.0
 70
   688
 72
     0
 73
     0
 74
     5
  7

 75
    16
147
1.0
148
0.0
149
0.0
100
AcDbLayout
  1
Layout1
 70
     1
 71
     1
 10
-0.2281003861915408
 20
-0.7005413686196637
 11
16.77189913321667
 21
10.29945839108444
 12
0.0
 22
0.0
 32
0.0
 14
-0.234391150367761
 24
-0.7041953403541972
 34
-0.4600000000000001
 15
16.76560884963224
 25
10.2958046596458
 35
0.0
146
0.0
 13
0.0
 23
0.0
 33
0.0
 16
1.0
 26
0.0
 36
0.0
 17
0.0
 27
1.0
 37
0.0
 76
     0
330
D
  0
LAYOUT
  5
B
102
{ACAD_XDICTIONARY
360
4FD
102
}
102
{ACAD_REACTORS
330
C
102
}
330
C
100
AcDbPlotSettings
  1

  2
\\COMPUTER24\KATHY'S NEC
  4

  6

 40
0.0
 41
0.0
 42
0.0
 43
0.0
 44
0.0
 45
0.0
 46
0.0
 47
0.0
 48
0.0
 49
0.0
140
0.0
141
0.0
142
1.0
143
1.0
 70
  1712
 72
     0
 73
     0
 74
     0
  7

 75
     0
147
1.0
148
0.0
149
0.0
100
AcDbLayout
  1
Model
 70
     1
 71
     0
 10
0.0
 20
0.0
 11
12.0
 21
9.0
 12
0.0
 22
0.0
 32
0.0
 14
0.0
 24
0.0
 34
0.0
 15
0.0
 25
0.0
 35
0.0
146
0.0
 13
0.0
 23
0.0
 33
0.0
 16
1.0
 26
0.0
 36
0.0
 17
0.0
 27
1.0
 37
0.0
 76
     0
330
2
  0
MLINESTYLE
  5
27
102
{ACAD_REACTORS
330
22
102
}
330
22
100
AcDbMlineStyle
  2
STANDARD
 70
     0
  3

 62
   256
 51
90.0
 52
90.0
 71
     2
 49
0.5
 62
   256
  6
BYLAYER
 49
-0.5
 62
   256
  6
BYLAYER
  0
ACDBPLACEHOLDER
  5
6
102
{ACAD_REACTORS
330
7
102
}
330
7
  0
TABLESTYLE
  5
28
102
{ACAD_REACTORS
330
26
102
}
330
26
100
AcDbTableStyle
  3
Standard
 70
     0
 71
     0
 40
0.06
 41
0.06
280
     0
281
     0
  7
Standard
140
0.18
170
     2
 62
     0
 63
     7
283
     0
274
    -2
284
     1
 64
     0
275
    -2
285
     1
 65
     0
276
    -2
286
     1
 66
     0
277
    -2
287
     1
 67
     0
278
    -2
288
     1
 68
     0
279
    -2
289
     1
 69
     0
  7
Standard
140
0.25
170
     5
 62
     0
 63
     7
283
     0
274
    -2
284
     1
 64
     0
275
    -2
285
     1
 65
     0
276
    -2
286
     1
 66
     0
277
    -2
287
     1
 67
     0
278
    -2
288
     1
 68
     0
279
    -2
289
     1
 69
     0
  7
Standard
140
0.18
170
     5
 62
     0
 63
     7
283
     0
274
    -2
284
     1
 64
     0
275
    -2
285
     1
 65
     0
276
    -2
286
     1
 66
     0
277
    -2
287
     1
 67
     0
278
    -2
288
     1
 68
     0
279
    -2
289
     1
 69
     0
  0
DICTIONARYVAR
  5
3D9
102
{ACAD_REACTORS
330
3D8
102
}
330
3D8
100
DictionaryVariables
280
     0
  1
STANDARD
  0
DICTIONARYVAR
  5
3DB
102
{ACAD_REACTORS
330
3D8
102
}
330
3D8
100
DictionaryVariables
280
     0
  1
1
  0
DICTIONARYVAR
  5
3DA
102
{ACAD_REACTORS
330
3D8
102
}
330
3D8
100
DictionaryVariables
280
     0
  1
1
  0
DICTIONARYVAR
  5
4F9
102
{ACAD_REACTORS
330
3D8
102
}
330
3D8
100
DictionaryVariables
280
     0
  1
1
  0
DICTIONARYVAR
  5
3DC
102
{ACAD_REACTORS
330
3D8
102
}
330
3D8
100
DictionaryVariables
280
     0
  1

  0
DICTIONARY
  5
4B3
102
{ACAD_REACTORS
330
4A4
102
}
330
4A4
100
AcDbDictionary
281
     1
  0
XRECORD
  5
4D1
102
{ACAD_REACTORS
330
4A4
102
}
330
4A4
100
AcDbXrecord
280
     1
 90
-1023410169
  0
DICTIONARY
  5
3E7
102
{ACAD_REACTORS
330
3E6
102
}
330
3E6
100
AcDbDictionary
281
     1
  3
DWGSETTINGS
350
3E8
  3
TRANSSETTINGS
350
3EC
  0
ACAMGFILTERDAT
  5
4EC
102
{ACAD_REACTORS
330
4E7
102
}
330
4E7
100
AcAmgFilterDat
 70
    15
  1
DIMENSION,AMDT_*_DIM
  2
*
  3
*
  4
*
  5
*
290
     1
  0
ACAMGFILTERDAT
  5
4EB
102
{ACAD_REACTORS
330
4E7
102
}
330
4E7
100
AcAmgFilterDat
 70
    15
  1
*
  2
AM_FEA-AM_*
  3
*
  4
*
  5
*
290
     1
  0
ACAMGFILTERDAT
  5
4E8
102
{ACAD_REACTORS
330
4E7
102
}
330
4E7
100
AcAmgFilterDat
 70
    15
  1
HATCH
  2
*
  3
*
  4
*
  5
*
290
     1
  0
ACAMGFILTERDAT
  5
4E9
102
{ACAD_REACTORS
330
4E7
102
}
330
4E7
100
AcAmgFilterDat
 70
    15
  1
LINE
  2
8,8N,*-8,*-8N,AM_8,AM_8N,*-AM_8,*-AM_8N
  3
*
  4
*
  5
INSERT,STDPART2D
290
     1
  0
ACAMGFILTERDAT
  5
4ED
102
{ACAD_REACTORS
330
4E7
102
}
330
4E7
100
AcAmgFilterDat
 70
    15
  1
ARC
  2
AM_5
  3
*
  4
2
  5
INSERT
290
     0
  0
ACAMGFILTERDAT
  5
4EA
102
{ACAD_REACTORS
330
4E7
102
}
330
4E7
100
AcAmgFilterDat
 70
    15
  1
ACMFCFRAME,ACMDATUMTARGET,ACMDATUMID,ACMWELDSYM,ACMSURFSYM,ACMFEATID,ACMPARTREF,ACMBALLOON,AMDTEDGESYM,AMGSCREWCALCTABLE
  2
*
  3
*
  4
*
  5
*
290
     1
  0
LAYER_INDEX
  5
4F0
102
{ACAD_REACTORS
330
4EF
102
}
330
4EF
100
AcDbIndex
 40
2453936.548895834
100
AcDbLayerIndex
  8
0
360
4F1
 90
       41
  8
DEFPOINTS
360
4F2
 90
        0
  8
AM_VIS
360
4F3
 90
      320
  8
AM_HID
360
4F4
 90
      108
  8
CENTER
360
4F5
 90
        1
  8
PHANTOM
360
4F6
 90
        4
  8
10
360
4F7
 90
      109
  8
DIMENSION
360
4F8
 90
        1
  0
DICTIONARY
  5
4FF
330
10
100
AcDbDictionary
280
     1
281
     1
  3
ACAD_XREC_ROUNDTRIP
360
500
  0
DICTIONARY
  5
4FD
330
B
100
AcDbDictionary
280
     1
281
     1
  3
ACAD_XREC_ROUNDTRIP
360
4FE
  0
IDBUFFER
  5
4F1
330
0
100
AcDbIdBuffer
330
141
330
14F
330
15D
330
16B
330
16C
330
16D
330
16E
330
16F
330
170
330
171
330
172
330
180
330
18E
330
19C
330
1AA
330
1B8
330
1C4
330
1D2
330
1E0
330
1E1
330
1E2
330
1F0
330
1FE
330
20C
330
21A
330
29
330
2E
330
33
330
38
330
3D
330
42
330
47
330
4C
330
110
330
11F
330
120
330
122
330
123
330
124
330
125
330
133
  0
IDBUFFER
  5
4F2
330
0
100
AcDbIdBuffer
  0
IDBUFFER
  5
4F3
330
0
100
AcDbIdBuffer
330
35F
330
360
330
361
330
362
330
363
330
364
330
365
330
366
330
367
330
368
330
369
330
36A
330
36B
330
36C
330
36D
330
36E
330
36F
330
370
330
371
330
372
330
373
330
374
330
375
330
376
330
377
330
378
330
379
330
37A
330
37B
330
37C
330
37D
330
37E
330
37F
330
380
330
381
330
382
330
384
330
385
330
386
330
388
330
389
330
38B
330
38C
330
38D
330
395
330
396
330
397
330
398
330
39A
330
39C
330
39D
330
39E
330
39F
330
3A1
330
3A4
330
3A5
330
3A7
330
3A8
330
3A9
330
3AA
330
3AB
330
3AC
330
3AD
330
3AE
330
3AF
330
3B1
330
3B3
330
3B5
330
3BA
330
3BD
330
3BF
330
3C0
330
3C1
330
3CB
330
3CC
330
3CD
330
3CE
330
3CF
330
3D0
330
3D3
330
228
330
22A
330
22B
330
22C
330
22D
330
22E
330
22F
330
230
330
231
330
232
330
233
330
234
330
235
330
236
330
237
330
238
330
239
330
23A
330
23B
330
23C
330
23D
330
23E
330
23F
330
240
330
241
330
242
330
243
330
244
330
245
330
246
330
247
330
24F
330
250
330
251
330
252
330
253
330
254
330
255
330
256
330
257
330
25F
330
260
330
263
330
264
330
266
330
267
330
268
330
26B
330
26C
330
26D
330
270
330
271
330
272
330
273
330
274
330
275
330
276
330
277
330
278
330
279
330
27A
330
27B
330
27C
330
27D
330
27E
330
27F
330
280
330
281
330
282
330
283
330
284
330
285
330
286
330
287
330
288
330
289
330
28A
330
28B
330
28C
330
298
330
29B
330
29D
330
29E
330
29F
330
2A2
330
2A3
330
2A4
330
2A5
330
2A6
330
2A7
330
2A9
330
2AA
330
2AC
330
2AD
330
2AE
330
2B6
330
2B7
330
2B8
330
2B9
330
2BB
330
2BD
330
2BE
330
2BF
330
2C0
330
2C1
330
2C2
330
2C4
330
2C5
330
2C7
330
2C8
330
2C9
330
2CA
330
2CB
330
2CC
330
2CD
330
2CE
330
2CF
330
2D0
330
2D2
330
2D5
330
2D6
330
2D7
330
2D8
330
2DA
330
2DD
330
2DE
330
2DF
330
2E9
330
2EA
330
2EB
330
2EC
330
2ED
330
2EE
330
2F1
330
2F2
330
2F6
330
2F7
330
2F8
330
2F9
330
2FA
330
2FB
330
2FC
330
2FD
330
2FE
330
2FF
330
300
330
301
330
302
330
303
330
304
330
305
330
306
330
307
330
308
330
309
330
30A
330
30B
330
30C
330
30D
330
30E
330
30F
330
310
330
311
330
312
330
313
330
314
330
315
330
316
330
317
330
318
330
319
330
31A
330
31B
330
31C
330
31D
330
31E
330
31F
330
320
330
321
330
322
330
323
330
324
330
325
330
326
330
327
330
328
330
329
330
32A
330
32B
330
32C
330
32D
330
32E
330
32F
330
330
330
331
330
332
330
333
330
334
330
335
330
336
330
337
330
338
330
339
330
33A
330
33B
330
33C
330
33D
330
33E
330
33F
330
340
330
341
330
342
330
343
330
344
330
345
330
346
330
347
330
348
330
349
330
34A
330
34B
330
34C
330
34D
330
34E
330
34F
330
350
330
351
330
352
330
353
330
354
330
355
330
356
330
357
330
358
330
359
330
35A
330
35B
330
35C
330
35D
330
35E
  0
IDBUFFER
  5
4F4
330
0
100
AcDbIdBuffer
330
2D1
330
2D3
330
2D4
330
2D9
330
2DB
330
2DC
330
2E0
330
2E1
330
2E2
330
2E3
330
2E4
330
2E5
330
2E6
330
2E7
330
2E8
330
2EF
330
2F0
330
2F3
330
2F4
330
2F5
330
383
330
387
330
38A
330
38E
330
38F
330
390
330
391
330
392
330
393
330
394
330
399
330
39B
330
3A0
330
3A2
330
3A3
330
3A6
330
3B0
330
3B2
330
3B4
330
3B6
330
3B7
330
3B8
330
3B9
330
3BB
330
3BC
330
3BE
330
3C2
330
3C3
330
3C4
330
3C5
330
3C6
330
3C7
330
3C8
330
3C9
330
3CA
330
3D1
330
3D2
330
3D4
330
3D5
330
3D6
330
248
330
24B
330
24C
330
24D
330
24E
330
258
330
259
330
25A
330
25B
330
25C
330
25D
330
25E
330
261
330
262
330
265
330
269
330
26A
330
26E
330
26F
330
28D
330
28E
330
28F
330
290
330
291
330
292
330
293
330
294
330
295
330
296
330
297
330
299
330
29A
330
29C
330
2A0
330
2A1
330
2A8
330
2AB
330
2AF
330
2B0
330
2B1
330
2B2
330
2B3
330
2B4
330
2B5
330
2BA
330
2BC
330
2C3
330
2C6
  0
IDBUFFER
  5
4F5
330
0
100
AcDbIdBuffer
330
54
  0
IDBUFFER
  5
4F6
330
0
100
AcDbIdBuffer
330
51
330
56
330
57
330
58
  0
IDBUFFER
  5
4F7
330
0
100
AcDbIdBuffer
330
CD
330
CE
330
CF
330
D0
330
D7
330
D8
330
D9
330
DA
330
DB
330
DC
330
DD
330
DE
330
DF
330
E0
330
E1
330
E2
330
E3
330
E4
330
E5
330
E6
330
E7
330
E8
330
E9
330
EA
330
EB
330
EC
330
ED
330
EE
330
EF
330
F0
330
F1
330
F2
330
F3
330
F4
330
F5
330
F6
330
F7
330
F8
330
F9
330
FA
330
FB
330
FC
330
FD
330
FE
330
FF
330
100
330
101
330
102
330
103
330
104
330
105
330
106
330
107
330
108
330
109
330
10A
330
10B
330
10C
330
10D
330
10E
330
10F
330
59
330
5B
330
5C
330
5D
330
5E
330
5F
330
60
330
61
330
62
330
A6
330
A7
330
A8
330
A9
330
AA
330
AB
330
AC
330
AD
330
AE
330
AF
330
B0
330
B1
330
B2
330
B3
330
B4
330
B5
330
B6
330
B7
330
B8
330
B9
330
BA
330
BB
330
BC
330
BD
330
BE
330
BF
330
C0
330
C1
330
C2
330
C3
330
C4
330
C5
330
C6
330
C7
330
C8
330
C9
330
CA
330
CB
330
CC
  0
IDBUFFER
  5
4F8
330
0
100
AcDbIdBuffer
330
D1
  0
XRECORD
  5
500
102
{ACAD_REACTORS
330
4FF
102
}
330
4FF
100
AcDbXrecord
280
     1
102
SHADEPLOT
 70
     0
102
SHADEPLOTRESLEVEL
 70
     2
102
SHADEPLOTCUSTOMDPI
 70
   300
  0
XRECORD
  5
4FE
102
{ACAD_REACTORS
330
4FD
102
}
330
4FD
100
AcDbXrecord
280
     1
102
SHADEPLOT
 70
     0
102
SHADEPLOTRESLEVEL
 70
     2
102
SHADEPLOTCUSTOMDPI
 70
   300
  0
ENDSEC
  0
EOF
