  0
SECTION
  2
HEADER
  9
$ACADVER
  1
AC1015
  9
$ACADMAINTVER
 70
    14
  9
$DWGCODEPAGE
  3
ANSI_1252
  9
$INSBASE
 10
0.0
 20
0.0
 30
0.0
  9
$EXTMIN
 10
1.000000000000000E+20
 20
1.000000000000000E+20
 30
1.000000000000000E+20
  9
$EXTMAX
 10
-1.000000000000000E+20
 20
-1.000000000000000E+20
 30
-1.000000000000000E+20
  9
$LIMMIN
 10
0.0
 20
0.0
  9
$LIMMAX
 10
12.0
 20
9.0
  9
$ORTHOMODE
 70
     0
  9
$REGENMODE
 70
     1
  9
$FILLMODE
 70
     1
  9
$QTEXTMODE
 70
     0
  9
$MIRRTEXT
 70
     1
  9
$LTSCALE
 40
1.0
  9
$ATTMODE
 70
     1
  9
$TEXTSIZE
 40
0.2
  9
$TRACEWID
 40
0.05
  9
$TEXTSTYLE
  7
STANDARD
  9
$CLAYER
  8
STD10004-H38
  9
$CELTYPE
  6
ByLayer
  9
$CECOLOR
 62
     1
  9
$CELTSCALE
 40
1.0
  9
$DISPSILH
 70
     0
  9
$DIMSCALE
 40
1.0
  9
$DIMASZ
 40
0.125
  9
$DIMEXO
 40
0.0625
  9
$DIMDLI
 40
0.38
  9
$DIMRND
 40
0.0
  9
$DIMDLE
 40
0.0
  9
$DIMEXE
 40
0.0625
  9
$DIMTP
 40
0.0
  9
$DIMTM
 40
0.0
  9
$DIMTXT
 40
0.125
  9
$DIMCEN
 40
0.09
  9
$DIMTSZ
 40
0.0
  9
$DIMTOL
 70
     0
  9
$DIMLIM
 70
     0
  9
$DIMTIH
 70
     1
  9
$DIMTOH
 70
     1
  9
$DIMSE1
 70
     0
  9
$DIMSE2
 70
     0
  9
$DIMTAD
 70
     0
  9
$DIMZIN
 70
     0
  9
$DIMBLK
  1

  9
$DIMASO
 70
     1
  9
$DIMSHO
 70
     0
  9
$DIMPOST
  1

  9
$DIMAPOST
  1

  9
$DIMALT
 70
     0
  9
$DIMALTD
 70
     2
  9
$DIMALTF
 40
25.4
  9
$DIMLFAC
 40
1.0
  9
$DIMTOFL
 70
     0
  9
$DIMTVP
 40
0.0
  9
$DIMTIX
 70
     0
  9
$DIMSOXD
 70
     0
  9
$DIMSAH
 70
     0
  9
$DIMBLK1
  1

  9
$DIMBLK2
  1

  9
$DIMSTYLE
  2
Standard
  9
$DIMCLRD
 70
     0
  9
$DIMCLRE
 70
     0
  9
$DIMCLRT
 70
     0
  9
$DIMTFAC
 40
1.0
  9
$DIMGAP
 40
0.09
  9
$DIMJUST
 70
     0
  9
$DIMSD1
 70
     0
  9
$DIMSD2
 70
     0
  9
$DIMTOLJ
 70
     1
  9
$DIMTZIN
 70
     0
  9
$DIMALTZ
 70
     0
  9
$DIMALTTZ
 70
     0
  9
$DIMUPT
 70
     1
  9
$DIMDEC
 70
     4
  9
$DIMTDEC
 70
     4
  9
$DIMALTU
 70
     2
  9
$DIMALTTD
 70
     2
  9
$DIMTXSTY
  7
STANDARD
  9
$DIMAUNIT
 70
     0
  9
$DIMADEC
 70
     0
  9
$DIMALTRND
 40
0.0
  9
$DIMAZIN
 70
     0
  9
$DIMDSEP
 70
    46
  9
$DIMATFIT
 70
     3
  9
$DIMFRAC
 70
     0
  9
$DIMLDRBLK
  1

  9
$DIMLUNIT
 70
     5
  9
$DIMLWD
 70
    -2
  9
$DIMLWE
 70
    -2
  9
$DIMTMOVE
 70
     0
  9
$LUNITS
 70
     2
  9
$LUPREC
 70
     4
  9
$SKETCHINC
 40
0.1
  9
$FILLETRAD
 40
0.094
  9
$AUNITS
 70
     0
  9
$AUPREC
 70
     0
  9
$MENU
  1
ACAD
  9
$ELEVATION
 40
0.0
  9
$PELEVATION
 40
0.0
  9
$THICKNESS
 40
0.0
  9
$LIMCHECK
 70
     0
  9
$CHAMFERA
 40
0.0
  9
$CHAMFERB
 40
0.0
  9
$CHAMFERC
 40
0.0
  9
$CHAMFERD
 40
0.0
  9
$SKPOLY
 70
     0
  9
$TDCREATE
 40
2449283.463960185
  9
$TDUCREATE
 40
2449283.630626851
  9
$TDUPDATE
 40
2452558.635650671
  9
$TDUUPDATE
 40
2452558.802317338
  9
$TDINDWG
 40
0.2852690856
  9
$TDUSRTIMER
 40
0.2852690856
  9
$USRTIMER
 70
     1
  9
$ANGBASE
 50
0.0
  9
$ANGDIR
 70
     0
  9
$PDMODE
 70
     0
  9
$PDSIZE
 40
0.0
  9
$PLINEWID
 40
0.0
  9
$SPLFRAME
 70
     0
  9
$SPLINETYPE
 70
     6
  9
$SPLINESEGS
 70
     8
  9
$HANDSEED
  5
504
  9
$SURFTAB1
 70
     6
  9
$SURFTAB2
 70
     6
  9
$SURFTYPE
 70
     6
  9
$SURFU
 70
     6
  9
$SURFV
 70
     6
  9
$UCSBASE
  2

  9
$UCSNAME
  2

  9
$UCSORG
 10
0.0
 20
0.0
 30
0.0
  9
$UCSXDIR
 10
1.0
 20
0.0
 30
0.0
  9
$UCSYDIR
 10
0.0
 20
1.0
 30
0.0
  9
$UCSORTHOREF
  2

  9
$UCSORTHOVIEW
 70
     0
  9
$UCSORGTOP
 10
0.0
 20
0.0
 30
0.0
  9
$UCSORGBOTTOM
 10
0.0
 20
0.0
 30
0.0
  9
$UCSORGLEFT
 10
0.0
 20
0.0
 30
0.0
  9
$UCSORGRIGHT
 10
0.0
 20
0.0
 30
0.0
  9
$UCSORGFRONT
 10
0.0
 20
0.0
 30
0.0
  9
$UCSORGBACK
 10
0.0
 20
0.0
 30
0.0
  9
$PUCSBASE
  2

  9
$PUCSNAME
  2

  9
$PUCSORG
 10
0.0
 20
0.0
 30
0.0
  9
$PUCSXDIR
 10
1.0
 20
0.0
 30
0.0
  9
$PUCSYDIR
 10
0.0
 20
1.0
 30
0.0
  9
$PUCSORTHOREF
  2

  9
$PUCSORTHOVIEW
 70
     0
  9
$PUCSORGTOP
 10
0.0
 20
0.0
 30
0.0
  9
$PUCSORGBOTTOM
 10
0.0
 20
0.0
 30
0.0
  9
$PUCSORGLEFT
 10
0.0
 20
0.0
 30
0.0
  9
$PUCSORGRIGHT
 10
0.0
 20
0.0
 30
0.0
  9
$PUCSORGFRONT
 10
0.0
 20
0.0
 30
0.0
  9
$PUCSORGBACK
 10
0.0
 20
0.0
 30
0.0
  9
$USERI1
 70
     0
  9
$USERI2
 70
     0
  9
$USERI3
 70
     0
  9
$USERI4
 70
     0
  9
$USERI5
 70
     0
  9
$USERR1
 40
0.0
  9
$USERR2
 40
0.0
  9
$USERR3
 40
0.0
  9
$USERR4
 40
0.0
  9
$USERR5
 40
0.0
  9
$WORLDVIEW
 70
     1
  9
$SHADEDGE
 70
     3
  9
$SHADEDIF
 70
    70
  9
$TILEMODE
 70
     0
  9
$MAXACTVP
 70
    64
  9
$PINSBASE
 10
0.0
 20
0.0
 30
0.0
  9
$PLIMCHECK
 70
     0
  9
$PEXTMIN
 10
-0.1919956172655901
 20
-0.6628038335637747
 30
-0.0000069581527042
  9
$PEXTMAX
 10
16.80916268758764
 20
10.33809643383735
 30
0.0000281391902106
  9
$PLIMMIN
 10
-0.1966666612099475
 20
-0.6666661810687208
  9
$PLIMMAX
 10
16.79999995419359
 20
10.32666656914658
  9
$UNITMODE
 70
     0
  9
$VISRETAIN
 70
     1
  9
$PLINEGEN
 70
     0
  9
$PSLTSCALE
 70
     0
  9
$TREEDEPTH
 70
  3020
  9
$CMLSTYLE
  2
Standard
  9
$CMLJUST
 70
     0
  9
$CMLSCALE
 40
1.0
  9
$PROXYGRAPHICS
 70
     1
  9
$MEASUREMENT
 70
     0
  9
$CELWEIGHT
370
    -1
  9
$ENDCAPS
280
     0
  9
$JOINSTYLE
280
     0
  9
$LWDISPLAY
290
     0
  9
$INSUNITS
 70
     0
  9
$HYPERLINKBASE
  1

  9
$STYLESHEET
  1

  9
$XEDIT
290
     1
  9
$CEPSNTYPE
380
     0
  9
$PSTYLEMODE
290
     1
  9
$FINGERPRINTGUID
  2
{3BDFE3BE-696C-11D4-9FC8-005004B2D6C8}
  9
$VERSIONGUID
  2
{A789D5DB-DC72-11D6-A0E2-005004B2D6C8}
  9
$EXTNAMES
290
     1
  9
$PSVPSCALE
 40
0.0
  9
$OLESTARTUP
290
     0
  0
ENDSEC
  0
SECTION
  2
CLASSES
  0
CLASS
  1
ACDBDICTIONARYWDFLT
  2
AcDbDictionaryWithDefault
  3
AutoCAD 2000
 90
        0
280
     0
281
     0
  0
CLASS
  1
ACDBPLACEHOLDER
  2
AcDbPlaceHolder
  3
AutoCAD 2000
 90
        0
280
     0
281
     0
  0
CLASS
  1
LAYOUT
  2
AcDbLayout
  3
AutoCAD 2000
 90
        0
280
     0
281
     0
  0
CLASS
  1
ACME_DOCUMENT
  2
AcMeDbDoc
  3
AcMeServices
 90
        0
280
     0
281
     0
  0
CLASS
  1
ACMESCOPE
  2
AcMeScope
  3
AcMeServices
 90
        0
280
     0
281
     0
  0
CLASS
  1
ACMECOMMANDHISTORY
  2
AcMeCommandHistory
  3
AcMeServices
 90
        0
280
     0
281
     0
  0
CLASS
  1
DICTIONARYVAR
  2
AcDbDictionaryVar
  3
AutoCAD 2000
 90
        0
280
     0
281
     0
  0
CLASS
  1
ACIMSYSVARMAN
  2
AcImSysVarManager
  3
AcMeServices
 90
        0
280
     0
281
     0
  0
CLASS
  1
ACIMREALSYSVAR
  2
AcImRealSysVar
  3
AcMeServices
 90
        0
280
     0
281
     0
  0
CLASS
  1
ACIMINTSYSVAR
  2
AcImIntSysVar
  3
AcMeServices
 90
        0
280
     0
281
     0
  0
CLASS
  1
ACMEDRAWINGMAN
  2
AcMeDrawingMan
  3
AcMeServices
 90
        0
280
     0
281
     0
  0
CLASS
  1
ACMEVIEW
  2
AcMeView
  3
AcMeServices
 90
        0
280
     0
281
     0
  0
CLASS
  1
ACDBENTITYCACHE
  2
AcMeEntityCache
  3
AcMeServices
 90
        0
280
     0
281
     0
  0
CLASS
  1
GSMANAGER
  2
AcMeGSManager
  3
AcMeServices
 90
        0
280
     0
281
     0
  0
CLASS
  1
AMDTINTERNALREACTOR
  2
AmdtInternalReactor
  3
AcMeServices
 90
        0
280
     0
281
     0
  0
CLASS
  1
ACMESTATEMGR
  2
AcMeStateMgr
  3
AcMeServices
 90
        0
280
     0
281
     0
  0
CLASS
  1
ACGREFMASTER
  2
AcGrefMaster
  3
AcAttribServices
 90
        0
280
     0
281
     0
  0
CLASS
  1
AM_DRAWING_MGR
  2
AcDmDwgMgr
  3
AcMechDwgViewMgmt
 90
        0
280
     0
281
     0
  0
CLASS
  1
AM_DWG_DOCUMENT
  2
AcDmDwgDocument
  3
AcMechDwgViewMgmt
 90
        0
280
     0
281
     0
  0
CLASS
  1
AM_DWG_SHEET
  2
AcDmSheet
  3
AcMechDwgViewMgmt
 90
        0
280
     0
281
     0
  0
CLASS
  1
AM_VIEWDIMPARMAP
  2
AcDmViewDimParMap
  3
AcMechDwgViewMgmt
 90
        0
280
     0
281
     0
  0
CLASS
  1
AM_DWGMGR_NAME
  2
AcDmDwgMgrName
  3
AcMechDwgViewMgmt
 90
        0
280
     0
281
     0
  0
CLASS
  1
ACME_DATABASE
  2
AcMeDbDatabase
  3
AcMeServices
 90
        0
280
     0
281
     0
  0
CLASS
  1
ACRFINSADJUSTERMGR
  2
AcRfInsAdjusterMgr
  3
AcMeServices
 90
        0
280
     0
281
     0
  0
CLASS
  1
ACGREFACADMASTER
  2
AcGrefacadMaster
  3
AcGrefServices
 90
        0
280
     0
281
     0
  0
CLASS
  1
AMDTMENUSTATEMGR
  2
AmdtMenuStateMgr
  3
McadcomServices
 90
        0
280
     0
281
     0
  0
CLASS
  1
AMDTMCOMMENUSTATE
  2
AmdtMcomMenuState
  3
McadcomServices
 90
        0
280
     0
281
     0
  0
CLASS
  1
ASAPP
  2
AcAsAppObject
  3
AutoSurfServices
 90
        0
280
     0
281
     0
  0
CLASS
  1
IM_STATIC_MAN
  2
AcImStaticVarManager
  3
AcMeServices
 90
        0
280
     0
281
     0
  0
CLASS
  1
ACIMSTRSYSVAR
  2
AcImStrSysVar
  3
AcMeServices
 90
        0
280
     0
281
     0
  0
CLASS
  1
ACIMDBLSTATICVAR
  2
AcImDblStaticVar
  3
AcMeServices
 90
        0
280
     0
281
     0
  0
CLASS
  1
ACIMSTRSTATICVAR
  2
AcImStrStaticVar
  3
AcMeServices
 90
        0
280
     0
281
     0
  0
CLASS
  1
ACIMINTSTATICVAR
  2
AcImIntStaticVar
  3
AcMeServices
 90
        0
280
     0
281
     0
  0
CLASS
  1
ACADGREFMODULE
  2
AcAdGrefModule
  3
AdGrefServices
 90
        0
280
     0
281
     0
  0
CLASS
  1
AMIMASTER
  2
AmiMaster
  3
AmiServices
 90
        0
280
     0
281
     0
  0
CLASS
  1
ACASGREFMASTER
  2
AcAsGrefMaster
  3
AutoSurfResolverServices
 90
        0
280
     0
281
     0
  0
CLASS
  1
MAPIAMMOUDLE
  2
MApiAmModule
  3
MApiAmServices
 90
        0
280
     0
281
     0
  0
CLASS
  1
AMDTDMMENUSTATE
  2
AmdtDmMenuState
  3
AcMechDwgViewMgmt
 90
        0
280
     0
281
     0
  0
CLASS
  1
AMDTADMENUSTATE
  2
AmdtAdMenuState
  3
DesignerServices
 90
        0
280
     0
281
     0
  0
CLASS
  1
ADAPPL
  2
AcAdAppl
  3
DesignerServices
 90
        0
280
     0
281
     0
  0
CLASS
  1
DEPMGR
  2
AcAdDepMgr
  3
DesignerServices
 90
        0
280
     0
281
     0
  0
CLASS
  1
PARAMMGR
  2
AcAdParamMgr
  3
DesignerServices
 90
        0
280
     0
281
     0
  0
CLASS
  1
PARAMSCOPE
  2
AcAdParamScope
  3
DesignerServices
 90
        0
280
     0
281
     0
  0
CLASS
  1
NAMEDAPPL
  2
AcAdNamedAppl
  3
DesignerServices
 90
        0
280
     0
281
     0
  0
CLASS
  1
ADHNTMPLT
  2
AdHoleNoteTemplateMgr
  3
DesignerServices
 90
    32768
280
     0
281
     0
  0
CLASS
  1
AM_HNTEMPLATE_MGR_NAME
  2
AdHoleNoteTemplateMgrName
  3
DesignerServices
 90
    32768
280
     0
281
     0
  0
CLASS
  1
AMDTAMMENUSTATE
  2
AmdtAmMenuState
  3
DesignerAssemblies
 90
        0
280
     0
281
     0
  0
CLASS
  1
ACAMPROJECT
  2
AcAmProject
  3
DesignerAssemblies
 90
        0
280
     0
281
     0
  0
CLASS
  1
ACAMGRCOMPDEF
  2
AcAmGrCompDef
  3
DesignerAssemblies
 90
        0
280
     0
281
     0
  0
CLASS
  1
ACCMCONTEXT
  2
AcCmContext
  3
DesignerAssemblies
 90
        0
280
     0
281
     0
  0
CLASS
  1
ACAMCOMPDEF
  2
AcAmCompDef
  3
DesignerAssemblies
 90
        0
280
     0
281
     0
  0
CLASS
  1
ACAMCOMPDEFMGR
  2
AcAmCompDefMgr
  3
DesignerAssemblies
 90
        0
280
     0
281
     0
  0
CLASS
  1
AMCONTEXTMGR
  2
AcAmContextMgr
  3
DesignerAssemblies
 90
        0
280
     0
281
     0
  0
CLASS
  1
ACAMCONTEXTMODELER
  2
AcAmContextModeler
  3
DesignerAssemblies
 90
        0
280
     0
281
     0
  0
CLASS
  1
MAPIADMODULE
  2
MApiAdModule
  3
MApiAdServices
 90
        0
280
     0
281
     0
  0
CLASS
  1
ACMDATADICTIONARY
  2
AcmDataDictionary
  3
"AcmSymBB|Product Description: AutoCAD Mechanical 2000|Company: Autodesk"
 90
        0
280
     0
281
     0
  0
CLASS
  1
ACMDATAENTRYBLOCK
  2
AcmDataEntryBlock
  3
"AcmSymBB|Product Description: AutoCAD Mechanical 2000|Company: Autodesk"
 90
        0
280
     0
281
     0
  0
CLASS
  1
AMDTBROWSERDBTAB
  2
AmdtBrowserDbTab
  3
McadcomServices
 90
        0
280
     0
281
     0
  0
CLASS
  1
CBROWSERAPPOBJECT
  2
CBrowserAppObject
  3
McadcomServices
 90
        0
280
     0
281
     0
  0
CLASS
  1
DM_PLACEHOLDER
  2
AcDmSelsetPlaceholder
  3
AcMechDwgViewMgmt
 90
        0
280
     0
281
     0
  0
CLASS
  1
CATALOGSTATE
  2
AcAmCatalogState
  3
DesignerAssemblies
 90
        0
280
     0
281
     0
  0
CLASS
  1
ACAMGRCOMPDEFSET
  2
AcAmGrCompDefSet
  3
DesignerAssemblies
 90
        0
280
     0
281
     0
  0
CLASS
  1
AMGOBJPROPCFG
  2
AmgObjPropCfg
  3
"AmgLay|Product Description: AutoCAD Mechanical 2000|Company: Autodesk"
 90
        1
280
     0
281
     0
  0
CLASS
  1
LAYER_INDEX
  2
AcDbLayerIndex
  3
AutoCAD 2000
 90
        0
280
     0
281
     0
  0
CLASS
  1
IDBUFFER
  2
AcDbIdBuffer
  3
AutoCAD 2000
 90
        0
280
     0
281
     0
  0
CLASS
  1
ADPART
  2
AcAdPart
  3
DesignerServices
 90
    32768
280
     0
281
     1
  0
CLASS
  1
ADBASE
  2
AcAdBase
  3
DesignerServices
 90
    32768
280
     0
281
     0
  0
CLASS
  1
BODYID
  2
AcAdBodyId
  3
DesignerServices
 90
    32768
280
     0
281
     0
  0
CLASS
  1
WORKPLANEDISPLAYMGR
  2
AcAdDisplayMgr
  3
DesignerServices
 90
    32768
280
     0
281
     0
  0
CLASS
  1
ACCMBODY
  2
AcCmBody
  3
DesignerAssemblies
 90
    32768
280
     0
281
     0
  0
CLASS
  1
ACAMCOMPENT
  2
AcAmCompEnt
  3
DesignerAssemblies
 90
    32768
280
     0
281
     1
  0
CLASS
  1
ACAMCOMPFEEDBACK
  2
AcAmCompFeedback
  3
DesignerAssemblies
 90
    32768
280
     0
281
     0
  0
CLASS
  1
ACAMCOMP
  2
AcAmComp
  3
DesignerAssemblies
 90
    32768
280
     0
281
     0
  0
CLASS
  1
ACAMCOMPENTCLONE
  2
AcAmCompEntClone
  3
DesignerAssemblies
 90
    32768
280
     0
281
     1
  0
CLASS
  1
ACAMCLONEREACTOR
  2
AcAmGrCompCloneReactor
  3
DesignerAssemblies
 90
    32768
280
     0
281
     0
  0
CLASS
  1
ADDATUMPLANEABS
  2
AcAdDatumPlaneAbs
  3
DesignerServices
 90
    32768
280
     0
281
     0
  0
CLASS
  1
ADDATUMAXISABS
  2
AcAdDatumAxisAbs
  3
DesignerServices
 90
    32768
280
     0
281
     0
  0
CLASS
  1
ADDATUMORIENTEDPLANE
  2
AcAdDatumOrientedPlane
  3
DesignerServices
 90
    32768
280
     0
281
     0
  0
CLASS
  1
ACAD_LINE
  2
AcAdLine
  3
DesignerServices
 90
    32768
280
     0
281
     1
  0
CLASS
  1
ACADLINEACAD
  2
AcAdVirtualBoundedLineAcad
  3
DesignerServices
 90
    32768
280
     0
281
     0
  0
CLASS
  1
ACAD_ARC
  2
AcAdArc
  3
DesignerServices
 90
    32768
280
     0
281
     1
  0
CLASS
  1
ACADARCACAD
  2
AcAdVirtualArcAcad
  3
DesignerServices
 90
    32768
280
     0
281
     0
  0
CLASS
  1
ACADREFLINEACAD
  2
AcAdVirtualReferenceLine
  3
DesignerServices
 90
    32768
280
     0
281
     0
  0
CLASS
  1
ACADCONSLINE
  2
AcAdConstrainedLine
  3
DesignerServices
 90
    32768
280
     0
281
     0
  0
CLASS
  1
ACADCONSGROUP
  2
AcAdConstraintGroup
  3
DesignerServices
 90
    32768
280
     0
281
     0
  0
CLASS
  1
ACADCONSCIRCLE
  2
AcAdConstrainedCircle
  3
DesignerServices
 90
    32768
280
     0
281
     0
  0
CLASS
  1
ACADIMPPTACAD
  2
AcAdVirtualImplicitPoint
  3
DesignerServices
 90
    32768
280
     0
281
     0
  0
CLASS
  1
ACADCONSPOINT
  2
AcAdConstrainedPoint
  3
DesignerServices
 90
    32768
280
     0
281
     0
  0
CLASS
  1
ADPCURCNS
  2
AcAdPointCurveConstr
  3
DesignerServices
 90
    32768
280
     0
281
     0
  0
CLASS
  1
ADPROJCNS
  2
AcAdProjectionConstr
  3
DesignerServices
 90
    32768
280
     0
281
     0
  0
CLASS
  1
ADCTRPTCNS
  2
AcAdCenterPointConstr
  3
DesignerServices
 90
    32768
280
     0
281
     0
  0
CLASS
  1
ADHORCNS
  2
AcAdHorizontalConstr
  3
DesignerServices
 90
    32768
280
     0
281
     0
  0
CLASS
  1
ADVERCNS
  2
AcAdVerticalConstr
  3
DesignerServices
 90
    32768
280
     0
281
     0
  0
CLASS
  1
ADCOLNCNS
  2
AcAdColinearConstr
  3
DesignerServices
 90
    32768
280
     0
281
     0
  0
CLASS
  1
ADTANCNS
  2
AcAdTangentConstr
  3
DesignerServices
 90
    32768
280
     0
281
     0
  0
CLASS
  1
ADEQRADCNS
  2
AcAdEqualRadiusConstr
  3
DesignerServices
 90
    32768
280
     0
281
     0
  0
CLASS
  1
ADCLPROF2D
  2
AcAdClosedProfile2d
  3
DesignerServices
 90
    32768
280
     0
281
     0
  0
CLASS
  1
ACAD_FIXCONSTRAINT
  2
AcAdFixedConstraint
  3
DesignerServices
 90
    32768
280
     0
281
     0
  0
CLASS
  1
ACMELINEARARROW
  2
AcImLinearArrowDisplay
  3
AcMeServices
 90
    32768
280
     0
281
     1
  0
CLASS
  1
PARAM
  2
AcAdParam
  3
DesignerServices
 90
    32768
280
     0
281
     0
  0
CLASS
  1
ACADVOLFEATWITHTRIM
  2
AcAdVolFeatWithTrim
  3
DesignerServices
 90
    32768
280
     0
281
     0
  0
CLASS
  1
DEPEDGEFEATUREORDERING
  2
AcAdDepEdgeFeatureOrdering
  3
DesignerServices
 90
    32768
280
     0
281
     0
  0
CLASS
  1
ACAD_CIRCLE
  2
AcAdCircle
  3
DesignerServices
 90
    32768
280
     0
281
     1
  0
CLASS
  1
ACADCIRCLEACAD
  2
AcAdVirtualCircleAcad
  3
DesignerServices
 90
    32768
280
     0
281
     0
  0
CLASS
  1
ACAMEXTERNALCOMPDEF
  2
AcAmExternalCompDef
  3
DesignerAssemblies
 90
    32768
280
     0
281
     0
  0
CLASS
  1
ACMEROTATIONARROW
  2
AcImRotationArrowDisplay
  3
AcMeServices
 90
    32768
280
     0
281
     1
  0
CLASS
  1
EDGEID
  2
AcAdEdgeId
  3
DesignerServices
 90
    32768
280
     0
281
     0
  0
CLASS
  1
ADFILLET
  2
AcAdFillet
  3
DesignerServices
 90
    32768
280
     0
281
     0
  0
CLASS
  1
ADPLANEID
  2
AcAdPlaneId
  3
DesignerServices
 90
    32768
280
     0
281
     0
  0
CLASS
  1
ADDATUMPLANEFACE
  2
AcAdDatumPlaneFace
  3
DesignerServices
 90
    32768
280
     0
281
     0
  0
CLASS
  1
ACMEPLINE
  2
AcImPlineDisplay
  3
AcMeServices
 90
    32768
280
     0
281
     1
  0
CLASS
  1
ACAMGRBLOCKRECORD
  2
AcAmGrBlockRecord
  3
DesignerAssemblies
 90
    32768
280
     0
281
     0
  0
CLASS
  1
ACAMVIEWREACTOR
  2
AcAmViewReactor
  3
DesignerAssemblies
 90
    32768
280
     0
281
     0
  0
CLASS
  1
AMVIEW
  2
AcAmView
  3
DesignerAssemblies
 90
    32768
280
     0
281
     0
  0
CLASS
  1
ACAMVIEWCONTEXT
  2
AcAmViewContext
  3
DesignerAssemblies
 90
    32768
280
     0
281
     0
  0
CLASS
  1
ACAMCOMPVIEWREACTOR
  2
AcAmGrCompViewReactor
  3
DesignerAssemblies
 90
    32768
280
     0
281
     0
  0
CLASS
  1
ACAMCOMPENTVIEW
  2
AcAmCompEntView
  3
DesignerAssemblies
 90
    32768
280
     0
281
     1
  0
CLASS
  1
ACAMTRANSTWEAK
  2
AcAmTransTweak
  3
DesignerAssemblies
 90
    32768
280
     0
281
     0
  0
CLASS
  1
ACRFATTGENMGR
  2
AcRfAttGeneralMgr
  3
AcAttribServices
 90
    32768
280
     0
281
     0
  0
CLASS
  1
ACAMVIEWENTITYFILTER
  2
AcAmViewEntityFilter
  3
DesignerAssemblies
 90
    32768
280
     0
281
     0
  0
CLASS
  1
FACEID
  2
AcAdFaceId
  3
DesignerServices
 90
    32768
280
     0
281
     0
  0
CLASS
  1
ACADPARTPLANARFACERES
  2
AcAdPartPlanarFaceRes
  3
AdGrefServices
 90
    32768
280
     0
281
     0
  0
CLASS
  1
ACRFINSADJ
  2
AcRfInsAdjuster
  3
AcMeServices
 90
    32768
280
     0
281
     0
  0
CLASS
  1
AM_GREF_PLANE
  2
AcDmGrefPlnDef
  3
AcMechDwgViewMgmt
 90
    32768
280
     0
281
     0
  0
CLASS
  1
ACADPARTLINEDGRES
  2
AcAdPartLinEdgRes
  3
AdGrefServices
 90
    32768
280
     0
281
     0
  0
CLASS
  1
AM_GREF_AXIS
  2
AcDmGrefAxisDef
  3
AcMechDwgViewMgmt
 90
    32768
280
     0
281
     0
  0
CLASS
  1
AM_BASE_VIEW_ORIENT
  2
AcDmBaseViewOr
  3
AcMechDwgViewMgmt
 90
    32768
280
     0
281
     0
  0
CLASS
  1
AM_DWG_VIEWPORT
  2
AcDmViewport
  3
AcMechDwgViewMgmt
 90
    32768
280
     0
281
     0
  0
CLASS
  1
AM_VIEW_DISPLAY
  2
AcDmDwgViewDisplay
  3
AcMechDwgViewMgmt
 90
    32768
280
     0
281
     0
  0
CLASS
  1
AM_CLDFLTS
  2
AcDmClDflts
  3
AcMechDwgViewMgmt
 90
    32768
280
     0
281
     0
  0
CLASS
  1
AM_BASE_VIEW
  2
AcDmBaseView
  3
AcMechDwgViewMgmt
 90
    32768
280
     0
281
     0
  0
CLASS
  1
AM_ORTHO_VIEW_ORIENT
  2
AcDmOrthoViewOr
  3
AcMechDwgViewMgmt
 90
    32768
280
     0
281
     0
  0
CLASS
  1
AM_ORTHO_VIEW
  2
AcDmOrthoView
  3
AcMechDwgViewMgmt
 90
    32768
280
     0
281
     0
  0
CLASS
  1
AM_ISO_VIEW_ORIENT
  2
AcDmIsoViewOr
  3
AcMechDwgViewMgmt
 90
    32768
280
     0
281
     0
  0
CLASS
  1
AM_ISO_VIEW
  2
AcDmIsoView
  3
AcMechDwgViewMgmt
 90
    32768
280
     0
281
     0
  0
CLASS
  1
ACDMVWEDARC
  2
AcDmViewEdgeArc
  3
AcMechDwgViewMgmt
 90
    32768
280
     0
281
     1
  0
CLASS
  1
ACDMVWEDLINE
  2
AcDmViewEdgeLine
  3
AcMechDwgViewMgmt
 90
    32768
280
     0
281
     1
  0
CLASS
  1
ACDMVWEDSPLINE
  2
AcDmViewEdgeSpline
  3
AcMechDwgViewMgmt
 90
    32768
280
     0
281
     1
  0
CLASS
  1
ACDMVWEDCIRC
  2
AcDmViewEdgeCircle
  3
AcMechDwgViewMgmt
 90
    32768
280
     0
281
     1
  0
CLASS
  1
AM_ADLINCTRLINE
  2
AcAdLineCl
  3
DesignerServices
 90
    32768
280
     0
281
     0
  0
CLASS
  1
AM_ADCIRCTRLINE
  2
AcAdBullsEyeCl
  3
DesignerServices
 90
    32768
280
     0
281
     0
  0
CLASS
  1
AD_LINETAPH
  2
AcAdTapHoleLineDisp
  3
DesignerServices
 90
    32768
280
     0
281
     0
  0
CLASS
  1
ACDMVIEWGEOM
  2
AcDmViewGeometry
  3
AcMechDwgViewMgmt
 90
    32768
280
     0
281
     1
  0
CLASS
  1
ACMBOM
  2
AcmBom
  3
"AcmSymBB|Product Description: AutoCAD Mechanical 2000|Company: Autodesk"
 90
    32768
280
     0
281
     0
  0
CLASS
  1
ACMBOMROW
  2
AcmBomRow
  3
"AcmSymBB|Product Description: AutoCAD Mechanical 2000|Company: Autodesk"
 90
    32768
280
     0
281
     0
  0
CLASS
  1
ACMSTANDARDANSI
  2
AcmStandardANSI
  3
"Amdt_StdImp|Product Description: AutoCAD Mechanical 2000|Company: Autodesk"
 90
        0
280
     0
281
     0
  0
CLASS
  1
ACMSURFSTANDARDANSI
  2
AcmSurfTextStdANSI
  3
"Amdt_StdImp|Product Description: AutoCAD Mechanical 2000|Company: Autodesk"
 90
        0
280
     0
281
     0
  0
CLASS
  1
ACMFCFSTANDARDANSI
  2
AcmFCFStdANSI
  3
"Amdt_StdImp|Product Description: AutoCAD Mechanical 2000|Company: Autodesk"
 90
        0
280
     0
281
     0
  0
CLASS
  1
ACMWELDSTANDARDANSI
  2
AcmWeldingStdANSI
  3
"Amdt_StdImp|Product Description: AutoCAD Mechanical 2000|Company: Autodesk"
 90
        0
280
     0
281
     0
  0
CLASS
  1
ACMIDSTANDARDANSI
  2
AcmIdStdANSI
  3
"Amdt_StdImp|Product Description: AutoCAD Mechanical 2000|Company: Autodesk"
 90
        0
280
     0
281
     0
  0
CLASS
  1
ACMDATUMSTANDARDANSI
  2
AcmDatumStdANSI
  3
"Amdt_StdImp|Product Description: AutoCAD Mechanical 2000|Company: Autodesk"
 90
        0
280
     0
281
     0
  0
CLASS
  1
ACMBOMSTANDARDANSI
  2
AcmBOMStdANSI
  3
"Amdt_StdImp|Product Description: AutoCAD Mechanical 2000|Company: Autodesk"
 90
        0
280
     0
281
     0
  0
CLASS
  1
ACMPICKOBJ
  2
AcmPickEnt
  3
"AcmSymBB|Product Description: AutoCAD Mechanical 2000|Company: Autodesk"
 90
    32768
280
     0
281
     1
  0
CLASS
  1
ACMBALLOON
  2
AcmBalloon
  3
"AcmSymBB|Product Description: AutoCAD Mechanical 2000|Company: Autodesk"
 90
    33791
280
     0
281
     1
  0
CLASS
  1
AM_VWNOTEADAPTER
  2
AcDmViewAnnotAdapter
  3
AcMechDwgViewMgmt
 90
    32768
280
     0
281
     0
  0
CLASS
  1
AM_VIEW_SELECT_FILTER
  2
AcDmSelectViewEntFilter
  3
AcMechDwgViewMgmt
 90
    32768
280
     0
281
     0
  0
CLASS
  1
AD_CIRCTAPH
  2
AcAdTapHoleCircDisp
  3
DesignerServices
 90
    32768
280
     0
281
     0
  0
CLASS
  1
AMGSETTINGSOBJ
  2
AmgSettingsObj
  3
"AcadM|Product Description: AutoCAD Mechanical 2000|Company: Autodesk"
 90
        0
280
     0
281
     0
  0
CLASS
  1
AMDTMAPISURFMOUDULE
  2
AmdtMApiSurfModule
  3
MApiSurfServices
 90
        0
280
     0
281
     0
  0
CLASS
  1
ACDMPARTVIEWDATA
  2
AcDmPartViewData
  3
AcMechDwgViewMgmt
 90
    32768
280
     0
281
     0
  0
CLASS
  1
ACDMDISPLAYATTRIBS
  2
AcDmDisplayAttribs
  3
AcMechDwgViewMgmt
 90
    32768
280
     0
281
     0
  0
CLASS
  1
ACDMBODYINSTANCEDATA
  2
AcDmBodyInstanceData
  3
AcMechDwgViewMgmt
 90
    32768
280
     0
281
     0
  0
CLASS
  1
AMDTFORMULAUPDATEDISPATCHER
  2
AmdtFormulaUpdateDispatcher
  3
AcMeServices
 90
    32768
280
     0
281
     0
  0
CLASS
  1
ACAMGTITLESTD
  2
AcAmgTitleStd
  3
"TITLEAPP"
 90
        0
280
     0
281
     0
  0
CLASS
  1
ACMDETAILSTANDARDANSI
  2
AmdtDetailSymStdANSI
  3
"Amdt_StdImp|Product Description: AutoCAD Mechanical 2000|Company: Autodesk"
 90
        0
280
     0
281
     0
  0
CLASS
  1
ACMSECTIONSTANDARDANSI
  2
AmdtSectionSymStdANSI
  3
"Amdt_StdImp|Product Description: AutoCAD Mechanical 2000|Company: Autodesk"
 90
        0
280
     0
281
     0
  0
CLASS
  1
ACMCENTERLINESTANDARDANSI
  2
AmdtCenterLineStdANSI
  3
"Amdt_StdImp|Product Description: AutoCAD Mechanical 2000|Company: Autodesk"
 90
        0
280
     0
281
     0
  0
CLASS
  1
ACMTHREADLINESTANDARDANSI
  2
AmdtThreadLineStdANSI
  3
"Amdt_StdImp|Product Description: AutoCAD Mechanical 2000|Company: Autodesk"
 90
        0
280
     0
281
     0
  0
CLASS
  1
ACMNOTESTANDARDANSI
  2
AmdtNoteStdANSI
  3
"Amdt_StdImp|Product Description: AutoCAD Mechanical 2000|Company: Autodesk"
 90
        0
280
     0
281
     0
  0
CLASS
  1
ACAMGLAYSTD
  2
AcAmgLayStd
  3
"AcAmgLayStd|Product Description: AutoCAD Mechanical 2000|Company: Autodesk"
 90
        0
280
     0
281
     0
  0
CLASS
  1
ACAMGDIMSTD
  2
AcAmgDimStd
  3
"AcAmgDimStd|Product Description: AutoCAD Mechanical 2000|Company: Autodesk"
 90
        0
280
     0
281
     0
  0
CLASS
  1
ACAMGFILTERDAT
  2
AcAmgFilterDat
  3
"AcadM|Product Description: AutoCAD Mechanical 2000|Company: Autodesk"
 90
        0
280
     0
281
     0
  0
CLASS
  1
ACAMGHOLECHARTSTDANSI
  2
AcAmgHoleChartStdANSI
  3
ACMSYMBB_MODULE_NAME
 90
        0
280
     0
281
     0
  0
ENDSEC
  0
SECTION
  2
TABLES
  0
TABLE
  2
VPORT
  5
1A
330
0
100
AcDbSymbolTable
 70
     1
  0
VPORT
  5
1B
330
1A
100
AcDbSymbolTableRecord
100
AcDbViewportTableRecord
  2
*Active
 70
     0
 10
0.0
 20
0.0
 11
1.0
 21
1.0
 12
0.0
 22
0.0
 13
0.0
 23
0.0
 14
1.0
 24
1.0
 15
0.0
 25
0.0
 16
0.0
 26
0.0
 36
1.0
 17
0.0
 27
0.0
 37
0.0
 40
2.000000000000000E+20
 41
1.0
 42
50.0
 43
0.0
 44
0.0
 50
0.0
 51
0.0
 71
     0
 72
   100
 73
     1
 74
     1
 75
     0
 76
     0
 77
     0
 78
     0
281
     0
 65
     0
110
0.0
120
0.0
130
0.0
111
1.0
121
0.0
131
0.0
112
0.0
122
1.0
132
0.0
 79
     0
146
0.0
  0
ENDTAB
  0
TABLE
  2
LTYPE
  5
15
330
0
100
AcDbSymbolTable
 70
    19
  0
LTYPE
  5
16
330
15
100
AcDbSymbolTableRecord
100
AcDbLinetypeTableRecord
  2
ByBlock
 70
     0
  3

 72
    65
 73
     0
 40
0.0
  0
LTYPE
  5
17
330
15
100
AcDbSymbolTableRecord
100
AcDbLinetypeTableRecord
  2
ByLayer
 70
     0
  3

 72
    65
 73
     0
 40
0.0
  0
LTYPE
  5
9
330
15
100
AcDbSymbolTableRecord
100
AcDbLinetypeTableRecord
  2
CONTINUOUS
 70
     0
  3
Solid line
 72
    65
 73
     0
 40
0.0
  0
LTYPE
  5
13E
330
15
100
AcDbSymbolTableRecord
100
AcDbLinetypeTableRecord
  2
HIDDEN
 70
     0
  3
_ _ _ _ _ _ _ _ _ _ _ _ _ _ _ _ _ _ _ _ _ _ _
 72
    65
 73
     2
 40
0.375
 49
0.25
 74
     0
 49
-0.125
 74
     0
  0
LTYPE
  5
51
330
15
100
AcDbSymbolTableRecord
100
AcDbLinetypeTableRecord
  2
PHANTOM
 70
     0
  3
Phantom ______  __  __  ______  __  __  ______
 72
    65
 73
     6
 40
2.5
 49
1.25
 74
     0
 49
-0.25
 74
     0
 49
0.25
 74
     0
 49
-0.25
 74
     0
 49
0.25
 74
     0
 49
-0.25
 74
     0
  0
LTYPE
  5
41F
330
15
100
AcDbSymbolTableRecord
100
AcDbLinetypeTableRecord
  2
PHANTOM2
 70
     0
  3
Phantom (.5x) ___ _ _ ___ _ _ ___ _ _ ___ _ _
 72
    65
 73
     6
 40
1.25
 49
0.625
 74
     0
 49
-0.125
 74
     0
 49
0.125
 74
     0
 49
-0.125
 74
     0
 49
0.125
 74
     0
 49
-0.125
 74
     0
  0
LTYPE
  5
420
330
15
100
AcDbSymbolTableRecord
100
AcDbLinetypeTableRecord
  2
CENTER
 70
     0
  3
Center ____ _ ____ _ ____ _ ____ _ ____ _ ____
 72
    65
 73
     4
 40
2.0
 49
1.25
 74
     0
 49
-0.25
 74
     0
 49
0.25
 74
     0
 49
-0.25
 74
     0
  0
LTYPE
  5
482
330
15
100
AcDbSymbolTableRecord
100
AcDbLinetypeTableRecord
  2
ASULTYPE
 70
     0
  3
Solid line
 72
    65
 73
     2
 40
3.0
 49
2.5
 74
     0
 49
0.5
 74
     0
  0
LTYPE
  5
483
330
15
100
AcDbSymbolTableRecord
100
AcDbLinetypeTableRecord
  2
ASVLTYPE
 70
     0
  3
__ __ __ __ __ __ __ __ __ __ __ __ __ __ __ __ __ __ __ __ __
 72
    65
 73
     2
 40
0.75
 49
0.5
 74
     0
 49
-0.25
 74
     0
  0
LTYPE
  5
4C7
330
15
100
AcDbSymbolTableRecord
100
AcDbLinetypeTableRecord
  2
AM_ISO02W050
 70
     0
  3
__ __ __ __ __ __ __ __ __ __ __ __ __ __ __
 72
    65
 73
     2
 40
7.5
 49
6.0
 74
     0
 49
-1.5
 74
     0
  0
LTYPE
  5
4C8
330
15
100
AcDbSymbolTableRecord
100
AcDbLinetypeTableRecord
  2
AM_ISO08W050
 70
     0
  3
____ . ____ . ____ . ____ . ____ . ____ . ____
 72
    65
 73
     4
 40
18.0
 49
12.0
 74
     0
 49
-1.5
 74
     0
 49
3.0
 74
     0
 49
-1.5
 74
     0
  0
LTYPE
  5
4C9
330
15
100
AcDbSymbolTableRecord
100
AcDbLinetypeTableRecord
  2
AM_ISO09W050
 70
     0
  3
_____ . . _____ . . _____ . . ____ .. ____
 72
    65
 73
     6
 40
22.5
 49
12.0
 74
     0
 49
-1.5
 74
     0
 49
3.0
 74
     0
 49
-1.5
 74
     0
 49
3.0
 74
     0
 49
-1.5
 74
     0
  0
LTYPE
  5
4CA
330
15
100
AcDbSymbolTableRecord
100
AcDbLinetypeTableRecord
  2
Amconstr
 70
     0
  3
_______________________
 72
    65
 73
     2
 40
9999.0
 49
9999.0
 74
     0
 49
0.0
 74
     0
  0
LTYPE
  5
4CB
330
15
100
AcDbSymbolTableRecord
100
AcDbLinetypeTableRecord
  2
AM_ISO08W050x2
 70
     0
  3
__ . __ . __ . __ . __ . __
 72
    65
 73
     4
 40
9.0
 49
6.0
 74
     0
 49
-0.75
 74
     0
 49
1.5
 74
     0
 49
-0.75
 74
     0
  0
LTYPE
  5
4CC
330
15
100
AcDbSymbolTableRecord
100
AcDbLinetypeTableRecord
  2
AM_ISO02W050x2
 70
     0
  3
 _ _ _ _ _ _ _ _ _ _ _ _
 72
    65
 73
     2
 40
3.75
 49
3.0
 74
     0
 49
-0.75
 74
     0
  0
LTYPE
  5
4CF
330
15
100
AcDbSymbolTableRecord
100
AcDbLinetypeTableRecord
  2
Amzigzag
 70
     0
  3
/\/-/\/-/\/-/\/-/\/-/\/
 72
    65
 73
     2
 40
11.00009999999999
 49
0.0001
 74
     4
 75
   135
340
4CE
 46
0.04
 50
0.0
 44
0.0
 45
0.0
 49
-11.0
 74
     0
  0
LTYPE
  5
4D0
330
15
100
AcDbSymbolTableRecord
100
AcDbLinetypeTableRecord
  2
CENTER2
 70
     0
  3
Center (.5x) ___ _ ___ _ ___ _ ___ _ ___ _ ___
 72
    65
 73
     4
 40
1.125
 49
0.75
 74
     0
 49
-0.125
 74
     0
 49
0.125
 74
     0
 49
-0.125
 74
     0
  0
LTYPE
  5
4D1
330
15
100
AcDbSymbolTableRecord
100
AcDbLinetypeTableRecord
  2
HIDDEN2
 70
     0
  3
Hidden (.5x) _ _ _ _ _ _ _ _ _ _ _ _ _ _ _ _ _
 72
    65
 73
     2
 40
0.1875
 49
0.125
 74
     0
 49
-0.0625
 74
     0
  0
LTYPE
  5
4D2
330
15
100
AcDbSymbolTableRecord
100
AcDbLinetypeTableRecord
  2
Amzigzag2
 70
     0
  3
/\/-/\/-/\/-/\/-/\/-/\/
 72
    65
 73
     2
 40
0.4401
 49
0.0001
 74
     4
 75
   135
340
4CE
 46
0.0016
 50
0.0
 44
0.0
 45
0.0
 49
-0.4400000000000001
 74
     0
  0
LTYPE
  5
4E0
330
15
100
AcDbSymbolTableRecord
100
AcDbLinetypeTableRecord
  2
ACANSTGB
 70
     0
  3
__ . . __ . .
 72
    65
 73
     6
 40
0.35433070866
 49
0.15748031496
 74
     0
 49
-0.03937007874
 74
     0
 49
0.03937007874
 74
     0
 49
-0.03937007874
 74
     0
 49
0.03937007874
 74
     0
 49
-0.03937007874
 74
     0
  0
LTYPE
  5
4E1
330
15
100
AcDbSymbolTableRecord
100
AcDbLinetypeTableRecord
  2
ACANSTGL
 70
     0
  3
_ _ _ _ _
 72
    65
 73
     2
 40
0.11811023622
 49
0.07874015748
 74
     0
 49
-0.03937007874
 74
     0
  0
ENDTAB
  0
TABLE
  2
LAYER
  5
11
330
0
100
AcDbSymbolTable
 70
     9
  0
LAYER
  5
5
330
11
100
AcDbSymbolTableRecord
100
AcDbLayerTableRecord
  2
0
 70
     0
 62
     7
  6
CONTINUOUS
370
    -3
390
6
  0
LAYER
  5
118
330
11
100
AcDbSymbolTableRecord
100
AcDbLayerTableRecord
  2
DEFPOINTS
 70
     0
 62
    -7
  6
CONTINUOUS
290
     0
370
    -3
390
6
  0
LAYER
  5
24
330
11
100
AcDbSymbolTableRecord
100
AcDbLayerTableRecord
  2
STD10004-H38
 70
     0
 62
     8
  6
CONTINUOUS
370
    -3
390
6
  0
LAYER
  5
13B
330
11
100
AcDbSymbolTableRecord
100
AcDbLayerTableRecord
  2
AM_VIS
 70
     0
 62
     7
  6
CONTINUOUS
370
    30
390
6
  0
LAYER
  5
13D
330
11
100
AcDbSymbolTableRecord
100
AcDbLayerTableRecord
  2
AM_HID
 70
     0
 62
    -7
  6
HIDDEN
370
    15
390
6
  0
LAYER
  5
53
330
11
100
AcDbSymbolTableRecord
100
AcDbLayerTableRecord
  2
CENTER
 70
     0
 62
     5
  6
CONTINUOUS
370
    -3
390
6
  0
LAYER
  5
50
330
11
100
AcDbSymbolTableRecord
100
AcDbLayerTableRecord
  2
PHANTOM
 70
     0
 62
     2
  6
PHANTOM
370
    -3
390
6
  0
LAYER
  5
58
330
11
100
AcDbSymbolTableRecord
100
AcDbLayerTableRecord
  2
10
 70
     0
 62
     7
  6
CONTINUOUS
370
    -3
390
6
  0
LAYER
  5
D0
330
11
100
AcDbSymbolTableRecord
100
AcDbLayerTableRecord
  2
DIMENSION
 70
     0
 62
     1
  6
CONTINUOUS
370
    -3
390
6
  0
ENDTAB
  0
TABLE
  2
STYLE
  5
12
330
0
100
AcDbSymbolTable
 70
     4
  0
STYLE
  5
13
330
12
100
AcDbSymbolTableRecord
100
AcDbTextStyleTableRecord
  2
STANDARD
 70
     0
 40
0.0
 41
1.0
 50
0.0
 71
     0
 42
0.2
  3
simplex.shx
  4

  0
STYLE
  5
4CE
330
12
100
AcDbSymbolTableRecord
100
AcDbTextStyleTableRecord
  2

 70
     1
 40
0.0
 41
1.0
 50
0.0
 71
     0
 42
0.2
  3
ltypeshp.shx
  4

  0
STYLE
  5
4D3
330
12
100
AcDbSymbolTableRecord
100
AcDbTextStyleTableRecord
  2
ACANSTS
 70
     0
 40
1.0
 41
1.0
 50
0.0
 71
     0
 42
0.2
  3
romans.shx
  4

  0
STYLE
  5
4DF
330
12
100
AcDbSymbolTableRecord
100
AcDbTextStyleTableRecord
  2
ACANSGDT
 70
     0
 40
0.0
 41
1.0
 50
0.0
 71
     0
 42
0.2
  3
amgdtans.shx
  4

  0
ENDTAB
  0
TABLE
  2
VIEW
  5
18
330
0
100
AcDbSymbolTable
 70
     0
  0
ENDTAB
  0
TABLE
  2
UCS
  5
19
330
0
100
AcDbSymbolTable
 70
     0
  0
ENDTAB
  0
TABLE
  2
APPID
  5
1C
330
0
100
AcDbSymbolTable
 70
    13
  0
APPID
  5
1D
330
1C
100
AcDbSymbolTableRecord
100
AcDbRegAppTableRecord
  2
ACAD
 70
     0
  0
APPID
  5
3FD
330
1C
100
AcDbSymbolTableRecord
100
AcDbRegAppTableRecord
  2
GENIUS_GENDIM_13
 70
     0
  0
APPID
  5
3FE
330
1C
100
AcDbSymbolTableRecord
100
AcDbRegAppTableRecord
  2
GENIUS_GENDTOL_13
 70
     0
  0
APPID
  5
3FF
330
1C
100
AcDbSymbolTableRecord
100
AcDbRegAppTableRecord
  2
GENIUS_GE3DTOL_13
 70
     0
  0
APPID
  5
402
330
1C
100
AcDbSymbolTableRecord
100
AcDbRegAppTableRecord
  2
MCAD_NO_VIS
 70
     0
  0
APPID
  5
403
330
1C
100
AcDbSymbolTableRecord
100
AcDbRegAppTableRecord
  2
ACAD_TEMP_GRAPHIC
 70
     0
  0
APPID
  5
435
330
1C
100
AcDbSymbolTableRecord
100
AcDbRegAppTableRecord
  2
AD_DRAW
 70
     0
  0
APPID
  5
438
330
1C
100
AcDbSymbolTableRecord
100
AcDbRegAppTableRecord
  2
ACATTRIBSERVICES
 70
     0
  0
APPID
  5
484
330
1C
100
AcDbSymbolTableRecord
100
AcDbRegAppTableRecord
  2
ASURF_PCURVE_APPNAME
 70
     0
  0
APPID
  5
489
330
1C
100
AcDbSymbolTableRecord
100
AcDbRegAppTableRecord
  2
AMG_3D2D_5.0
 70
     0
  0
APPID
  5
4B4
330
1C
100
AcDbSymbolTableRecord
100
AcDbRegAppTableRecord
  2
DESIGNERASSEMBLIES
 70
     0
  0
APPID
  5
4BC
330
1C
100
AcDbSymbolTableRecord
100
AcDbRegAppTableRecord
  2
ACADM_DIM_EDIT
 70
     0
  0
APPID
  5
4BD
330
1C
100
AcDbSymbolTableRecord
100
AcDbRegAppTableRecord
  2
AMDT_DM_ADJ
 70
     0
  0
ENDTAB
  0
TABLE
  2
DIMSTYLE
  5
1E
330
0
100
AcDbSymbolTable
 70
     7
100
AcDbDimStyleTable
 71
     1
340
1F
  0
DIMSTYLE
105
1F
102
{ACAD_REACTORS
330
10E
330
11D
330
12B
102
}
330
1E
100
AcDbSymbolTableRecord
100
AcDbDimStyleTableRecord
  2
Standard
 70
     0
 41
0.125
 44
0.0625
140
0.125
277
     5
288
     1
340
13
  0
DIMSTYLE
105
4E5
330
1E
100
AcDbSymbolTableRecord
100
AcDbDimStyleTableRecord
  2
AM_ANSI
 70
     0
  4
mm
 41
0.1
 42
0.05
 43
0.5
 44
0.1
 47
0.1
 48
0.1
 78
     7
 79
     2
140
0.12
141
0.0
146
0.71
147
0.06
176
   256
177
   256
178
     2
274
     4
284
     7
340
13
371
    -1
372
    -1
  0
DIMSTYLE
105
4E6
330
1E
100
AcDbSymbolTableRecord
100
AcDbDimStyleTableRecord
  2
AM_ANSI$3
 70
     0
  4
mm
 41
0.1
 42
0.05
 43
0.5
 44
0.1
 47
0.1
 48
0.1
 78
     7
 79
     2
140
0.12
141
0.0
146
0.71
147
0.06
176
   256
177
   256
178
     2
274
     4
284
     7
288
     1
289
     0
340
13
371
    -1
372
    -1
  0
DIMSTYLE
105
4E7
330
1E
100
AcDbSymbolTableRecord
100
AcDbDimStyleTableRecord
  2
AM_ANSI$4
 70
     0
  4
mm
 41
0.1
 42
0.05
 43
0.5
 44
0.1
 47
0.1
 48
0.1
 78
     7
 79
     2
140
0.12
141
0.0
146
0.71
147
0.06
176
   256
177
   256
178
     2
274
     4
284
     7
288
     1
289
     0
340
13
371
    -1
372
    -1
  0
DIMSTYLE
105
4E8
330
1E
100
AcDbSymbolTableRecord
100
AcDbDimStyleTableRecord
  2
AM_ANSI$7
 70
     0
  4
mm
 41
0.1
 42
0.05
 43
0.5
 44
0.1
 47
0.1
 48
0.1
 78
     7
 79
     2
140
0.24
141
0.0
146
0.71
147
0.06
176
   256
177
   256
178
     2
274
     4
284
     7
340
13
371
    -1
372
    -1
  0
DIMSTYLE
105
4E9
330
1E
100
AcDbSymbolTableRecord
100
AcDbDimStyleTableRecord
  2
AM_ANSI$SF
 70
     0
  4
mm
 41
0.1
 42
0.05
 43
0.5
 44
0.1
 47
0.1
 48
0.1
 75
     1
 76
     1
 78
     7
 79
     2
140
0.12
141
0.0
146
0.71
147
0.06
176
   256
177
   256
178
     2
274
     4
284
     7
340
13
371
    -1
372
    -1
  0
DIMSTYLE
105
4EE
330
1E
100
AcDbSymbolTableRecord
100
AcDbDimStyleTableRecord
  2
AM_ANSI$SH
 70
     0
  4
mm
 41
0.1
 42
0.05
 43
0.5
 44
0.1
 47
0.1
 48
0.1
 75
     1
 76
     1
 78
     7
 79
     2
140
0.12
141
0.0
146
0.71
147
0.06
173
     1
176
   256
177
   256
178
     2
274
     4
284
     7
340
13
343
4EA
371
    -1
372
    -1
  0
ENDTAB
  0
TABLE
  2
BLOCK_RECORD
  5
1
330
0
100
AcDbSymbolTable
 70
    15
  0
BLOCK_RECORD
  5
2
102
{ACAD_XDICTIONARY
360
3
102
}
330
1
100
AcDbSymbolTableRecord
100
AcDbBlockTableRecord
  2
*Model_Space
340
B
  0
BLOCK_RECORD
  5
D
330
1
100
AcDbSymbolTableRecord
100
AcDbBlockTableRecord
  2
*Paper_Space
340
10
  0
BLOCK_RECORD
  5
28
330
1
100
AcDbSymbolTableRecord
100
AcDbBlockTableRecord
  2
*U0
340
0
102
{BLKREFS
331
27
102
}
  0
BLOCK_RECORD
  5
2D
330
1
100
AcDbSymbolTableRecord
100
AcDbBlockTableRecord
  2
*U1
340
0
102
{BLKREFS
331
2C
102
}
  0
BLOCK_RECORD
  5
32
330
1
100
AcDbSymbolTableRecord
100
AcDbBlockTableRecord
  2
*U2
340
0
102
{BLKREFS
331
31
102
}
  0
BLOCK_RECORD
  5
37
330
1
100
AcDbSymbolTableRecord
100
AcDbBlockTableRecord
  2
*U3
340
0
102
{BLKREFS
331
36
102
}
  0
BLOCK_RECORD
  5
61
330
1
100
AcDbSymbolTableRecord
100
AcDbBlockTableRecord
  2
A$C708B5813
340
0
102
{BLKREFS
331
D2
331
60
102
}
  0
BLOCK_RECORD
  5
3C
330
1
100
AcDbSymbolTableRecord
100
AcDbBlockTableRecord
  2
*U5
340
0
102
{BLKREFS
331
3B
102
}
  0
BLOCK_RECORD
  5
41
330
1
100
AcDbSymbolTableRecord
100
AcDbBlockTableRecord
  2
*U6
340
0
102
{BLKREFS
331
40
102
}
  0
BLOCK_RECORD
  5
46
330
1
100
AcDbSymbolTableRecord
100
AcDbBlockTableRecord
  2
*U7
340
0
102
{BLKREFS
331
45
102
}
  0
BLOCK_RECORD
  5
4B
330
1
100
AcDbSymbolTableRecord
100
AcDbBlockTableRecord
  2
*U8
340
0
102
{BLKREFS
331
4A
102
}
  0
BLOCK_RECORD
  5
D1
330
1
100
AcDbSymbolTableRecord
100
AcDbBlockTableRecord
  2
A$C2BF30918
340
0
102
{BLKREFS
331
CF
102
}
  0
BLOCK_RECORD
  5
10F
330
1
100
AcDbSymbolTableRecord
100
AcDbBlockTableRecord
  2
*D10
340
0
  0
BLOCK_RECORD
  5
11E
330
1
100
AcDbSymbolTableRecord
100
AcDbBlockTableRecord
  2
*D11
340
0
  0
BLOCK_RECORD
  5
12C
330
1
100
AcDbSymbolTableRecord
100
AcDbBlockTableRecord
  2
*D12
340
0
  0
BLOCK_RECORD
  5
4AB
330
1
100
AcDbSymbolTableRecord
100
AcDbBlockTableRecord
  2
*U13
340
0
  0
BLOCK_RECORD
  5
4EA
330
1
100
AcDbSymbolTableRecord
100
AcDbBlockTableRecord
  2
GENAXEH
340
0
  0
ENDTAB
  0
ENDSEC
  0
SECTION
  2
BLOCKS
  0
BLOCK
  5
4
330
2
100
AcDbEntity
  8
0
100
AcDbBlockBegin
  2
*Model_Space
 70
     0
 10
0.0
 20
0.0
 30
0.0
  3
*Model_Space
  1

  0
ENDBLK
  5
A
330
2
100
AcDbEntity
  8
0
100
AcDbBlockEnd
  0
BLOCK
  5
E
330
D
100
AcDbEntity
 67
     1
  8
0
100
AcDbBlockBegin
  2
*Paper_Space
 70
     0
 10
0.0
 20
0.0
 30
0.0
  3
*Paper_Space
  1

  0
ENDBLK
  5
F
330
D
100
AcDbEntity
 67
     1
  8
0
100
AcDbBlockEnd
  0
BLOCK
  5
2A
330
28
100
AcDbEntity
  8
0
  6
ByBlock
 62
     2
100
AcDbBlockBegin
  2
*U0
 70
     1
 10
0.0
 20
0.0
 30
0.0
  3
*U0
  1

  0
TEXT
  5
29
330
28
100
AcDbEntity
  8
0
  6
ByBlock
 62
     2
100
AcDbText
 10
15.253
 20
1.7495
 30
0.0
 40
0.094
  1
 
 41
0.8842105263157964
 72
     5
 11
15.3282
 21
1.7495
 31
0.0
100
AcDbText
  0
ENDBLK
  5
2B
330
28
100
AcDbEntity
  8
0
100
AcDbBlockEnd
  0
BLOCK
  5
2F
330
2D
100
AcDbEntity
  8
0
  6
ByBlock
 62
     2
100
AcDbBlockBegin
  2
*U1
 70
     1
 10
0.0
 20
0.0
 30
0.0
  3
*U1
  1

  0
TEXT
  5
2E
330
2D
100
AcDbEntity
  8
0
  6
ByBlock
 62
     2
100
AcDbText
 10
15.253
 20
1.436999999999999
 30
0.0
 40
0.094
  1
 
 41
0.8842105263157964
 72
     5
 11
15.3282
 21
1.436999999999999
 31
0.0
100
AcDbText
  0
ENDBLK
  5
30
330
2D
100
AcDbEntity
  8
0
100
AcDbBlockEnd
  0
BLOCK
  5
34
330
32
100
AcDbEntity
  8
0
  6
ByBlock
 62
     2
100
AcDbBlockBegin
  2
*U2
 70
     1
 10
0.0
 20
0.0
 30
0.0
  3
*U2
  1

  0
TEXT
  5
33
330
32
100
AcDbEntity
  8
0
  6
ByBlock
 62
     2
100
AcDbText
 10
15.253
 20
1.1245
 30
0.0
 40
0.094
  1
 
 41
0.8842105263157964
 72
     5
 11
15.3282
 21
1.1245
 31
0.0
100
AcDbText
  0
ENDBLK
  5
35
330
32
100
AcDbEntity
  8
0
100
AcDbBlockEnd
  0
BLOCK
  5
39
330
37
100
AcDbEntity
  8
0
  6
ByBlock
 62
     2
100
AcDbBlockBegin
  2
*U3
 70
     1
 10
0.0
 20
0.0
 30
0.0
  3
*U3
  1

  0
TEXT
  5
38
330
37
100
AcDbEntity
  8
0
  6
ByBlock
 62
     2
100
AcDbText
 10
15.253
 20
0.812
 30
0.0
 40
0.094
  1
 
 41
0.8842105263157964
 72
     5
 11
15.3282
 21
0.812
 31
0.0
100
AcDbText
  0
ENDBLK
  5
3A
330
37
100
AcDbEntity
  8
0
100
AcDbBlockEnd
  0
BLOCK
  5
A2
330
61
100
AcDbEntity
  8
0
100
AcDbBlockBegin
  2
A$C708B5813
 70
     0
 10
0.0
 20
0.0
 30
0.0
  3
A$C708B5813
  1

  0
LINE
  5
62
330
61
100
AcDbEntity
  8
10
100
AcDbLine
 10
0.2399999692803618
 20
0.2640315084226485
 30
0.0
 11
0.2436013672279564
 21
0.2661107764971518
 31
0.0
  0
CIRCLE
  5
63
330
61
100
AcDbEntity
  8
10
100
AcDbCircle
 10
0.2399999692803618
 20
0.2640315084226485
 30
0.0
 40
0.0041585361490064
  0
ARC
  5
64
330
61
100
AcDbEntity
  8
10
100
AcDbCircle
 10
0.2399999692803512
 20
0.2871255191902322
 30
0.0
 40
0.01
100
AcDbArc
 50
239.9999999999999
 51
300.0000000000007
  0
ARC
  5
65
330
61
100
AcDbEntity
  8
10
100
AcDbCircle
 10
0.2399999692803618
 20
0.529612632249878
 30
0.0
 40
0.01
100
AcDbArc
 50
60.00000000000078
 51
119.9999999999996
  0
ARC
  5
66
330
61
100
AcDbEntity
  8
10
100
AcDbCircle
 10
0.2399999692511088
 20
0.3949160812035983
 30
0.0
 40
0.01
100
AcDbArc
 50
239.9999999674644
 51
300.0000000465846
  0
ARC
  5
67
330
61
100
AcDbEntity
  8
10
100
AcDbCircle
 10
0.2393667475655192
 20
0.4214564796978131
 30
0.0
 40
0.01
100
AcDbArc
 50
60.0
 51
119.9999999818938
  0
LINE
  5
68
330
61
100
AcDbEntity
  8
10
100
AcDbLine
 10
0.0249999692803549
 20
0.3997088216822098
 30
0.0
 11
0.2349999692803522
 21
0.2784652651523878
 31
0.0
  0
LINE
  5
69
330
61
100
AcDbEntity
  8
10
100
AcDbLine
 10
-0.0000000307196402
 20
0.3737280595686747
 30
0.0
 11
-0.0000000307196366
 21
0.1312409465090325
 31
0.0
  0
LINE
  5
6A
330
61
100
AcDbEntity
  8
10
100
AcDbLine
 10
0.0149999692803604
 20
0.3823883136065191
 30
0.0
 11
0.2249999692803613
 21
0.2611447570767011
 31
0.0
  0
LINE
  5
6B
330
61
100
AcDbEntity
  8
10
100
AcDbLine
 10
0.2399999692803618
 20
0.2640315084226485
 30
0.0
 11
0.2399999692803618
 21
0.2598729722736421
 31
0.0
  0
LINE
  5
6C
330
61
100
AcDbEntity
  8
10
100
AcDbLine
 10
0.2363985713327672
 20
0.2661107764971531
 30
0.0
 11
0.2399999692803618
 21
0.2640315084226485
 31
0.0
  0
LINE
  5
6D
330
61
100
AcDbEntity
  8
10
100
AcDbLine
 10
0.2299999692803709
 20
0.1139204384333419
 30
0.0
 11
0.1356921705519909
 21
0.168369071415853
 31
0.0
  0
LINE
  5
6E
330
61
100
AcDbEntity
  8
10
100
AcDbLine
 10
0.2299999692803674
 20
0.1370144492009269
 30
0.0
 11
0.1366506043749744
 21
0.1909097301577374
 31
0.0
  0
LINE
  5
6F
330
61
100
AcDbEntity
  8
10
100
AcDbLine
 10
0.2299999692803709
 20
0.113920438433345
 30
0.0
 11
0.2299999692803674
 21
0.0099973899792092
 31
0.0
  0
LINE
  5
70
330
61
100
AcDbEntity
  8
10
100
AcDbLine
 10
0.2299999692803638
 20
0.2524845030388567
 30
0.0
 11
0.2299999692803674
 21
0.1370144492009304
 31
0.0
  0
ARC
  5
71
330
61
100
AcDbEntity
  8
10
100
AcDbCircle
 10
0.1266506043749622
 20
0.1726410827766105
 30
0.0
 40
0.01
100
AcDbArc
 50
239.9999999999995
 51
334.709932108123
  0
LINE
  5
72
330
61
100
AcDbEntity
  8
10
100
AcDbLine
 10
0.1366506043749744
 20
0.1909097301577414
 30
0.0
 11
0.1366506043749673
 21
0.1985892220820524
 31
0.0
  0
LINE
  5
73
330
61
100
AcDbEntity
  8
10
100
AcDbLine
 10
0.1216506043749632
 20
0.1639808287387661
 30
0.0
 11
0.0983493341857553
 21
0.177433823354967
 31
0.0
  0
ARC
  5
74
330
61
100
AcDbEntity
  8
10
100
AcDbCircle
 10
0.1266506043749658
 20
0.1985892220820524
 30
0.0
 40
0.01
100
AcDbArc
 50
0.0
 51
59.99999999999917
  0
LINE
  5
75
330
61
100
AcDbEntity
  8
10
100
AcDbLine
 10
0.1316506043749648
 20
0.2072494761198969
 30
0.0
 11
0.1083493341857533
 21
0.2207024707360996
 31
0.0
  0
ARC
  5
76
330
61
100
AcDbEntity
  8
10
100
AcDbCircle
 10
0.1033493341857543
 20
0.1860940773928115
 30
0.0
 40
0.01
100
AcDbArc
 50
180.0
 51
239.9999999999999
  0
LINE
  5
77
330
61
100
AcDbEntity
  8
10
100
AcDbLine
 10
0.0933493341857528
 20
0.1860940773928115
 30
0.0
 11
0.0933493341857528
 21
0.2120422166982552
 31
0.0
  0
ARC
  5
78
330
61
100
AcDbEntity
  8
10
100
AcDbCircle
 10
0.1033493341857543
 20
0.2120422166982552
 30
0.0
 40
0.01
100
AcDbArc
 50
60.0
 51
180.0
  0
ARC
  5
79
330
61
100
AcDbEntity
  8
10
100
AcDbCircle
 10
0.009999969280365
 20
0.1312409465090325
 30
0.0
 40
0.01
100
AcDbArc
 50
180.0000000000006
 51
240.0000000000003
  0
LINE
  5
7A
330
61
100
AcDbEntity
  8
10
100
AcDbLine
 10
0.0049999692803659
 20
0.1225806924711881
 30
0.0
 11
0.2149999692803668
 21
0.0013371359413648
 31
0.0
  0
ARC
  5
7B
330
61
100
AcDbEntity
  8
10
100
AcDbCircle
 10
0.2199999692803658
 20
0.0099973899792092
 30
0.0
 40
0.01
100
AcDbArc
 50
239.9999999999999
 51
0.0
  0
ARC
  5
7C
330
61
100
AcDbEntity
  8
10
100
AcDbCircle
 10
0.2199999692803622
 20
0.2524845030388567
 30
0.0
 40
0.01
100
AcDbArc
 50
0.0000000000007124
 51
60.00000000000078
  0
LINE
  5
7D
330
61
100
AcDbEntity
  8
10
100
AcDbLine
 10
0.0249999692803549
 20
0.4170293297578988
 30
0.0
 11
0.2349999692803628
 21
0.5382728862877224
 31
0.0
  0
ARC
  5
7E
330
61
100
AcDbEntity
  8
10
100
AcDbCircle
 10
0.0299999692803539
 20
0.4083690757200542
 30
0.0
 40
0.01
100
AcDbArc
 50
119.9999999999997
 51
240.0000000000002
  0
LINE
  5
7F
330
61
100
AcDbEntity
  8
10
100
AcDbLine
 10
0.2349999692461928
 20
0.3862558271685934
 30
0.0
 11
0.2116986990911549
 21
0.3997088217818918
 31
0.0
  0
LINE
  5
80
330
61
100
AcDbEntity
  8
10
100
AcDbLine
 10
0.2116986990911549
 20
0.4170293298575807
 30
0.0
 11
0.2343667475682558
 21
0.4301167337372376
 31
0.0
  0
ARC
  5
81
330
61
100
AcDbEntity
  8
10
100
AcDbCircle
 10
0.2166986990911539
 20
0.4083690758197364
 30
0.0
 40
0.01
100
AcDbArc
 50
119.9999999999999
 51
239.9999999999999
  0
ARC
  5
82
330
61
100
AcDbEntity
  8
10
100
AcDbCircle
 10
0.0099999692803614
 20
0.3737280595686747
 30
0.0
 40
0.01
100
AcDbArc
 50
60.00000000000071
 51
180.0
  0
LINE
  5
83
330
61
100
AcDbEntity
  8
10
100
AcDbLine
 10
0.2449999692803502
 20
0.2784652651523878
 30
0.0
 11
0.4549999692803617
 21
0.399708821682216
 31
0.0
  0
LINE
  5
84
330
61
100
AcDbEntity
  8
10
100
AcDbLine
 10
0.2599999692803685
 20
0.2640315084226534
 30
0.0
 11
0.4499999692803557
 21
0.3737280595686805
 31
0.0
  0
ARC
  5
85
330
61
100
AcDbEntity
  8
10
100
AcDbCircle
 10
0.4599999692803573
 20
0.3564075514929916
 30
0.0
 40
0.02
100
AcDbArc
 50
0.0000000000006997
 51
119.9999999999999
  0
LINE
  5
86
330
61
100
AcDbEntity
  8
10
100
AcDbLine
 10
0.3853226110081884
 20
0.1920490020623578
 30
0.0
 11
0.4799999692803604
 21
0.2467110003469632
 31
0.0
  0
LINE
  5
87
330
61
100
AcDbEntity
  8
10
100
AcDbLine
 10
0.3860173827363553
 20
0.2155441394742277
 30
0.0
 11
0.4799999692803567
 21
0.269805011114542
 31
0.0
  0
ARC
  5
88
330
61
100
AcDbEntity
  8
10
100
AcDbCircle
 10
0.3766506043749799
 20
0.2120422166982596
 30
0.0
 40
0.01
100
AcDbArc
 50
20.49907611913283
 51
120.000000000006
  0
LINE
  5
89
330
61
100
AcDbEntity
  8
10
100
AcDbLine
 10
0.3853226110081849
 20
0.192049002062356
 30
0.0
 11
0.3853226110081813
 21
0.1857245431213443
 31
0.0
  0
LINE
  5
8A
330
61
100
AcDbEntity
  8
10
100
AcDbLine
 10
0.4799999692803604
 20
0.2467110003469597
 30
0.0
 11
0.4799999692803639
 21
0.1370144492009322
 31
0.0
  0
LINE
  5
8B
330
61
100
AcDbEntity
  8
10
100
AcDbLine
 10
0.4799999692803567
 20
0.3564075514929921
 30
0.0
 11
0.4799999692803567
 21
0.2698050111145451
 31
0.0
  0
ARC
  5
8C
330
61
100
AcDbEntity
  8
10
100
AcDbCircle
 10
0.3533493341857579
 20
0.1722355030579732
 30
0.0
 40
0.01
100
AcDbArc
 50
180.0
 51
301.5450923819967
  0
LINE
  5
8D
330
61
100
AcDbEntity
  8
10
100
AcDbLine
 10
0.3805543054044094
 20
0.1772022562366846
 30
0.0
 11
0.358581028581991
 21
0.1637132161733139
 31
0.0
  0
LINE
  5
8E
330
61
100
AcDbEntity
  8
10
100
AcDbLine
 10
0.3433493341857599
 20
0.1793627247739491
 30
0.0
 11
0.3433493341857563
 21
0.1722355030579732
 31
0.0
  0
ARC
  5
8F
330
61
100
AcDbEntity
  8
10
100
AcDbCircle
 10
0.3753226110081798
 20
0.1857245431213443
 30
0.0
 40
0.01
100
AcDbArc
 50
301.5450923819923
 51
0.0
  0
LINE
  5
90
330
61
100
AcDbEntity
  8
10
100
AcDbLine
 10
0.3483493341857553
 20
0.2072494761198902
 30
0.0
 11
0.3716506043749774
 21
0.2207024707361036
 31
0.0
  0
ARC
  5
91
330
61
100
AcDbEntity
  8
10
100
AcDbCircle
 10
0.3533493341857579
 20
0.1985892220820467
 30
0.0
 40
0.01
100
AcDbArc
 50
120.000000000009
 51
180.0
  0
LINE
  5
92
330
61
100
AcDbEntity
  8
10
100
AcDbLine
 10
0.3433493341857599
 20
0.1793627247739509
 30
0.0
 11
0.3433493341857563
 21
0.1985892220820467
 31
0.0
  0
ARC
  5
93
330
61
100
AcDbEntity
  8
10
100
AcDbCircle
 10
0.2699999692803701
 20
0.2467110003469646
 30
0.0
 40
0.02
100
AcDbArc
 50
120.0000000000001
 51
180.0000000000026
  0
LINE
  5
94
330
61
100
AcDbEntity
  8
10
100
AcDbLine
 10
0.2499999692803705
 20
0.2467110003469637
 30
0.0
 11
0.2499999692803705
 21
0.0273178980548985
 31
0.0
  0
ARC
  5
95
330
61
100
AcDbEntity
  8
10
100
AcDbCircle
 10
0.2699999692803701
 20
0.0273178980548989
 30
0.0
 40
0.02
100
AcDbArc
 50
180.0000000000014
 51
300.0000000000003
  0
LINE
  5
96
330
61
100
AcDbEntity
  8
10
100
AcDbLine
 10
0.2799999692803716
 20
0.0099973899792101
 30
0.0
 11
0.4699999692803658
 21
0.1196939411252429
 31
0.0
  0
ARC
  5
97
330
61
100
AcDbEntity
  8
10
100
AcDbCircle
 10
0.4599999692803644
 20
0.1370144492009317
 30
0.0
 40
0.02
100
AcDbArc
 50
300.0000000000003
 51
0.0000000000017175
  0
ARC
  5
98
330
61
100
AcDbEntity
  8
10
100
AcDbCircle
 10
0.2699999692803594
 20
0.2467110003469637
 30
0.0
 40
0.02
100
AcDbArc
 50
120.0000000000008
 51
180.0000000000006
  0
ARC
  5
99
330
61
100
AcDbEntity
  8
10
100
AcDbCircle
 10
0.4499999692803627
 20
0.4083690757200606
 30
0.0
 40
0.01
100
AcDbArc
 50
300.0000000000008
 51
60.00000000000074
  0
LINE
  5
9A
330
61
100
AcDbEntity
  8
10
100
AcDbLine
 10
0.3599999691803148
 20
0.4718776053886781
 30
0.0
 11
0.4549999692803617
 21
0.417029329757905
 31
0.0
  0
LINE
  5
9B
330
61
100
AcDbEntity
  8
10
100
AcDbLine
 10
0.2449999692803608
 20
0.5382728862877224
 30
0.0
 11
0.3399999691803188
 21
0.4834246107724695
 31
0.0
  0
LINE
  5
9C
330
61
100
AcDbEntity
  8
10
100
AcDbLine
 10
0.2660173827513717
 20
0.4176167338147875
 30
0.0
 11
0.3599999691803148
 21
0.4718776053886781
 31
0.0
  0
LINE
  5
9D
330
61
100
AcDbEntity
  8
10
100
AcDbLine
 10
0.2460173826459275
 20
0.429163739137699
 30
0.0
 11
0.3399999691803188
 21
0.4834246107724695
 31
0.0
  0
LINE
  5
9E
330
61
100
AcDbEntity
  8
10
100
AcDbLine
 10
0.2460173826459311
 20
0.4291637391376977
 30
0.0
 11
0.2443667475655182
 21
0.4301167337356575
 31
0.0
  0
LINE
  5
9F
330
61
100
AcDbEntity
  8
10
100
AcDbLine
 10
0.267668017831781
 20
0.4166637392168293
 30
0.0
 11
0.2660173827513788
 21
0.417616733814787
 31
0.0
  0
LINE
  5
A0
330
61
100
AcDbEntity
  8
10
100
AcDbLine
 10
0.2449999692581493
 20
0.3862558271698191
 30
0.0
 11
0.2676680178317312
 21
0.3993432311411684
 31
0.0
  0
ARC
  5
A1
330
61
100
AcDbEntity
  8
10
100
AcDbCircle
 10
0.2626680178317322
 20
0.408003485179013
 30
0.0
 40
0.01
100
AcDbArc
 50
299.9999999999999
 51
59.99999999968121
  0
ENDBLK
  5
A3
330
61
100
AcDbEntity
  8
0
100
AcDbBlockEnd
  0
BLOCK
  5
3E
330
3C
100
AcDbEntity
  8
0
  6
ByBlock
 62
     2
100
AcDbBlockBegin
  2
*U5
 70
     1
 10
0.0
 20
0.0
 30
0.0
  3
*U5
  1

  0
TEXT
  5
3D
330
3C
100
AcDbEntity
  8
0
  6
ByBlock
 62
     2
100
AcDbText
 10
15.253
 20
1.7495
 30
0.0
 40
0.094
  1
 
 41
0.8842105263157964
 72
     5
 11
15.3282
 21
1.7495
 31
0.0
100
AcDbText
  0
ENDBLK
  5
3F
330
3C
100
AcDbEntity
  8
0
100
AcDbBlockEnd
  0
BLOCK
  5
43
330
41
100
AcDbEntity
  8
0
  6
ByBlock
 62
     2
100
AcDbBlockBegin
  2
*U6
 70
     1
 10
0.0
 20
0.0
 30
0.0
  3
*U6
  1

  0
TEXT
  5
42
330
41
100
AcDbEntity
  8
0
  6
ByBlock
 62
     2
100
AcDbText
 10
15.253
 20
1.436999999999999
 30
0.0
 40
0.094
  1
 
 41
0.8842105263157964
 72
     5
 11
15.3282
 21
1.436999999999999
 31
0.0
100
AcDbText
  0
ENDBLK
  5
44
330
41
100
AcDbEntity
  8
0
100
AcDbBlockEnd
  0
BLOCK
  5
48
330
46
100
AcDbEntity
  8
0
  6
ByBlock
 62
     2
100
AcDbBlockBegin
  2
*U7
 70
     1
 10
0.0
 20
0.0
 30
0.0
  3
*U7
  1

  0
TEXT
  5
47
330
46
100
AcDbEntity
  8
0
  6
ByBlock
 62
     2
100
AcDbText
 10
15.253
 20
1.1245
 30
0.0
 40
0.094
  1
 
 41
0.8842105263157964
 72
     5
 11
15.3282
 21
1.1245
 31
0.0
100
AcDbText
  0
ENDBLK
  5
49
330
46
100
AcDbEntity
  8
0
100
AcDbBlockEnd
  0
BLOCK
  5
4D
330
4B
100
AcDbEntity
  8
0
  6
ByBlock
 62
     2
100
AcDbBlockBegin
  2
*U8
 70
     1
 10
0.0
 20
0.0
 30
0.0
  3
*U8
  1

  0
TEXT
  5
4C
330
4B
100
AcDbEntity
  8
0
  6
ByBlock
 62
     2
100
AcDbText
 10
15.253
 20
0.812
 30
0.0
 40
0.094
  1
 
 41
0.8842105263157966
 72
     5
 11
15.3282
 21
0.812
 31
0.0
100
AcDbText
  0
ENDBLK
  5
4E
330
4B
100
AcDbEntity
  8
0
100
AcDbBlockEnd
  0
BLOCK
  5
D3
330
D1
100
AcDbEntity
  8
0
100
AcDbBlockBegin
  2
A$C2BF30918
 70
     0
 10
0.0
 20
0.0
 30
0.0
  3
A$C2BF30918
  1

  0
INSERT
  5
D2
330
D1
100
AcDbEntity
  8
10
100
AcDbBlockReference
  2
A$C708B5813
 10
0.0000000098500248
 20
-0.0001119937962062
 30
0.0
 41
0.75
 42
0.75
 43
0.75
  0
ENDBLK
  5
D4
330
D1
100
AcDbEntity
  8
0
100
AcDbBlockEnd
  0
BLOCK
  5
11B
330
10F
100
AcDbEntity
  8
0
 62
     1
100
AcDbBlockBegin
  2
*D10
 70
     1
 10
0.0
 20
0.0
 30
0.0
  3
*D10
  1

  0
LINE
  5
110
330
10F
100
AcDbEntity
  8
STD10004-H38
 62
     0
370
    -2
100
AcDbLine
 10
2.954871457233865
 20
3.571788409614577
 30
0.0
 11
1.751660490455208
 21
3.571788409614577
 31
0.0
  0
LINE
  5
111
330
10F
100
AcDbEntity
  8
STD10004-H38
 62
     0
370
    -2
100
AcDbLine
 10
3.069999873377857
 20
5.171827836976675
 30
0.0
 11
1.751660490455209
 21
5.171827836976675
 31
0.0
  0
LINE
  5
112
330
10F
100
AcDbEntity
  8
STD10004-H38
 62
     0
370
    -2
100
AcDbLine
 10
1.814160490455208
 20
3.696788409614577
 30
0.0
 11
1.814160490455208
 21
4.184880256740254
 31
0.0
  0
LINE
  5
113
330
10F
100
AcDbEntity
  8
STD10004-H38
 62
     0
370
    -2
100
AcDbLine
 10
1.814160490455209
 20
5.046827836976675
 30
0.0
 11
1.814160490455209
 21
4.656546923406921
 31
0.0
  0
SOLID
  5
114
330
10F
100
AcDbEntity
  8
STD10004-H38
 62
     0
100
AcDbTrace
 10
1.793327157121875
 20
3.696788409614577
 30
0.0
 11
1.834993823788541
 21
3.696788409614577
 31
0.0
 12
1.814160490455208
 22
3.571788409614577
 32
0.0
 13
1.814160490455208
 23
3.571788409614577
 33
0.0
  0
SOLID
  5
115
330
10F
100
AcDbEntity
  8
STD10004-H38
 62
     0
100
AcDbTrace
 10
1.793327157121875
 20
5.046827836976675
 30
0.0
 11
1.834993823788541
 21
5.046827836976675
 31
0.0
 12
1.814160490455209
 22
5.171827836976675
 32
0.0
 13
1.814160490455209
 23
5.171827836976675
 33
0.0
  0
MTEXT
  5
116
330
10F
100
AcDbEntity
  8
STD10004-H38
 62
     0
100
AcDbMText
 10
1.814160490455208
 20
4.420713590073589
 30
0.0
 40
0.125
 41
0.0
 71
     5
 72
     1
  1
\A1;1{\H1.000000x;\S5/8;}
 73
     1
 44
1.0
  0
POINT
  5
117
330
10F
100
AcDbEntity
  8
DEFPOINTS
 62
     0
100
AcDbPoint
 10
3.017371457233865
 20
3.571788409614577
 30
0.0
  0
POINT
  5
119
330
10F
100
AcDbEntity
  8
DEFPOINTS
 62
     0
100
AcDbPoint
 10
3.132499873377857
 20
5.171827836976675
 30
0.0
  0
POINT
  5
11A
330
10F
100
AcDbEntity
  8
DEFPOINTS
 62
     0
100
AcDbPoint
 10
1.814160490455209
 20
5.171827836976675
 30
0.0
  0
ENDBLK
  5
11C
330
10F
100
AcDbEntity
  8
0
 62
     1
100
AcDbBlockEnd
  0
BLOCK
  5
129
330
11E
100
AcDbEntity
  8
0
 62
     1
100
AcDbBlockBegin
  2
*D11
 70
     1
 10
0.0
 20
0.0
 30
0.0
  3
*D11
  1

  0
LINE
  5
11F
330
11E
100
AcDbEntity
  8
STD10004-H38
 62
     0
370
    -2
100
AcDbLine
 10
2.918499873377832
 20
3.57178840961458
 30
0.0
 11
2.918499873377832
 21
2.919718135685727
 31
0.0
  0
LINE
  5
120
330
11E
100
AcDbEntity
  8
STD10004-H38
 62
     0
370
    -2
100
AcDbLine
 10
4.688499873377852
 20
3.57178840961458
 30
0.0
 11
4.688499873377852
 21
2.919718135685727
 31
0.0
  0
LINE
  5
121
330
11E
100
AcDbEntity
  8
STD10004-H38
 62
     0
370
    -2
100
AcDbLine
 10
3.043499873377832
 20
2.982218135685727
 30
0.0
 11
3.628098025552805
 21
2.982218135685727
 31
0.0
  0
LINE
  5
122
330
11E
100
AcDbEntity
  8
STD10004-H38
 62
     0
370
    -2
100
AcDbLine
 10
4.563499873377852
 20
2.982218135685727
 30
0.0
 11
3.992621835076615
 21
2.982218135685727
 31
0.0
  0
SOLID
  5
123
330
11E
100
AcDbEntity
  8
STD10004-H38
 62
     0
100
AcDbTrace
 10
3.043499873377832
 20
3.00305146901906
 30
0.0
 11
3.043499873377832
 21
2.961384802352393
 31
0.0
 12
2.918499873377832
 22
2.982218135685727
 32
0.0
 13
2.918499873377832
 23
2.982218135685727
 33
0.0
  0
SOLID
  5
124
330
11E
100
AcDbEntity
  8
STD10004-H38
 62
     0
100
AcDbTrace
 10
4.563499873377852
 20
3.00305146901906
 30
0.0
 11
4.563499873377852
 21
2.961384802352393
 31
0.0
 12
4.688499873377852
 22
2.982218135685727
 32
0.0
 13
4.688499873377852
 23
2.982218135685727
 33
0.0
  0
MTEXT
  5
125
330
11E
100
AcDbEntity
  8
STD10004-H38
 62
     0
100
AcDbMText
 10
3.81035993031471
 20
2.982218135685727
 30
0.0
 40
0.125
 41
0.0
 71
     5
 72
     1
  1
\A1;1{\H1.000000x;\S3/4;}
 73
     1
 44
1.0
  0
POINT
  5
126
330
11E
100
AcDbEntity
  8
DEFPOINTS
 62
     0
100
AcDbPoint
 10
2.918499873377832
 20
3.63428840961458
 30
0.0
  0
POINT
  5
127
330
11E
100
AcDbEntity
  8
DEFPOINTS
 62
     0
100
AcDbPoint
 10
4.688499873377852
 20
3.63428840961458
 30
0.0
  0
POINT
  5
128
330
11E
100
AcDbEntity
  8
DEFPOINTS
 62
     0
100
AcDbPoint
 10
4.688499873377852
 20
2.982218135685727
 30
0.0
  0
ENDBLK
  5
12A
330
11E
100
AcDbEntity
  8
0
 62
     1
100
AcDbBlockEnd
  0
BLOCK
  5
137
330
12C
100
AcDbEntity
  8
0
 62
     1
100
AcDbBlockBegin
  2
*D12
 70
     1
 10
0.0
 20
0.0
 30
0.0
  3
*D12
  1

  0
LINE
  5
12D
330
12C
100
AcDbEntity
  8
STD10004-H38
 62
     0
370
    -2
100
AcDbLine
 10
8.353244826760239
 20
3.509288409614577
 30
0.0
 11
8.353244826760239
 21
2.989192617943053
 31
0.0
  0
LINE
  5
12E
330
12C
100
AcDbEntity
  8
STD10004-H38
 62
     0
370
    -2
100
AcDbLine
 10
7.978244826760238
 20
3.509288409614577
 30
0.0
 11
7.978244826760238
 21
2.989192617943053
 31
0.0
  0
LINE
  5
12F
330
12C
100
AcDbEntity
  8
STD10004-H38
 62
     0
370
    -2
100
AcDbLine
 10
8.478244826760239
 20
3.051692617943053
 30
0.0
 11
8.603244826760239
 21
3.051692617943053
 31
0.0
  0
LINE
  5
130
330
12C
100
AcDbEntity
  8
STD10004-H38
 62
     0
370
    -2
100
AcDbLine
 10
7.853244826760238
 20
3.051692617943053
 30
0.0
 11
7.728244826760238
 21
3.051692617943053
 31
0.0
  0
SOLID
  5
131
330
12C
100
AcDbEntity
  8
STD10004-H38
 62
     0
100
AcDbTrace
 10
8.478244826760239
 20
3.072525951276387
 30
0.0
 11
8.478244826760239
 21
3.03085928460972
 31
0.0
 12
8.353244826760239
 22
3.051692617943053
 32
0.0
 13
8.353244826760239
 23
3.051692617943053
 33
0.0
  0
SOLID
  5
132
330
12C
100
AcDbEntity
  8
STD10004-H38
 62
     0
100
AcDbTrace
 10
7.853244826760238
 20
3.072525951276387
 30
0.0
 11
7.853244826760238
 21
3.03085928460972
 31
0.0
 12
7.978244826760238
 22
3.051692617943053
 32
0.0
 13
7.978244826760238
 23
3.051692617943053
 33
0.0
  0
MTEXT
  5
133
330
12C
100
AcDbEntity
  8
STD10004-H38
 62
     0
100
AcDbMText
 10
8.165744826760239
 20
3.051692617943053
 30
0.0
 40
0.125
 41
0.0
 71
     5
 72
     1
  1
\A1;{\H1.000000x;\S3/8;}
 73
     1
 44
1.0
  0
POINT
  5
134
330
12C
100
AcDbEntity
  8
DEFPOINTS
 62
     0
100
AcDbPoint
 10
8.353244826760239
 20
3.571788409614577
 30
0.0
  0
POINT
  5
135
330
12C
100
AcDbEntity
  8
DEFPOINTS
 62
     0
100
AcDbPoint
 10
7.978244826760238
 20
3.571788409614577
 30
0.0
  0
POINT
  5
136
330
12C
100
AcDbEntity
  8
DEFPOINTS
 62
     0
100
AcDbPoint
 10
7.978244826760238
 20
3.051692617943053
 30
0.0
  0
ENDBLK
  5
138
330
12C
100
AcDbEntity
  8
0
 62
     1
100
AcDbBlockEnd
  0
BLOCK
  5
4AC
330
4AB
100
AcDbEntity
  8
0
 62
     1
100
AcDbBlockBegin
  2
*U13
 70
     1
 10
0.0
 20
0.0
 30
0.0
  3
*U13
  1

  0
ENDBLK
  5
4AD
330
4AB
100
AcDbEntity
  8
0
 62
     1
100
AcDbBlockEnd
  0
BLOCK
  5
4EC
330
4EA
100
AcDbEntity
  8
0
 62
     1
100
AcDbBlockBegin
  2
GENAXEH
 70
     0
 10
0.0
 20
0.0
 30
0.0
  3
GENAXEH
  1

  0
LINE
  5
4EB
330
4EA
100
AcDbEntity
  8
0
100
AcDbLine
 10
-1.0
 20
0.0
 30
0.0
 11
1.0
 21
0.0
 31
0.0
  0
ENDBLK
  5
4ED
330
4EA
100
AcDbEntity
  8
0
 62
     1
100
AcDbBlockEnd
  0
ENDSEC
  0
SECTION
  2
ENTITIES
  0
INSERT
  5
27
330
D
100
AcDbEntity
 67
     1
  8
0
 62
     2
100
AcDbBlockReference
  2
*U0
 10
-0.1035968839224601
 20
-0.4120715393200635
 30
0.0
  0
INSERT
  5
2C
330
D
100
AcDbEntity
 67
     1
  8
0
 62
     2
100
AcDbBlockReference
  2
*U1
 10
-0.1035968839224601
 20
-0.4120715393200635
 30
0.0
  0
INSERT
  5
31
330
D
100
AcDbEntity
 67
     1
  8
0
 62
     2
100
AcDbBlockReference
  2
*U2
 10
-0.1035968839224601
 20
-0.4120715393200635
 30
0.0
  0
INSERT
  5
36
330
D
100
AcDbEntity
 67
     1
  8
0
 62
     2
100
AcDbBlockReference
  2
*U3
 10
-0.1035968839224601
 20
-0.4120715393200635
 30
0.0
  0
INSERT
  5
3B
330
D
100
AcDbEntity
 67
     1
  8
0
 62
     2
100
AcDbBlockReference
  2
*U5
 10
-0.484059373872544
 20
13.70289091197228
 30
0.0
  0
INSERT
  5
40
330
D
100
AcDbEntity
 67
     1
  8
0
 62
     2
100
AcDbBlockReference
  2
*U6
 10
-0.484059373872544
 20
13.70289091197228
 30
0.0
  0
INSERT
  5
45
330
D
100
AcDbEntity
 67
     1
  8
0
 62
     2
100
AcDbBlockReference
  2
*U7
 10
-0.484059373872544
 20
13.70289091197228
 30
0.0
  0
INSERT
  5
4A
330
D
100
AcDbEntity
 67
     1
  8
0
 62
     2
100
AcDbBlockReference
  2
*U8
 10
-0.484059373872544
 20
13.70289091197228
 30
0.0
  0
MTEXT
  5
4F
330
D
100
AcDbEntity
 67
     1
  8
PHANTOM
 62
     7
100
AcDbMText
 10
23.22008692641551
 20
15.49102279344753
 30
0.0
 40
0.18
 41
0.0
 71
     4
 72
     5
  1

 73
     1
 44
1.0
  0
MTEXT
  5
52
330
D
100
AcDbEntity
 67
     1
  8
CENTER
 62
     7
100
AcDbMText
 10
14.55698453276749
 20
4.808269532687563
 30
0.0
 40
0.18
 41
0.0
 71
     4
 72
     5
  1

 73
     1
 44
1.0
  0
MTEXT
  5
54
330
D
100
AcDbEntity
 67
     1
  8
PHANTOM
 62
     7
100
AcDbMText
 10
31.38103547456764
 20
12.1177092500044
 30
0.0
 40
0.18
 41
0.0
 71
     6
 72
     5
  1

 73
     1
 44
1.0
  0
MTEXT
  5
55
330
D
100
AcDbEntity
 67
     1
  8
PHANTOM
 62
     7
100
AcDbMText
 10
33.59987718135943
 20
17.42541351596964
 30
0.0
 40
0.18
 41
0.0
 71
     4
 72
     5
  1

 73
     1
 44
1.0
  0
MTEXT
  5
56
330
D
100
AcDbEntity
 67
     1
  8
PHANTOM
 62
     7
100
AcDbMText
 10
34.01558322261337
 20
17.03523899492325
 30
0.0
 40
0.18
 41
0.0
 71
     4
 72
     5
  1

 73
     1
 44
1.0
  0
LINE
  5
57
330
D
100
AcDbEntity
 67
     1
  8
10
100
AcDbLine
 10
16.80890311607754
 20
10.33792846067993
 30
0.0
 11
16.80890311607753
 21
10.08792846067992
 31
0.0
  0
LINE
  5
59
330
D
100
AcDbEntity
 67
     1
  8
10
100
AcDbLine
 10
-0.1910968839224566
 20
-0.6620715393200634
 30
0.0
 11
0.0589031160775434
 21
-0.6620715393200638
 31
0.0
  0
LINE
  5
5A
330
D
100
AcDbEntity
 67
     1
  8
10
100
AcDbLine
 10
-0.1910968839224566
 20
10.33792846067993
 30
0.0
 11
0.0589031160775434
 21
10.33792846067993
 31
0.0
  0
LINE
  5
5B
330
D
100
AcDbEntity
 67
     1
  8
10
100
AcDbLine
 10
-0.1910968839224566
 20
10.33792846067993
 30
0.0
 11
-0.1910968839224531
 21
10.08792846067992
 31
0.0
  0
LINE
  5
5C
330
D
100
AcDbEntity
 67
     1
  8
10
100
AcDbLine
 10
16.80890311607753
 20
-0.4120715393200616
 30
0.0
 11
16.80890311607754
 21
-0.6620715393200613
 31
0.0
  0
LINE
  5
5D
330
D
100
AcDbEntity
 67
     1
  8
10
100
AcDbLine
 10
16.55890311607753
 20
-0.6620715393200613
 30
0.0
 11
16.80890311607754
 21
-0.6620715393200613
 31
0.0
  0
LINE
  5
5E
330
D
100
AcDbEntity
 67
     1
  8
10
100
AcDbLine
 10
16.55890311607753
 20
10.33792846067993
 30
0.0
 11
16.80890311607755
 21
10.33792846067993
 31
0.0
  0
LINE
  5
5F
330
D
100
AcDbEntity
 67
     1
  8
10
100
AcDbLine
 10
-0.1910968839224531
 20
-0.4120715393200635
 30
0.0
 11
-0.1910968839224566
 21
-0.6620715393200634
 31
0.0
  0
INSERT
  5
60
330
D
100
AcDbEntity
 67
     1
  8
10
100
AcDbBlockReference
  2
A$C708B5813
 10
6.59305799848545
 20
-0.3672870279957965
 30
0.0000000075
 41
0.75
 42
0.75
 43
0.7500000000000001
  0
MTEXT
  5
A4
330
D
100
AcDbEntity
 67
     1
  8
10
 62
     7
100
AcDbMText
 10
11.48520769835211
 20
0.0588366438344881
 30
0.0
 40
0.1
 41
6.799999999999999
 71
     1
 72
     5
  1
P.O. BOX 496\P664 STATE STREET\PBEAVER, PA 15009
 73
     1
 44
1.0
  0
MTEXT
  5
A5
330
D
100
AcDbEntity
 67
     1
  8
10
 62
     7
100
AcDbMText
 10
14.97303976292031
 20
0.0038694532730736
 30
0.0
 40
0.09
 41
4.5
 71
     1
 72
     5
  1
\LDRAWING NO.
 73
     1
 44
1.0
  0
MTEXT
  5
A6
330
D
100
AcDbEntity
 67
     1
  8
10
 62
     7
100
AcDbMText
 10
15.13476441151482
 20
-0.1680573291321061
 30
0.0
 40
0.125
 41
1.8464
 71
     1
 72
     5
  1
WC100109
 73
     1
 44
1.0
  0
LINE
  5
A7
330
D
100
AcDbEntity
 67
     1
  8
10
100
AcDbLine
 10
14.91499351357803
 20
-0.4044991982139782
 30
0.0
 11
14.91499351357803
 21
0.095500801786022
 31
0.0
  0
MTEXT
  5
A8
330
D
100
AcDbEntity
 67
     1
  8
10
 62
     7
100
AcDbMText
 10
13.67071913278607
 20
1.417048753140879
 30
0.0
 40
0.11
 41
2.799999999999998
 71
     1
 72
     5
  1
TERMINAL BLOCK PRODUCT LINE\PDIN RAIL MOUNTED \P50AMP TERMINAL BLOCK\PDATA SHEET
 73
     1
 44
1.0
  0
LINE
  5
A9
330
D
100
AcDbEntity
 67
     1
  8
10
100
AcDbLine
 10
8.812809350412667
 20
0.5444718643545876
 30
0.0
 11
13.55890310041266
 21
0.5444718643545876
 31
0.0
  0
TEXT
  5
AA
330
D
100
AcDbEntity
 67
     1
  8
10
 62
     7
100
AcDbText
 10
8.935746683594326
 20
0.1555280704381516
 30
0.0
 40
0.094921875
  1
REV
100
AcDbText
  0
TEXT
  5
AB
330
D
100
AcDbEntity
 67
     1
  8
10
 62
     7
100
AcDbText
 10
10.42423599164903
 20
0.1603654737318916
 30
0.0
 40
0.094921875
  1
DESCRIPTION
100
AcDbText
  0
TEXT
  5
AC
330
D
100
AcDbEntity
 67
     1
  8
10
 62
     7
100
AcDbText
 10
12.54677072622135
 20
0.1574389299142904
 30
0.0
 40
0.094921875
  1
DATE
100
AcDbText
  0
TEXT
  5
AD
330
D
100
AcDbEntity
 67
     1
  8
10
 62
     7
100
AcDbText
 10
13.26083692396331
 20
0.162276472093005
 30
0.0
 40
0.094921875
  1
BY
100
AcDbText
  0
LINE
  5
AE
330
D
100
AcDbEntity
 67
     1
  8
10
100
AcDbLine
 10
8.812809350412667
 20
0.3467179581045876
 30
0.0
 11
13.55890310041266
 21
0.3467179581045876
 31
0.0
  0
LINE
  5
AF
330
D
100
AcDbEntity
 67
     1
  8
10
100
AcDbLine
 10
9.287418725412663
 20
0.5444718643545876
 30
0.0
 11
9.287418725412631
 21
0.0879284606799382
 31
0.0
  0
LINE
  5
B0
330
D
100
AcDbEntity
 67
     1
  8
10
100
AcDbLine
 10
13.08429372541266
 20
0.5444718643545876
 30
0.0
 11
13.08429372541266
 21
0.0879284606799383
 31
0.0
  0
LINE
  5
B1
330
D
100
AcDbEntity
 67
     1
  8
10
100
AcDbLine
 10
12.37237966291266
 20
0.5444718643545876
 30
0.0
 11
12.3723796629127
 21
0.0879284606799383
 31
0.0
  0
MTEXT
  5
B2
330
D
100
AcDbEntity
 67
     1
  8
10
 62
     7
100
AcDbMText
 10
13.60710420944817
 20
-0.0050753812564417
 30
0.0
 40
0.09
 41
4.5
 71
     1
 72
     5
  1
\LSCALE:
 73
     1
 44
1.0
  0
TEXT
  5
B3
330
D
100
AcDbEntity
 67
     1
  8
10
 62
     7
100
AcDbText
 10
8.929293874674144
 20
0.385537169657173
 30
0.0
 40
0.094921875
  1
XXX
100
AcDbText
  0
TEXT
  5
B4
330
D
100
AcDbEntity
 67
     1
  8
10
 62
     7
100
AcDbText
 10
10.41778318272885
 20
0.3903745729509147
 30
0.0
 40
0.094921875
  1
XXXXXXXXXXX
100
AcDbText
  0
TEXT
  5
B5
330
D
100
AcDbEntity
 67
     1
  8
10
 62
     7
100
AcDbText
 10
12.54031791730118
 20
0.3874480291333135
 30
0.0
 40
0.094921875
  1
XXXX
100
AcDbText
  0
TEXT
  5
B6
330
D
100
AcDbEntity
 67
     1
  8
10
 62
     7
100
AcDbText
 10
13.20430403408572
 20
0.3922855713120263
 30
0.0
 40
0.094921875
  1
XXX
100
AcDbText
  0
LINE
  5
B7
330
D
100
AcDbEntity
 67
     1
  8
10
100
AcDbLine
 10
0.0589031160775434
 20
-0.4120715393200629
 30
0.0
 11
16.55890311607753
 21
-0.4120715393200732
 31
0.0
  0
LINE
  5
B8
330
D
100
AcDbEntity
 67
     1
  8
10
100
AcDbLine
 10
8.812809350412655
 20
0.5444718643545876
 30
0.0
 11
8.812809350412637
 21
0.0879284606799382
 31
0.0
  0
LINE
  5
B9
330
D
100
AcDbEntity
 67
     1
  8
10
100
AcDbLine
 10
13.55890311245226
 20
1.564490960679938
 30
0.0
 11
13.55890307639046
 21
0.0879284606799478
 31
0.0
  0
LINE
  5
BA
330
D
100
AcDbEntity
 67
     1
  8
10
100
AcDbLine
 10
16.55890311607753
 20
10.08792846067992
 30
0.0
 11
16.55890311607753
 21
-0.4120715393200732
 31
0.0
  0
CIRCLE
  5
BB
330
D
100
AcDbEntity
 67
     1
  8
10
 62
     1
100
AcDbCircle
 10
0.0589031160775399
 20
-0.4120715393200635
 30
0.00000001
 40
0.1415883773737505
  0
LINE
  5
BC
330
D
100
AcDbEntity
 67
     1
  8
10
100
AcDbLine
 10
0.0589031160775505
 20
10.08792846067994
 30
0.0
 11
16.55890311607753
 21
10.08792846067992
 31
0.0
  0
LINE
  5
BD
330
D
100
AcDbEntity
 67
     1
  8
10
100
AcDbLine
 10
0.0589031160775505
 20
10.08792846067994
 30
0.0
 11
0.0589031160775434
 21
-0.4120715393200626
 31
0.0
  0
LINE
  5
BE
330
D
100
AcDbEntity
 67
     1
  8
10
100
AcDbLine
 10
13.62890311607753
 20
1.523866044901351
 30
0.0
 11
16.48890311607751
 21
1.523866044901352
 31
0.0
  0
LINE
  5
BF
330
D
100
AcDbEntity
 67
     1
  8
10
100
AcDbLine
 10
16.50890311607753
 20
1.503866044901351
 30
0.0
 11
16.50890311607753
 21
0.6079284606799386
 31
0.0
  0
LINE
  5
C0
330
D
100
AcDbEntity
 67
     1
  8
10
100
AcDbLine
 10
13.60890311607754
 20
1.503866044901351
 30
0.0
 11
13.60890311607753
 21
0.6079284606799386
 31
0.0
  0
LINE
  5
C1
330
D
100
AcDbEntity
 67
     1
  8
10
100
AcDbLine
 10
13.62890311607753
 20
0.5879284606799386
 30
0.0
 11
16.48890311607753
 21
0.5879284606799386
 31
0.0
  0
LINE
  5
C2
330
D
100
AcDbEntity
 67
     1
  8
10
100
AcDbLine
 10
13.55890308738072
 20
0.5444718110582258
 30
0.0
 11
16.55890311607753
 21
0.5444718110582258
 31
0.0
  0
MTEXT
  5
C3
330
D
100
AcDbEntity
 67
     1
  8
10
 62
     7
100
AcDbMText
 10
13.85231744493426
 20
-0.1810084898143866
 30
0.0
 40
0.125
 41
1.8464
 71
     1
 72
     5
  1
2:1
 73
     1
 44
1.0
  0
MTEXT
  5
C4
330
D
100
AcDbEntity
 67
     1
  8
10
 62
     7
100
AcDbMText
 10
13.62272191752585
 20
0.458142889431061
 30
0.0
 40
0.09
 41
4.5
 71
     1
 72
     5
  1
\LDRAWN BY:
 73
     1
 44
1.0
  0
MTEXT
  5
C5
330
D
100
AcDbEntity
 67
     1
  8
10
 62
     7
100
AcDbMText
 10
14.04828397817184
 20
0.2822097808731154
 30
0.0
 40
0.125
 41
1.8464
 71
     1
 72
     5
  1
RCG
 73
     1
 44
1.0
  0
MTEXT
  5
C6
330
D
100
AcDbEntity
 67
     1
  8
10
 62
     7
100
AcDbMText
 10
14.98667093205588
 20
0.4737570029909774
 30
0.0
 40
0.09
 41
4.5
 71
     1
 72
     5
  1
\LDATE:
 73
     1
 44
1.0
  0
MTEXT
  5
C7
330
D
100
AcDbEntity
 67
     1
  8
10
 62
     7
100
AcDbMText
 10
15.31962141344416
 20
0.2978238944330318
 30
0.0
 40
0.125
 41
1.8464
 71
     1
 72
     5
  1
12-11-01
 73
     1
 44
1.0
  0
LINE
  5
C8
330
D
100
AcDbEntity
 67
     1
  8
10
100
AcDbLine
 10
14.91499351357803
 20
0.0879284606799384
 30
0.0
 11
14.91499351357803
 21
0.5379284606799386
 31
0.0000000000000001
  0
LINE
  5
C9
330
D
100
AcDbEntity
 67
     1
  8
10
100
AcDbLine
 10
13.62890311607753
 20
1.523866044901351
 30
0.0
 11
13.60890311607753
 21
1.503866044901351
 31
0.0
  0
LINE
  5
CA
330
D
100
AcDbEntity
 67
     1
  8
10
100
AcDbLine
 10
16.48890311607751
 20
1.523866044901351
 30
0.0
 11
16.50890311607753
 21
1.503866044901351
 31
0.0
  0
LINE
  5
CB
330
D
100
AcDbEntity
 67
     1
  8
10
100
AcDbLine
 10
16.50890311607753
 20
0.6079284606799386
 30
0.0
 11
16.48890311607753
 21
0.5879284606799386
 31
0.0
  0
LINE
  5
CC
330
D
100
AcDbEntity
 67
     1
  8
10
100
AcDbLine
 10
13.62890311607753
 20
0.5879284606799386
 30
0.0
 11
13.60890311607753
 21
0.6079284606799386
 31
0.0
  0
LINE
  5
CD
330
D
100
AcDbEntity
 67
     1
  8
10
100
AcDbLine
 10
13.55890307639046
 20
0.0879284606799384
 30
0.0
 11
13.55890307639046
 21
-0.4120715393200715
 31
0.0
  0
MTEXT
  5
CE
330
D
100
AcDbEntity
 67
     1
  8
10
 62
     7
100
AcDbMText
 10
7.110048053132262
 20
-0.06464087104822
 30
0.0
 40
0.2
 41
4.7621
 71
     1
 72
     5
  1
CONTROL CONCEPTS CORP.
 73
     1
 44
1.0
  0
INSERT
  5
CF
330
D
100
AcDbEntity
 67
     1
  8
DIMENSION
100
AcDbBlockReference
  2
A$C2BF30918
 10
13.08767258567766
 20
-0.3671750341995903
 30
0.0000000075
  0
LINE
  5
D5
330
D
100
AcDbEntity
 67
     1
  8
10
100
AcDbLine
 10
6.558903066843699
 20
0.0879284606799398
 30
0.0
 11
6.558903066843699
 21
-0.4120715393200669
 31
0.0
  0
LINE
  5
D6
330
D
100
AcDbEntity
 67
     1
  8
10
100
AcDbLine
 10
6.558903066843699
 20
-0.1620715393200633
 30
0.0
 11
0.0589031160775436
 21
-0.1620715393200589
 31
0.0
  0
LINE
  5
D7
330
D
100
AcDbEntity
 67
     1
  8
10
100
AcDbLine
 10
5.258903066843699
 20
0.0879284606799398
 30
0.0
 11
5.258903066843699
 21
-0.4120715393200669
 31
0.0
  0
LINE
  5
D8
330
D
100
AcDbEntity
 67
     1
  8
10
100
AcDbLine
 10
3.958903066843698
 20
0.0879284606799398
 30
0.0
 11
3.958903066843698
 21
-0.4120715393200669
 31
0.0
  0
LINE
  5
D9
330
D
100
AcDbEntity
 67
     1
  8
10
100
AcDbLine
 10
2.658903066843699
 20
0.0879284606799398
 30
0.0
 11
2.658903066843699
 21
-0.4120715393200669
 31
0.0
  0
LINE
  5
DA
330
D
100
AcDbEntity
 67
     1
  8
10
100
AcDbLine
 10
1.358903066843698
 20
0.0879284606799398
 30
0.0
 11
1.358903066843698
 21
-0.4120715393200669
 31
0.0
  0
LINE
  5
DB
330
D
100
AcDbEntity
 67
     1
  8
10
100
AcDbLine
 10
8.81280933738072
 20
1.335487222872775
 30
0.0
 11
13.55890308738071
 21
1.335487222872775
 31
0.0
  0
TEXT
  5
DC
330
D
100
AcDbEntity
 67
     1
  8
10
 62
     7
100
AcDbText
 10
8.929293861642197
 20
1.374306434425362
 30
0.0
 40
0.094921875
  1
XXX
100
AcDbText
  0
LINE
  5
DD
330
D
100
AcDbEntity
 67
     1
  8
10
100
AcDbLine
 10
8.812809337380707
 20
1.564490960679938
 30
0.0
 11
8.812809337380697
 21
1.335487222872775
 31
0.0
  0
LINE
  5
DE
330
D
100
AcDbEntity
 67
     1
  8
10
100
AcDbLine
 10
9.287418712380716
 20
1.564490960679938
 30
0.0
 11
9.287418712380704
 21
1.335487222872775
 31
0.0
  0
TEXT
  5
DF
330
D
100
AcDbEntity
 67
     1
  8
10
 62
     7
100
AcDbText
 10
10.41778316969691
 20
1.379143837719104
 30
0.0
 40
0.094921875
  1
XXXXXXXXXXX
100
AcDbText
  0
LINE
  5
E0
330
D
100
AcDbEntity
 67
     1
  8
10
100
AcDbLine
 10
12.37237964988073
 20
1.564490960679938
 30
0.0
 11
12.37237964988074
 21
1.335487222872775
 31
0.0
  0
LINE
  5
E1
330
D
100
AcDbEntity
 67
     1
  8
10
100
AcDbLine
 10
13.08429371238071
 20
1.564490960679938
 30
0.0
 11
13.08429371238071
 21
1.335487222872775
 31
0.0
  0
TEXT
  5
E2
330
D
100
AcDbEntity
 67
     1
  8
10
 62
     7
100
AcDbText
 10
12.54031790426923
 20
1.376217293901501
 30
0.0
 40
0.094921875
  1
XXXX
100
AcDbText
  0
TEXT
  5
E3
330
D
100
AcDbEntity
 67
     1
  8
10
 62
     7
100
AcDbText
 10
13.20430402105376
 20
1.381054836080215
 30
0.0
 40
0.094921875
  1
XXX
100
AcDbText
  0
LINE
  5
E4
330
D
100
AcDbEntity
 67
     1
  8
10
100
AcDbLine
 10
8.81280933738072
 20
1.137733369919136
 30
0.0
 11
13.55890308738071
 21
1.137733369919136
 31
0.0
  0
LINE
  5
E5
330
D
100
AcDbEntity
 67
     1
  8
10
100
AcDbLine
 10
8.81280933738072
 20
1.335487276169136
 30
0.0
 11
13.55890308738071
 21
1.335487276169136
 31
0.0
  0
TEXT
  5
E6
330
D
100
AcDbEntity
 67
     1
  8
10
 62
     7
100
AcDbText
 10
8.929293861642197
 20
1.176552581471722
 30
0.0
 40
0.094921875
  1
XXX
100
AcDbText
  0
LINE
  5
E7
330
D
100
AcDbEntity
 67
     1
  8
10
100
AcDbLine
 10
8.812809337380707
 20
1.335487276169136
 30
0.0
 11
8.812809337380697
 21
1.137733369919136
 31
0.0
  0
LINE
  5
E8
330
D
100
AcDbEntity
 67
     1
  8
10
100
AcDbLine
 10
9.287418712380716
 20
1.335487276169136
 30
0.0
 11
9.287418712380704
 21
1.137733369919136
 31
0.0
  0
TEXT
  5
E9
330
D
100
AcDbEntity
 67
     1
  8
10
 62
     7
100
AcDbText
 10
10.41778316969691
 20
1.181389984765465
 30
0.0
 40
0.094921875
  1
XXXXXXXXXXX
100
AcDbText
  0
LINE
  5
EA
330
D
100
AcDbEntity
 67
     1
  8
10
100
AcDbLine
 10
12.37237964988073
 20
1.335487276169136
 30
0.0
 11
12.37237964988074
 21
1.137733369919136
 31
0.0
  0
LINE
  5
EB
330
D
100
AcDbEntity
 67
     1
  8
10
100
AcDbLine
 10
13.08429371238071
 20
1.335487276169136
 30
0.0
 11
13.08429371238071
 21
1.137733369919136
 31
0.0
  0
TEXT
  5
EC
330
D
100
AcDbEntity
 67
     1
  8
10
 62
     7
100
AcDbText
 10
12.54031790426923
 20
1.178463440947862
 30
0.0
 40
0.094921875
  1
XXXX
100
AcDbText
  0
TEXT
  5
ED
330
D
100
AcDbEntity
 67
     1
  8
10
 62
     7
100
AcDbText
 10
13.20430402105376
 20
1.183300983126575
 30
0.0
 40
0.094921875
  1
XXX
100
AcDbText
  0
LINE
  5
EE
330
D
100
AcDbEntity
 67
     1
  8
10
100
AcDbLine
 10
8.812809343896692
 20
0.742225664011865
 30
0.0
 11
13.55890309389668
 21
0.742225664011865
 31
0.0
  0
LINE
  5
EF
330
D
100
AcDbEntity
 67
     1
  8
10
100
AcDbLine
 10
8.812809343896692
 20
0.939979570261865
 30
0.0
 11
13.55890309389668
 21
0.939979570261865
 31
0.0
  0
TEXT
  5
F0
330
D
100
AcDbEntity
 67
     1
  8
10
 62
     7
100
AcDbText
 10
8.929293868158167
 20
0.7810448755644514
 30
0.0
 40
0.094921875
  1
XXX
100
AcDbText
  0
LINE
  5
F1
330
D
100
AcDbEntity
 67
     1
  8
10
100
AcDbLine
 10
8.812809343896681
 20
0.9399795702618643
 30
0.0
 11
8.812809343896667
 21
0.742225664011865
 31
0.0
  0
LINE
  5
F2
330
D
100
AcDbEntity
 67
     1
  8
10
100
AcDbLine
 10
9.287418718896686
 20
0.9399795702618643
 30
0.0
 11
9.287418718896676
 21
0.742225664011865
 31
0.0
  0
TEXT
  5
F3
330
D
100
AcDbEntity
 67
     1
  8
10
 62
     7
100
AcDbText
 10
10.41778317621288
 20
0.7858822788581934
 30
0.0
 40
0.094921875
  1
XXXXXXXXXXX
100
AcDbText
  0
LINE
  5
F4
330
D
100
AcDbEntity
 67
     1
  8
10
100
AcDbLine
 10
12.37237965639669
 20
0.939979570261865
 30
0.0
 11
12.37237965639671
 21
0.742225664011865
 31
0.0
  0
LINE
  5
F5
330
D
100
AcDbEntity
 67
     1
  8
10
100
AcDbLine
 10
13.08429371889668
 20
0.939979570261865
 30
0.0
 11
13.08429371889668
 21
0.742225664011865
 31
0.0
  0
TEXT
  5
F6
330
D
100
AcDbEntity
 67
     1
  8
10
 62
     7
100
AcDbText
 10
12.54031791078521
 20
0.7829557350405914
 30
0.0
 40
0.094921875
  1
XXXX
100
AcDbText
  0
TEXT
  5
F7
330
D
100
AcDbEntity
 67
     1
  8
10
 62
     7
100
AcDbText
 10
13.20430402756975
 20
0.7877932772193044
 30
0.0
 40
0.094921875
  1
XXX
100
AcDbText
  0
LINE
  5
F8
330
D
100
AcDbEntity
 67
     1
  8
10
100
AcDbLine
 10
8.812809343896692
 20
0.9399795169655019
 30
0.0
 11
13.55890309389668
 21
0.9399795169655019
 31
0.0
  0
LINE
  5
F9
330
D
100
AcDbEntity
 67
     1
  8
10
100
AcDbLine
 10
8.812809343896692
 20
1.137733423215501
 30
0.0
 11
13.55890309389668
 21
1.137733423215501
 31
0.0
  0
TEXT
  5
FA
330
D
100
AcDbEntity
 67
     1
  8
10
 62
     7
100
AcDbText
 10
8.929293868158167
 20
0.9787987285180882
 30
0.0
 40
0.094921875
  1
XXX
100
AcDbText
  0
LINE
  5
FB
330
D
100
AcDbEntity
 67
     1
  8
10
100
AcDbLine
 10
8.812809343896681
 20
1.1377334232155
 30
0.0
 11
8.812809343896667
 21
0.9399795169655019
 31
0.0
  0
LINE
  5
FC
330
D
100
AcDbEntity
 67
     1
  8
10
100
AcDbLine
 10
9.287418718896686
 20
1.1377334232155
 30
0.0
 11
9.287418718896676
 21
0.9399795169655019
 31
0.0
  0
TEXT
  5
FD
330
D
100
AcDbEntity
 67
     1
  8
10
 62
     7
100
AcDbText
 10
10.41778317621288
 20
0.9836361318118303
 30
0.0
 40
0.094921875
  1
XXXXXXXXXXX
100
AcDbText
  0
LINE
  5
FE
330
D
100
AcDbEntity
 67
     1
  8
10
100
AcDbLine
 10
12.37237965639669
 20
1.137733423215501
 30
0.0
 11
12.37237965639671
 21
0.9399795169655019
 31
0.0
  0
LINE
  5
FF
330
D
100
AcDbEntity
 67
     1
  8
10
100
AcDbLine
 10
13.08429371889668
 20
1.137733423215501
 30
0.0
 11
13.08429371889668
 21
0.9399795169655019
 31
0.0
  0
TEXT
  5
100
330
D
100
AcDbEntity
 67
     1
  8
10
 62
     7
100
AcDbText
 10
12.54031791078521
 20
0.9807095879942282
 30
0.0
 40
0.094921875
  1
XXXX
100
AcDbText
  0
TEXT
  5
101
330
D
100
AcDbEntity
 67
     1
  8
10
 62
     7
100
AcDbText
 10
13.20430402756975
 20
0.9855471301729414
 30
0.0
 40
0.094921875
  1
XXX
100
AcDbText
  0
LINE
  5
102
330
D
100
AcDbEntity
 67
     1
  8
10
100
AcDbLine
 10
8.812809343896692
 20
0.5444718110582258
 30
0.0
 11
13.55890309389668
 21
0.544471811058226
 31
0.0
  0
LINE
  5
103
330
D
100
AcDbEntity
 67
     1
  8
10
100
AcDbLine
 10
8.812809343896692
 20
0.7422257173082261
 30
0.0
 11
13.55890309389668
 21
0.7422257173082261
 31
0.0
  0
TEXT
  5
104
330
D
100
AcDbEntity
 67
     1
  8
10
 62
     7
100
AcDbText
 10
8.929293868158167
 20
0.5832910226108124
 30
0.0
 40
0.094921875
  1
XXX
100
AcDbText
  0
LINE
  5
105
330
D
100
AcDbEntity
 67
     1
  8
10
100
AcDbLine
 10
8.812809343896681
 20
0.7422257173082257
 30
0.0
 11
8.812809343896667
 21
0.5444718110582258
 31
0.0
  0
LINE
  5
106
330
D
100
AcDbEntity
 67
     1
  8
10
100
AcDbLine
 10
9.287418718896686
 20
0.7422257173082257
 30
0.0
 11
9.287418718896676
 21
0.5444718110582258
 31
0.0
  0
TEXT
  5
107
330
D
100
AcDbEntity
 67
     1
  8
10
 62
     7
100
AcDbText
 10
10.41778317621288
 20
0.5881284259045544
 30
0.0
 40
0.094921875
  1
XXXXXXXXXXX
100
AcDbText
  0
LINE
  5
108
330
D
100
AcDbEntity
 67
     1
  8
10
100
AcDbLine
 10
12.37237965639669
 20
0.7422257173082261
 30
0.0
 11
12.37237965639671
 21
0.5444718110582258
 31
0.0
  0
LINE
  5
109
330
D
100
AcDbEntity
 67
     1
  8
10
100
AcDbLine
 10
13.08429371889668
 20
0.7422257173082261
 30
0.0
 11
13.08429371889668
 21
0.544471811058226
 31
0.0
  0
TEXT
  5
10A
330
D
100
AcDbEntity
 67
     1
  8
10
 62
     7
100
AcDbText
 10
12.54031791078521
 20
0.5852018820869525
 30
0.0
 40
0.094921875
  1
XXXX
100
AcDbText
  0
TEXT
  5
10B
330
D
100
AcDbEntity
 67
     1
  8
10
 62
     7
100
AcDbText
 10
13.20430402756975
 20
0.5900394242656657
 30
0.0
 40
0.094921875
  1
XXX
100
AcDbText
  0
LINE
  5
10C
330
D
100
AcDbEntity
 67
     1
  8
10
100
AcDbLine
 10
8.812809337380707
 20
1.564490960679938
 30
0.0
 11
16.55890311607753
 21
1.564490960679938
 31
0.0
  0
LINE
  5
10D
330
D
100
AcDbEntity
 67
     1
  8
10
100
AcDbLine
 10
0.0589031160775431
 20
0.0879284606799367
 30
0.0
 11
16.55890311607753
 21
0.0879284606799367
 31
0.0
  0
DIMENSION
  5
10E
330
D
100
AcDbEntity
 67
     1
  8
STD10004-H38
 62
     1
100
AcDbDimension
  2
*D10
 10
1.814160490455209
 20
5.171827836976675
 30
0.0
 11
1.814160490455208
 21
4.420713590073589
 31
0.0
 70
   128
 71
     5
 42
1.600039427362095
  3
Standard
100
AcDbAlignedDimension
 13
3.017371457233865
 23
3.571788409614577
 33
0.0
 14
3.132499873377857
 24
5.171827836976675
 34
0.0
 50
90.0
100
AcDbRotatedDimension
1001
ACAD
1000
DSTYLE
1002
{
1070
    44
1040
0.0625
1070
   271
1070
     3
1070
   272
1070
     3
1070
   288
1070
     1
1002
}
  0
DIMENSION
  5
11D
330
D
100
AcDbEntity
 67
     1
  8
STD10004-H38
 62
     1
100
AcDbDimension
  2
*D11
 10
4.688499873377852
 20
2.982218135685727
 30
0.0
 11
3.81035993031471
 21
2.982218135685727
 31
0.0
 70
   128
 71
     5
 42
1.77000000000002
  3
Standard
100
AcDbAlignedDimension
 13
2.918499873377832
 23
3.63428840961458
 33
0.0
 14
4.688499873377852
 24
3.63428840961458
 34
0.0
100
AcDbRotatedDimension
  0
DIMENSION
  5
12B
330
D
100
AcDbEntity
 67
     1
  8
STD10004-H38
 62
     1
100
AcDbDimension
  2
*D12
 10
7.978244826760238
 20
3.051692617943053
 30
0.0
 11
8.165744826760239
 21
3.051692617943053
 31
0.0
 70
   128
 71
     5
 42
0.375
  3
Standard
100
AcDbAlignedDimension
 13
8.353244826760239
 23
3.571788409614577
 33
0.0
 14
7.978244826760238
 24
3.571788409614577
 34
0.0
100
AcDbRotatedDimension
  0
MTEXT
  5
139
330
D
100
AcDbEntity
 67
     1
  8
STD10004-H38
 62
     1
100
AcDbMText
 10
8.426524294048007
 20
8.513688777284521
 30
0.0
 40
0.125
 41
6.6173
 71
     1
 72
     5
  1
{\LNOTE:\P\P}1) BOX TYPE CONDUCTOR CAN ACCEPT UP TO #6 WIRE\P\P2) RATEING - 50A 600v
 73
     1
 44
1.0
  0
LINE
  5
13A
330
D
100
AcDbEntity
 67
     1
  8
AM_VIS
100
AcDbLine
 10
4.22963186666923
 20
4.768577836976676
 30
0.0
 11
4.22963186666923
 21
4.777977836976678
 31
0.0
  0
LINE
  5
13C
330
D
100
AcDbEntity
 67
     1
  8
AM_HID
100
AcDbLine
 10
4.017367880086482
 20
4.768577836976676
 30
0.0
 11
4.22963186666923
 21
4.768577836976676
 31
0.0
  0
LINE
  5
13F
330
D
100
AcDbEntity
 67
     1
  8
AM_VIS
100
AcDbLine
 10
4.017367880086482
 20
4.777977836976678
 30
0.0
 11
4.017367880086482
 21
4.768577836976676
 31
0.0
  0
SPLINE
  5
140
330
D
100
AcDbEntity
 67
     1
  8
AM_VIS
100
AcDbSpline
210
0.0
220
0.0
230
1.0
 70
    12
 71
     2
 72
     6
 73
     3
 74
     0
 42
0.0000000001
 43
0.0000000001
 40
0.0
 40
0.0
 40
0.0
 40
0.022290918418531
 40
0.022290918418531
 40
0.022290918418531
 10
4.033290339513635
 20
4.793577836976678
 30
0.0
 41
1.0
 10
4.025948846244967
 20
4.786410383668953
 30
0.0
 41
1.003171444162572
 10
4.017367880086482
 20
4.777977836976678
 30
0.0
 41
1.0
  0
SPLINE
  5
141
330
D
100
AcDbEntity
 67
     1
  8
AM_VIS
100
AcDbSpline
210
0.0
220
0.0
230
1.0
 70
    12
 71
     2
 72
     6
 73
     3
 74
     0
 42
0.0000000001
 43
0.0000000001
 40
0.0
 40
0.0
 40
0.0
 40
0.022290918418531
 40
0.022290918418531
 40
0.022290918418531
 10
4.22963186666923
 20
4.777977836976678
 30
0.0
 41
1.0
 10
4.221050900510745
 20
4.786410383668953
 30
0.0
 41
1.003171444162572
 10
4.213709407242076
 20
4.793577836976678
 30
0.0
 41
1.0
  0
LINE
  5
142
330
D
100
AcDbEntity
 67
     1
  8
AM_VIS
100
AcDbLine
 10
4.22963186666923
 20
4.768577836976676
 30
0.0
 11
4.231499873377856
 21
4.768577836976676
 31
0.0
  0
LINE
  5
143
330
D
100
AcDbEntity
 67
     1
  8
AM_VIS
100
AcDbLine
 10
4.015499873377857
 20
4.768577836976676
 30
0.0
 11
4.017367880086482
 21
4.768577836976676
 31
0.0
  0
LINE
  5
144
330
D
100
AcDbEntity
 67
     1
  8
AM_VIS
100
AcDbLine
 10
4.033290339513635
 20
4.793577836976678
 30
0.0
 11
4.213709407242076
 21
4.793577836976678
 31
0.0
  0
LINE
  5
145
330
D
100
AcDbEntity
 67
     1
  8
AM_VIS
100
AcDbLine
 10
4.22963186666923
 20
4.777977836976678
 30
0.0
 11
4.017367880086482
 21
4.777977836976678
 31
0.0
  0
LINE
  5
146
330
D
100
AcDbEntity
 67
     1
  8
AM_HID
100
AcDbLine
 10
4.015499873377857
 20
4.526577836976676
 30
0.0
 11
4.015499873377857
 21
4.746727836976678
 31
0.0
  0
LINE
  5
147
330
D
100
AcDbEntity
 67
     1
  8
AM_VIS
100
AcDbLine
 10
4.015499873377857
 20
4.746727836976678
 30
0.0
 11
4.015499873377857
 21
4.768577836976676
 31
0.0
  0
LINE
  5
148
330
D
100
AcDbEntity
 67
     1
  8
AM_HID
100
AcDbLine
 10
4.231499873377856
 20
4.526577836976676
 30
0.0
 11
4.231499873377856
 21
4.746727836976678
 31
0.0
  0
LINE
  5
149
330
D
100
AcDbEntity
 67
     1
  8
AM_VIS
100
AcDbLine
 10
4.231499873377856
 20
4.746727836976678
 30
0.0
 11
4.231499873377856
 21
4.768577836976676
 31
0.0
  0
ARC
  5
14A
330
D
100
AcDbEntity
 67
     1
  8
AM_HID
100
AcDbCircle
 10
4.123499873377856
 20
4.526577836976676
 30
0.0
 40
0.1079999999999996
100
AcDbArc
 50
180.0
 51
359.9999999999996
  0
LINE
  5
14B
330
D
100
AcDbEntity
 67
     1
  8
AM_VIS
100
AcDbLine
 10
3.559631866669227
 20
4.768577836976676
 30
0.0
 11
3.559631866669227
 21
4.777977836976678
 31
0.0
  0
LINE
  5
14C
330
D
100
AcDbEntity
 67
     1
  8
AM_HID
100
AcDbLine
 10
3.347367880086482
 20
4.768577836976676
 30
0.0
 11
3.559631866669227
 21
4.768577836976676
 31
0.0
  0
LINE
  5
14D
330
D
100
AcDbEntity
 67
     1
  8
AM_VIS
100
AcDbLine
 10
3.347367880086482
 20
4.777977836976678
 30
0.0
 11
3.347367880086482
 21
4.768577836976676
 31
0.0
  0
SPLINE
  5
14E
330
D
100
AcDbEntity
 67
     1
  8
AM_VIS
100
AcDbSpline
210
0.0
220
0.0
230
1.0
 70
    12
 71
     2
 72
     6
 73
     3
 74
     0
 42
0.0000000001
 43
0.0000000001
 40
0.0
 40
0.0
 40
0.0
 40
0.022290918418531
 40
0.022290918418531
 40
0.022290918418531
 10
3.363290339513633
 20
4.793577836976678
 30
0.0
 41
1.0
 10
3.355948846244967
 20
4.786410383668953
 30
0.0
 41
1.003171444162572
 10
3.347367880086482
 20
4.777977836976678
 30
0.0
 41
1.0
  0
SPLINE
  5
14F
330
D
100
AcDbEntity
 67
     1
  8
AM_VIS
100
AcDbSpline
210
0.0
220
0.0
230
1.0
 70
    12
 71
     2
 72
     6
 73
     3
 74
     0
 42
0.0000000001
 43
0.0000000001
 40
0.0
 40
0.0
 40
0.0
 40
0.022290918418531
 40
0.022290918418531
 40
0.022290918418531
 10
3.559631866669227
 20
4.777977836976678
 30
0.0
 41
1.0
 10
3.551050900510743
 20
4.786410383668953
 30
0.0
 41
1.003171444162572
 10
3.543709407242076
 20
4.793577836976678
 30
0.0
 41
1.0
  0
LINE
  5
150
330
D
100
AcDbEntity
 67
     1
  8
AM_VIS
100
AcDbLine
 10
3.559631866669227
 20
4.768577836976676
 30
0.0
 11
3.561499873377853
 21
4.768577836976676
 31
0.0
  0
LINE
  5
151
330
D
100
AcDbEntity
 67
     1
  8
AM_VIS
100
AcDbLine
 10
3.345499873377854
 20
4.768577836976676
 30
0.0
 11
3.347367880086482
 21
4.768577836976676
 31
0.0
  0
LINE
  5
152
330
D
100
AcDbEntity
 67
     1
  8
AM_VIS
100
AcDbLine
 10
3.363290339513633
 20
4.793577836976678
 30
0.0
 11
3.543709407242076
 21
4.793577836976678
 31
0.0
  0
LINE
  5
153
330
D
100
AcDbEntity
 67
     1
  8
AM_VIS
100
AcDbLine
 10
3.559631866669227
 20
4.777977836976678
 30
0.0
 11
3.347367880086482
 21
4.777977836976678
 31
0.0
  0
LINE
  5
154
330
D
100
AcDbEntity
 67
     1
  8
AM_HID
100
AcDbLine
 10
3.345499873377854
 20
4.526577836976676
 30
0.0
 11
3.345499873377854
 21
4.746727836976678
 31
0.0
  0
LINE
  5
155
330
D
100
AcDbEntity
 67
     1
  8
AM_VIS
100
AcDbLine
 10
3.345499873377854
 20
4.746727836976678
 30
0.0
 11
3.345499873377854
 21
4.768577836976676
 31
0.0
  0
LINE
  5
156
330
D
100
AcDbEntity
 67
     1
  8
AM_HID
100
AcDbLine
 10
3.561499873377853
 20
4.526577836976676
 30
0.0
 11
3.561499873377853
 21
4.746727836976678
 31
0.0
  0
LINE
  5
157
330
D
100
AcDbEntity
 67
     1
  8
AM_VIS
100
AcDbLine
 10
3.561499873377853
 20
4.746727836976678
 30
0.0
 11
3.561499873377853
 21
4.768577836976676
 31
0.0
  0
ARC
  5
158
330
D
100
AcDbEntity
 67
     1
  8
AM_HID
100
AcDbCircle
 10
3.453499873377854
 20
4.526577836976676
 30
0.0
 40
0.1079999999999996
100
AcDbArc
 50
180.0
 51
359.9999999999996
  0
ARC
  5
159
330
D
100
AcDbEntity
 67
     1
  8
AM_VIS
100
AcDbCircle
 10
3.803499873377853
 20
4.171727836976676
 30
0.0
 40
0.0700000000000003
100
AcDbArc
 50
0.0
 51
180.0000000000004
  0
LINE
  5
15A
330
D
100
AcDbEntity
 67
     1
  8
AM_VIS
100
AcDbLine
 10
3.381499873377823
 20
4.171727836976676
 30
0.0
 11
3.733499873377851
 21
4.171727836976676
 31
0.0
  0
LINE
  5
15B
330
D
100
AcDbEntity
 67
     1
  8
AM_VIS
100
AcDbLine
 10
3.381499873377823
 20
4.37972783697667
 30
0.0
 11
3.381499873377823
 21
4.171727836976674
 31
0.0
  0
LINE
  5
15C
330
D
100
AcDbEntity
 67
     1
  8
AM_VIS
100
AcDbLine
 10
4.568499873377846
 20
5.077827836976674
 30
0.0
 11
4.568499873377846
 21
4.298137078982865
 31
0.0
  0
ARC
  5
15D
330
D
100
AcDbEntity
 67
     1
  8
AM_VIS
100
AcDbCircle
 10
4.474499873377846
 20
5.077827836976674
 30
0.0
 40
0.094
100
AcDbArc
 50
0.0
 51
90.0
  0
LINE
  5
15E
330
D
100
AcDbEntity
 67
     1
  8
AM_VIS
100
AcDbLine
 10
4.003499873377848
 20
5.171827836976675
 30
0.0
 11
4.474499873377846
 21
5.171827836976675
 31
0.0
  0
LINE
  5
15F
330
D
100
AcDbEntity
 67
     1
  8
AM_VIS
100
AcDbLine
 10
3.132499873377857
 20
5.171827836976675
 30
0.0
 11
3.603499873377853
 21
5.171827836976675
 31
0.0
  0
ARC
  5
160
330
D
100
AcDbEntity
 67
     1
  8
AM_VIS
100
AcDbCircle
 10
3.132499873377857
 20
5.077827836976674
 30
0.0
 40
0.094
100
AcDbArc
 50
90.0
 51
180.0000000000004
  0
LINE
  5
161
330
D
100
AcDbEntity
 67
     1
  8
AM_VIS
100
AcDbLine
 10
3.038499873377857
 20
4.298137078982865
 30
0.0
 11
3.038499873377857
 21
5.077827836976674
 31
0.0
  0
ARC
  5
162
330
D
100
AcDbEntity
 67
     1
  8
AM_VIS
100
AcDbCircle
 10
3.85149987337787
 20
5.079138896987528
 30
0.0
 40
0.016
100
AcDbArc
 50
179.999999999891
 51
238.1651577827823
  0
LINE
  5
163
330
D
100
AcDbEntity
 67
     1
  8
AM_VIS
100
AcDbLine
 10
3.835499873377851
 20
5.105827836976676
 30
0.0
 11
3.835499873377851
 21
5.07913889698756
 31
0.0
  0
ARC
  5
164
330
D
100
AcDbEntity
 67
     1
  8
AM_VIS
100
AcDbCircle
 10
3.851499873377857
 20
5.105827836976676
 30
0.0
 40
0.0159999999999983
100
AcDbArc
 50
90.00000000000317
 51
180.0000000000004
  0
LINE
  5
165
330
D
100
AcDbEntity
 67
     1
  8
AM_VIS
100
AcDbLine
 10
3.895499873377853
 20
5.121827836976676
 30
0.0
 11
3.851499873377856
 21
5.121827836976676
 31
0.0
  0
ARC
  5
166
330
D
100
AcDbEntity
 67
     1
  8
AM_VIS
100
AcDbCircle
 10
3.895499873377853
 20
5.105827836976676
 30
0.0
 40
0.0159999999999991
100
AcDbArc
 50
0.0
 51
90.00000000000317
  0
LINE
  5
167
330
D
100
AcDbEntity
 67
     1
  8
AM_VIS
100
AcDbLine
 10
3.911499873377853
 20
4.766727836976676
 30
0.0
 11
3.911499873377853
 21
5.105827836976676
 31
0.0
  0
LINE
  5
168
330
D
100
AcDbEntity
 67
     1
  8
AM_VIS
100
AcDbLine
 10
4.003499873377847
 20
4.766727836976675
 30
0.0
 11
3.911499873377853
 21
4.766727836976675
 31
0.0
  0
LINE
  5
169
330
D
100
AcDbEntity
 67
     1
  8
AM_VIS
100
AcDbLine
 10
4.003499873377853
 20
5.064827836976679
 30
0.0
 11
4.003499873377853
 21
4.766727836976675
 31
0.0
  0
ARC
  5
16A
330
D
100
AcDbEntity
 67
     1
  8
AM_VIS
100
AcDbCircle
 10
3.99649987337785
 20
5.064827836976679
 30
0.0
 40
0.0069999999999997
100
AcDbArc
 50
0.0
 51
90.0000000000073
  0
LINE
  5
16B
330
D
100
AcDbEntity
 67
     1
  8
AM_VIS
100
AcDbLine
 10
3.971099208376086
 20
5.071827836976678
 30
0.0
 11
3.996499873377848
 21
5.071827836976678
 31
0.0
  0
ARC
  5
16C
330
D
100
AcDbEntity
 67
     1
  8
AM_VIS
100
AcDbCircle
 10
3.971099208376088
 20
5.078827836976677
 30
0.0
 40
0.0070000000000006
100
AcDbArc
 50
180.0
 51
269.9999999999926
  0
LINE
  5
16D
330
D
100
AcDbEntity
 67
     1
  8
AM_VIS
100
AcDbLine
 10
3.964099208376087
 20
5.114827836976676
 30
0.0
 11
3.964099208376087
 21
5.078827836976677
 31
0.0
  0
ARC
  5
16E
330
D
100
AcDbEntity
 67
     1
  8
AM_VIS
100
AcDbCircle
 10
3.971099208376088
 20
5.114827836976676
 30
0.0
 40
0.0069999999999997
100
AcDbArc
 50
90.0000000000073
 51
180.0
  0
LINE
  5
16F
330
D
100
AcDbEntity
 67
     1
  8
AM_VIS
100
AcDbLine
 10
3.996499873377846
 20
5.121827836976676
 30
0.0
 11
3.971099208376086
 21
5.121827836976676
 31
0.0
  0
ARC
  5
170
330
D
100
AcDbEntity
 67
     1
  8
AM_VIS
100
AcDbCircle
 10
3.996499873377848
 20
5.128827836976674
 30
0.0
 40
0.0069999999999997
100
AcDbArc
 50
269.9999999999926
 51
0.0
  0
LINE
  5
171
330
D
100
AcDbEntity
 67
     1
  8
AM_VIS
100
AcDbLine
 10
4.003499873377848
 20
5.171827836976677
 30
0.0
 11
4.003499873377848
 21
5.128827836976674
 31
0.0
  0
LINE
  5
172
330
D
100
AcDbEntity
 67
     1
  8
AM_VIS
100
AcDbLine
 10
3.603499873377852
 20
5.171827836976677
 30
0.0
 11
4.003499873377847
 21
5.171827836976677
 31
0.0
  0
ARC
  5
173
330
D
100
AcDbEntity
 67
     1
  8
AM_VIS
100
AcDbCircle
 10
3.803499873377851
 20
5.001827836976677
 30
0.0
 40
0.0749999999999998
100
AcDbArc
 50
121.8348422171253
 51
58.1651577828944
  0
ARC
  5
174
330
D
100
AcDbEntity
 67
     1
  8
AM_VIS
100
AcDbCircle
 10
3.755499873377858
 20
5.079138896987516
 30
0.0
 40
0.016
100
AcDbArc
 50
301.8348422170715
 51
359.9999999999521
  0
LINE
  5
175
330
D
100
AcDbEntity
 67
     1
  8
AM_VIS
100
AcDbLine
 10
3.771499873377851
 20
5.079138896987503
 30
0.0
 11
3.771499873377851
 21
5.105827836976676
 31
0.0
  0
ARC
  5
176
330
D
100
AcDbEntity
 67
     1
  8
AM_VIS
100
AcDbCircle
 10
3.755499873377853
 20
5.105827836976676
 30
0.0
 40
0.016
100
AcDbArc
 50
0.0
 51
90.00000000000317
  0
LINE
  5
177
330
D
100
AcDbEntity
 67
     1
  8
AM_VIS
100
AcDbLine
 10
3.755499873377853
 20
5.121827836976676
 30
0.0
 11
3.711499873377849
 21
5.121827836976676
 31
0.0
  0
ARC
  5
178
330
D
100
AcDbEntity
 67
     1
  8
AM_VIS
100
AcDbCircle
 10
3.711499873377849
 20
5.105827836976676
 30
0.0
 40
0.016
100
AcDbArc
 50
90.00000000000317
 51
180.0000000000004
  0
LINE
  5
179
330
D
100
AcDbEntity
 67
     1
  8
AM_VIS
100
AcDbLine
 10
3.695499873377849
 20
5.105827836976676
 30
0.0
 11
3.695499873377849
 21
4.766727836976675
 31
0.0
  0
LINE
  5
17A
330
D
100
AcDbEntity
 67
     1
  8
AM_VIS
100
AcDbLine
 10
3.695499873377849
 20
4.766727836976675
 30
0.0
 11
3.603499873377852
 21
4.766727836976675
 31
0.0
  0
LINE
  5
17B
330
D
100
AcDbEntity
 67
     1
  8
AM_VIS
100
AcDbLine
 10
3.603499873377853
 20
4.766727836976675
 30
0.0
 11
3.603499873377853
 21
5.064827836976679
 31
0.0
  0
ARC
  5
17C
330
D
100
AcDbEntity
 67
     1
  8
AM_VIS
100
AcDbCircle
 10
3.610499873377853
 20
5.064827836976679
 30
0.0
 40
0.0069999999999997
100
AcDbArc
 50
90.0000000000073
 51
180.0
  0
LINE
  5
17D
330
D
100
AcDbEntity
 67
     1
  8
AM_VIS
100
AcDbLine
 10
3.610499873377853
 20
5.071827836976678
 30
0.0
 11
3.637099208376088
 21
5.071827836976678
 31
0.0
  0
ARC
  5
17E
330
D
100
AcDbEntity
 67
     1
  8
AM_VIS
100
AcDbCircle
 10
3.637099208376088
 20
5.078827836976676
 30
0.0
 40
0.0069999999999997
100
AcDbArc
 50
269.9999999999926
 51
359.9999999999926
  0
LINE
  5
17F
330
D
100
AcDbEntity
 67
     1
  8
AM_VIS
100
AcDbLine
 10
3.644099208376088
 20
5.078827836976675
 30
0.0
 11
3.644099208376088
 21
5.114827836976676
 31
0.0
  0
ARC
  5
180
330
D
100
AcDbEntity
 67
     1
  8
AM_VIS
100
AcDbCircle
 10
3.637099208376087
 20
5.114827836976676
 30
0.0
 40
0.0069999999999997
100
AcDbArc
 50
0.0
 51
90.0000000000073
  0
LINE
  5
181
330
D
100
AcDbEntity
 67
     1
  8
AM_VIS
100
AcDbLine
 10
3.637099208376086
 20
5.121827836976676
 30
0.0
 11
3.610499873377853
 21
5.121827836976676
 31
0.0
  0
ARC
  5
182
330
D
100
AcDbEntity
 67
     1
  8
AM_VIS
100
AcDbCircle
 10
3.610499873377853
 20
5.128827836976674
 30
0.0
 40
0.0069999999999997
100
AcDbArc
 50
180.0
 51
269.9999999999926
  0
LINE
  5
183
330
D
100
AcDbEntity
 67
     1
  8
AM_VIS
100
AcDbLine
 10
3.603499873377853
 20
5.128827836976674
 30
0.0
 11
3.603499873377853
 21
5.171827836976677
 31
0.0
  0
LINE
  5
184
330
D
100
AcDbEntity
 67
     1
  8
AM_VIS
100
AcDbLine
 10
4.315999873377826
 20
4.458727836976678
 30
0.0
 11
4.353499873377829
 21
4.458727836976678
 31
0.0
  0
ARC
  5
185
330
D
100
AcDbEntity
 67
     1
  8
AM_VIS
100
AcDbCircle
 10
4.315999873377828
 20
4.448727836976678
 30
0.0
 40
0.0099999999999998
100
AcDbArc
 50
90.00000000000509
 51
180.0000000000004
  0
LINE
  5
186
330
D
100
AcDbEntity
 67
     1
  8
AM_VIS
100
AcDbLine
 10
4.305999873377852
 20
4.386727836976676
 30
0.0
 11
4.305999873377852
 21
4.448727836976678
 31
0.0
  0
LINE
  5
187
330
D
100
AcDbEntity
 67
     1
  8
AM_VIS
100
AcDbLine
 10
4.232499873377856
 20
4.386727836976676
 30
0.0
 11
4.305999873377851
 21
4.386727836976676
 31
0.0
  0
ARC
  5
188
330
D
100
AcDbEntity
 67
     1
  8
AM_VIS
100
AcDbCircle
 10
4.232499873377858
 20
4.379727836976676
 30
0.0
 40
0.0069999999999997
100
AcDbArc
 50
90.00000000002179
 51
180.0000000000588
  0
LINE
  5
189
330
D
100
AcDbEntity
 67
     1
  8
AM_VIS
100
AcDbLine
 10
4.225499873377837
 20
4.171727836976674
 30
0.0
 11
4.225499873377837
 21
4.37972783697667
 31
0.0
  0
ARC
  5
18A
330
D
100
AcDbEntity
 67
     1
  8
AM_VIS
100
AcDbCircle
 10
3.253499873377827
 20
4.448727836976678
 30
0.0
 40
0.0099999999999998
100
AcDbArc
 50
90.00000000000509
 51
180.0000000000109
  0
LINE
  5
18B
330
D
100
AcDbEntity
 67
     1
  8
AM_VIS
100
AcDbLine
 10
3.168391816477786
 20
4.373484260076605
 30
0.0
 11
3.243499873377853
 21
4.448727836976678
 31
0.0
  0
LINE
  5
18C
330
D
100
AcDbEntity
 67
     1
  8
AM_VIS
100
AcDbLine
 10
3.090146862273676
 20
4.359687563546128
 30
0.0
 11
3.168391816477785
 21
4.373484260076605
 31
0.0
  0
ARC
  5
18D
330
D
100
AcDbEntity
 67
     1
  8
AM_VIS
100
AcDbCircle
 10
3.100999873377857
 20
4.298137078982865
 30
0.0
 40
0.0625
100
AcDbArc
 50
99.99999999999936
 51
180.0000000000004
  0
ARC
  5
18E
330
D
100
AcDbEntity
 67
     1
  8
AM_VIS
100
AcDbCircle
 10
4.35349987337783
 20
4.448727836976678
 30
0.0
 40
0.0099999999999998
100
AcDbArc
 50
0.0
 51
90.00000000000509
  0
LINE
  5
18F
330
D
100
AcDbEntity
 67
     1
  8
AM_VIS
100
AcDbLine
 10
4.363499873377833
 20
4.448727836976678
 30
0.0
 11
4.438607930277409
 21
4.373484260076116
 31
0.0
  0
LINE
  5
190
330
D
100
AcDbEntity
 67
     1
  8
AM_VIS
100
AcDbLine
 10
4.438607930277409
 20
4.373484260076116
 30
0.0
 11
4.516852884481425
 21
4.359687563545127
 31
0.0
  0
ARC
  5
191
330
D
100
AcDbEntity
 67
     1
  8
AM_VIS
100
AcDbCircle
 10
4.505999873376844
 20
4.298137078981934
 30
0.0
 40
0.0625
100
AcDbArc
 50
0.0
 51
79.99999999962939
  0
LINE
  5
192
330
D
100
AcDbEntity
 67
     1
  8
AM_VIS
100
AcDbLine
 10
4.568499873376844
 20
4.298137078981934
 30
0.0
 11
4.568499873376844
 21
3.875727836976681
 31
0.0
  0
ARC
  5
193
330
D
100
AcDbEntity
 67
     1
  8
AM_VIS
100
AcDbCircle
 10
4.593499873376844
 20
3.875727836976682
 30
0.0
 40
0.0249999999999995
100
AcDbArc
 50
179.9999999999995
 51
270.0
  0
LINE
  5
194
330
D
100
AcDbEntity
 67
     1
  8
AM_VIS
100
AcDbLine
 10
4.593499873376844
 20
3.850727836976681
 30
0.0
 11
4.603499873377813
 21
3.850727836976681
 31
0.0
  0
ARC
  5
195
330
D
100
AcDbEntity
 67
     1
  8
AM_VIS
100
AcDbCircle
 10
4.603499873377813
 20
3.875727836976681
 30
0.0
 40
0.0250000000000004
100
AcDbArc
 50
270.0
 51
0.0
  0
LINE
  5
196
330
D
100
AcDbEntity
 67
     1
  8
AM_VIS
100
AcDbLine
 10
4.628499873377813
 20
3.875727836976681
 30
0.0
 11
4.628499873377813
 21
3.940727836976682
 31
0.0
  0
ARC
  5
197
330
D
100
AcDbEntity
 67
     1
  8
AM_VIS
100
AcDbCircle
 10
4.638499873377813
 20
3.940727836976682
 30
0.0
 40
0.0099999999999989
100
AcDbArc
 50
90.0
 51
180.0000000000003
  0
LINE
  5
198
330
D
100
AcDbEntity
 67
     1
  8
AM_VIS
100
AcDbLine
 10
4.638499873377813
 20
3.950727836976683
 30
0.0
 11
4.67849987337783
 21
3.950727836976683
 31
0.0
  0
ARC
  5
199
330
D
100
AcDbEntity
 67
     1
  8
AM_VIS
100
AcDbCircle
 10
4.67849987337783
 20
3.940727836976683
 30
0.0
 40
0.0099999999999998
100
AcDbArc
 50
0.0
 51
90.0
  0
LINE
  5
19A
330
D
100
AcDbEntity
 67
     1
  8
AM_VIS
100
AcDbLine
 10
4.688499873377829
 20
3.940727836976683
 30
0.0
 11
4.688499873377829
 21
3.634288409614581
 31
0.0
  0
ARC
  5
19B
330
D
100
AcDbEntity
 67
     1
  8
AM_VIS
100
AcDbCircle
 10
4.625999873377852
 20
3.634288409614577
 30
0.0
 40
0.0625
100
AcDbArc
 50
270.0
 51
0.0000000000032569
  0
LINE
  5
19C
330
D
100
AcDbEntity
 67
     1
  8
AM_VIS
100
AcDbLine
 10
4.625999873377852
 20
3.571788409614577
 30
0.0
 11
4.55325670566582
 21
3.571788409614577
 31
0.0
  0
ARC
  5
19D
330
D
100
AcDbEntity
 67
     1
  8
AM_VIS
100
AcDbCircle
 10
4.553256705665818
 20
3.578788409614577
 30
0.0
 40
0.006999999999999
100
AcDbArc
 50
210.0000000000113
 51
270.0000000000144
  0
LINE
  5
19E
330
D
100
AcDbEntity
 67
     1
  8
AM_VIS
100
AcDbLine
 10
4.547194527839327
 20
3.575288409614576
 30
0.0
 11
4.41733305772629
 21
3.800215073795948
 31
0.0
  0
ARC
  5
19F
330
D
100
AcDbEntity
 67
     1
  8
AM_VIS
100
AcDbCircle
 10
4.425993311764133
 20
3.805215073795948
 30
0.0
 40
0.0100000000000001
100
AcDbArc
 50
95.00000000001081
 51
210.0000000000083
  0
LINE
  5
1A0
330
D
100
AcDbEntity
 67
     1
  8
AM_VIS
100
AcDbLine
 10
4.425121754336656
 20
3.815177020776866
 30
0.0
 11
4.488499873377849
 21
3.820721887708566
 31
0.0
  0
LINE
  5
1A1
330
D
100
AcDbEntity
 67
     1
  8
AM_VIS
100
AcDbLine
 10
4.488499873377826
 20
3.820721887708566
 30
0.0
 11
4.488499873377826
 21
4.241727836976681
 31
0.0
  0
ARC
  5
1A2
330
D
100
AcDbEntity
 67
     1
  8
AM_VIS
100
AcDbCircle
 10
4.458499873377851
 20
4.241727836976676
 30
0.0
 40
0.0300000000000011
100
AcDbArc
 50
0.0000000000101778
 51
179.9999999999898
  0
LINE
  5
1A3
330
D
100
AcDbEntity
 67
     1
  8
AM_VIS
100
AcDbLine
 10
4.428499873377822
 20
4.241727836976681
 30
0.0
 11
4.428499873377822
 21
3.893027836976676
 31
0.0
  0
ARC
  5
1A4
330
D
100
AcDbEntity
 67
     1
  8
AM_VIS
100
AcDbCircle
 10
4.397199873377822
 20
3.893027836976676
 30
0.0
 40
0.0312999999999999
100
AcDbArc
 50
270.0
 51
0.0
  0
LINE
  5
1A5
330
D
100
AcDbEntity
 67
     1
  8
AM_VIS
100
AcDbLine
 10
4.397199873377822
 20
3.861727836976676
 30
0.0
 11
4.274799873377851
 21
3.861727836976676
 31
0.0
  0
ARC
  5
1A6
330
D
100
AcDbEntity
 67
     1
  8
AM_VIS
100
AcDbCircle
 10
4.274799873377853
 20
3.893027836976676
 30
0.0
 40
0.0312999999999999
100
AcDbArc
 50
179.9999999999995
 51
269.9999999999982
  0
LINE
  5
1A7
330
D
100
AcDbEntity
 67
     1
  8
AM_VIS
100
AcDbLine
 10
4.243499873377852
 20
3.893027836976676
 30
0.0
 11
4.243499873377852
 21
4.084727836976679
 31
0.0
  0
ARC
  5
1A8
330
D
100
AcDbEntity
 67
     1
  8
AM_VIS
100
AcDbCircle
 10
4.236499873377854
 20
4.084727836976678
 30
0.0
 40
0.0069999999999988
100
AcDbArc
 50
0.0
 51
90.0000000000073
  0
LINE
  5
1A9
330
D
100
AcDbEntity
 67
     1
  8
AM_VIS
100
AcDbLine
 10
4.236499873377853
 20
4.091727836976676
 30
0.0
 11
3.370499873377851
 21
4.091727836976676
 31
0.0
  0
ARC
  5
1AA
330
D
100
AcDbEntity
 67
     1
  8
AM_VIS
100
AcDbCircle
 10
3.370499873377851
 20
4.084727836976676
 30
0.0
 40
0.0069999999999988
100
AcDbArc
 50
90.0000000000073
 51
179.9999999999926
  0
LINE
  5
1AB
330
D
100
AcDbEntity
 67
     1
  8
AM_VIS
100
AcDbLine
 10
3.363499873377853
 20
4.084727836976676
 30
0.0
 11
3.363499873377853
 21
3.893027836976676
 31
0.0
  0
ARC
  5
1AC
330
D
100
AcDbEntity
 67
     1
  8
AM_VIS
100
AcDbCircle
 10
3.332199873377851
 20
3.893027836976676
 30
0.0
 40
0.0312999999999999
100
AcDbArc
 50
269.9999999999982
 51
0.0
  0
LINE
  5
1AD
330
D
100
AcDbEntity
 67
     1
  8
AM_VIS
100
AcDbLine
 10
3.332199873377851
 20
3.861727836976676
 30
0.0
 11
3.209799873377848
 21
3.861727836976676
 31
0.0
  0
ARC
  5
1AE
330
D
100
AcDbEntity
 67
     1
  8
AM_VIS
100
AcDbCircle
 10
3.209799873377849
 20
3.893027836976676
 30
0.0
 40
0.0312999999999999
100
AcDbArc
 50
179.9999999999995
 51
269.9999999999982
  0
LINE
  5
1AF
330
D
100
AcDbEntity
 67
     1
  8
AM_VIS
100
AcDbLine
 10
3.17849987337785
 20
3.893027836976676
 30
0.0
 11
3.17849987337785
 21
4.241727836976674
 31
0.0
  0
ARC
  5
1B0
330
D
100
AcDbEntity
 67
     1
  8
AM_VIS
100
AcDbCircle
 10
3.148499873377857
 20
4.241727836976676
 30
0.0
 40
0.0300000000000003
100
AcDbArc
 50
359.9999999999965
 51
180.000000000004
  0
LINE
  5
1B1
330
D
100
AcDbEntity
 67
     1
  8
AM_VIS
100
AcDbLine
 10
3.118499873377848
 20
4.241727836976674
 30
0.0
 11
3.118499873377848
 21
3.820721887708568
 31
0.0
  0
LINE
  5
1B2
330
D
100
AcDbEntity
 67
     1
  8
AM_VIS
100
AcDbLine
 10
3.118499873377846
 20
3.820721887708568
 30
0.0
 11
3.181877992419037
 21
3.815177020776868
 31
0.0
  0
ARC
  5
1B3
330
D
100
AcDbEntity
 67
     1
  8
AM_VIS
100
AcDbCircle
 10
3.181006434991561
 20
3.80521507379595
 30
0.0
 40
0.0100000000000001
100
AcDbArc
 50
329.9999999999966
 51
85.00000000000451
  0
LINE
  5
1B4
330
D
100
AcDbEntity
 67
     1
  8
AM_VIS
100
AcDbLine
 10
3.189666689029406
 20
3.80021507379595
 30
0.0
 11
3.059805218916368
 21
3.57528840961458
 31
0.0
  0
ARC
  5
1B5
330
D
100
AcDbEntity
 67
     1
  8
AM_VIS
100
AcDbCircle
 10
3.053743041089878
 20
3.57878840961458
 30
0.0
 40
0.006999999999999
100
AcDbArc
 50
269.9999999999926
 51
329.9999999999993
  0
LINE
  5
1B6
330
D
100
AcDbEntity
 67
     1
  8
AM_VIS
100
AcDbLine
 10
3.053743041089878
 20
3.571788409614577
 30
0.0
 11
2.980999873377854
 21
3.571788409614577
 31
0.0
  0
ARC
  5
1B7
330
D
100
AcDbEntity
 67
     1
  8
AM_VIS
100
AcDbCircle
 10
2.980999873377854
 20
3.634288409614577
 30
0.0
 40
0.0625
100
AcDbArc
 50
179.9999999999959
 51
269.9999999999992
  0
LINE
  5
1B8
330
D
100
AcDbEntity
 67
     1
  8
AM_VIS
100
AcDbLine
 10
2.918499873377832
 20
3.634288409614581
 30
0.0
 11
2.918499873377832
 21
3.940727836976682
 31
0.0
  0
ARC
  5
1B9
330
D
100
AcDbEntity
 67
     1
  8
AM_VIS
100
AcDbCircle
 10
2.928499873377834
 20
3.940727836976682
 30
0.0
 40
0.0099999999999998
100
AcDbArc
 50
90.00000000000509
 51
180.0000000000003
  0
LINE
  5
1BA
330
D
100
AcDbEntity
 67
     1
  8
AM_VIS
100
AcDbLine
 10
2.928499873377832
 20
3.950727836976683
 30
0.0
 11
2.968499873377829
 21
3.950727836976683
 31
0.0
  0
ARC
  5
1BB
330
D
100
AcDbEntity
 67
     1
  8
AM_VIS
100
AcDbCircle
 10
2.96849987337783
 20
3.940727836976683
 30
0.0
 40
0.0099999999999989
100
AcDbArc
 50
0.0
 51
90.00000000000509
  0
LINE
  5
1BC
330
D
100
AcDbEntity
 67
     1
  8
AM_VIS
100
AcDbLine
 10
2.978499873377831
 20
3.940727836976683
 30
0.0
 11
2.978499873377831
 21
3.875727836976681
 31
0.0
  0
ARC
  5
1BD
330
D
100
AcDbEntity
 67
     1
  8
AM_VIS
100
AcDbCircle
 10
3.003499873377831
 20
3.875727836976681
 30
0.0
 40
0.0250000000000004
100
AcDbArc
 50
179.9999999999995
 51
269.9999999999978
  0
LINE
  5
1BE
330
D
100
AcDbEntity
 67
     1
  8
AM_VIS
100
AcDbLine
 10
3.003499873377831
 20
3.850727836976681
 30
0.0
 11
3.013499873377832
 21
3.850727836976681
 31
0.0
  0
ARC
  5
1BF
330
D
100
AcDbEntity
 67
     1
  8
AM_VIS
100
AcDbCircle
 10
3.013499873377832
 20
3.875727836976681
 30
0.0
 40
0.0249999999999995
100
AcDbArc
 50
269.9999999999978
 51
0.0
  0
LINE
  5
1C0
330
D
100
AcDbEntity
 67
     1
  8
AM_VIS
100
AcDbLine
 10
3.038499873377857
 20
3.875727836976681
 30
0.0
 11
3.038499873377857
 21
4.298137078982865
 31
0.0
  0
LINE
  5
1C1
330
D
100
AcDbEntity
 67
     1
  8
AM_VIS
100
AcDbLine
 10
3.253499873377826
 20
4.458727836976678
 30
0.0
 11
3.290999873377832
 21
4.458727836976678
 31
0.0
  0
ARC
  5
1C2
330
D
100
AcDbEntity
 67
     1
  8
AM_VIS
100
AcDbCircle
 10
3.290999873377832
 20
4.448727836976678
 30
0.0
 40
0.0099999999999998
100
AcDbArc
 50
0.0
 51
90.00000000000509
  0
LINE
  5
1C3
330
D
100
AcDbEntity
 67
     1
  8
AM_VIS
100
AcDbLine
 10
3.300999873377853
 20
4.448727836976678
 30
0.0
 11
3.300999873377853
 21
4.386727836976676
 31
0.0
  0
LINE
  5
1C4
330
D
100
AcDbEntity
 67
     1
  8
AM_VIS
100
AcDbLine
 10
3.300999873377853
 20
4.386727836976676
 30
0.0
 11
3.374499873377848
 21
4.386727836976676
 31
0.0
  0
ARC
  5
1C5
330
D
100
AcDbEntity
 67
     1
  8
AM_VIS
100
AcDbCircle
 10
3.374499873377848
 20
4.379727836976676
 30
0.0
 40
0.0069999999999997
100
AcDbArc
 50
359.9999999999418
 51
89.99999999999273
  0
LINE
  5
1C6
330
D
100
AcDbEntity
 67
     1
  8
AM_VIS
100
AcDbLine
 10
3.873499873377852
 20
4.171727836976676
 30
0.0
 11
4.225499873377836
 21
4.171727836976676
 31
0.0
  0
LINE
  5
1C7
330
D
100
AcDbEntity
 67
     1
  8
AM_HID
100
AcDbLine
 10
3.288499873377856
 20
4.676727836976676
 30
0.0
 11
3.376659535663866
 21
4.676727836976676
 31
0.0
  0
SPLINE
  5
1C8
330
D
100
AcDbEntity
 67
     1
  8
AM_HID
100
AcDbSpline
210
0.0
220
0.0
230
1.0
 70
     8
 71
     3
 72
    16
 73
    12
 74
     0
 42
0.0000000001
 43
0.0000000001
 40
0.157267404013589
 40
0.157267404013589
 40
0.157267404013589
 40
0.157267404013589
 40
0.1736358110384804
 40
0.1736358110384804
 40
0.1900042180633719
 40
0.1900042180633719
 40
0.2027901121015758
 40
0.2027901121015758
 40
0.2091830591206777
 40
0.2091830591206777
 40
0.2155760061397796
 40
0.2155760061397796
 40
0.2155760061397796
 40
0.2155760061397796
 10
3.376659535663866
 20
4.676727836976676
 30
0.0
 10
3.379582465489741
 20
4.676727836976676
 30
0.0
 10
3.383125026122475
 20
4.675672891653693
 30
0.0
 10
3.39065102058154
 20
4.671887715351726
 30
0.0
 10
3.394631972887412
 20
4.669173555621481
 30
0.0
 10
3.400971106120462
 20
4.663631332244063
 30
0.0
 10
3.403912027752702
 20
4.660597607135816
 30
0.0
 10
3.407358453057752
 20
4.65539295519194
 30
0.0
 10
3.408336878851474
 20
4.653544826417046
 30
0.0
 10
3.409724717196609
 20
4.649653631882356
 30
0.0
 10
3.410129376493451
 20
4.647608819316377
 30
0.0
 10
3.410129376493451
 20
4.645477836976676
 30
0.0
  0
SPLINE
  5
1C9
330
D
100
AcDbEntity
 67
     1
  8
AM_HID
100
AcDbSpline
210
0.0
220
0.0
230
1.0
 70
     8
 71
     3
 72
    16
 73
    12
 74
     0
 42
0.0000000001
 43
0.0000000001
 40
0.0
 40
0.0
 40
0.0
 40
0.0
 40
0.006392947019102
 40
0.006392947019102
 40
0.012785894038204
 40
0.012785894038204
 40
0.025571788076408
 40
0.025571788076408
 40
0.0419401951012994
 40
0.0419401951012994
 40
0.0583086021261908
 40
0.0583086021261908
 40
0.0583086021261908
 40
0.0583086021261908
 10
3.410129376493451
 20
4.472977836976677
 30
0.0
 10
3.410129376493451
 20
4.470846854636977
 30
0.0
 10
3.409724717196609
 20
4.468802042071
 30
0.0
 10
3.408336878851474
 20
4.464910847536308
 30
0.0
 10
3.407358453057752
 20
4.463062718761414
 30
0.0
 10
3.403912027752702
 20
4.457858066817538
 30
0.0
 10
3.400971106120462
 20
4.45482434170929
 30
0.0
 10
3.394631972887412
 20
4.449282118331874
 30
0.0
 10
3.39065102058154
 20
4.446567958601628
 30
0.0
 10
3.383125026122475
 20
4.44278278229966
 30
0.0
 10
3.379582465489738
 20
4.441727836976677
 30
0.0
 10
3.376659535663865
 20
4.441727836976677
 30
0.0
  0
LINE
  5
1CA
330
D
100
AcDbEntity
 67
     1
  8
AM_HID
100
AcDbLine
 10
3.376659535663866
 20
4.441727836976677
 30
0.0
 11
3.288499873377856
 21
4.441727836976677
 31
0.0
  0
LINE
  5
1CB
330
D
100
AcDbEntity
 67
     1
  8
AM_HID
100
AcDbLine
 10
3.376659535663865
 20
4.441727836976677
 30
0.0
 11
3.496870370262258
 21
4.441727836976677
 31
0.0
  0
LINE
  5
1CC
330
D
100
AcDbEntity
 67
     1
  8
AM_HID
100
AcDbLine
 10
3.496870370262258
 20
4.441727836976677
 30
0.0
 11
4.080129376493453
 21
4.441727836976677
 31
0.0
  0
LINE
  5
1CD
330
D
100
AcDbEntity
 67
     1
  8
AM_HID
100
AcDbLine
 10
4.080129376493453
 20
4.441727836976677
 30
0.0
 11
4.200340211091845
 21
4.441727836976677
 31
0.0
  0
LINE
  5
1CE
330
D
100
AcDbEntity
 67
     1
  8
AM_HID
100
AcDbLine
 10
4.288499873377856
 20
4.441727836976677
 30
0.0
 11
4.200340211091845
 21
4.441727836976677
 31
0.0
  0
SPLINE
  5
1CF
330
D
100
AcDbEntity
 67
     1
  8
AM_HID
100
AcDbSpline
210
0.0
220
0.0
230
1.0
 70
     8
 71
     3
 72
    16
 73
    12
 74
     0
 42
0.0000000001
 43
0.0000000001
 40
0.1572674040135888
 40
0.1572674040135888
 40
0.1572674040135888
 40
0.1572674040135888
 40
0.1736358110384802
 40
0.1736358110384802
 40
0.1900042180633717
 40
0.1900042180633717
 40
0.2027901121015756
 40
0.2027901121015756
 40
0.2091830591206776
 40
0.2091830591206776
 40
0.2155760061397796
 40
0.2155760061397796
 40
0.2155760061397796
 40
0.2155760061397796
 10
4.200340211091845
 20
4.441727836976677
 30
0.0
 10
4.197417281265972
 20
4.441727836976677
 30
0.0
 10
4.193874720633234
 20
4.44278278229966
 30
0.0
 10
4.186348726174167
 20
4.446567958601628
 30
0.0
 10
4.182367773868295
 20
4.449282118331874
 30
0.0
 10
4.176028640635245
 20
4.45482434170929
 30
0.0
 10
4.173087719003007
 20
4.457858066817538
 30
0.0
 10
4.169641293697956
 20
4.463062718761414
 30
0.0
 10
4.168662867904235
 20
4.464910847536308
 30
0.0
 10
4.1672750295591
 20
4.468802042071
 30
0.0
 10
4.166870370262258
 20
4.470846854636977
 30
0.0
 10
4.166870370262258
 20
4.472977836976677
 30
0.0
  0
LINE
  5
1D0
330
D
100
AcDbEntity
 67
     1
  8
AM_HID
100
AcDbLine
 10
4.16687037026226
 20
4.645477836976676
 30
0.0
 11
4.16687037026226
 21
4.472977836976676
 31
0.0
  0
SPLINE
  5
1D1
330
D
100
AcDbEntity
 67
     1
  8
AM_HID
100
AcDbSpline
210
0.0
220
0.0
230
1.0
 70
     8
 71
     3
 72
    16
 73
    12
 74
     0
 42
0.0000000001
 43
0.0000000001
 40
0.0
 40
0.0
 40
0.0
 40
0.0
 40
0.0063929470191019
 40
0.0063929470191019
 40
0.0127858940382039
 40
0.0127858940382039
 40
0.0255717880764077
 40
0.0255717880764077
 40
0.0419401951012992
 40
0.0419401951012992
 40
0.0583086021261907
 40
0.0583086021261907
 40
0.0583086021261907
 40
0.0583086021261907
 10
4.166870370262258
 20
4.645477836976676
 30
0.0
 10
4.166870370262258
 20
4.647608819316379
 30
0.0
 10
4.1672750295591
 20
4.649653631882356
 30
0.0
 10
4.168662867904235
 20
4.653544826417046
 30
0.0
 10
4.169641293697956
 20
4.65539295519194
 30
0.0
 10
4.173087719003007
 20
4.660597607135816
 30
0.0
 10
4.176028640635245
 20
4.663631332244063
 30
0.0
 10
4.182367773868295
 20
4.669173555621481
 30
0.0
 10
4.186348726174167
 20
4.671887715351726
 30
0.0
 10
4.193874720633234
 20
4.675672891653693
 30
0.0
 10
4.197417281265971
 20
4.676727836976676
 30
0.0
 10
4.200340211091845
 20
4.676727836976676
 30
0.0
  0
LINE
  5
1D2
330
D
100
AcDbEntity
 67
     1
  8
AM_HID
100
AcDbLine
 10
4.200340211091845
 20
4.676727836976676
 30
0.0
 11
4.288499873377856
 21
4.676727836976676
 31
0.0
  0
LINE
  5
1D3
330
D
100
AcDbEntity
 67
     1
  8
AM_VIS
100
AcDbLine
 10
3.288499873377856
 20
4.715477836976678
 30
0.0
 11
3.288499873377856
 21
4.746727836976678
 31
0.0
  0
LINE
  5
1D4
330
D
100
AcDbEntity
 67
     1
  8
AM_VIS
100
AcDbLine
 10
4.288499873377856
 20
4.746727836976678
 30
0.0
 11
4.288499873377856
 21
4.715477836976678
 31
0.0
  0
LINE
  5
1D5
330
D
100
AcDbEntity
 67
     1
  8
AM_VIS
100
AcDbLine
 10
4.288499873377856
 20
4.746727836976678
 30
0.0
 11
3.288499873377856
 21
4.746727836976678
 31
0.0
  0
LINE
  5
1D6
330
D
100
AcDbEntity
 67
     1
  8
AM_VIS
100
AcDbLine
 10
4.288499873377856
 20
4.715477836976678
 30
0.0
 11
4.288499873377856
 21
4.402977836976678
 31
0.0
  0
LINE
  5
1D7
330
D
100
AcDbEntity
 67
     1
  8
AM_HID
100
AcDbLine
 10
4.288499873377856
 20
4.386727836976676
 30
0.0
 11
4.288499873377856
 21
4.371727836976678
 31
0.0
  0
LINE
  5
1D8
330
D
100
AcDbEntity
 67
     1
  8
AM_VIS
100
AcDbLine
 10
4.288499873377856
 20
4.402977836976678
 30
0.0
 11
4.288499873377856
 21
4.386727836976676
 31
0.0
  0
LINE
  5
1D9
330
D
100
AcDbEntity
 67
     1
  8
AM_VIS
100
AcDbLine
 10
3.288499873377856
 20
4.715477836976678
 30
0.0
 11
3.288499873377856
 21
4.458727836976681
 31
0.0
  0
LINE
  5
1DA
330
D
100
AcDbEntity
 67
     1
  8
AM_HID
100
AcDbLine
 10
3.288499873377856
 20
4.458727836976679
 30
0.0
 11
3.288499873377856
 21
4.402977836976678
 31
0.0
  0
LINE
  5
1DB
330
D
100
AcDbEntity
 67
     1
  8
AM_HID
100
AcDbLine
 10
3.288499873377856
 20
4.371727836976678
 30
0.0
 11
3.288499873377856
 21
4.402977836976678
 31
0.0
  0
LINE
  5
1DC
330
D
100
AcDbEntity
 67
     1
  8
AM_HID
100
AcDbLine
 10
3.288499873377856
 20
4.371727836976678
 30
0.0
 11
3.381499873377823
 21
4.371727836976678
 31
0.0
  0
LINE
  5
1DD
330
D
100
AcDbEntity
 67
     1
  8
AM_VIS
100
AcDbLine
 10
3.381499873377823
 20
4.371727836976678
 30
0.0
 11
4.225499873377836
 21
4.371727836976678
 31
0.0
  0
LINE
  5
1DE
330
D
100
AcDbEntity
 67
     1
  8
AM_HID
100
AcDbLine
 10
4.225499873377836
 20
4.371727836976678
 30
0.0
 11
4.288499873377856
 21
4.371727836976678
 31
0.0
  0
LINE
  5
1DF
330
D
100
AcDbEntity
 67
     1
  8
AM_HID
100
AcDbLine
 10
3.496870370262258
 20
4.676727836976676
 30
0.0
 11
4.080129376493453
 21
4.676727836976676
 31
0.0
  0
LINE
  5
1E0
330
D
100
AcDbEntity
 67
     1
  8
AM_HID
100
AcDbLine
 10
3.410129376493451
 20
4.472977836976676
 30
0.0
 11
3.410129376493451
 21
4.645477836976676
 31
0.0
  0
LINE
  5
1E1
330
D
100
AcDbEntity
 67
     1
  8
AM_HID
100
AcDbLine
 10
4.080129376493453
 20
4.441727836976677
 30
0.0
 11
4.080129376493453
 21
4.676727836976677
 31
0.0
  0
LINE
  5
1E2
330
D
100
AcDbEntity
 67
     1
  8
AM_HID
100
AcDbLine
 10
3.496870370262258
 20
4.676727836976676
 30
0.0
 11
3.496870370262258
 21
4.441727836976676
 31
0.0
  0
LINE
  5
1E3
330
D
100
AcDbEntity
 67
     1
  8
AM_HID
100
AcDbLine
 10
4.214499873377858
 20
4.746727836976678
 30
0.0
 11
4.214499873377858
 21
4.676727836976676
 31
0.0
  0
LINE
  5
1E4
330
D
100
AcDbEntity
 67
     1
  8
AM_HID
100
AcDbLine
 10
4.032499873377854
 20
4.746727836976678
 30
0.0
 11
4.032499873377854
 21
4.676727836976676
 31
0.0
  0
LINE
  5
1E5
330
D
100
AcDbEntity
 67
     1
  8
AM_HID
100
AcDbLine
 10
3.544499873377856
 20
4.746727836976678
 30
0.0
 11
3.544499873377856
 21
4.676727836976676
 31
0.0
  0
LINE
  5
1E6
330
D
100
AcDbEntity
 67
     1
  8
AM_HID
100
AcDbLine
 10
3.362499873377853
 20
4.746727836976678
 30
0.0
 11
3.362499873377853
 21
4.676727836976676
 31
0.0
  0
LINE
  5
1E7
330
D
100
AcDbEntity
 67
     1
  8
AM_VIS
100
AcDbLine
 10
8.11774482676024
 20
4.768577836976676
 30
0.0
 11
8.11774482676024
 21
4.777977836976678
 31
0.0
  0
LINE
  5
1E8
330
D
100
AcDbEntity
 67
     1
  8
AM_VIS
100
AcDbLine
 10
8.11774482676024
 20
4.793577836976678
 30
0.0
 11
8.11774482676024
 21
4.777977836976678
 31
0.0
  0
LINE
  5
1E9
330
D
100
AcDbEntity
 67
     1
  8
AM_VIS
100
AcDbLine
 10
8.157744826760238
 20
4.777977836976678
 30
0.0
 11
8.157744826760238
 21
4.768577836976676
 31
0.0
  0
LINE
  5
1EA
330
D
100
AcDbEntity
 67
     1
  8
AM_VIS
100
AcDbLine
 10
8.157744826760238
 20
4.793577836976678
 30
0.0
 11
8.157744826760238
 21
4.777977836976678
 31
0.0
  0
LINE
  5
1EB
330
D
100
AcDbEntity
 67
     1
  8
AM_VIS
100
AcDbLine
 10
8.11774482676024
 20
4.768577836976676
 30
0.0
 11
8.157744826760238
 21
4.768577836976676
 31
0.0
  0
LINE
  5
1EC
330
D
100
AcDbEntity
 67
     1
  8
AM_VIS
100
AcDbLine
 10
8.157744826760238
 20
4.793577836976678
 30
0.0
 11
8.230144826760238
 21
4.793577836976678
 31
0.0
  0
LINE
  5
1ED
330
D
100
AcDbEntity
 67
     1
  8
AM_VIS
100
AcDbLine
 10
8.045344826760237
 20
4.793577836976678
 30
0.0
 11
8.117744826760239
 21
4.793577836976678
 31
0.0
  0
LINE
  5
1EE
330
D
100
AcDbEntity
 67
     1
  8
AM_VIS
100
AcDbLine
 10
8.245744826760239
 20
4.777977836976678
 30
0.0
 11
8.157744826760238
 21
4.777977836976678
 31
0.0
  0
LINE
  5
1EF
330
D
100
AcDbEntity
 67
     1
  8
AM_VIS
100
AcDbLine
 10
8.11774482676024
 20
4.777977836976678
 30
0.0
 11
8.029744826760238
 21
4.777977836976678
 31
0.0
  0
LINE
  5
1F0
330
D
100
AcDbEntity
 67
     1
  8
AM_VIS
100
AcDbLine
 10
8.230144826760236
 20
4.793577836976678
 30
0.0
 11
8.245744826760239
 21
4.777977836976678
 31
0.0
  0
LINE
  5
1F1
330
D
100
AcDbEntity
 67
     1
  8
AM_VIS
100
AcDbLine
 10
8.045344826760237
 20
4.793577836976678
 30
0.0
 11
8.029744826760238
 21
4.777977836976678
 31
0.0
  0
LINE
  5
1F2
330
D
100
AcDbEntity
 67
     1
  8
AM_HID
100
AcDbLine
 10
8.029744826760238
 20
4.526577836976676
 30
0.0
 11
8.029744826760238
 21
4.746727836976678
 31
0.0
  0
LINE
  5
1F3
330
D
100
AcDbEntity
 67
     1
  8
AM_VIS
100
AcDbLine
 10
8.029744826760238
 20
4.746727836976678
 30
0.0
 11
8.029744826760238
 21
4.777977836976678
 31
0.0
  0
LINE
  5
1F4
330
D
100
AcDbEntity
 67
     1
  8
AM_HID
100
AcDbLine
 10
8.245744826760239
 20
4.526577836976676
 30
0.0
 11
8.245744826760239
 21
4.746727836976678
 31
0.0
  0
LINE
  5
1F5
330
D
100
AcDbEntity
 67
     1
  8
AM_VIS
100
AcDbLine
 10
8.245744826760239
 20
4.746727836976678
 30
0.0
 11
8.245744826760239
 21
4.777977836976678
 31
0.0
  0
ARC
  5
1F6
330
D
100
AcDbEntity
 67
     1
  8
AM_HID
100
AcDbCircle
 10
8.13774482676024
 20
4.526577836976676
 30
0.0
 40
0.1079999999999996
100
AcDbArc
 50
180.0
 51
359.9999999999996
  0
LINE
  5
1F7
330
D
100
AcDbEntity
 67
     1
  8
AM_HID
100
AcDbLine
 10
8.297244826760236
 20
4.298137078982865
 30
0.0
 11
8.297244826760236
 21
4.171727836976674
 31
0.0
  0
LINE
  5
1F8
330
D
100
AcDbEntity
 67
     1
  8
AM_VIS
100
AcDbLine
 10
8.297244826760236
 20
5.077827836976674
 30
0.0
 11
8.297244826760236
 21
4.298137078982865
 31
0.0
  0
LINE
  5
1F9
330
D
100
AcDbEntity
 67
     1
  8
AM_VIS
100
AcDbLine
 10
8.297244826760236
 20
5.077827836976674
 30
0.0
 11
8.297244826760236
 21
5.171827836976675
 31
0.0
  0
LINE
  5
1FA
330
D
100
AcDbEntity
 67
     1
  8
AM_VIS
100
AcDbLine
 10
8.353244826760239
 20
5.077827836976674
 30
0.0
 11
8.353244826760239
 21
5.171827836976675
 31
0.0
  0
LINE
  5
1FB
330
D
100
AcDbEntity
 67
     1
  8
AM_VIS
100
AcDbLine
 10
8.353244826760239
 20
5.171827836976675
 30
0.0
 11
8.297244826760236
 21
5.171827836976675
 31
0.0
  0
LINE
  5
1FC
330
D
100
AcDbEntity
 67
     1
  8
AM_VIS
100
AcDbLine
 10
8.297244826760236
 20
4.766727836976675
 30
0.0
 11
8.245744826760237
 21
4.766727836976675
 31
0.0
  0
LINE
  5
1FD
330
D
100
AcDbEntity
 67
     1
  8
AM_HID
100
AcDbLine
 10
8.245744826760239
 20
4.766727836976675
 30
0.0
 11
8.029744826760238
 21
4.766727836976675
 31
0.0
  0
LINE
  5
1FE
330
D
100
AcDbEntity
 67
     1
  8
AM_VIS
100
AcDbLine
 10
8.029744826760238
 20
4.766727836976675
 30
0.0
 11
7.978244826760238
 21
4.766727836976675
 31
0.0
  0
LINE
  5
1FF
330
D
100
AcDbEntity
 67
     1
  8
AM_VIS
100
AcDbLine
 10
7.978244826760238
 20
5.064827836976679
 30
0.0
 11
7.978244826760238
 21
4.766727836976675
 31
0.0
  0
LINE
  5
200
330
D
100
AcDbEntity
 67
     1
  8
AM_VIS
100
AcDbLine
 10
8.297244826760236
 20
5.071827836976678
 30
0.0
 11
7.978244826760237
 21
5.071827836976678
 31
0.0
  0
LINE
  5
201
330
D
100
AcDbEntity
 67
     1
  8
AM_VIS
100
AcDbLine
 10
7.978244826760238
 20
5.064827836976679
 30
0.0
 11
7.978244826760238
 21
5.071827836976678
 31
0.0
  0
LINE
  5
202
330
D
100
AcDbEntity
 67
     1
  8
AM_VIS
100
AcDbLine
 10
7.978244826760238
 20
5.078827836976677
 30
0.0
 11
7.978244826760238
 21
5.071827836976678
 31
0.0
  0
LINE
  5
203
330
D
100
AcDbEntity
 67
     1
  8
AM_VIS
100
AcDbLine
 10
7.978244826760238
 20
5.114827836976676
 30
0.0
 11
7.978244826760238
 21
5.078827836976677
 31
0.0
  0
LINE
  5
204
330
D
100
AcDbEntity
 67
     1
  8
AM_VIS
100
AcDbLine
 10
7.978244826760238
 20
5.121827836976676
 30
0.0
 11
7.978244826760238
 21
5.114827836976676
 31
0.0
  0
LINE
  5
205
330
D
100
AcDbEntity
 67
     1
  8
AM_VIS
100
AcDbLine
 10
8.297244826760236
 20
5.121827836976676
 30
0.0
 11
7.978244826760237
 21
5.121827836976676
 31
0.0
  0
LINE
  5
206
330
D
100
AcDbEntity
 67
     1
  8
AM_VIS
100
AcDbLine
 10
7.978244826760238
 20
5.121827836976676
 30
0.0
 11
7.978244826760238
 21
5.128827836976674
 31
0.0
  0
LINE
  5
207
330
D
100
AcDbEntity
 67
     1
  8
AM_VIS
100
AcDbLine
 10
8.297244826760236
 20
5.171827836976677
 30
0.0
 11
7.978244826760237
 21
5.171827836976677
 31
0.0
  0
LINE
  5
208
330
D
100
AcDbEntity
 67
     1
  8
AM_VIS
100
AcDbLine
 10
7.978244826760238
 20
5.171827836976677
 30
0.0
 11
7.978244826760238
 21
5.128827836976674
 31
0.0
  0
LINE
  5
209
330
D
100
AcDbEntity
 67
     1
  8
AM_VIS
100
AcDbLine
 10
8.297244826760236
 20
4.458727836976678
 30
0.0
 11
7.978244826760237
 21
4.458727836976678
 31
0.0
  0
LINE
  5
20A
330
D
100
AcDbEntity
 67
     1
  8
AM_HID
100
AcDbLine
 10
8.297244826760236
 20
4.386727836976676
 30
0.0
 11
7.978244826760237
 21
4.386727836976676
 31
0.0
  0
LINE
  5
20B
330
D
100
AcDbEntity
 67
     1
  8
AM_HID
100
AcDbLine
 10
8.297244826760236
 20
4.171727836976674
 30
0.0
 11
7.978244826760237
 21
4.171727836976674
 31
0.0
  0
LINE
  5
20C
330
D
100
AcDbEntity
 67
     1
  8
AM_VIS
100
AcDbLine
 10
7.978244826760238
 20
4.448727836976678
 30
0.0
 11
7.978244826760238
 21
4.458727836976677
 31
0.0
  0
LINE
  5
20D
330
D
100
AcDbEntity
 67
     1
  8
AM_VIS
100
AcDbLine
 10
8.297244826760236
 20
4.448727836976678
 30
0.0
 11
7.978244826760237
 21
4.448727836976678
 31
0.0
  0
LINE
  5
20E
330
D
100
AcDbEntity
 67
     1
  8
AM_VIS
100
AcDbLine
 10
7.978244826760238
 20
4.448727836976678
 30
0.0
 11
7.978244826760238
 21
4.373484260076116
 31
0.0
  0
LINE
  5
20F
330
D
100
AcDbEntity
 67
     1
  8
AM_VIS
100
AcDbLine
 10
8.297244826760236
 20
4.373484260076116
 30
0.0
 11
7.978244826760237
 21
4.373484260076116
 31
0.0
  0
LINE
  5
210
330
D
100
AcDbEntity
 67
     1
  8
AM_VIS
100
AcDbLine
 10
7.978244826760238
 20
4.373484260076116
 30
0.0
 11
7.978244826760238
 21
4.359687563545127
 31
0.0
  0
LINE
  5
211
330
D
100
AcDbEntity
 67
     1
  8
AM_VIS
100
AcDbLine
 10
7.978244826760238
 20
4.298137078981934
 30
0.0
 11
7.978244826760238
 21
4.359687563545127
 31
0.0
  0
LINE
  5
212
330
D
100
AcDbEntity
 67
     1
  8
AM_VIS
100
AcDbLine
 10
7.978244826760238
 20
4.298137078981934
 30
0.0
 11
7.978244826760238
 21
3.950727836976683
 31
0.0
  0
LINE
  5
213
330
D
100
AcDbEntity
 67
     1
  8
AM_VIS
100
AcDbLine
 10
8.353244826760239
 20
5.077827836976674
 30
0.0
 11
8.353244826760239
 21
3.950727836976683
 31
0.0
  0
LINE
  5
214
330
D
100
AcDbEntity
 67
     1
  8
AM_HID
100
AcDbLine
 10
8.353244826760239
 20
3.850727836976681
 30
0.0
 11
7.978244826760238
 21
3.850727836976681
 31
0.0
  0
LINE
  5
215
330
D
100
AcDbEntity
 67
     1
  8
AM_VIS
100
AcDbLine
 10
8.353244826760239
 20
3.950727836976683
 30
0.0
 11
7.978244826760238
 21
3.950727836976683
 31
0.0
  0
LINE
  5
216
330
D
100
AcDbEntity
 67
     1
  8
AM_VIS
100
AcDbLine
 10
7.978244826760238
 20
3.940727836976683
 30
0.0
 11
7.978244826760238
 21
3.950727836976683
 31
0.0
  0
LINE
  5
217
330
D
100
AcDbEntity
 67
     1
  8
AM_VIS
100
AcDbLine
 10
8.353244826760239
 20
3.940727836976683
 30
0.0
 11
8.353244826760239
 21
3.950727836976683
 31
0.0
  0
LINE
  5
218
330
D
100
AcDbEntity
 67
     1
  8
AM_VIS
100
AcDbLine
 10
7.978244826760238
 20
3.940727836976683
 30
0.0
 11
7.978244826760238
 21
3.634288409614581
 31
0.0
  0
LINE
  5
219
330
D
100
AcDbEntity
 67
     1
  8
AM_VIS
100
AcDbLine
 10
8.353244826760239
 20
3.940727836976683
 30
0.0
 11
8.353244826760239
 21
3.634288409614581
 31
0.0
  0
LINE
  5
21A
330
D
100
AcDbEntity
 67
     1
  8
AM_VIS
100
AcDbLine
 10
7.978244826760238
 20
3.571788409614577
 30
0.0
 11
7.978244826760238
 21
3.634288409614581
 31
0.0
  0
LINE
  5
21B
330
D
100
AcDbEntity
 67
     1
  8
AM_VIS
100
AcDbLine
 10
8.353244826760239
 20
3.571788409614577
 30
0.0
 11
7.978244826760238
 21
3.571788409614577
 31
0.0
  0
LINE
  5
21C
330
D
100
AcDbEntity
 67
     1
  8
AM_VIS
100
AcDbLine
 10
8.353244826760239
 20
3.571788409614577
 30
0.0
 11
8.353244826760239
 21
3.634288409614581
 31
0.0
  0
LINE
  5
21D
330
D
100
AcDbEntity
 67
     1
  8
AM_HID
100
AcDbLine
 10
8.353244826760239
 20
3.820721887708566
 30
0.0
 11
7.978244826760238
 21
3.820721887708566
 31
0.0
  0
LINE
  5
21E
330
D
100
AcDbEntity
 67
     1
  8
AM_HID
100
AcDbLine
 10
8.353244826760239
 20
3.861727836976676
 30
0.0
 11
7.978244826760238
 21
3.861727836976676
 31
0.0
  0
LINE
  5
21F
330
D
100
AcDbEntity
 67
     1
  8
AM_HID
100
AcDbLine
 10
8.353244826760239
 20
4.091727836976676
 30
0.0
 11
7.978244826760238
 21
4.091727836976676
 31
0.0
  0
LINE
  5
220
330
D
100
AcDbEntity
 67
     1
  8
AM_HID
100
AcDbLine
 10
8.297244826760236
 20
4.241727836976676
 30
0.0
 11
7.978244826760237
 21
4.241727836976676
 31
0.0
  0
LINE
  5
221
330
D
100
AcDbEntity
 67
     1
  8
AM_HID
100
AcDbLine
 10
8.297244826760236
 20
4.926827836976679
 30
0.0
 11
7.978244826760237
 21
4.926827836976679
 31
0.0
  0
LINE
  5
222
330
D
100
AcDbEntity
 67
     1
  8
AM_HID
100
AcDbLine
 10
8.353244826760239
 20
4.271727836976678
 30
0.0
 11
7.978244826760238
 21
4.271727836976678
 31
0.0
  0
LINE
  5
223
330
D
100
AcDbEntity
 67
     1
  8
AM_HID
100
AcDbLine
 10
8.046744826760239
 20
4.441727836976677
 30
0.0
 11
8.088994826760236
 21
4.441727836976677
 31
0.0
  0
LINE
  5
224
330
D
100
AcDbEntity
 67
     1
  8
AM_HID
100
AcDbLine
 10
8.186494826760236
 20
4.441727836976677
 30
0.0
 11
8.088994826760236
 21
4.441727836976677
 31
0.0
  0
LINE
  5
225
330
D
100
AcDbEntity
 67
     1
  8
AM_HID
100
AcDbLine
 10
8.186494826760236
 20
4.441727836976677
 30
0.0
 11
8.228744826760237
 21
4.441727836976677
 31
0.0
  0
ARC
  5
226
330
D
100
AcDbEntity
 67
     1
  8
AM_HID
100
AcDbCircle
 10
8.186494826760236
 20
4.472977836976677
 30
0.0
 40
0.03125
100
AcDbArc
 50
270.0
 51
332.8707055354203
  0
ARC
  5
227
330
D
100
AcDbEntity
 67
     1
  8
AM_VIS
100
AcDbCircle
 10
8.186494826760236
 20
4.472977836976677
 30
0.0
 40
0.03125
100
AcDbArc
 50
332.8707055354203
 51
0.0000000000001145
  0
ARC
  5
228
330
D
100
AcDbEntity
 67
     1
  8
AM_VIS
100
AcDbCircle
 10
8.088994826760236
 20
4.472977836976677
 30
0.0
 40
0.03125
100
AcDbArc
 50
180.0
 51
207.1292944645795
  0
ARC
  5
229
330
D
100
AcDbEntity
 67
     1
  8
AM_HID
100
AcDbCircle
 10
8.088994826760236
 20
4.472977836976677
 30
0.0
 40
0.03125
100
AcDbArc
 50
207.1292944645795
 51
270.0
  0
LINE
  5
22A
330
D
100
AcDbEntity
 67
     1
  8
AM_VIS
100
AcDbLine
 10
8.057744826760236
 20
4.472977836976677
 30
0.0
 11
8.057744826760236
 21
4.645477836976677
 31
0.0
  0
ARC
  5
22B
330
D
100
AcDbEntity
 67
     1
  8
AM_VIS
100
AcDbCircle
 10
8.088994826760236
 20
4.645477836976676
 30
0.0
 40
0.03125
100
AcDbArc
 50
90.00000000000005
 51
180.0
  0
LINE
  5
22C
330
D
100
AcDbEntity
 67
     1
  8
AM_VIS
100
AcDbLine
 10
8.088994826760236
 20
4.676727836976676
 30
0.0
 11
8.186494826760236
 21
4.676727836976676
 31
0.0
  0
ARC
  5
22D
330
D
100
AcDbEntity
 67
     1
  8
AM_VIS
100
AcDbCircle
 10
8.186494826760236
 20
4.645477836976676
 30
0.0
 40
0.03125
100
AcDbArc
 50
0.0000000000000127
 51
90.00000000000005
  0
LINE
  5
22E
330
D
100
AcDbEntity
 67
     1
  8
AM_VIS
100
AcDbLine
 10
8.217744826760236
 20
4.645477836976676
 30
0.0
 11
8.217744826760236
 21
4.472977836976676
 31
0.0
  0
ARC
  5
22F
330
D
100
AcDbEntity
 67
     1
  8
AM_VIS
100
AcDbCircle
 10
8.018994826760236
 20
4.715477836976678
 30
0.0
 40
0.03125
100
AcDbArc
 50
90.00000000000005
 51
180.0
  0
LINE
  5
230
330
D
100
AcDbEntity
 67
     1
  8
AM_VIS
100
AcDbLine
 10
7.987744826760238
 20
4.715477836976678
 30
0.0
 11
7.987744826760238
 21
4.458727836976678
 31
0.0
  0
LINE
  5
231
330
D
100
AcDbEntity
 67
     1
  8
AM_HID
100
AcDbLine
 10
7.987744826760238
 20
4.458727836976678
 30
0.0
 11
7.987744826760238
 21
4.402977836976678
 31
0.0
  0
ARC
  5
232
330
D
100
AcDbEntity
 67
     1
  8
AM_HID
100
AcDbCircle
 10
8.018994826760236
 20
4.402977836976678
 30
0.0
 40
0.03125
100
AcDbArc
 50
180.0
 51
270.0
  0
LINE
  5
233
330
D
100
AcDbEntity
 67
     1
  8
AM_HID
100
AcDbLine
 10
8.018994826760236
 20
4.371727836976678
 30
0.0
 11
8.256494826760237
 21
4.371727836976678
 31
0.0
  0
ARC
  5
234
330
D
100
AcDbEntity
 67
     1
  8
AM_HID
100
AcDbCircle
 10
8.256494826760237
 20
4.402977836976678
 30
0.0
 40
0.03125
100
AcDbArc
 50
270.0
 51
0.0000000000000127
  0
LINE
  5
235
330
D
100
AcDbEntity
 67
     1
  8
AM_VIS
100
AcDbLine
 10
8.287744826760237
 20
4.715477836976678
 30
0.0
 11
8.287744826760237
 21
4.458727836976678
 31
0.0
  0
LINE
  5
236
330
D
100
AcDbEntity
 67
     1
  8
AM_HID
100
AcDbLine
 10
8.287744826760237
 20
4.458727836976678
 30
0.0
 11
8.287744826760237
 21
4.402977836976678
 31
0.0
  0
ARC
  5
237
330
D
100
AcDbEntity
 67
     1
  8
AM_VIS
100
AcDbCircle
 10
8.256494826760237
 20
4.715477836976678
 30
0.0
 40
0.03125
100
AcDbArc
 50
0.0000000000000127
 51
90.00000000000005
  0
LINE
  5
238
330
D
100
AcDbEntity
 67
     1
  8
AM_VIS
100
AcDbLine
 10
8.256494826760237
 20
4.746727836976678
 30
0.0
 11
8.018994826760236
 21
4.746727836976678
 31
0.0
  0
LINE
  5
239
330
D
100
AcDbEntity
 67
     1
  8
AM_HID
100
AcDbLine
 10
8.057744826760236
 20
4.676727836976676
 30
0.0
 11
8.088994826760236
 21
4.676727836976676
 31
0.0
  0
LINE
  5
23A
330
D
100
AcDbEntity
 67
     1
  8
AM_HID
100
AcDbLine
 10
8.186494826760236
 20
4.676727836976676
 30
0.0
 11
8.217744826760236
 21
4.676727836976676
 31
0.0
  0
LINE
  5
23B
330
D
100
AcDbEntity
 67
     1
  8
AM_HID
100
AcDbLine
 10
8.217744826760236
 20
4.676727836976676
 30
0.0
 11
8.217744826760236
 21
4.645477836976676
 31
0.0
  0
LINE
  5
23C
330
D
100
AcDbEntity
 67
     1
  8
AM_HID
100
AcDbLine
 10
8.217744826760236
 20
4.472977836976677
 30
0.0
 11
8.217744826760236
 21
4.441727836976677
 31
0.0
  0
LINE
  5
23D
330
D
100
AcDbEntity
 67
     1
  8
AM_HID
100
AcDbLine
 10
8.057744826760236
 20
4.441727836976677
 30
0.0
 11
8.057744826760236
 21
4.472977836976677
 31
0.0
  0
LINE
  5
23E
330
D
100
AcDbEntity
 67
     1
  8
AM_HID
100
AcDbLine
 10
8.057744826760236
 20
4.645477836976676
 30
0.0
 11
8.057744826760236
 21
4.676727836976676
 31
0.0
  0
LINE
  5
23F
330
D
100
AcDbEntity
 67
     1
  8
AM_HID
100
AcDbLine
 10
8.228744826760237
 20
4.746727836976678
 30
0.0
 11
8.228744826760237
 21
4.441727836976677
 31
0.0
  0
LINE
  5
240
330
D
100
AcDbEntity
 67
     1
  8
AM_HID
100
AcDbLine
 10
8.046744826760239
 20
4.746727836976678
 30
0.0
 11
8.046744826760239
 21
4.441727836976677
 31
0.0
  0
LINE
  5
241
330
D
100
AcDbEntity
 67
     1
  8
AM_VIS
100
AcDbLine
 10
12.82632139327869
 20
3.38406085412067
 30
0.0
 11
12.82632139327869
 21
3.391735921981391
 31
0.0
  0
SPLINE
  5
242
330
D
100
AcDbEntity
 67
     1
  8
AM_VIS
100
AcDbSpline
210
-0.0000000052974362
220
0.0000000095611119
230
1.0
 70
    12
 71
     2
 72
     6
 73
     3
 74
     0
 42
0.0000000001
 43
0.0000000001
 40
0.0
 40
0.0
 40
0.0
 40
0.022290918418531
 40
0.022290918418531
 40
0.022290918418531
 10
12.68748696799846
 20
3.484629361452201
 30
-0.0000000000000006
 41
1.0
 10
12.68229574832415
 20
3.481774312408868
 30
0.0000000000000003
 41
1.003171444162572
 10
12.67622808896435
 20
3.478392331630842
 30
0.0000000000000003
 41
1.0
  0
LINE
  5
243
330
D
100
AcDbEntity
 67
     1
  8
AM_VIS
100
AcDbLine
 10
12.81506251424459
 20
3.410973585484978
 30
0.0
 11
12.68748696799846
 21
3.4846293614522
 31
0.0
  0
SPLINE
  5
244
330
D
100
AcDbEntity
 67
     1
  8
AM_VIS
100
AcDbSpline
210
0.0
220
0.0
230
1.0
 70
    12
 71
     2
 72
     6
 73
     3
 74
     0
 42
0.0000000001
 43
0.0000000001
 40
0.0
 40
0.0
 40
0.0
 40
0.022290918418531
 40
0.022290918418531
 40
0.022290918418531
 10
12.82632139327869
 20
3.391735921981391
 30
-0.0000000000000001
 41
1.0
 10
12.8202537339189
 20
3.402124232288878
 30
-0.0000000000000001
 41
1.003171444162572
 10
12.81506251424459
 20
3.410973585484978
 30
-0.0000000000000001
 41
1.0
  0
LINE
  5
245
330
D
100
AcDbEntity
 67
     1
  8
AM_VIS
100
AcDbLine
 10
12.85460566452615
 20
3.408065853599944
 30
0.0
 11
12.85460566452615
 21
3.400390785739225
 31
0.0
  0
SPLINE
  5
246
330
D
100
AcDbEntity
 67
     1
  8
AM_VIS
100
AcDbSpline
210
0.0000000532352406
220
0.0000000311542887
230
0.9999999999999982
 70
    12
 71
     2
 72
     6
 73
     3
 74
     0
 42
0.0000000001
 43
0.0000000001
 40
0.0
 40
0.0
 40
0.0
 40
0.022290918418531
 40
0.022290918418531
 40
0.022290918418531
 10
12.84334678549205
 20
3.427303517103531
 30
-0.0000000000000001
 41
1.0
 10
12.84853800516636
 20
3.418454163907431
 30
-0.0000000000000001
 41
1.003171444162572
 10
12.85460566452615
 20
3.408065853599944
 30
0.0000000000000008
 41
1.0
  0
LINE
  5
247
330
D
100
AcDbEntity
 67
     1
  8
AM_VIS
100
AcDbLine
 10
12.71577123924592
 20
3.500959293070753
 30
0.0
 11
12.84334678549205
 21
3.427303517103533
 31
0.0
  0
SPLINE
  5
248
330
D
100
AcDbEntity
 67
     1
  8
AM_VIS
100
AcDbSpline
210
-0.0000000028065699
220
0.0000000050654557
230
1.0
 70
    12
 71
     2
 72
     6
 73
     3
 74
     0
 42
0.0000000001
 43
0.0000000001
 40
0.0
 40
0.0
 40
0.0
 40
0.022290918418531
 40
0.022290918418531
 40
0.022290918418531
 10
12.70451236021181
 20
3.494722263249396
 30
-0.0000000000000001
 41
1.0
 10
12.71058001957161
 20
3.498104244027421
 30
0.0000000000000003
 41
1.003171444162572
 10
12.71577123924592
 20
3.500959293070753
 30
-0.0000000000000006
 41
1.0
  0
LINE
  5
249
330
D
100
AcDbEntity
 67
     1
  8
AM_VIS
100
AcDbLine
 10
12.70451236021181
 20
3.487047195388674
 30
0.0
 11
12.70451236021181
 21
3.494722263249395
 31
0.0
  0
LINE
  5
24A
330
D
100
AcDbEntity
 67
     1
  8
AM_VIS
100
AcDbLine
 10
12.85460566452615
 20
3.400390785739223
 30
0.0
 11
12.70451236021181
 21
3.487047195388674
 31
0.0
  0
ELLIPSE
  5
24B
330
D
100
AcDbEntity
 67
     1
  8
AM_VIS
100
AcDbEllipse
 10
12.76541687674525
 20
3.435554024754673
 30
0.0
 11
0.108
 21
-0.0000000000000065
 31
0.0
210
0.0
220
0.0
230
1.0
 40
0.577350269189626
 41
5.311526840205756
 42
5.684047447358858
  0
ELLIPSE
  5
24C
330
D
100
AcDbEntity
 67
     1
  8
AM_VIS
100
AcDbEllipse
 10
12.76541687674525
 20
3.435554024754673
 30
0.0
 11
0.108
 21
-0.0000000000000065
 31
0.0
210
0.0
220
0.0
230
1.0
 40
0.577350269189626
 41
2.169934186615944
 42
2.309881639752958
  0
ELLIPSE
  5
24D
330
D
100
AcDbEntity
 67
     1
  8
AM_VIS
100
AcDbEllipse
 10
12.76541687674525
 20
3.455966439277866
 30
0.0
 11
0.0924
 21
-0.0000000000000055
 31
0.0
210
0.0
220
0.0
230
1.0
 40
0.5773502691896259
 41
5.715964160230631
 42
8.421202780923787
  0
ELLIPSE
  5
24E
330
D
100
AcDbEntity
 67
     1
  8
AM_VIS
100
AcDbEllipse
 10
12.76541687674525
 20
3.455966439277866
 30
0.0
 11
0.0924
 21
-0.0000000000000055
 31
0.0
210
0.0
220
0.0
230
1.0
 40
0.5773502691896259
 41
2.574371506640837
 42
5.279610127333994
  0
ELLIPSE
  5
24F
330
D
100
AcDbEntity
 67
     1
  8
AM_VIS
100
AcDbEllipse
 10
12.76541687674525
 20
3.443229092615393
 30
0.0
 11
0.108
 21
0.0
 31
0.0
210
0.0
220
0.0
230
1.0
 40
0.5773502691896259
 41
5.684047447358686
 42
7.068583470577022
  0
ELLIPSE
  5
250
330
D
100
AcDbEntity
 67
     1
  8
AM_VIS
100
AcDbEllipse
 10
12.76541687674525
 20
3.443229092615393
 30
0.0
 11
0.108
 21
0.0
 31
0.0
210
0.0
220
0.0
230
1.0
 40
0.5773502691896259
 41
2.542454793768893
 42
5.311526840205582
  0
ELLIPSE
  5
251
330
D
100
AcDbEntity
 67
     1
  8
AM_VIS
100
AcDbEllipse
 10
12.76541687674526
 20
3.237961852170162
 30
0.0
 11
0.108
 21
0.0
 31
0.0
210
0.0
220
0.0
230
1.0
 40
0.5773502691896259
 41
5.497787143782135
 42
6.283185307179581
  0
ELLIPSE
  5
252
330
D
100
AcDbEntity
 67
     1
  8
AM_VIS
100
AcDbEllipse
 10
12.76541687674526
 20
3.237961852170162
 30
0.0
 11
0.108
 21
0.0
 31
0.0
210
0.0
220
0.0
230
1.0
 40
0.5773502691896259
 41
5.302579382793561
 42
5.497787143782152
  0
LINE
  5
253
330
D
100
AcDbEntity
 67
     1
  8
AM_VIS
100
AcDbLine
 10
12.83075354332689
 20
3.493688581316725
 30
0.0
 11
12.8417844091134
 21
3.48731990798549
 31
0.0
  0
LINE
  5
254
330
D
100
AcDbEntity
 67
     1
  8
AM_VIS
100
AcDbLine
 10
12.65741687674525
 20
3.417713574461401
 30
0.0
 11
12.65741687674525
 21
3.443229092615392
 31
0.0
  0
LINE
  5
255
330
D
100
AcDbEntity
 67
     1
  8
AM_VIS
100
AcDbLine
 10
12.87341687674524
 20
3.237961852170162
 30
0.0
 11
12.87341687674524
 21
3.288190707015866
 31
0.0
  0
LINE
  5
256
330
D
100
AcDbEntity
 67
     1
  8
AM_VIS
100
AcDbLine
 10
12.87341687674524
 20
3.417713574461401
 30
0.0
 11
12.87341687674524
 21
3.443229092615392
 31
0.0
  0
ARC
  5
257
330
D
100
AcDbEntity
 67
     1
  8
AM_VIS
100
AcDbCircle
 10
12.76541687674526
 20
3.237961852170162
 30
0.0
 40
0.1079999999999996
100
AcDbArc
 50
303.8154191671553
 51
359.9999999999994
  0
SPLINE
  5
258
330
D
100
AcDbEntity
 67
     1
  8
AM_VIS
100
AcDbSpline
210
-0.0000000080953157
220
0.0000000146108826
230
-1.0
 70
    12
 71
     2
 72
     6
 73
     3
 74
     0
 42
0.0000000001
 43
0.0000000001
 40
0.0
 40
0.0
 40
0.0
 40
0.022290918418531
 40
0.022290918418531
 40
0.022290918418531
 10
12.21372542460347
 20
3.758155716062987
 30
0.0000000000000003
 41
1.0
 10
12.20853420492916
 20
3.755300667019658
 30
0.0000000000000003
 41
1.003171444162572
 10
12.20246654556936
 20
3.751918686241632
 30
-0.000000000000001
 41
1.0
  0
LINE
  5
259
330
D
100
AcDbEntity
 67
     1
  8
AM_VIS
100
AcDbLine
 10
12.284937818929
 20
3.717041221029506
 30
0.0
 11
12.21372542460347
 21
3.758155716062987
 31
0.0
  0
LINE
  5
25A
330
D
100
AcDbEntity
 67
     1
  8
AM_VIS
100
AcDbLine
 10
12.24200969585093
 20
3.774485647681542
 30
0.0
 11
12.284937818929
 21
3.749701084266615
 31
0.0
  0
SPLINE
  5
25B
330
D
100
AcDbEntity
 67
     1
  8
AM_VIS
100
AcDbSpline
210
0.0000000074812895
220
-0.0000000135026535
230
1.0
 70
    12
 71
     2
 72
     6
 73
     3
 74
     0
 42
0.0000000001
 43
0.0000000001
 40
0.0
 40
0.0
 40
0.0
 40
0.022290918418531
 40
0.022290918418531
 40
0.022290918418531
 10
12.23075081681682
 20
3.768248617860185
 30
-0.0000000000000001
 41
1.0
 10
12.23681847617662
 20
3.771630598638211
 30
-0.0000000000000006
 41
1.003171444162572
 10
12.24200969585093
 20
3.774485647681542
 30
0.0000000000000012
 41
1.0
  0
LINE
  5
25C
330
D
100
AcDbEntity
 67
     1
  8
AM_VIS
100
AcDbLine
 10
12.23075081681682
 20
3.760573549999464
 30
0.0
 11
12.23075081681682
 21
3.768248617860185
 31
0.0
  0
LINE
  5
25D
330
D
100
AcDbEntity
 67
     1
  8
AM_VIS
100
AcDbLine
 10
12.284937818929
 20
3.729288669743421
 30
0.0
 11
12.23075081681682
 21
3.760573549999464
 31
0.0
  0
ELLIPSE
  5
25E
330
D
100
AcDbEntity
 67
     1
  8
AM_VIS
100
AcDbEllipse
 10
12.29165533335027
 20
3.709080379365461
 30
0.0
 11
0.108
 21
-0.0000000000000065
 31
0.0
210
0.0
220
0.0
230
1.0
 40
0.577350269189626
 41
2.169934186615952
 42
2.309881639752966
  0
ELLIPSE
  5
25F
330
D
100
AcDbEntity
 67
     1
  8
AM_VIS
100
AcDbEllipse
 10
12.29165533335027
 20
3.729492793888654
 30
0.0
 11
0.0924
 21
-0.0000000000000055
 31
0.0
210
0.0
220
0.0
230
1.0
 40
0.5773502691896259
 41
1.643560893197824
 42
2.138017473744192
  0
ELLIPSE
  5
260
330
D
100
AcDbEntity
 67
     1
  8
AM_VIS
100
AcDbEllipse
 10
12.29165533335027
 20
3.729492793888654
 30
0.0
 11
0.0924
 21
-0.0000000000000055
 31
0.0
210
0.0
220
0.0
230
1.0
 40
0.5773502691896259
 41
2.574371506640828
 42
4.639624413982094
  0
ELLIPSE
  5
261
330
D
100
AcDbEntity
 67
     1
  8
AM_VIS
100
AcDbEllipse
 10
12.29165533335027
 20
3.716755447226182
 30
0.0
 11
0.108
 21
0.0
 31
0.0
210
0.0
220
0.0
230
1.0
 40
0.5773502691896259
 41
2.542454793768893
 42
4.650149597356325
  0
LINE
  5
262
330
D
100
AcDbEntity
 67
     1
  8
AM_VIS
100
AcDbLine
 10
12.18365533335027
 20
3.691239929072191
 30
0.0
 11
12.18365533335027
 21
3.716755447226181
 31
0.0
  0
ELLIPSE
  5
263
330
D
100
AcDbEntity
 67
     1
  8
AM_VIS
100
AcDbEllipse
 10
12.4263591751663
 20
3.01375189104741
 30
0.0
 11
-0.0350000000000001
 21
0.060621778264911
 31
0.0
210
0.0
220
0.0
230
1.0
 40
0.577350269189626
 41
3.926990816987241
 42
7.06858347057704
  0
LINE
  5
264
330
D
100
AcDbEntity
 67
     1
  8
AM_VIS
100
AcDbLine
 10
12.6369396943321
 20
3.078175849808935
 30
0.0
 11
12.47585664984936
 21
2.985174510714939
 31
0.0
  0
LINE
  5
265
330
D
100
AcDbEntity
 67
     1
  8
AM_VIS
100
AcDbLine
 10
12.2890431579883
 20
3.279034008717166
 30
0.0
 11
12.12796011350556
 21
3.186032669623171
 31
0.0
  0
LINE
  5
266
330
D
100
AcDbEntity
 67
     1
  8
AM_VIS
100
AcDbLine
 10
12.12796011350556
 20
3.186032669623173
 30
0.0
 11
12.37686170048324
 21
3.042329271379881
 31
0.0
  0
LINE
  5
267
330
D
100
AcDbEntity
 67
     1
  8
AM_VIS
100
AcDbLine
 10
12.1419649475015
 20
3.363949653133647
 30
0.0
 11
12.12796011350556
 21
3.355863958456133
 31
0.0
  0
LINE
  5
268
330
D
100
AcDbEntity
 67
     1
  8
AM_VIS
100
AcDbLine
 10
12.12796011350556
 20
3.355863958456132
 30
0.0
 11
12.12796011350556
 21
3.186032669623171
 31
0.0
  0
ELLIPSE
  5
269
330
D
100
AcDbEntity
 67
     1
  8
AM_VIS
100
AcDbEllipse
 10
13.0143184637229
 20
3.160925399759644
 30
0.0
 11
-0.0050000000000004
 21
0.0086602540378439
 31
0.0
210
0.0
220
0.0
230
0.9999999999999998
 40
0.577350269189626
 41
5.497787143781938
 42
6.283185307179379
  0
LINE
  5
26A
330
D
100
AcDbEntity
 67
     1
  8
AM_VIS
100
AcDbLine
 10
13.0408349680174
 20
3.153781054676526
 30
0.0
 11
13.0143184637229
 21
3.169090365568921
 31
0.0
  0
ELLIPSE
  5
26B
330
D
100
AcDbEntity
 67
     1
  8
AM_VIS
100
AcDbEllipse
 10
13.0408349680174
 20
3.145616088867248
 30
0.0
 11
-0.0050000000000004
 21
0.0086602540378439
 31
0.0
210
0.0
220
0.0
230
0.9999999999999998
 40
0.577350269189626
 41
3.926990816987038
 42
5.497787143781933
  0
LINE
  5
26C
330
D
100
AcDbEntity
 67
     1
  8
AM_VIS
100
AcDbLine
 10
13.10101545218469
 20
3.049434746857212
 30
0.0
 11
13.04790603582926
 21
3.141533605962608
 31
0.0
  0
LINE
  5
26D
330
D
100
AcDbEntity
 67
     1
  8
AM_VIS
100
AcDbLine
 10
13.15634298989599
 20
3.00622642252035
 30
0.0
 11
13.10101545218469
 21
3.049434746857214
 31
0.0
  0
ELLIPSE
  5
26E
330
D
100
AcDbEntity
 67
     1
  8
AM_VIS
100
AcDbEllipse
 10
13.14866875214765
 20
2.960401385549888
 30
0.0
 11
-0.0312500000000032
 21
0.0541265877365256
 31
0.0
210
0.0
220
0.0
230
1.0
 40
0.577350269189626
 41
3.926990817001941
 42
5.323254218576058
  0
LINE
  5
26F
330
D
100
AcDbEntity
 67
     1
  8
AM_VIS
100
AcDbLine
 10
13.19286292597251
 20
3.57150070547914
 30
0.0
 11
13.19286292597251
 21
2.934885867396246
 31
0.0
  0
ELLIPSE
  5
270
330
D
100
AcDbEntity
 67
     1
  8
AM_VIS
100
AcDbEllipse
 10
13.12639488854098
 20
3.609876044782745
 30
0.0
 11
-0.047
 21
0.0814063879557373
 31
0.0
210
0.0
220
0.0
230
1.0
 40
0.577350269189626
 41
3.926990816987244
 42
5.497787143782139
  0
LINE
  5
271
330
D
100
AcDbEntity
 67
     1
  8
AM_VIS
100
AcDbLine
 10
12.79334759460212
 20
3.87891166819843
 30
0.0
 11
13.12639488854098
 21
3.686626723389951
 31
0.0
  0
LINE
  5
272
330
D
100
AcDbEntity
 67
     1
  8
AM_VIS
100
AcDbLine
 10
12.79334759460212
 20
3.843802315218536
 30
0.0
 11
12.79334759460212
 21
3.878911668198428
 31
0.0
  0
ELLIPSE
  5
273
330
D
100
AcDbEntity
 67
     1
  8
AM_VIS
100
AcDbEllipse
 10
12.78839784713381
 20
3.846660053251785
 30
0.0
 11
-0.0035000000000002
 21
0.0060621778264906
 31
0.0
210
0.0
220
0.0
230
1.0
 40
0.577350269189626
 41
3.141592653589558
 42
3.926990816986973
  0
LINE
  5
274
330
D
100
AcDbEntity
 67
     1
  8
AM_VIS
100
AcDbLine
 10
12.76548711719611
 20
3.819062740302261
 30
0.0
 11
12.76548711719611
 21
3.825349633386268
 31
0.0
  0
ELLIPSE
  5
275
330
D
100
AcDbEntity
 67
     1
  8
AM_VIS
100
AcDbEllipse
 10
12.77043686466442
 20
3.816205002269013
 30
0.0
 11
-0.0035000000000003
 21
0.0060621778264916
 31
0.0
210
0.0
220
0.0
230
1.0
 40
0.577350269189626
 41
0.7853981633974479
 42
2.356194490192344
  0
LINE
  5
276
330
D
100
AcDbEntity
 67
     1
  8
AM_VIS
100
AcDbLine
 10
12.78839784713381
 20
3.800119748138906
 30
0.0
 11
12.77043686466442
 21
3.810489526202521
 31
0.0
  0
ELLIPSE
  5
277
330
D
100
AcDbEntity
 67
     1
  8
AM_VIS
100
AcDbEllipse
 10
12.78839784713381
 20
3.794404272072413
 30
0.0
 11
-0.0035000000000002
 21
0.0060621778264906
 31
0.0
210
0.0
220
0.0
230
1.0
 40
0.577350269189626
 41
3.926990816987109
 42
5.497787143782005
  0
LINE
  5
278
330
D
100
AcDbEntity
 67
     1
  8
AM_VIS
100
AcDbLine
 10
12.79334759460212
 20
3.548148903264607
 30
0.0
 11
12.79334759460212
 21
3.791546534039166
 31
0.0
  0
LINE
  5
279
330
D
100
AcDbEntity
 67
     1
  8
AM_VIS
100
AcDbLine
 10
12.17745758818864
 20
4.23449592919245
 30
0.0
 11
12.5105048821275
 21
4.042210984383973
 31
0.0
  0
ELLIPSE
  5
27A
330
D
100
AcDbEntity
 67
     1
  8
AM_VIS
100
AcDbEllipse
 10
12.17745758818864
 20
4.157745250585245
 30
0.0
 11
-0.047
 21
0.0814063879557373
 31
0.0
210
0.0
220
0.0
230
1.0
 40
0.577350269189626
 41
5.497787143782136
 42
7.06858347057704
  0
LINE
  5
27B
330
D
100
AcDbEntity
 67
     1
  8
AM_VIS
100
AcDbLine
 10
12.1109895507571
 20
3.721654426711749
 30
0.0
 11
12.1109895507571
 21
4.196120589888848
 31
0.0
  0
LINE
  5
27C
330
D
100
AcDbEntity
 67
     1
  8
AM_VIS
100
AcDbLine
 10
13.23246090571896
 20
3.594362609745116
 30
0.0
 11
13.19286292597251
 21
3.57150070547914
 31
0.0
  0
ELLIPSE
  5
27D
330
D
100
AcDbEntity
 67
     1
  8
AM_VIS
100
AcDbEllipse
 10
13.16599286828743
 20
3.632737949048721
 30
0.0
 11
-0.047
 21
0.0814063879557373
 31
0.0
210
0.0
220
0.0
230
1.0
 40
0.577350269189626
 41
3.926990816987244
 42
5.497787143782139
  0
LINE
  5
27E
330
D
100
AcDbEntity
 67
     1
  8
AM_VIS
100
AcDbLine
 10
13.16599286828743
 20
3.709488627655928
 30
0.0
 11
13.12639488854098
 21
3.686626723389951
 31
0.0
  0
LINE
  5
27F
330
D
100
AcDbEntity
 67
     1
  8
AM_VIS
100
AcDbLine
 10
12.21705556793509
 20
4.257357833458428
 30
0.0
 11
12.17745758818864
 21
4.23449592919245
 31
0.0
  0
ELLIPSE
  5
280
330
D
100
AcDbEntity
 67
     1
  8
AM_VIS
100
AcDbEllipse
 10
12.21705556793509
 20
4.18060715485122
 30
0.0
 11
-0.047
 21
0.0814063879557373
 31
0.0
210
0.0
220
0.0
230
1.0
 40
0.577350269189626
 41
5.497787143782136
 42
6.283185307179588
  0
LINE
  5
281
330
D
100
AcDbEntity
 67
     1
  8
AM_VIS
100
AcDbLine
 10
12.47917223111223
 20
3.759013660519728
 30
0.0
 11
12.44898659216427
 21
3.741585973747457
 31
0.0
  0
ELLIPSE
  5
282
330
D
100
AcDbEntity
 67
     1
  8
AM_VIS
100
AcDbEllipse
 10
12.46030030066326
 20
3.735054001100003
 30
0.0
 11
-0.0080000000000008
 21
0.0138564064605506
 31
0.0
210
0.0
220
0.0
230
0.9999999999999998
 40
0.577350269189626
 41
0.7853981633953913
 42
1.80057167664885
  0
LINE
  5
283
330
D
100
AcDbEntity
 67
     1
  8
AM_VIS
100
AcDbLine
 10
12.49386186989464
 20
3.750222891091555
 30
0.0
 11
12.45433263024619
 21
3.727400673939666
 31
0.0
  0
LINE
  5
284
330
D
100
AcDbEntity
 67
     1
  8
AM_VIS
100
AcDbLine
 10
12.46030030066326
 20
3.769909374644573
 30
0.0
 11
12.44898659216428
 21
3.763377401997153
 31
0.0
  0
LINE
  5
285
330
D
100
AcDbEntity
 67
     1
  8
AM_VIS
100
AcDbLine
 10
12.44898659216427
 20
3.763377401997154
 30
0.0
 11
12.44898659216427
 21
3.741585973747457
 31
0.0
  0
ELLIPSE
  5
286
330
D
100
AcDbEntity
 67
     1
  8
AM_VIS
100
AcDbEllipse
 10
12.46030030066326
 20
3.756845429349731
 30
0.0
 11
-0.0079999999999999
 21
0.013856406460549
 31
0.0
210
0.0
220
0.0
230
0.9999999999999998
 40
0.577350269189626
 41
5.497787143782016
 42
7.068583470576863
  0
LINE
  5
287
330
D
100
AcDbEntity
 67
     1
  8
AM_VIS
100
AcDbLine
 10
12.49141299903547
 20
3.751946449864167
 30
0.0
 11
12.46030030066326
 21
3.769909374644575
 31
0.0
  0
ELLIPSE
  5
288
330
D
100
AcDbEntity
 67
     1
  8
AM_VIS
100
AcDbEllipse
 10
12.49141299903547
 20
3.738882504569323
 30
0.0
 11
-0.0080000000000004
 21
0.0138564064605498
 31
0.0
210
0.0
220
0.0
230
1.0
 40
0.577350269189626
 41
3.926990816987049
 42
5.497787143782002
  0
LINE
  5
289
330
D
100
AcDbEntity
 67
     1
  8
AM_VIS
100
AcDbLine
 10
12.50272670753445
 20
3.455476541329308
 30
0.0
 11
12.50272670753445
 21
3.732350531921901
 31
0.0
  0
LINE
  5
28A
330
D
100
AcDbEntity
 67
     1
  8
AM_VIS
100
AcDbLine
 10
12.79334759460212
 20
3.548148903264607
 30
0.0
 11
12.5677805314036
 21
3.417917698606636
 31
0.0
  0
LINE
  5
28B
330
D
100
AcDbEntity
 67
     1
  8
AM_VIS
100
AcDbLine
 10
12.5677805314036
 20
3.417917698606636
 30
0.0
 11
12.50272670753445
 21
3.455476541329308
 31
0.0
  0
LINE
  5
28C
330
D
100
AcDbEntity
 67
     1
  8
AM_VIS
100
AcDbLine
 10
12.79334759460212
 20
3.791546534039166
 30
0.0
 11
12.5677805314036
 21
3.661315329381193
 31
0.0
  0
LINE
  5
28D
330
D
100
AcDbEntity
 67
     1
  8
AM_VIS
100
AcDbLine
 10
12.5677805314036
 20
3.661315329381191
 30
0.0
 11
12.5677805314036
 21
3.417917698606633
 31
0.0
  0
LINE
  5
28E
330
D
100
AcDbEntity
 67
     1
  8
AM_VIS
100
AcDbLine
 10
12.78839784713381
 20
3.800119748138906
 30
0.0
 11
12.5628307839353
 21
3.669888543480935
 31
0.0
  0
ELLIPSE
  5
28F
330
D
100
AcDbEntity
 67
     1
  8
AM_VIS
100
AcDbEllipse
 10
12.5628307839353
 20
3.664173067414439
 30
0.0
 11
-0.0034999999999998
 21
0.0060621778264908
 31
0.0
210
0.0
220
0.0
230
1.0
 40
0.5773502691896259
 41
3.926990816987288
 42
5.497787143782312
  0
LINE
  5
290
330
D
100
AcDbEntity
 67
     1
  8
AM_VIS
100
AcDbLine
 10
12.77043686466442
 20
3.810489526202521
 30
0.0
 11
12.5448698014659
 21
3.680258321544549
 31
0.0
  0
LINE
  5
291
330
D
100
AcDbEntity
 67
     1
  8
AM_VIS
100
AcDbLine
 10
12.5448698014659
 20
3.680258321544549
 30
0.0
 11
12.5628307839353
 21
3.669888543480933
 31
0.0
  0
LINE
  5
292
330
D
100
AcDbEntity
 67
     1
  8
AM_VIS
100
AcDbLine
 10
12.76548711719611
 20
3.819062740302261
 30
0.0
 11
12.53992005399759
 21
3.688831535644288
 31
0.0
  0
ELLIPSE
  5
293
330
D
100
AcDbEntity
 67
     1
  8
AM_VIS
100
AcDbEllipse
 10
12.5448698014659
 20
3.685973797611042
 30
0.0
 11
-0.0035000000000006
 21
0.0060621778264913
 31
0.0
210
0.0
220
0.0
230
1.0
 40
0.5773502691896261
 41
0.7853981633972757
 42
2.356194490192045
  0
LINE
  5
294
330
D
100
AcDbEntity
 67
     1
  8
AM_VIS
100
AcDbLine
 10
12.5448698014659
 20
3.721083150590931
 30
0.0
 11
12.53992005399759
 21
3.718225412557684
 31
0.0
  0
LINE
  5
295
330
D
100
AcDbEntity
 67
     1
  8
AM_VIS
100
AcDbLine
 10
12.53992005399761
 20
3.718225412557686
 30
0.0
 11
12.53992005399761
 21
3.688831535644288
 31
0.0
  0
ELLIPSE
  5
296
330
D
100
AcDbEntity
 67
     1
  8
AM_VIS
100
AcDbEllipse
 10
12.5448698014659
 20
3.715367674524439
 30
0.0
 11
-0.0035000000000002
 21
0.0060621778264906
 31
0.0
210
0.0
220
0.0
230
1.0
 40
0.577350269189626
 41
5.497787143781996
 42
7.068583470576768
  0
LINE
  5
297
330
D
100
AcDbEntity
 67
     1
  8
AM_VIS
100
AcDbLine
 10
12.5628307839353
 20
3.710713372527318
 30
0.0
 11
12.5448698014659
 21
3.721083150590932
 31
0.0
  0
LINE
  5
298
330
D
100
AcDbEntity
 67
     1
  8
AM_VIS
100
AcDbLine
 10
12.79334759460212
 20
3.843802315218538
 30
0.0
 11
12.5677805314036
 21
3.713571110560565
 31
0.0
  0
ELLIPSE
  5
299
330
D
100
AcDbEntity
 67
     1
  8
AM_VIS
100
AcDbEllipse
 10
12.5628307839353
 20
3.716428848593813
 30
0.0
 11
-0.0034999999999998
 21
0.0060621778264908
 31
0.0
210
0.0
220
0.0
230
1.0
 40
0.5773502691896259
 41
2.356194490192129
 42
3.926990816987153
  0
LINE
  5
29A
330
D
100
AcDbEntity
 67
     1
  8
AM_VIS
100
AcDbLine
 10
12.79334759460212
 20
3.878911668198431
 30
0.0
 11
12.5677805314036
 21
3.74868046354046
 31
0.0
  0
LINE
  5
29B
330
D
100
AcDbEntity
 67
     1
  8
AM_VIS
100
AcDbLine
 10
12.5677805314036
 20
3.74868046354046
 30
0.0
 11
12.5677805314036
 21
3.713571110560565
 31
0.0
  0
LINE
  5
29C
330
D
100
AcDbEntity
 67
     1
  8
AM_VIS
100
AcDbLine
 10
12.5105048821275
 20
4.042210984383975
 30
0.0
 11
12.284937818929
 21
3.911979779726003
 31
0.0
  0
LINE
  5
29D
330
D
100
AcDbEntity
 67
     1
  8
AM_VIS
100
AcDbLine
 10
12.28493781892899
 20
3.911979779726003
 30
0.0
 11
12.5677805314036
 21
3.74868046354046
 31
0.0
  0
LINE
  5
29E
330
D
100
AcDbEntity
 67
     1
  8
AM_VIS
100
AcDbLine
 10
12.21705556793509
 20
4.25735783345843
 30
0.0
 11
13.16599286828743
 21
3.709488627655929
 31
0.0
  0
ELLIPSE
  5
29F
330
D
100
AcDbEntity
 67
     1
  8
AM_VIS
100
AcDbEllipse
 10
12.4263591751663
 20
3.691525702875516
 30
0.0
 11
-0.0374999999999999
 21
0.0649519052838327
 31
0.0
210
0.0
220
0.0
230
1.0
 40
0.5773502691896261
 41
6.05340995732387
 42
11.22534963742034
  0
LINE
  5
2A0
330
D
100
AcDbEntity
 67
     1
  8
AM_VIS
100
AcDbLine
 10
12.40202986062223
 20
3.76180558310008
 30
0.0
 11
12.39838572008639
 21
3.75970163758075
 31
0.0
  0
ELLIPSE
  5
2A1
330
D
100
AcDbEntity
 67
     1
  8
AM_VIS
100
AcDbEllipse
 10
12.39241804966934
 20
3.774245836984527
 30
0.0
 11
-0.0080000000000008
 21
0.0138564064605506
 31
0.0
210
0.0
220
0.0
230
0.9999999999999998
 40
0.577350269189626
 41
2.911817303732979
 42
3.926990816986251
  0
LINE
  5
2A2
330
D
100
AcDbEntity
 67
     1
  8
AM_VIS
100
AcDbLine
 10
12.40373175816833
 20
3.767713864337096
 30
0.0
 11
12.40373175816833
 21
3.789505292586841
 31
0.0
  0
ELLIPSE
  5
2A3
330
D
100
AcDbEntity
 67
     1
  8
AM_VIS
100
AcDbEllipse
 10
12.39241804966934
 20
3.796037265234263
 30
0.0
 11
-0.0080000000000008
 21
0.0138564064605506
 31
0.0
210
0.0
220
0.0
230
0.9999999999999998
 40
0.577350269189626
 41
3.926990816987033
 42
5.497787143781986
  0
LINE
  5
2A4
330
D
100
AcDbEntity
 67
     1
  8
AM_VIS
100
AcDbLine
 10
12.39241804966934
 20
3.809101210529106
 30
0.0
 11
12.36130535129714
 21
3.827064135309518
 31
0.0
  0
ELLIPSE
  5
2A5
330
D
100
AcDbEntity
 67
     1
  8
AM_VIS
100
AcDbEllipse
 10
12.36130535129714
 20
3.814000190014674
 30
0.0
 11
-0.0080000000000008
 21
0.0138564064605506
 31
0.0
210
0.0
220
0.0
230
0.9999999999999998
 40
0.577350269189626
 41
5.497787143782048
 42
7.068583470576894
  0
LINE
  5
2A6
330
D
100
AcDbEntity
 67
     1
  8
AM_VIS
100
AcDbLine
 10
12.36130535129714
 20
3.827064135309518
 30
0.0
 11
12.34999164279815
 21
3.820532162662096
 31
0.0
  0
LINE
  5
2A7
330
D
100
AcDbEntity
 67
     1
  8
AM_VIS
100
AcDbLine
 10
12.34999164279815
 20
3.820532162662096
 30
0.0
 11
12.34999164279815
 21
3.543658172069505
 31
0.0
  0
LINE
  5
2A8
330
D
100
AcDbEntity
 67
     1
  8
AM_VIS
100
AcDbLine
 10
12.50272670753445
 20
3.6318398028097
 30
0.0
 11
12.34999164279815
 21
3.543658172069505
 31
0.0
  0
LINE
  5
2A9
330
D
100
AcDbEntity
 67
     1
  8
AM_VIS
100
AcDbLine
 10
12.34999164279815
 20
3.543658172069505
 30
0.0
 11
12.284937818929
 21
3.581217014792178
 31
0.0
  0
LINE
  5
2AA
330
D
100
AcDbEntity
 67
     1
  8
AM_VIS
100
AcDbLine
 10
12.28493781892899
 20
3.581217014792178
 30
0.0
 11
12.28493781892899
 21
3.824614645566736
 31
0.0
  0
ELLIPSE
  5
2AB
330
D
100
AcDbEntity
 67
     1
  8
AM_VIS
100
AcDbEllipse
 10
12.28988756639729
 20
3.821756907533488
 30
0.0
 11
-0.0034999999999998
 21
0.0060621778264908
 31
0.0
210
0.0
220
0.0
230
1.0
 40
0.5773502691896259
 41
5.497787143782312
 42
7.068583470577081
  0
LINE
  5
2AC
330
D
100
AcDbEntity
 67
     1
  8
AM_VIS
100
AcDbLine
 10
12.31364588401791
 20
3.841189254673733
 30
0.0
 11
12.28988756639729
 21
3.827472383599982
 31
0.0
  0
LINE
  5
2AD
330
D
100
AcDbEntity
 67
     1
  8
AM_VIS
100
AcDbLine
 10
12.28988756639729
 20
3.827472383599982
 30
0.0
 11
12.30869613654959
 21
3.816613250559477
 31
0.0
  0
LINE
  5
2AE
330
D
100
AcDbEntity
 67
     1
  8
AM_VIS
100
AcDbLine
 10
12.31364588401791
 20
3.819470988592724
 30
0.0
 11
12.30869613654959
 21
3.816613250559477
 31
0.0
  0
ELLIPSE
  5
2AF
330
D
100
AcDbEntity
 67
     1
  8
AM_VIS
100
AcDbEllipse
 10
12.30869613654959
 20
3.822328726625972
 30
0.0
 11
-0.0035000000000002
 21
0.0060621778264906
 31
0.0
210
0.0
220
0.0
230
1.0
 40
0.577350269189626
 41
2.356194490191965
 42
3.926990816986861
  0
LINE
  5
2B0
330
D
100
AcDbEntity
 67
     1
  8
AM_VIS
100
AcDbLine
 10
12.31364588401791
 20
3.819470988592723
 30
0.0
 11
12.31364588401791
 21
3.848864865506122
 31
0.0
  0
ELLIPSE
  5
2B1
330
D
100
AcDbEntity
 67
     1
  8
AM_VIS
100
AcDbEllipse
 10
12.30869613654959
 20
3.851722603539368
 30
0.0
 11
-0.0035000000000002
 21
0.0060621778264906
 31
0.0
210
0.0
220
0.0
230
1.0
 40
0.577350269189626
 41
3.926990816987116
 42
5.497787143782138
  0
LINE
  5
2B2
330
D
100
AcDbEntity
 67
     1
  8
AM_VIS
100
AcDbLine
 10
12.30869613654959
 20
3.857438079605863
 30
0.0
 11
12.28988756639729
 21
3.868297212646368
 31
0.0
  0
ELLIPSE
  5
2B3
330
D
100
AcDbEntity
 67
     1
  8
AM_VIS
100
AcDbEllipse
 10
12.28988756639729
 20
3.874012688712861
 30
0.0
 11
-0.0034999999999998
 21
0.0060621778264908
 31
0.0
210
0.0
220
0.0
230
1.0
 40
0.5773502691896259
 41
0.7853981633973688
 42
2.356194490192136
  0
LINE
  5
2B4
330
D
100
AcDbEntity
 67
     1
  8
AM_VIS
100
AcDbLine
 10
12.28493781892899
 20
3.876870426746108
 30
0.0
 11
12.28493781892899
 21
3.911979779726003
 31
0.0
  0
LINE
  5
2B5
330
D
100
AcDbEntity
 67
     1
  8
AM_VIS
100
AcDbLine
 10
13.0143184637229
 20
3.169090365568923
 30
0.0
 11
12.78875140052439
 21
3.03885916091095
 31
0.0
  0
LINE
  5
2B6
330
D
100
AcDbEntity
 67
     1
  8
AM_VIS
100
AcDbLine
 10
12.78875140052439
 20
3.03885916091095
 30
0.0
 11
12.81526790481889
 21
3.023549850018555
 31
0.0
  0
LINE
  5
2B7
330
D
100
AcDbEntity
 67
     1
  8
AM_VIS
100
AcDbLine
 10
13.0408349680174
 20
3.153781054676526
 30
0.0
 11
12.81526790481889
 21
3.023549850018553
 31
0.0
  0
ELLIPSE
  5
2B8
330
D
100
AcDbEntity
 67
     1
  8
AM_VIS
100
AcDbEllipse
 10
12.78875140052439
 20
3.030694195101673
 30
0.0
 11
-0.0049999999999999
 21
0.0086602540378442
 31
0.0
210
0.0
220
0.0
230
1.0
 40
0.577350269189626
 41
5.497787143782193
 42
7.068583470577007
  0
LINE
  5
2B9
330
D
100
AcDbEntity
 67
     1
  8
AM_VIS
100
AcDbLine
 10
12.78168033271253
 20
2.98415388998878
 30
0.0
 11
12.78168033271253
 21
3.034776678006301
 31
0.0
  0
LINE
  5
2BA
330
D
100
AcDbEntity
 67
     1
  8
AM_VIS
100
AcDbLine
 10
12.73964799954051
 20
3.019899009815423
 30
0.0
 11
12.72970798429533
 21
3.014160139337872
 31
0.0
  0
LINE
  5
2BB
330
D
100
AcDbEntity
 67
     1
  8
AM_VIS
100
AcDbLine
 10
12.72970798429533
 20
3.014160139337872
 30
0.0
 11
12.78168033271253
 21
2.98415388998878
 31
0.0
  0
ELLIPSE
  5
2BC
330
D
100
AcDbEntity
 67
     1
  8
AM_VIS
100
AcDbEllipse
 10
12.72970798429533
 20
3.008444663271377
 30
0.0
 11
-0.0034999999999998
 21
0.0060621778264908
 31
0.0
210
0.0
220
0.0
230
1.0
 40
0.5773502691896259
 41
5.497787143782552
 42
7.068583470578098
  0
LINE
  5
2BD
330
D
100
AcDbEntity
 67
     1
  8
AM_VIS
100
AcDbLine
 10
12.72475823682702
 20
2.841471112471663
 30
0.0
 11
12.72475823682702
 21
3.011302401304627
 31
0.0
  0
ELLIPSE
  5
2BE
330
D
100
AcDbEntity
 67
     1
  8
AM_VIS
100
AcDbEllipse
 10
12.03745044551368
 20
3.464458003719526
 30
0.0
 11
-0.0049999999999999
 21
0.0086602540378442
 31
0.0
210
0.0
220
0.0
230
1.0
 40
0.577350269189626
 41
5.497787143782199
 42
7.068583470577197
  0
LINE
  5
2BF
330
D
100
AcDbEntity
 67
     1
  8
AM_VIS
100
AcDbLine
 10
12.06891669727649
 20
3.490790018454458
 30
0.0
 11
12.03745044551368
 21
3.472622969528805
 31
0.0
  0
LINE
  5
2C0
330
D
100
AcDbEntity
 67
     1
  8
AM_VIS
100
AcDbLine
 10
11.97726996134605
 20
3.437767099177988
 30
0.0
 11
12.03037937770184
 21
3.468540486624153
 31
0.0
  0
LINE
  5
2C1
330
D
100
AcDbEntity
 67
     1
  8
AM_VIS
100
AcDbLine
 10
12.06891669727649
 20
3.543301148875053
 30
0.0
 11
11.92194242363469
 21
3.458445512424006
 31
0.0
  0
LINE
  5
2C2
330
D
100
AcDbEntity
 67
     1
  8
AM_VIS
100
AcDbLine
 10
11.92194242363469
 20
3.458445512424006
 30
0.0
 11
11.97726996134605
 21
3.437767099177988
 31
0.0
  0
ELLIPSE
  5
2C3
330
D
100
AcDbEntity
 67
     1
  8
AM_VIS
100
AcDbEllipse
 10
11.92961666138276
 20
3.40375902899399
 30
0.0
 11
-0.03125
 21
0.0541265877365274
 31
0.0
210
0.0
220
0.0
230
1.0
 40
0.577350269189626
 41
5.672320068981554
 42
7.068583470577037
  0
ELLIPSE
  5
2C4
330
D
100
AcDbEntity
 67
     1
  8
AM_VIS
100
AcDbEllipse
 10
12.81526790481889
 20
3.015384884209276
 30
0.0
 11
-0.0049999999999999
 21
0.0086602540378442
 31
0.0
210
0.0
220
0.0
230
1.0
 40
0.577350269189626
 41
3.926990816987214
 42
5.497787143782199
  0
LINE
  5
2C5
330
D
100
AcDbEntity
 67
     1
  8
AM_VIS
100
AcDbLine
 10
13.04790603582926
 20
3.141533605962609
 30
0.0
 11
12.82233897263075
 21
3.011302401304638
 31
0.0
  0
LINE
  5
2C6
330
D
100
AcDbEntity
 67
     1
  8
AM_VIS
100
AcDbLine
 10
12.82233897263076
 20
3.011302401304638
 30
0.0
 11
12.87544838898619
 21
2.919203542199241
 31
0.0
  0
LINE
  5
2C7
330
D
100
AcDbEntity
 67
     1
  8
AM_VIS
100
AcDbLine
 10
13.10101545218469
 20
3.049434746857214
 30
0.0
 11
12.87544838898619
 21
2.919203542199241
 31
0.0
  0
LINE
  5
2C8
330
D
100
AcDbEntity
 67
     1
  8
AM_VIS
100
AcDbLine
 10
12.87544838898619
 20
2.919203542199241
 30
0.0
 11
12.93077592669748
 21
2.875995217862377
 31
0.0
  0
LINE
  5
2C9
330
D
100
AcDbEntity
 67
     1
  8
AM_VIS
100
AcDbLine
 10
13.15634298989599
 20
3.00622642252035
 30
0.0
 11
12.93077592669748
 21
2.875995217862377
 31
0.0
  0
ELLIPSE
  5
2CA
330
D
100
AcDbEntity
 67
     1
  8
AM_VIS
100
AcDbEllipse
 10
12.92310168894914
 20
2.830170180891916
 30
0.0
 11
-0.03125
 21
0.0541265877365274
 31
0.0
210
0.0
220
0.0
230
1.0
 40
0.577350269189626
 41
3.926990816987236
 42
5.323254218576231
  0
LINE
  5
2CB
330
D
100
AcDbEntity
 67
     1
  8
AM_VIS
100
AcDbLine
 10
13.19286292597181
 20
2.934885867395898
 30
0.0
 11
12.9672958627733
 21
2.804654662737925
 31
0.0
  0
LINE
  5
2CC
330
D
100
AcDbEntity
 67
     1
  8
AM_VIS
100
AcDbLine
 10
12.9672958627733
 20
2.804654662737925
 30
0.0
 11
12.9672958627733
 21
2.459758960888364
 31
0.0
  0
LINE
  5
2CD
330
D
100
AcDbEntity
 67
     1
  8
AM_VIS
100
AcDbLine
 10
13.00972226964518
 20
2.48425385831659
 30
0.0
 11
12.9672958627733
 21
2.459758960888364
 31
0.0
  0
LINE
  5
2CE
330
D
100
AcDbEntity
 67
     1
  8
AM_VIS
100
AcDbLine
 10
13.23246090571825
 20
3.594362609745526
 30
0.0
 11
13.23246090571825
 21
2.620316592290674
 31
0.0
  0
ELLIPSE
  5
2CF
330
D
100
AcDbEntity
 67
     1
  8
AM_VIS
100
AcDbEllipse
 10
12.98497353230296
 20
2.449552753626766
 30
0.0
 11
-0.012500000000001
 21
0.0216506350946098
 31
0.0
210
0.0
220
0.0
230
1.0
 40
0.577350269189626
 41
0.7853981633972733
 42
2.356194490192175
  0
LINE
  5
2D0
330
D
100
AcDbEntity
 67
     1
  8
AM_VIS
100
AcDbLine
 10
13.00972226964518
 20
2.443429029270204
 30
0.0
 11
12.98497353230296
 21
2.429140339103573
 31
0.0
  0
LINE
  5
2D1
330
D
100
AcDbEntity
 67
     1
  8
AM_VIS
100
AcDbLine
 10
12.98497353230296
 20
2.429140339103573
 30
0.0
 11
12.99204460011551
 21
2.425057856198538
 31
0.0
  0
LINE
  5
2D2
330
D
100
AcDbEntity
 67
     1
  8
AM_VIS
100
AcDbLine
 10
13.00972226964518
 20
2.435264063460135
 30
0.0
 11
12.99204460011551
 21
2.425057856198538
 31
0.0
  0
ELLIPSE
  5
2D3
330
D
100
AcDbEntity
 67
     1
  8
AM_VIS
100
AcDbEllipse
 10
12.99204460011551
 20
2.445470270721732
 30
0.0
 11
-0.0125000000000015
 21
0.0216506350946105
 31
0.0
210
0.0
220
0.0
230
1.0
 40
0.577350269189626
 41
2.35619449019218
 42
3.926990816987076
  0
LINE
  5
2D4
330
D
100
AcDbEntity
 67
     1
  8
AM_VIS
100
AcDbLine
 10
13.00972226964518
 20
2.435264063460135
 30
0.0
 11
13.00972226964518
 21
2.488336341220439
 31
0.0
  0
ELLIPSE
  5
2D5
330
D
100
AcDbEntity
 67
     1
  8
AM_VIS
100
AcDbEllipse
 10
13.01679333745703
 20
2.4842538583158
 30
0.0
 11
-0.0049999999999995
 21
0.0086602540378434
 31
0.0
210
0.0
220
0.0
230
0.9999999999999998
 40
0.577350269189626
 41
5.497787143782159
 42
7.068583470577061
  0
LINE
  5
2D6
330
D
100
AcDbEntity
 67
     1
  8
AM_VIS
100
AcDbLine
 10
13.28195838040199
 20
2.645511933049026
 30
0.0
 11
13.01679333745703
 21
2.492418824125079
 31
0.0
  0
ELLIPSE
  5
2D7
330
D
100
AcDbEntity
 67
     1
  8
AM_VIS
100
AcDbEllipse
 10
13.28195838040199
 20
2.637346967239749
 30
0.0
 11
-0.0049999999999995
 21
0.0086602540378434
 31
0.0
210
0.0
220
0.0
230
0.9999999999999998
 40
0.577350269189626
 41
5.497787143782165
 42
6.283185307179577
  0
LINE
  5
2D8
330
D
100
AcDbEntity
 67
     1
  8
AM_VIS
100
AcDbLine
 10
13.01679333745703
 20
2.492418824125079
 30
0.0
 11
13.04507760870452
 21
2.476088892506517
 31
0.0
  0
LINE
  5
2D9
330
D
100
AcDbEntity
 67
     1
  8
AM_VIS
100
AcDbLine
 10
13.31024265164947
 20
2.629182001430466
 30
0.0
 11
13.04507760870452
 21
2.476088892506516
 31
0.0
  0
LINE
  5
2DA
330
D
100
AcDbEntity
 67
     1
  8
AM_VIS
100
AcDbLine
 10
13.28195838040199
 20
2.645511933049026
 30
0.0
 11
13.31024265164947
 21
2.629182001430466
 31
0.0
  0
ELLIPSE
  5
2DB
330
D
100
AcDbEntity
 67
     1
  8
AM_VIS
100
AcDbEllipse
 10
13.04507760870452
 20
2.46792392669724
 30
0.0
 11
-0.0049999999999999
 21
0.0086602540378442
 31
0.0
210
0.0
220
0.0
230
1.0
 40
0.577350269189626
 41
3.926990816987208
 42
5.497787143782103
  0
LINE
  5
2DC
330
D
100
AcDbEntity
 67
     1
  8
AM_VIS
100
AcDbLine
 10
13.31731371946133
 20
2.61693455271655
 30
0.0
 11
13.05214867651637
 21
2.463841443792603
 31
0.0
  0
ELLIPSE
  5
2DD
330
D
100
AcDbEntity
 67
     1
  8
AM_VIS
100
AcDbEllipse
 10
13.31024265164947
 20
2.62101703562119
 30
0.0
 11
-0.0049999999999999
 21
0.0086602540378442
 31
0.0
210
0.0
220
0.0
230
1.0
 40
0.577350269189626
 41
3.926990816987214
 42
5.49778714378211
  0
LINE
  5
2DE
330
D
100
AcDbEntity
 67
     1
  8
AM_VIS
100
AcDbLine
 10
13.05214867651637
 20
2.463841443792602
 30
0.0
 11
13.05214867651637
 21
2.213634699089995
 31
0.0
  0
LINE
  5
2DF
330
D
100
AcDbEntity
 67
     1
  8
AM_VIS
100
AcDbLine
 10
13.31731371946134
 20
2.366727808013943
 30
0.0
 11
13.05214867651637
 21
2.213634699089995
 31
0.0
  0
LINE
  5
2E0
330
D
100
AcDbEntity
 67
     1
  8
AM_VIS
100
AcDbLine
 10
13.31731371946134
 20
2.616934552716549
 30
0.0
 11
13.31731371946134
 21
2.366727808013943
 31
0.0
  0
ELLIPSE
  5
2E1
330
D
100
AcDbEntity
 67
     1
  8
AM_VIS
100
AcDbEllipse
 10
13.00795450269224
 20
2.239150217243974
 30
0.0
 11
-0.03125
 21
0.0541265877365274
 31
0.0
210
0.0
220
0.0
230
1.0
 40
0.577350269189626
 41
2.356194490192338
 42
3.926990816987292
  0
ELLIPSE
  5
2E2
330
D
100
AcDbEntity
 67
     1
  8
AM_VIS
100
AcDbEllipse
 10
13.27311954563719
 20
2.392243326167923
 30
0.0
 11
-0.03125
 21
0.0541265877365274
 31
0.0
210
0.0
220
0.0
230
1.0
 40
0.577350269189626
 41
3.141592653589794
 42
3.926990816987292
  0
LINE
  5
2E3
330
D
100
AcDbEntity
 67
     1
  8
AM_VIS
100
AcDbLine
 10
13.00795450269224
 20
2.188119180935993
 30
0.0
 11
12.95651731551807
 21
2.217816454797355
 31
0.0
  0
ELLIPSE
  5
2E4
330
D
100
AcDbEntity
 67
     1
  8
AM_VIS
100
AcDbEllipse
 10
12.95651731551807
 20
2.223531930863849
 30
0.0
 11
-0.0034999999999995
 21
0.0060621778264902
 31
0.0
210
0.0
220
0.0
230
1.0
 40
0.5773502691896261
 41
1.308996938995977
 42
2.356194490192628
  0
LINE
  5
2E5
330
D
100
AcDbEntity
 67
     1
  8
AM_VIS
100
AcDbLine
 10
12.95223070846819
 20
2.223149066564754
 30
0.0
 11
12.8604047823364
 21
2.459816641999094
 31
0.0
  0
ELLIPSE
  5
2E6
330
D
100
AcDbEntity
 67
     1
  8
AM_VIS
100
AcDbEllipse
 10
12.86652850669336
 20
2.4603635909978
 30
0.0
 11
-0.005
 21
0.0086602540378444
 31
0.0
210
0.0
220
0.0
230
1.0
 40
0.577350269189626
 41
5.585053606382018
 42
7.592182246175456
  0
LINE
  5
2E7
330
D
100
AcDbEntity
 67
     1
  8
AM_VIS
100
AcDbLine
 10
12.91072732027908
 20
2.494727307228294
 30
0.0
 11
12.86591222252621
 21
2.468853298476913
 31
0.0
  0
LINE
  5
2E8
330
D
100
AcDbEntity
 67
     1
  8
AM_VIS
100
AcDbLine
 10
12.86591222252621
 20
2.468853298476913
 30
0.0
 11
12.91072732027908
 21
2.447506654616963
 31
0.0
  0
LINE
  5
2E9
330
D
100
AcDbEntity
 67
     1
  8
AM_VIS
100
AcDbLine
 10
12.91072732027907
 20
2.447506654616971
 30
0.0
 11
12.91072732027907
 21
2.791256572744621
 31
0.0
  0
ELLIPSE
  5
2EA
330
D
100
AcDbEntity
 67
     1
  8
AM_VIS
100
AcDbEllipse
 10
12.88951411684349
 20
2.80350402145852
 30
0.0
 11
-0.0150000000000021
 21
0.0259807621135333
 31
0.0
210
0.0
220
0.0
230
0.9999999999999998
 40
0.577350269189626
 41
3.926990816987254
 42
7.068583470576692
  0
LINE
  5
2EB
330
D
100
AcDbEntity
 67
     1
  8
AM_VIS
100
AcDbLine
 10
12.88951411684347
 20
2.827998918886368
 30
0.0
 11
12.86830091340787
 21
2.815751470172453
 31
0.0
  0
LINE
  5
2EC
330
D
100
AcDbEntity
 67
     1
  8
AM_VIS
100
AcDbLine
 10
12.86830091340787
 20
2.815751470172453
 30
0.0
 11
12.86830091340787
 21
2.53103911240295
 31
0.0
  0
LINE
  5
2ED
330
D
100
AcDbEntity
 67
     1
  8
AM_VIS
100
AcDbLine
 10
12.91072732027908
 20
2.55553400983079
 30
0.0
 11
12.86830091340787
 21
2.53103911240295
 31
0.0
  0
ELLIPSE
  5
2EE
330
D
100
AcDbEntity
 67
     1
  8
AM_VIS
100
AcDbEllipse
 10
12.84616847115673
 20
2.54381728389447
 30
0.0
 11
-0.01565
 21
0.0271065951384528
 31
0.0
210
0.0
220
0.0
230
1.0
 40
0.577350269189626
 41
2.35619449019234
 42
3.926990816987236
  0
LINE
  5
2EF
330
D
100
AcDbEntity
 67
     1
  8
AM_VIS
100
AcDbLine
 10
12.84616847115674
 20
2.518260940911431
 30
0.0
 11
12.75961860113952
 21
2.568230531664195
 31
0.0
  0
ELLIPSE
  5
2F0
330
D
100
AcDbEntity
 67
     1
  8
AM_VIS
100
AcDbEllipse
 10
12.75961860113952
 20
2.593786874647233
 30
0.0
 11
-0.01565
 21
0.0271065951384528
 31
0.0
210
0.0
220
0.0
230
1.0
 40
0.577350269189626
 41
0.785398163397441
 42
2.356194490192315
  0
LINE
  5
2F1
330
D
100
AcDbEntity
 67
     1
  8
AM_VIS
100
AcDbLine
 10
12.73748615888838
 20
2.606565046138753
 30
0.0
 11
12.73748615888838
 21
2.763087440702599
 31
0.0
  0
ELLIPSE
  5
2F2
330
D
100
AcDbEntity
 67
     1
  8
AM_VIS
100
AcDbEllipse
 10
12.73253641142008
 20
2.765945178735845
 30
0.0
 11
-0.0034999999999998
 21
0.0060621778264898
 31
0.0
210
0.0
220
0.0
230
0.9999999999999998
 40
0.5773502691896261
 41
3.926990816987028
 42
5.497787143782051
  0
LINE
  5
2F3
330
D
100
AcDbEntity
 67
     1
  8
AM_VIS
100
AcDbLine
 10
12.73253641142008
 20
2.771660654802339
 30
0.0
 11
12.12018193891253
 21
3.125203674344046
 31
0.0
  0
ELLIPSE
  5
2F4
330
D
100
AcDbEntity
 67
     1
  8
AM_VIS
100
AcDbEllipse
 10
12.12018193891253
 20
3.119488198277549
 30
0.0
 11
-0.0034999999999998
 21
0.0060621778264898
 31
0.0
210
0.0
220
0.0
230
0.9999999999999998
 40
0.5773502691896261
 41
5.497787143782051
 42
7.068583470576696
  0
LINE
  5
2F5
330
D
100
AcDbEntity
 67
     1
  8
AM_VIS
100
AcDbLine
 10
12.12018193891253
 20
3.125203674344043
 30
0.0
 11
12.11523219144422
 21
3.122345936310796
 31
0.0
  0
LINE
  5
2F6
330
D
100
AcDbEntity
 67
     1
  8
AM_VIS
100
AcDbLine
 10
12.11523219144422
 20
3.122345936310796
 30
0.0
 11
12.11523219144422
 21
2.965823541746951
 31
0.0
  0
LINE
  5
2F7
330
D
100
AcDbEntity
 67
     1
  8
AM_VIS
100
AcDbLine
 10
12.25573430886599
 20
3.046942477062122
 30
0.0
 11
12.11523219144422
 21
2.965823541746953
 31
0.0
  0
ELLIPSE
  5
2F8
330
D
100
AcDbEntity
 67
     1
  8
AM_VIS
100
AcDbEllipse
 10
12.09309974919308
 20
2.978601713238471
 30
0.0
 11
-0.01565
 21
0.0271065951384528
 31
0.0
210
0.0
220
0.0
230
1.0
 40
0.577350269189626
 41
2.356194490192315
 42
3.92699081698724
  0
LINE
  5
2F9
330
D
100
AcDbEntity
 67
     1
  8
AM_VIS
100
AcDbLine
 10
12.09309974919308
 20
2.953045370255433
 30
0.0
 11
12.00654987917584
 21
3.003014961008211
 31
0.0
  0
ELLIPSE
  5
2FA
330
D
100
AcDbEntity
 67
     1
  8
AM_VIS
100
AcDbEllipse
 10
12.00654987917584
 20
3.028571303991248
 30
0.0
 11
-0.01565
 21
0.0271065951384528
 31
0.0
210
0.0
220
0.0
230
1.0
 40
0.577350269189626
 41
0.7853981633974429
 42
2.356194490192318
  0
LINE
  5
2FB
330
D
100
AcDbEntity
 67
     1
  8
AM_VIS
100
AcDbLine
 10
11.98441743692471
 20
3.041349475482767
 30
0.0
 11
11.98441743692471
 21
3.326061833252266
 31
0.0
  0
ELLIPSE
  5
2FC
330
D
100
AcDbEntity
 67
     1
  8
AM_VIS
100
AcDbEllipse
 10
11.96320423348912
 20
3.338309281966178
 30
0.0
 11
-0.0150000000000017
 21
0.0259807621135325
 31
0.0
210
0.0
220
0.0
230
1.0
 40
0.577350269189626
 41
3.926990816987028
 42
7.068583470576952
  0
LINE
  5
2FD
330
D
100
AcDbEntity
 67
     1
  8
AM_VIS
100
AcDbLine
 10
11.96320423348911
 20
3.362804179394014
 30
0.0
 11
11.94199103005351
 21
3.350556730680098
 31
0.0
  0
LINE
  5
2FE
330
D
100
AcDbEntity
 67
     1
  8
AM_VIS
100
AcDbLine
 10
11.94199103005351
 20
3.350556730680097
 30
0.0
 11
11.94199103005351
 21
3.006806812552456
 31
0.0
  0
LINE
  5
2FF
330
D
100
AcDbEntity
 67
     1
  8
AM_VIS
100
AcDbLine
 10
11.98569849436235
 20
3.032041328836765
 30
0.0
 11
11.94199103005351
 21
3.006806812552456
 31
0.0
  0
LINE
  5
300
330
D
100
AcDbEntity
 67
     1
  8
AM_VIS
100
AcDbLine
 10
11.94199103005351
 20
3.006806812552456
 30
0.0
 11
11.98680612780639
 21
2.976405438909643
 31
0.0
  0
LINE
  5
301
330
D
100
AcDbEntity
 67
     1
  8
AM_VIS
100
AcDbLine
 10
12.01972252561104
 20
2.995409730042912
 30
0.0
 11
11.98680612780639
 21
2.976405438909643
 31
0.0
  0
ELLIPSE
  5
302
330
D
100
AcDbEntity
 67
     1
  8
AM_VIS
100
AcDbEllipse
 10
11.98618984363923
 20
2.968627355090148
 30
0.0
 11
-0.005
 21
0.0086602540378444
 31
0.0
210
0.0
220
0.0
230
1.0
 40
0.577350269189626
 41
3.403392041388943
 42
5.410520681182561
  0
LINE
  5
303
330
D
100
AcDbEntity
 67
     1
  8
AM_VIS
100
AcDbLine
 10
12.0358096599708
 20
2.986121818689817
 30
0.0
 11
11.99231356799618
 21
2.961009338279576
 31
0.0
  0
LINE
  5
304
330
D
100
AcDbEntity
 67
     1
  8
AM_VIS
100
AcDbLine
 10
11.99231356799618
 20
2.961009338279577
 30
0.0
 11
11.9004876418644
 21
2.830373209186783
 31
0.0
  0
LINE
  5
305
330
D
100
AcDbEntity
 67
     1
  8
AM_VIS
100
AcDbLine
 10
12.16565268480936
 20
2.983466318110732
 30
0.0
 11
11.9004876418644
 21
2.830373209186783
 31
0.0
  0
LINE
  5
306
330
D
100
AcDbEntity
 67
     1
  8
AM_VIS
100
AcDbLine
 10
12.16669577690282
 20
2.984950272796702
 30
0.0
 11
12.16565268480936
 21
2.983466318110732
 31
0.0
  0
ELLIPSE
  5
307
330
D
100
AcDbEntity
 67
     1
  8
AM_VIS
100
AcDbEllipse
 10
11.89620103481453
 20
2.835705820954181
 30
0.0
 11
-0.0034999999999995
 21
0.0060621778264902
 31
0.0
210
0.0
220
0.0
230
1.0
 40
0.5773502691896261
 41
2.356194490192287
 42
3.403392041389001
  0
ELLIPSE
  5
308
330
D
100
AcDbEntity
 67
     1
  8
AM_VIS
100
AcDbEllipse
 10
12.16136607775949
 20
2.988798929878131
 30
0.0
 11
-0.0034999999999995
 21
0.0060621778264902
 31
0.0
210
0.0
220
0.0
230
1.0
 40
0.5773502691896261
 41
3.141592653589714
 42
3.40339204138894
  0
LINE
  5
309
330
D
100
AcDbEntity
 67
     1
  8
AM_VIS
100
AcDbLine
 10
11.89620103481453
 20
2.829990344887685
 30
0.0
 11
11.84476384764036
 21
2.859687618749046
 31
0.0
  0
ELLIPSE
  5
30A
330
D
100
AcDbEntity
 67
     1
  8
AM_VIS
100
AcDbEllipse
 10
11.84476384764036
 20
2.910718655057028
 30
0.0
 11
-0.03125
 21
0.0541265877365274
 31
0.0
210
0.0
220
0.0
230
1.0
 40
0.577350269189626
 41
0.7853981633973867
 42
2.356194490192338
  0
LINE
  5
30B
330
D
100
AcDbEntity
 67
     1
  8
AM_VIS
100
AcDbLine
 10
11.80056967381619
 20
2.936234173211031
 30
0.0
 11
11.80056967381619
 21
3.186440917913638
 31
0.0
  0
ELLIPSE
  5
30C
330
D
100
AcDbEntity
 67
     1
  8
AM_VIS
100
AcDbEllipse
 10
11.80764074162806
 20
3.182358435008998
 30
0.0
 11
-0.0049999999999999
 21
0.0086602540378442
 31
0.0
210
0.0
220
0.0
230
1.0
 40
0.577350269189626
 41
5.497787143782288
 42
7.068583470577102
  0
LINE
  5
30D
330
D
100
AcDbEntity
 67
     1
  8
AM_VIS
100
AcDbLine
 10
11.88542248755859
 20
3.235430712769306
 30
0.0
 11
11.80764074162806
 21
3.190523400818276
 31
0.0
  0
LINE
  5
30E
330
D
100
AcDbEntity
 67
     1
  8
AM_VIS
100
AcDbLine
 10
11.80764074162806
 20
3.190523400818277
 30
0.0
 11
11.83592501287551
 21
3.174193469199722
 31
0.0
  0
LINE
  5
30F
330
D
100
AcDbEntity
 67
     1
  8
AM_VIS
100
AcDbLine
 10
11.88542248755859
 20
3.202770849532198
 30
0.0
 11
11.83592501287551
 21
3.174193469199722
 31
0.0
  0
ELLIPSE
  5
310
330
D
100
AcDbEntity
 67
     1
  8
AM_VIS
100
AcDbEllipse
 10
11.83592501287551
 20
3.166028503390446
 30
0.0
 11
-0.0049999999999995
 21
0.0086602540378434
 31
0.0
210
0.0
220
0.0
230
0.9999999999999998
 40
0.577350269189626
 41
3.926990816987234
 42
5.497787143782219
  0
LINE
  5
311
330
D
100
AcDbEntity
 67
     1
  8
AM_VIS
100
AcDbLine
 10
11.88542248755859
 20
3.186440917913643
 30
0.0
 11
11.84299608068739
 21
3.161946020485806
 31
0.0
  0
LINE
  5
312
330
D
100
AcDbEntity
 67
     1
  8
AM_VIS
100
AcDbLine
 10
11.84299608068739
 20
3.161946020485806
 30
0.0
 11
11.84299608068739
 21
3.108873742725502
 31
0.0
  0
LINE
  5
313
330
D
100
AcDbEntity
 67
     1
  8
AM_VIS
100
AcDbLine
 10
11.88542248755858
 20
3.133368640153336
 30
0.0
 11
11.84299608068739
 21
3.108873742725502
 31
0.0
  0
ELLIPSE
  5
314
330
D
100
AcDbEntity
 67
     1
  8
AM_VIS
100
AcDbEllipse
 10
11.86067375021705
 20
3.098667535463906
 30
0.0
 11
-0.0125000000000015
 21
0.0216506350946105
 31
0.0
210
0.0
220
0.0
230
1.0
 40
0.577350269189626
 41
0.7853981633972418
 42
2.356194490192108
  0
LINE
  5
315
330
D
100
AcDbEntity
 67
     1
  8
AM_VIS
100
AcDbLine
 10
11.88542248755858
 20
3.09254381110695
 30
0.0
 11
11.86067375021705
 21
3.078255120940712
 31
0.0
  0
LINE
  5
316
330
D
100
AcDbEntity
 67
     1
  8
AM_VIS
100
AcDbLine
 10
11.86067375021705
 20
3.078255120940713
 30
0.0
 11
11.86774481802892
 21
3.074172638036073
 31
0.0
  0
LINE
  5
317
330
D
100
AcDbEntity
 67
     1
  8
AM_VIS
100
AcDbLine
 10
11.88542248755858
 20
3.084378845297672
 30
0.0
 11
11.86774481802892
 21
3.074172638036075
 31
0.0
  0
ELLIPSE
  5
318
330
D
100
AcDbEntity
 67
     1
  8
AM_VIS
100
AcDbEllipse
 10
11.86774481802892
 20
3.094585052559267
 30
0.0
 11
-0.012500000000001
 21
0.0216506350946098
 31
0.0
210
0.0
220
0.0
230
1.0
 40
0.577350269189626
 41
2.356194490192124
 42
3.926990816987054
  0
LINE
  5
319
330
D
100
AcDbEntity
 67
     1
  8
AM_VIS
100
AcDbLine
 10
11.88542248755859
 20
3.08437884529766
 30
0.0
 11
11.88542248755859
 21
3.429274547147981
 31
0.0
  0
LINE
  5
31A
330
D
100
AcDbEntity
 67
     1
  8
AM_VIS
100
AcDbLine
 10
12.03745044551368
 20
3.472622969528805
 30
0.0
 11
12.06396694980818
 21
3.457313658636408
 31
0.0
  0
LINE
  5
31B
330
D
100
AcDbEntity
 67
     1
  8
AM_VIS
100
AcDbLine
 10
12.07068446422946
 20
3.461192017395814
 30
0.0
 11
12.06396694980818
 21
3.457313658636408
 31
0.0
  0
ELLIPSE
  5
31C
330
D
100
AcDbEntity
 67
     1
  8
AM_VIS
100
AcDbEllipse
 10
12.06396694980818
 20
3.449148692827131
 30
0.0
 11
-0.0049999999999999
 21
0.0086602540378442
 31
0.0
210
0.0
220
0.0
230
1.0
 40
0.577350269189626
 41
3.926990816987298
 42
5.497787143782284
  0
LINE
  5
31D
330
D
100
AcDbEntity
 67
     1
  8
AM_VIS
100
AcDbLine
 10
12.07775553204132
 20
3.448944568681898
 30
0.0
 11
12.07103801762005
 21
3.445066209922491
 31
0.0
  0
LINE
  5
31E
330
D
100
AcDbEntity
 67
     1
  8
AM_VIS
100
AcDbLine
 10
12.07103801762006
 20
3.445066209922484
 30
0.0
 11
12.07103801762006
 21
3.394443421904961
 31
0.0
  0
LINE
  5
31F
330
D
100
AcDbEntity
 67
     1
  8
AM_VIS
100
AcDbLine
 10
12.08097803286524
 20
3.400182292382513
 30
0.0
 11
12.07103801762006
 21
3.394443421904961
 31
0.0
  0
LINE
  5
320
330
D
100
AcDbEntity
 67
     1
  8
AM_VIS
100
AcDbLine
 10
12.07103801762006
 20
3.394443421904961
 30
0.0
 11
12.12301036603727
 21
3.36443717255587
 31
0.0
  0
LINE
  5
321
330
D
100
AcDbEntity
 67
     1
  8
AM_VIS
100
AcDbLine
 10
12.13295038128245
 20
3.370176043033421
 30
0.0
 11
12.12301036603727
 21
3.36443717255587
 31
0.0
  0
ELLIPSE
  5
322
330
D
100
AcDbEntity
 67
     1
  8
AM_VIS
100
AcDbEllipse
 10
12.12301036603727
 20
3.358721696489376
 30
0.0
 11
-0.0034999999999998
 21
0.0060621778264908
 31
0.0
210
0.0
220
0.0
230
1.0
 40
0.5773502691896259
 41
3.926990816986266
 42
5.497787143782049
  0
LINE
  5
323
330
D
100
AcDbEntity
 67
     1
  8
AM_VIS
100
AcDbLine
 10
12.47585664984936
 20
2.985174510714939
 30
0.0
 11
12.724758236827
 21
2.841471112471665
 31
0.0
  0
LINE
  5
324
330
D
100
AcDbEntity
 67
     1
  8
AM_VIS
100
AcDbLine
 10
12.51744221964903
 20
3.147167748984678
 30
0.0
 11
12.3913591751663
 21
3.074373669312321
 31
0.0
  0
LINE
  5
325
330
D
100
AcDbEntity
 67
     1
  8
AM_VIS
100
AcDbLine
 10
12.17005556793509
 20
4.262013542806958
 30
0.0
 11
12.13045758818864
 21
4.239151638540981
 31
0.0
  0
LINE
  5
326
330
D
100
AcDbEntity
 67
     1
  8
AM_VIS
100
AcDbLine
 10
12.79189784713381
 20
3.840597875425293
 30
0.0
 11
12.5663307839353
 21
3.710366670767321
 31
0.0
  0
LINE
  5
327
330
D
100
AcDbEntity
 67
     1
  8
AM_VIS
100
AcDbLine
 10
12.50272670753445
 20
3.649013977867171
 30
0.0
 11
12.4638591751663
 21
3.626573797591685
 31
0.0
  0
LINE
  5
328
330
D
100
AcDbEntity
 67
     1
  8
AM_VIS
100
AcDbLine
 10
12.40342975739576
 20
3.764889937731775
 30
0.0
 11
12.3888591751663
 21
3.75647760815935
 31
0.0
  0
LINE
  5
329
330
D
100
AcDbEntity
 67
     1
  8
AM_VIS
100
AcDbLine
 10
12.31364588401791
 20
3.843556682375894
 30
0.0
 11
12.2863875663973
 21
3.827819085359979
 31
0.0
  0
LINE
  5
32A
330
D
100
AcDbEntity
 67
     1
  8
AM_VIS
100
AcDbLine
 10
13.0093184637229
 20
3.169585653797488
 30
0.0
 11
12.78375140052439
 21
3.039354449139517
 31
0.0
  0
LINE
  5
32B
330
D
100
AcDbEntity
 67
     1
  8
AM_VIS
100
AcDbLine
 10
12.73711081216434
 20
3.020801591702966
 30
0.0
 11
12.72620798429533
 21
3.014506841097868
 31
0.0
  0
LINE
  5
32C
330
D
100
AcDbEntity
 67
     1
  8
AM_VIS
100
AcDbLine
 10
12.06891669727649
 20
3.494172058028973
 30
0.0
 11
12.03245044551368
 21
3.473118257757372
 31
0.0
  0
LINE
  5
32D
330
D
100
AcDbEntity
 67
     1
  8
AM_VIS
100
AcDbLine
 10
12.06891669727649
 20
3.556352725864073
 30
0.0
 11
11.89836666138275
 21
3.457885616730516
 31
0.0
  0
LINE
  5
32E
330
D
100
AcDbEntity
 67
     1
  8
AM_VIS
100
AcDbLine
 10
13.276958380402
 20
2.646007221277593
 30
0.0
 11
13.01179333745704
 21
2.492914112353644
 31
0.0
  0
LINE
  5
32F
330
D
100
AcDbEntity
 67
     1
  8
AM_VIS
100
AcDbLine
 10
13.30436954563719
 20
2.338116738431395
 30
0.0
 11
13.03920450269224
 21
2.185023629507446
 31
0.0
  0
LINE
  5
330
330
D
100
AcDbEntity
 67
     1
  8
AM_VIS
100
AcDbLine
 10
12.91072732027908
 20
2.497428793303166
 30
0.0
 11
12.86152850669336
 21
2.469023845035645
 31
0.0
  0
LINE
  5
331
330
D
100
AcDbEntity
 67
     1
  8
AM_VIS
100
AcDbLine
 10
12.91072732027908
 20
2.544948225962559
 30
0.0
 11
12.86181847115673
 21
2.516710688756016
 31
0.0
  0
LINE
  5
332
330
D
100
AcDbEntity
 67
     1
  8
AM_VIS
100
AcDbLine
 10
12.26490186661485
 20
3.041649585128006
 30
0.0
 11
12.10874974919307
 21
2.951495118100018
 31
0.0
  0
LINE
  5
333
330
D
100
AcDbEntity
 67
     1
  8
AM_VIS
100
AcDbLine
 10
12.16486607775949
 20
2.982736752051641
 30
0.0
 11
11.89970103481453
 21
2.829643643127691
 31
0.0
  0
LINE
  5
334
330
D
100
AcDbEntity
 67
     1
  8
AM_VIS
100
AcDbLine
 10
11.88542248755859
 20
3.238812752343821
 30
0.0
 11
11.80264074162806
 21
3.191018689046843
 31
0.0
  0
LINE
  5
335
330
D
100
AcDbEntity
 67
     1
  8
AM_VIS
100
AcDbLine
 10
12.84761804005818
 20
3.081419045191794
 30
0.0
 11
12.82552095314611
 21
3.094176804268791
 31
0.0
  0
LINE
  5
336
330
D
100
AcDbEntity
 67
     1
  8
AM_VIS
100
AcDbLine
 10
12.91656095122388
 20
3.121223253512021
 30
0.0
 11
12.84761804005818
 21
3.081419045191794
 31
0.0
  0
LINE
  5
337
330
D
100
AcDbEntity
 67
     1
  8
AM_VIS
100
AcDbLine
 10
12.85422265619432
 20
3.157214284928156
 30
0.0
 11
12.91656095122388
 21
3.121223253512021
 31
0.0
  0
ELLIPSE
  5
338
330
D
100
AcDbEntity
 67
     1
  8
AM_VIS
100
AcDbEllipse
 10
12.76541687674525
 20
3.168682117278444
 30
0.0
 11
0.091
 21
-0.0000000000000054
 31
0.0
210
0.0
220
0.0
230
1.0
 40
0.577350269189626
 41
0.0254858480077433
 42
0.1729966713238586
  0
ARC
  5
339
330
D
100
AcDbEntity
 67
     1
  8
AM_VIS
100
AcDbCircle
 10
12.80351340596999
 20
3.172686199332417
 30
0.0
 40
0.0530170556863161
100
AcDbArc
 50
343.0325125743967
 51
7.194219184865122
  0
ELLIPSE
  5
33A
330
D
100
AcDbEntity
 67
     1
  8
AM_VIS
100
AcDbEllipse
 10
12.91656095122388
 20
3.146738771666012
 30
0.0
 11
0.015625
 21
0.0270632938682637
 31
0.0
210
0.0
220
0.0
230
1.0
 40
0.577350269189626
 41
3.92699081698726
 42
5.497787143782157
  0
LINE
  5
33B
330
D
100
AcDbEntity
 67
     1
  8
AM_VIS
100
AcDbLine
 10
12.93865803813596
 20
3.159496530743008
 30
0.0
 11
12.86687364756406
 21
3.200941267963299
 31
0.0
  0
ELLIPSE
  5
33C
330
D
100
AcDbEntity
 67
     1
  8
AM_VIS
100
AcDbEllipse
 10
12.84761804005818
 20
3.106934563345786
 30
0.0
 11
0.015625
 21
0.0270632938682637
 31
0.0
210
0.0
220
0.0
230
1.0
 40
0.577350269189626
 41
2.356194490192334
 42
3.92699081698723
  0
LINE
  5
33D
330
D
100
AcDbEntity
 67
     1
  8
AM_VIS
100
AcDbLine
 10
12.82552095314611
 20
3.094176804268791
 30
0.0
 11
12.82552095314611
 21
3.235022464478823
 31
0.0
  0
ELLIPSE
  5
33E
330
D
100
AcDbEntity
 67
     1
  8
AM_VIS
100
AcDbEllipse
 10
12.84761804005818
 20
3.247780223555818
 30
0.0
 11
0.015625
 21
0.0270632938682637
 31
0.0
210
0.0
220
0.0
230
1.0
 40
0.577350269189626
 41
0.7853981633974394
 42
2.356194490192335
  0
LINE
  5
33F
330
D
100
AcDbEntity
 67
     1
  8
AM_VIS
100
AcDbLine
 10
12.84761804005818
 20
3.27329574170981
 30
0.0
 11
12.91656095122388
 21
3.313099950030037
 31
0.0
  0
LINE
  5
340
330
D
100
AcDbEntity
 67
     1
  8
AM_VIS
100
AcDbLine
 10
12.91656095122388
 20
3.313099950030037
 30
0.0
 11
12.93865803813596
 21
3.300342190953041
 31
0.0
  0
ELLIPSE
  5
341
330
D
100
AcDbEntity
 67
     1
  8
AM_VIS
100
AcDbEllipse
 10
12.91656095122388
 20
3.287584431876046
 30
0.0
 11
0.015625
 21
0.0270632938682637
 31
0.0
210
0.0
220
0.0
230
1.0
 40
0.577350269189626
 41
5.497787143782156
 42
7.068583470577054
  0
LINE
  5
342
330
D
100
AcDbEntity
 67
     1
  8
AM_VIS
100
AcDbLine
 10
12.93865803813596
 20
3.300342190953041
 30
0.0
 11
12.93865803813596
 21
3.159496530743008
 31
0.0
  0
ELLIPSE
  5
343
330
D
100
AcDbEntity
 67
     1
  8
AM_VIS
100
AcDbEllipse
 10
12.09101378418858
 20
3.684605894352153
 30
0.0
 11
0.015625
 21
0.0270632938682637
 31
0.0
210
0.0
220
0.0
230
1.0
 40
0.577350269189626
 41
0.7853981633974394
 42
2.356194490192335
  0
LINE
  5
344
330
D
100
AcDbEntity
 67
     1
  8
AM_VIS
100
AcDbLine
 10
12.06891669727649
 20
3.671848135275156
 30
0.0
 11
12.77602347846305
 21
3.263599844811293
 31
0.0
  0
ELLIPSE
  5
345
330
D
100
AcDbEntity
 67
     1
  8
AM_VIS
100
AcDbEllipse
 10
12.79812056537513
 20
3.27635760388829
 30
0.0
 11
0.0156250000000016
 21
0.0270632938682628
 31
0.0
210
0.0
220
0.0
230
1.0
 40
0.577350269189626
 41
0.7853981633976077
 42
2.356194490192503
  0
LINE
  5
346
330
D
100
AcDbEntity
 67
     1
  8
AM_VIS
100
AcDbLine
 10
12.79812056537513
 20
3.301873122042281
 30
0.0
 11
12.58245299711323
 21
3.426388850633759
 31
0.0
  0
LINE
  5
347
330
D
100
AcDbEntity
 67
     1
  8
AM_VIS
100
AcDbLine
 10
12.50272670753445
 20
3.472418845383561
 30
0.0
 11
12.36466410850777
 21
3.552129324096631
 31
0.0
  0
LINE
  5
348
330
D
100
AcDbEntity
 67
     1
  8
AM_VIS
100
AcDbLine
 10
12.28493781892899
 20
3.59815931884643
 30
0.0
 11
12.09101378418858
 21
3.710121412506143
 31
0.0
  0
LINE
  5
349
330
D
100
AcDbEntity
 67
     1
  8
AM_VIS
100
AcDbLine
 10
12.77602347846305
 20
3.263599844811293
 30
0.0
 11
12.77602347846305
 21
3.008444663271379
 31
0.0
  0
ELLIPSE
  5
34A
330
D
100
AcDbEntity
 67
     1
  8
AM_VIS
100
AcDbEllipse
 10
12.79812056537513
 20
3.021202422348374
 30
0.0
 11
0.0156250000000016
 21
0.0270632938682628
 31
0.0
210
0.0
220
0.0
230
1.0
 40
0.577350269189626
 41
2.356194490192534
 42
2.903045440888501
  0
LINE
  5
34B
330
D
100
AcDbEntity
 67
     1
  8
AM_VIS
100
AcDbLine
 10
12.98815551281901
 20
3.386074331950452
 30
0.0
 11
12.98815551281901
 21
3.157367218396285
 31
0.0
  0
ELLIPSE
  5
34C
330
D
100
AcDbEntity
 67
     1
  8
AM_VIS
100
AcDbEllipse
 10
12.96605842590694
 20
3.373316572873457
 30
0.0
 11
0.0156250000000016
 21
0.0270632938682628
 31
0.0
210
0.0
220
0.0
230
1.0
 40
0.577350269189626
 41
5.497787143782298
 42
7.068583470577197
  0
LINE
  5
34D
330
D
100
AcDbEntity
 67
     1
  8
AM_VIS
100
AcDbLine
 10
12.96605842590694
 20
3.398832091027448
 30
0.0
 11
12.79812056537513
 21
3.301873122042281
 31
0.0
  0
LINE
  5
34E
330
D
100
AcDbEntity
 67
     1
  8
AM_VIS
100
AcDbLine
 10
12.06891669727649
 20
3.671848135275156
 30
0.0
 11
12.06891669727649
 21
3.462212638121965
 31
0.0
  0
LINE
  5
34F
330
D
100
AcDbEntity
 67
     1
  8
AM_VIS
100
AcDbLine
 10
12.77602347846305
 20
3.008444663271379
 30
0.0
 11
12.07775553204132
 21
3.411589850104452
 31
0.0
  0
ELLIPSE
  5
350
330
D
100
AcDbEntity
 67
     1
  8
AM_VIS
100
AcDbEllipse
 10
12.25895164472039
 20
3.781564863337321
 30
0.0
 11
0.015625
 21
0.0270632938682637
 31
0.0
210
0.0
220
0.0
230
1.0
 40
0.577350269189626
 41
-0.0000000000000169
 42
0.7853981633974377
  0
LINE
  5
351
330
D
100
AcDbEntity
 67
     1
  8
AM_VIS
100
AcDbLine
 10
12.25895164472039
 20
3.80708038149131
 30
0.0
 11
12.284937818929
 21
3.792077256816765
 31
0.0
  0
LINE
  5
352
330
D
100
AcDbEntity
 67
     1
  8
AM_VIS
100
AcDbLine
 10
12.75039085764503
 20
3.523347819618928
 30
0.0
 11
12.77522037144628
 21
3.509012493141926
 31
0.0
  0
LINE
  5
353
330
D
100
AcDbEntity
 67
     1
  8
AM_VIS
100
AcDbLine
 10
12.87205338250147
 20
3.453105928142778
 30
0.0
 11
12.96605842590694
 21
3.398832091027448
 31
0.0
  0
LINE
  5
354
330
D
100
AcDbEntity
 67
     1
  8
AM_VIS
100
AcDbLine
 10
12.09101378418858
 20
3.710121412506143
 30
0.0
 11
12.25895164472039
 21
3.807080381491311
 31
0.0
  0
LINE
  5
355
330
D
100
AcDbEntity
 67
     1
  8
AM_VIS
100
AcDbLine
 10
12.14108211809606
 20
3.364459354928531
 30
0.0
 11
12.73671281829128
 21
3.020571809833216
 31
0.0
  0
LINE
  5
356
330
D
100
AcDbEntity
 67
     1
  8
AM_VIS
100
AcDbLine
 10
12.27457664472039
 20
3.808628157205585
 30
0.0
 11
12.284937818929
 21
3.802646130487124
 31
0.0
  0
LINE
  5
357
330
D
100
AcDbEntity
 67
     1
  8
AM_VIS
100
AcDbLine
 10
12.75954377073296
 20
3.528632256454109
 30
0.0
 11
12.79953388420238
 21
3.505543953677606
 31
0.0
  0
LINE
  5
358
330
D
100
AcDbEntity
 67
     1
  8
AM_VIS
100
AcDbLine
 10
12.86450377801577
 20
3.46803356799523
 30
0.0
 11
12.98168342590694
 21
3.400379866741721
 31
0.0
  0
LINE
  5
359
330
D
100
AcDbEntity
 67
     1
  8
AM_VIS
100
AcDbLine
 10
4.017367880086482
 20
8.141927836842372
 30
0.0
 11
4.033290339513635
 21
8.141927836842372
 31
0.0
  0
LINE
  5
35A
330
D
100
AcDbEntity
 67
     1
  8
AM_VIS
100
AcDbLine
 10
4.213709407242076
 20
8.141927836842372
 30
0.0
 11
4.033290339513635
 21
8.141927836842372
 31
0.0
  0
LINE
  5
35B
330
D
100
AcDbEntity
 67
     1
  8
AM_VIS
100
AcDbLine
 10
4.213709407242076
 20
8.141927836842372
 30
0.0
 11
4.22963186666923
 21
8.141927836842372
 31
0.0
  0
LINE
  5
35C
330
D
100
AcDbEntity
 67
     1
  8
AM_VIS
100
AcDbLine
 10
4.213709407242076
 20
8.181927836842373
 30
0.0
 11
4.22963186666923
 21
8.181927836842373
 31
0.0
  0
LINE
  5
35D
330
D
100
AcDbEntity
 67
     1
  8
AM_VIS
100
AcDbLine
 10
4.033290339513635
 20
8.181927836842373
 30
0.0
 11
4.213709407242076
 21
8.181927836842373
 31
0.0
  0
LINE
  5
35E
330
D
100
AcDbEntity
 67
     1
  8
AM_VIS
100
AcDbLine
 10
4.017367880086482
 20
8.181927836842373
 30
0.0
 11
4.033290339513635
 21
8.181927836842373
 31
0.0
  0
ARC
  5
35F
330
D
100
AcDbEntity
 67
     1
  8
AM_VIS
100
AcDbCircle
 10
4.123499873377856
 20
8.161927836842371
 30
0.0
 40
0.108
100
AcDbArc
 50
349.3280707142381
 51
10.67192928576186
  0
ARC
  5
360
330
D
100
AcDbEntity
 67
     1
  8
AM_VIS
100
AcDbCircle
 10
4.123499873377856
 20
8.161927836842371
 30
0.0
 40
0.108
100
AcDbArc
 50
169.328070714237
 51
190.6719292857617
  0
ARC
  5
361
330
D
100
AcDbEntity
 67
     1
  8
AM_VIS
100
AcDbCircle
 10
4.123499873377856
 20
8.161927836842371
 30
0.0
 40
0.0924
100
AcDbArc
 50
12.50062222924493
 51
167.499377770755
  0
ARC
  5
362
330
D
100
AcDbEntity
 67
     1
  8
AM_VIS
100
AcDbCircle
 10
4.123499873377856
 20
8.161927836842371
 30
0.0
 40
0.0924
100
AcDbArc
 50
192.5006222292449
 51
347.499377770755
  0
ARC
  5
363
330
D
100
AcDbEntity
 67
     1
  8
AM_VIS
100
AcDbCircle
 10
4.123499873377856
 20
8.161927836842371
 30
0.0
 40
0.108
100
AcDbArc
 50
10.67192928576186
 51
169.3280707142379
  0
ARC
  5
364
330
D
100
AcDbEntity
 67
     1
  8
AM_VIS
100
AcDbCircle
 10
4.123499873377856
 20
8.161927836842371
 30
0.0
 40
0.108
100
AcDbArc
 50
190.6719292857617
 51
349.3280707142381
  0
LINE
  5
365
330
D
100
AcDbEntity
 67
     1
  8
AM_VIS
100
AcDbLine
 10
3.347367880086482
 20
8.141927836842372
 30
0.0
 11
3.363290339513633
 21
8.141927836842372
 31
0.0
  0
LINE
  5
366
330
D
100
AcDbEntity
 67
     1
  8
AM_VIS
100
AcDbLine
 10
3.543709407242076
 20
8.141927836842372
 30
0.0
 11
3.363290339513633
 21
8.141927836842372
 31
0.0
  0
LINE
  5
367
330
D
100
AcDbEntity
 67
     1
  8
AM_VIS
100
AcDbLine
 10
3.543709407242076
 20
8.141927836842372
 30
0.0
 11
3.559631866669227
 21
8.141927836842372
 31
0.0
  0
LINE
  5
368
330
D
100
AcDbEntity
 67
     1
  8
AM_VIS
100
AcDbLine
 10
3.543709407242076
 20
8.181927836842373
 30
0.0
 11
3.559631866669227
 21
8.181927836842373
 31
0.0
  0
LINE
  5
369
330
D
100
AcDbEntity
 67
     1
  8
AM_VIS
100
AcDbLine
 10
3.363290339513633
 20
8.181927836842373
 30
0.0
 11
3.543709407242076
 21
8.181927836842373
 31
0.0
  0
LINE
  5
36A
330
D
100
AcDbEntity
 67
     1
  8
AM_VIS
100
AcDbLine
 10
3.347367880086482
 20
8.181927836842373
 30
0.0
 11
3.363290339513633
 21
8.181927836842373
 31
0.0
  0
ARC
  5
36B
330
D
100
AcDbEntity
 67
     1
  8
AM_VIS
100
AcDbCircle
 10
3.453499873377854
 20
8.161927836842371
 30
0.0
 40
0.108
100
AcDbArc
 50
349.3280707142381
 51
10.67192928576186
  0
ARC
  5
36C
330
D
100
AcDbEntity
 67
     1
  8
AM_VIS
100
AcDbCircle
 10
3.453499873377854
 20
8.161927836842371
 30
0.0
 40
0.108
100
AcDbArc
 50
169.328070714237
 51
190.6719292857617
  0
ARC
  5
36D
330
D
100
AcDbEntity
 67
     1
  8
AM_VIS
100
AcDbCircle
 10
3.453499873377854
 20
8.161927836842371
 30
0.0
 40
0.0924
100
AcDbArc
 50
12.50062222924493
 51
167.499377770755
  0
ARC
  5
36E
330
D
100
AcDbEntity
 67
     1
  8
AM_VIS
100
AcDbCircle
 10
3.453499873377854
 20
8.161927836842371
 30
0.0
 40
0.0924
100
AcDbArc
 50
192.5006222292449
 51
347.499377770755
  0
ARC
  5
36F
330
D
100
AcDbEntity
 67
     1
  8
AM_VIS
100
AcDbCircle
 10
3.453499873377854
 20
8.161927836842371
 30
0.0
 40
0.108
100
AcDbArc
 50
10.67192928576186
 51
169.3280707142379
  0
ARC
  5
370
330
D
100
AcDbEntity
 67
     1
  8
AM_VIS
100
AcDbCircle
 10
3.453499873377854
 20
8.161927836842371
 30
0.0
 40
0.108
100
AcDbArc
 50
190.6719292857617
 51
349.3280707142381
  0
LINE
  5
371
330
D
100
AcDbEntity
 67
     1
  8
AM_HID
100
AcDbLine
 10
3.733499873377852
 20
8.321427836842371
 30
0.0
 11
3.733499873377852
 21
8.002427836842372
 31
0.0
  0
LINE
  5
372
330
D
100
AcDbEntity
 67
     1
  8
AM_HID
100
AcDbLine
 10
3.873499873377853
 20
8.321427836842371
 30
0.0
 11
3.873499873377853
 21
8.002427836842372
 31
0.0
  0
LINE
  5
373
330
D
100
AcDbEntity
 67
     1
  8
AM_VIS
100
AcDbLine
 10
3.381499873377823
 20
8.002427836842372
 30
0.0
 11
3.603499873377852
 21
8.002427836842372
 31
0.0
  0
LINE
  5
374
330
D
100
AcDbEntity
 67
     1
  8
AM_VIS
100
AcDbLine
 10
3.381499873377823
 20
8.321427836842371
 30
0.0
 11
3.381499873377823
 21
8.311927836842372
 31
0.0
  0
LINE
  5
375
330
D
100
AcDbEntity
 67
     1
  8
AM_HID
100
AcDbLine
 10
3.381499873377823
 20
8.311927836842372
 30
0.0
 11
3.381499873377823
 21
8.011927836842371
 31
0.0
  0
LINE
  5
376
330
D
100
AcDbEntity
 67
     1
  8
AM_VIS
100
AcDbLine
 10
3.381499873377823
 20
8.011927836842371
 30
0.0
 11
3.381499873377823
 21
8.002427836842372
 31
0.0
  0
LINE
  5
377
330
D
100
AcDbEntity
 67
     1
  8
AM_VIS
100
AcDbLine
 10
4.568499873377844
 20
8.321427836842371
 30
0.0
 11
4.474499873377846
 21
8.321427836842371
 31
0.0
  0
LINE
  5
378
330
D
100
AcDbEntity
 67
     1
  8
AM_VIS
100
AcDbLine
 10
4.003499873377848
 20
8.321427836842371
 30
0.0
 11
4.474499873377846
 21
8.321427836842371
 31
0.0
  0
LINE
  5
379
330
D
100
AcDbEntity
 67
     1
  8
AM_HID
100
AcDbLine
 10
3.996499873377848
 20
8.321427836842371
 30
0.0
 11
4.003499873377846
 21
8.321427836842371
 31
0.0
  0
LINE
  5
37A
330
D
100
AcDbEntity
 67
     1
  8
AM_HID
100
AcDbLine
 10
3.971099208376088
 20
8.321427836842371
 30
0.0
 11
3.996499873377848
 21
8.321427836842371
 31
0.0
  0
LINE
  5
37B
330
D
100
AcDbEntity
 67
     1
  8
AM_HID
100
AcDbLine
 10
3.971099208376088
 20
8.321427836842371
 30
0.0
 11
3.964099208376087
 21
8.321427836842371
 31
0.0
  0
LINE
  5
37C
330
D
100
AcDbEntity
 67
     1
  8
AM_HID
100
AcDbLine
 10
3.911499873377853
 20
8.321427836842371
 30
0.0
 11
3.964099208376087
 21
8.321427836842371
 31
0.0
  0
LINE
  5
37D
330
D
100
AcDbEntity
 67
     1
  8
AM_HID
100
AcDbLine
 10
3.911499873377853
 20
8.321427836842371
 30
0.0
 11
3.895499873377853
 21
8.321427836842371
 31
0.0
  0
LINE
  5
37E
330
D
100
AcDbEntity
 67
     1
  8
AM_HID
100
AcDbLine
 10
3.851499873377857
 20
8.321427836842371
 30
0.0
 11
3.895499873377853
 21
8.321427836842371
 31
0.0
  0
LINE
  5
37F
330
D
100
AcDbEntity
 67
     1
  8
AM_HID
100
AcDbLine
 10
3.851499873377857
 20
8.321427836842371
 30
0.0
 11
3.835499873377859
 21
8.321427836842371
 31
0.0
  0
LINE
  5
380
330
D
100
AcDbEntity
 67
     1
  8
AM_HID
100
AcDbLine
 10
3.771499873377851
 20
8.321427836842371
 30
0.0
 11
3.835499873377856
 21
8.321427836842371
 31
0.0
  0
LINE
  5
381
330
D
100
AcDbEntity
 67
     1
  8
AM_HID
100
AcDbLine
 10
3.771499873377853
 20
8.321427836842371
 30
0.0
 11
3.755499873377853
 21
8.321427836842371
 31
0.0
  0
LINE
  5
382
330
D
100
AcDbEntity
 67
     1
  8
AM_HID
100
AcDbLine
 10
3.711499873377849
 20
8.321427836842371
 30
0.0
 11
3.755499873377853
 21
8.321427836842371
 31
0.0
  0
LINE
  5
383
330
D
100
AcDbEntity
 67
     1
  8
AM_HID
100
AcDbLine
 10
3.711499873377849
 20
8.321427836842371
 30
0.0
 11
3.695499873377849
 21
8.321427836842371
 31
0.0
  0
LINE
  5
384
330
D
100
AcDbEntity
 67
     1
  8
AM_HID
100
AcDbLine
 10
3.644099208376086
 20
8.321427836842371
 30
0.0
 11
3.695499873377849
 21
8.321427836842371
 31
0.0
  0
LINE
  5
385
330
D
100
AcDbEntity
 67
     1
  8
AM_HID
100
AcDbLine
 10
3.644099208376086
 20
8.321427836842371
 30
0.0
 11
3.637099208376087
 21
8.321427836842371
 31
0.0
  0
LINE
  5
386
330
D
100
AcDbEntity
 67
     1
  8
AM_HID
100
AcDbLine
 10
3.610499873377853
 20
8.321427836842371
 30
0.0
 11
3.637099208376087
 21
8.321427836842371
 31
0.0
  0
LINE
  5
387
330
D
100
AcDbEntity
 67
     1
  8
AM_HID
100
AcDbLine
 10
3.603499873377853
 20
8.321427836842371
 30
0.0
 11
3.610499873377853
 21
8.321427836842371
 31
0.0
  0
LINE
  5
388
330
D
100
AcDbEntity
 67
     1
  8
AM_VIS
100
AcDbLine
 10
3.132499873377857
 20
8.321427836842371
 30
0.0
 11
3.603499873377853
 21
8.321427836842371
 31
0.0
  0
LINE
  5
389
330
D
100
AcDbEntity
 67
     1
  8
AM_VIS
100
AcDbLine
 10
3.132499873377857
 20
8.321427836842371
 30
0.0
 11
3.038499873377857
 21
8.321427836842371
 31
0.0
  0
LINE
  5
38A
330
D
100
AcDbEntity
 67
     1
  8
AM_VIS
100
AcDbLine
 10
4.568499873377846
 20
8.377427836842372
 30
0.0
 11
4.568499873377846
 21
8.321427836842371
 31
0.0
  0
LINE
  5
38B
330
D
100
AcDbEntity
 67
     1
  8
AM_VIS
100
AcDbLine
 10
4.568499873377844
 20
8.377427836842372
 30
0.0
 11
4.474499873377846
 21
8.377427836842372
 31
0.0
  0
LINE
  5
38C
330
D
100
AcDbEntity
 67
     1
  8
AM_VIS
100
AcDbLine
 10
3.132499873377857
 20
8.377427836842372
 30
0.0
 11
3.038499873377857
 21
8.377427836842372
 31
0.0
  0
LINE
  5
38D
330
D
100
AcDbEntity
 67
     1
  8
AM_VIS
100
AcDbLine
 10
3.038499873377857
 20
8.377427836842372
 30
0.0
 11
3.038499873377857
 21
8.321427836842371
 31
0.0
  0
LINE
  5
38E
330
D
100
AcDbEntity
 67
     1
  8
AM_HID
100
AcDbLine
 10
3.835499873377859
 20
8.321427836842371
 30
0.0
 11
3.835499873377859
 21
8.002427836842372
 31
0.0
  0
LINE
  5
38F
330
D
100
AcDbEntity
 67
     1
  8
AM_HID
100
AcDbLine
 10
3.911499873377851
 20
8.321427836842371
 30
0.0
 11
3.911499873377851
 21
8.002427836842372
 31
0.0
  0
LINE
  5
390
330
D
100
AcDbEntity
 67
     1
  8
AM_HID
100
AcDbLine
 10
3.964099208376087
 20
8.321427836842371
 30
0.0
 11
3.964099208376087
 21
8.002427836842372
 31
0.0
  0
LINE
  5
391
330
D
100
AcDbEntity
 67
     1
  8
AM_VIS
100
AcDbLine
 10
4.003499873377848
 20
8.321427836842371
 30
0.0
 11
4.003499873377848
 21
8.002427836842372
 31
0.0
  0
LINE
  5
392
330
D
100
AcDbEntity
 67
     1
  8
AM_VIS
100
AcDbLine
 10
3.603499873377853
 20
8.321427836842371
 30
0.0
 11
3.603499873377853
 21
8.002427836842372
 31
0.0
  0
LINE
  5
393
330
D
100
AcDbEntity
 67
     1
  8
AM_VIS
100
AcDbLine
 10
3.603499873377852
 20
8.002427836842372
 30
0.0
 11
4.003499873377846
 21
8.002427836842372
 31
0.0
  0
LINE
  5
394
330
D
100
AcDbEntity
 67
     1
  8
AM_VIS
100
AcDbLine
 10
3.132499873377857
 20
8.377427836842372
 30
0.0
 11
4.474499873377846
 21
8.377427836842372
 31
0.0
  0
LINE
  5
395
330
D
100
AcDbEntity
 67
     1
  8
AM_HID
100
AcDbLine
 10
3.771499873377849
 20
8.321427836842371
 30
0.0
 11
3.771499873377849
 21
8.002427836842372
 31
0.0
  0
LINE
  5
396
330
D
100
AcDbEntity
 67
     1
  8
AM_HID
100
AcDbLine
 10
3.695499873377849
 20
8.321427836842371
 30
0.0
 11
3.695499873377849
 21
8.002427836842372
 31
0.0
  0
LINE
  5
397
330
D
100
AcDbEntity
 67
     1
  8
AM_HID
100
AcDbLine
 10
3.644099208376086
 20
8.321427836842371
 30
0.0
 11
3.644099208376086
 21
8.002427836842372
 31
0.0
  0
LINE
  5
398
330
D
100
AcDbEntity
 67
     1
  8
AM_VIS
100
AcDbLine
 10
4.315999873377826
 20
8.002427836842372
 30
0.0
 11
4.353499873377828
 21
8.002427836842372
 31
0.0
  0
LINE
  5
399
330
D
100
AcDbEntity
 67
     1
  8
AM_VIS
100
AcDbLine
 10
4.305999873377829
 20
8.321427836842371
 30
0.0
 11
4.305999873377829
 21
8.002427836842372
 31
0.0
  0
LINE
  5
39A
330
D
100
AcDbEntity
 67
     1
  8
AM_VIS
100
AcDbLine
 10
4.315999873377826
 20
8.002427836842372
 30
0.0
 11
4.305999873377826
 21
8.002427836842372
 31
0.0
  0
LINE
  5
39B
330
D
100
AcDbEntity
 67
     1
  8
AM_VIS
100
AcDbLine
 10
4.232499873377856
 20
8.002427836842372
 30
0.0
 11
4.30599987337785
 21
8.002427836842372
 31
0.0
  0
LINE
  5
39C
330
D
100
AcDbEntity
 67
     1
  8
AM_VIS
100
AcDbLine
 10
4.225499873377837
 20
8.321427836842371
 30
0.0
 11
4.225499873377837
 21
8.311927836842372
 31
0.0
  0
LINE
  5
39D
330
D
100
AcDbEntity
 67
     1
  8
AM_HID
100
AcDbLine
 10
4.225499873377837
 20
8.311927836842372
 30
0.0
 11
4.225499873377837
 21
8.011927836842371
 31
0.0
  0
LINE
  5
39E
330
D
100
AcDbEntity
 67
     1
  8
AM_VIS
100
AcDbLine
 10
4.225499873377836
 20
8.011927836842373
 30
0.0
 11
4.225499873377836
 21
8.002427836842372
 31
0.0
  0
LINE
  5
39F
330
D
100
AcDbEntity
 67
     1
  8
AM_VIS
100
AcDbLine
 10
4.232499873377856
 20
8.002427836842372
 30
0.0
 11
4.225499873377859
 21
8.002427836842372
 31
0.0
  0
LINE
  5
3A0
330
D
100
AcDbEntity
 67
     1
  8
AM_VIS
100
AcDbLine
 10
3.243499873377853
 20
8.321427836842371
 30
0.0
 11
3.243499873377853
 21
8.002427836842372
 31
0.0
  0
LINE
  5
3A1
330
D
100
AcDbEntity
 67
     1
  8
AM_VIS
100
AcDbLine
 10
3.253499873377826
 20
8.002427836842372
 30
0.0
 11
3.243499873377826
 21
8.002427836842372
 31
0.0
  0
LINE
  5
3A2
330
D
100
AcDbEntity
 67
     1
  8
AM_VIS
100
AcDbLine
 10
3.168391816477786
 20
8.321427836842371
 30
0.0
 11
3.168391816477786
 21
8.002427836842372
 31
0.0
  0
LINE
  5
3A3
330
D
100
AcDbEntity
 67
     1
  8
AM_VIS
100
AcDbLine
 10
3.168391816477785
 20
8.002427836842372
 30
0.0
 11
3.243499873377851
 21
8.002427836842372
 31
0.0
  0
LINE
  5
3A4
330
D
100
AcDbEntity
 67
     1
  8
AM_VIS
100
AcDbLine
 10
3.090146862273674
 20
8.002427836842372
 30
0.0
 11
3.168391816477783
 21
8.002427836842372
 31
0.0
  0
LINE
  5
3A5
330
D
100
AcDbEntity
 67
     1
  8
AM_VIS
100
AcDbLine
 10
3.038499873377857
 20
8.321427836842371
 30
0.0
 11
3.038499873377857
 21
8.002427836842372
 31
0.0
  0
LINE
  5
3A6
330
D
100
AcDbEntity
 67
     1
  8
AM_VIS
100
AcDbLine
 10
3.090146862273674
 20
8.002427836842372
 30
0.0
 11
3.038499873377857
 21
8.002427836842372
 31
0.0
  0
LINE
  5
3A7
330
D
100
AcDbEntity
 67
     1
  8
AM_VIS
100
AcDbLine
 10
4.363499873377829
 20
8.002427836842372
 30
0.0
 11
4.353499873377828
 21
8.002427836842372
 31
0.0
  0
LINE
  5
3A8
330
D
100
AcDbEntity
 67
     1
  8
AM_VIS
100
AcDbLine
 10
4.363499873377833
 20
8.321427836842371
 30
0.0
 11
4.363499873377833
 21
8.002427836842372
 31
0.0
  0
LINE
  5
3A9
330
D
100
AcDbEntity
 67
     1
  8
AM_VIS
100
AcDbLine
 10
4.363499873377832
 20
8.002427836842372
 30
0.0
 11
4.438607930277409
 21
8.002427836842372
 31
0.0
  0
LINE
  5
3AA
330
D
100
AcDbEntity
 67
     1
  8
AM_VIS
100
AcDbLine
 10
4.438607930277409
 20
8.321427836842371
 30
0.0
 11
4.438607930277409
 21
8.002427836842372
 31
0.0
  0
LINE
  5
3AB
330
D
100
AcDbEntity
 67
     1
  8
AM_VIS
100
AcDbLine
 10
4.438607930277409
 20
8.002427836842372
 30
0.0
 11
4.516852884481425
 21
8.002427836842372
 31
0.0
  0
LINE
  5
3AC
330
D
100
AcDbEntity
 67
     1
  8
AM_VIS
100
AcDbLine
 10
4.568499873376844
 20
8.002427836842372
 30
0.0
 11
4.516852884481425
 21
8.002427836842372
 31
0.0
  0
LINE
  5
3AD
330
D
100
AcDbEntity
 67
     1
  8
AM_VIS
100
AcDbLine
 10
4.568499873376844
 20
8.321427836842371
 30
0.0
 11
4.568499873376844
 21
8.002427836842372
 31
0.0
  0
LINE
  5
3AE
330
D
100
AcDbEntity
 67
     1
  8
AM_VIS
100
AcDbLine
 10
4.568499873376846
 20
8.002427836842372
 30
0.0
 11
4.593499873376844
 21
8.002427836842372
 31
0.0
  0
LINE
  5
3AF
330
D
100
AcDbEntity
 67
     1
  8
AM_VIS
100
AcDbLine
 10
4.568499873376846
 20
8.377427836842372
 30
0.0
 11
4.593499873376844
 21
8.377427836842372
 31
0.0
  0
LINE
  5
3B0
330
D
100
AcDbEntity
 67
     1
  8
AM_VIS
100
AcDbLine
 10
4.593499873376844
 20
8.002427836842372
 30
0.0
 11
4.603499873377813
 21
8.002427836842372
 31
0.0
  0
LINE
  5
3B1
330
D
100
AcDbEntity
 67
     1
  8
AM_VIS
100
AcDbLine
 10
4.593499873376844
 20
8.377427836842372
 30
0.0
 11
4.603499873377813
 21
8.377427836842372
 31
0.0
  0
LINE
  5
3B2
330
D
100
AcDbEntity
 67
     1
  8
AM_VIS
100
AcDbLine
 10
4.603499873377813
 20
8.002427836842372
 30
0.0
 11
4.628499873377813
 21
8.002427836842372
 31
0.0
  0
LINE
  5
3B3
330
D
100
AcDbEntity
 67
     1
  8
AM_VIS
100
AcDbLine
 10
4.603499873377813
 20
8.377427836842372
 30
0.0
 11
4.628499873377813
 21
8.377427836842372
 31
0.0
  0
LINE
  5
3B4
330
D
100
AcDbEntity
 67
     1
  8
AM_VIS
100
AcDbLine
 10
4.628499873377813
 20
8.377427836842372
 30
0.0
 11
4.628499873377813
 21
8.002427836842372
 31
0.0
  0
LINE
  5
3B5
330
D
100
AcDbEntity
 67
     1
  8
AM_VIS
100
AcDbLine
 10
4.638499873377813
 20
8.002427836842372
 30
0.0
 11
4.628499873377815
 21
8.002427836842372
 31
0.0
  0
LINE
  5
3B6
330
D
100
AcDbEntity
 67
     1
  8
AM_VIS
100
AcDbLine
 10
4.638499873377813
 20
8.377427836842372
 30
0.0
 11
4.628499873377815
 21
8.377427836842372
 31
0.0
  0
LINE
  5
3B7
330
D
100
AcDbEntity
 67
     1
  8
AM_VIS
100
AcDbLine
 10
4.638499873377813
 20
8.002427836842372
 30
0.0
 11
4.67849987337783
 21
8.002427836842372
 31
0.0
  0
LINE
  5
3B8
330
D
100
AcDbEntity
 67
     1
  8
AM_VIS
100
AcDbLine
 10
4.638499873377813
 20
8.377427836842372
 30
0.0
 11
4.67849987337783
 21
8.377427836842372
 31
0.0
  0
LINE
  5
3B9
330
D
100
AcDbEntity
 67
     1
  8
AM_VIS
100
AcDbLine
 10
4.688499873377829
 20
8.002427836842372
 30
0.0
 11
4.67849987337783
 21
8.002427836842372
 31
0.0
  0
LINE
  5
3BA
330
D
100
AcDbEntity
 67
     1
  8
AM_VIS
100
AcDbLine
 10
4.688499873377828
 20
8.377427836842372
 30
0.0
 11
4.688499873377828
 21
8.002427836842372
 31
0.0
  0
LINE
  5
3BB
330
D
100
AcDbEntity
 67
     1
  8
AM_VIS
100
AcDbLine
 10
4.688499873377829
 20
8.377427836842372
 30
0.0
 11
4.67849987337783
 21
8.377427836842372
 31
0.0
  0
LINE
  5
3BC
330
D
100
AcDbEntity
 67
     1
  8
AM_HID
100
AcDbLine
 10
4.488499873377826
 20
8.377427836842372
 30
0.0
 11
4.488499873377826
 21
8.002427836842372
 31
0.0
  0
LINE
  5
3BD
330
D
100
AcDbEntity
 67
     1
  8
AM_HID
100
AcDbLine
 10
4.428499873377822
 20
8.377427836842372
 30
0.0
 11
4.428499873377822
 21
8.002427836842372
 31
0.0
  0
LINE
  5
3BE
330
D
100
AcDbEntity
 67
     1
  8
AM_HID
100
AcDbLine
 10
4.243499873377852
 20
8.377427836842372
 30
0.0
 11
4.243499873377852
 21
8.002427836842372
 31
0.0
  0
LINE
  5
3BF
330
D
100
AcDbEntity
 67
     1
  8
AM_HID
100
AcDbLine
 10
3.363499873377853
 20
8.377427836842372
 30
0.0
 11
3.363499873377853
 21
8.002427836842372
 31
0.0
  0
LINE
  5
3C0
330
D
100
AcDbEntity
 67
     1
  8
AM_HID
100
AcDbLine
 10
3.17849987337785
 20
8.377427836842372
 30
0.0
 11
3.17849987337785
 21
8.002427836842372
 31
0.0
  0
LINE
  5
3C1
330
D
100
AcDbEntity
 67
     1
  8
AM_HID
100
AcDbLine
 10
3.118499873377848
 20
8.377427836842372
 30
0.0
 11
3.118499873377848
 21
8.002427836842372
 31
0.0
  0
LINE
  5
3C2
330
D
100
AcDbEntity
 67
     1
  8
AM_VIS
100
AcDbLine
 10
2.918499873377832
 20
8.377427836842372
 30
0.0
 11
2.918499873377832
 21
8.002427836842372
 31
0.0
  0
LINE
  5
3C3
330
D
100
AcDbEntity
 67
     1
  8
AM_VIS
100
AcDbLine
 10
2.928499873377832
 20
8.002427836842372
 30
0.0
 11
2.918499873377832
 21
8.002427836842372
 31
0.0
  0
LINE
  5
3C4
330
D
100
AcDbEntity
 67
     1
  8
AM_VIS
100
AcDbLine
 10
2.928499873377834
 20
8.377427836842372
 30
0.0
 11
2.918499873377833
 21
8.377427836842372
 31
0.0
  0
LINE
  5
3C5
330
D
100
AcDbEntity
 67
     1
  8
AM_VIS
100
AcDbLine
 10
2.928499873377832
 20
8.002427836842372
 30
0.0
 11
2.968499873377829
 21
8.002427836842372
 31
0.0
  0
LINE
  5
3C6
330
D
100
AcDbEntity
 67
     1
  8
AM_VIS
100
AcDbLine
 10
2.928499873377834
 20
8.377427836842372
 30
0.0
 11
2.96849987337783
 21
8.377427836842372
 31
0.0
  0
LINE
  5
3C7
330
D
100
AcDbEntity
 67
     1
  8
AM_VIS
100
AcDbLine
 10
2.978499873377828
 20
8.002427836842372
 30
0.0
 11
2.968499873377829
 21
8.002427836842372
 31
0.0
  0
LINE
  5
3C8
330
D
100
AcDbEntity
 67
     1
  8
AM_VIS
100
AcDbLine
 10
2.978499873377831
 20
8.377427836842372
 30
0.0
 11
2.978499873377831
 21
8.002427836842372
 31
0.0
  0
LINE
  5
3C9
330
D
100
AcDbEntity
 67
     1
  8
AM_VIS
100
AcDbLine
 10
2.978499873377829
 20
8.377427836842372
 30
0.0
 11
2.96849987337783
 21
8.377427836842372
 31
0.0
  0
LINE
  5
3CA
330
D
100
AcDbEntity
 67
     1
  8
AM_VIS
100
AcDbLine
 10
2.978499873377829
 20
8.002427836842372
 30
0.0
 11
3.003499873377829
 21
8.002427836842372
 31
0.0
  0
LINE
  5
3CB
330
D
100
AcDbEntity
 67
     1
  8
AM_VIS
100
AcDbLine
 10
2.978499873377831
 20
8.377427836842372
 30
0.0
 11
3.003499873377831
 21
8.377427836842372
 31
0.0
  0
LINE
  5
3CC
330
D
100
AcDbEntity
 67
     1
  8
AM_VIS
100
AcDbLine
 10
3.003499873377829
 20
8.002427836842372
 30
0.0
 11
3.01349987337783
 21
8.002427836842372
 31
0.0
  0
LINE
  5
3CD
330
D
100
AcDbEntity
 67
     1
  8
AM_VIS
100
AcDbLine
 10
3.003499873377831
 20
8.377427836842372
 30
0.0
 11
3.013499873377832
 21
8.377427836842372
 31
0.0
  0
LINE
  5
3CE
330
D
100
AcDbEntity
 67
     1
  8
AM_VIS
100
AcDbLine
 10
3.01349987337783
 20
8.002427836842372
 30
0.0
 11
3.038499873377832
 21
8.002427836842372
 31
0.0
  0
LINE
  5
3CF
330
D
100
AcDbEntity
 67
     1
  8
AM_VIS
100
AcDbLine
 10
3.013499873377832
 20
8.377427836842372
 30
0.0
 11
3.038499873377832
 21
8.377427836842372
 31
0.0
  0
LINE
  5
3D0
330
D
100
AcDbEntity
 67
     1
  8
AM_VIS
100
AcDbLine
 10
3.253499873377826
 20
8.002427836842372
 30
0.0
 11
3.290999873377831
 21
8.002427836842372
 31
0.0
  0
LINE
  5
3D1
330
D
100
AcDbEntity
 67
     1
  8
AM_VIS
100
AcDbLine
 10
3.300999873377832
 20
8.002427836842372
 30
0.0
 11
3.290999873377831
 21
8.002427836842372
 31
0.0
  0
LINE
  5
3D2
330
D
100
AcDbEntity
 67
     1
  8
AM_VIS
100
AcDbLine
 10
3.300999873377834
 20
8.321427836842371
 30
0.0
 11
3.300999873377834
 21
8.311927836842372
 31
0.0
  0
LINE
  5
3D3
330
D
100
AcDbEntity
 67
     1
  8
AM_HID
100
AcDbLine
 10
3.300999873377834
 20
8.311927836842372
 30
0.0
 11
3.300999873377834
 21
8.011927836842371
 31
0.0
  0
LINE
  5
3D4
330
D
100
AcDbEntity
 67
     1
  8
AM_VIS
100
AcDbLine
 10
3.300999873377834
 20
8.011927836842371
 30
0.0
 11
3.300999873377834
 21
8.002427836842372
 31
0.0
  0
LINE
  5
3D5
330
D
100
AcDbEntity
 67
     1
  8
AM_VIS
100
AcDbLine
 10
3.300999873377851
 20
8.002427836842372
 30
0.0
 11
3.374499873377848
 21
8.002427836842372
 31
0.0
  0
LINE
  5
3D6
330
D
100
AcDbEntity
 67
     1
  8
AM_VIS
100
AcDbLine
 10
3.381499873377846
 20
8.002427836842372
 30
0.0
 11
3.374499873377848
 21
8.002427836842372
 31
0.0
  0
LINE
  5
3D7
330
D
100
AcDbEntity
 67
     1
  8
AM_VIS
100
AcDbLine
 10
4.003499873377846
 20
8.002427836842372
 30
0.0
 11
4.225499873377835
 21
8.002427836842372
 31
0.0
  0
LINE
  5
3D8
330
D
100
AcDbEntity
 67
     1
  8
AM_HID
100
AcDbLine
 10
3.878499873377851
 20
8.321427836842371
 30
0.0
 11
3.878499873377851
 21
8.002427836842372
 31
0.0
  0
LINE
  5
3D9
330
D
100
AcDbEntity
 67
     1
  8
AM_HID
100
AcDbLine
 10
3.728499873377852
 20
8.321427836842371
 30
0.0
 11
3.728499873377852
 21
8.002427836842372
 31
0.0
  0
LINE
  5
3DA
330
D
100
AcDbEntity
 67
     1
  8
AM_HID
100
AcDbLine
 10
4.415993311764133
 20
8.377427836842372
 30
0.0
 11
4.415993311764133
 21
8.002427836842372
 31
0.0
  0
LINE
  5
3DB
330
D
100
AcDbEntity
 67
     1
  8
AM_HID
100
AcDbLine
 10
3.191006434991561
 20
8.377427836842372
 30
0.0
 11
3.191006434991561
 21
8.002427836842372
 31
0.0
  0
LINE
  5
3DC
330
D
100
AcDbEntity
 67
     1
  8
AM_HID
100
AcDbLine
 10
3.410129376493451
 20
8.081927836842371
 30
0.0
 11
3.288499873377854
 21
8.081927836842371
 31
0.0
  0
LINE
  5
3DD
330
D
100
AcDbEntity
 67
     1
  8
AM_HID
100
AcDbLine
 10
3.288499873377856
 20
8.241927836842371
 30
0.0
 11
3.410129376493451
 21
8.241927836842371
 31
0.0
  0
LINE
  5
3DE
330
D
100
AcDbEntity
 67
     1
  8
AM_HID
100
AcDbLine
 10
4.288499873377855
 20
8.081927836842371
 30
0.0
 11
4.166870370262258
 21
8.081927836842371
 31
0.0
  0
LINE
  5
3DF
330
D
100
AcDbEntity
 67
     1
  8
AM_HID
100
AcDbLine
 10
4.16687037026226
 20
8.241927836842371
 30
0.0
 11
4.288499873377856
 21
8.241927836842371
 31
0.0
  0
LINE
  5
3E0
330
D
100
AcDbEntity
 67
     1
  8
AM_VIS
100
AcDbLine
 10
3.288499873377854
 20
8.011927836842371
 30
0.0
 11
3.288499873377854
 21
8.043177836842371
 31
0.0
  0
LINE
  5
3E1
330
D
100
AcDbEntity
 67
     1
  8
AM_VIS
100
AcDbLine
 10
3.288499873377854
 20
8.011927836842371
 30
0.0
 11
3.603499873377856
 21
8.011927836842371
 31
0.0
  0
LINE
  5
3E2
330
D
100
AcDbEntity
 67
     1
  8
AM_HID
100
AcDbLine
 10
3.603499873377856
 20
8.011927836842371
 30
0.0
 11
4.003499873377846
 21
8.011927836842371
 31
0.0
  0
LINE
  5
3E3
330
D
100
AcDbEntity
 67
     1
  8
AM_VIS
100
AcDbLine
 10
4.003499873377846
 20
8.011927836842371
 30
0.0
 11
4.288499873377855
 21
8.011927836842371
 31
0.0
  0
LINE
  5
3E4
330
D
100
AcDbEntity
 67
     1
  8
AM_VIS
100
AcDbLine
 10
4.288499873377855
 20
8.043177836842371
 30
0.0
 11
4.288499873377855
 21
8.011927836842371
 31
0.0
  0
LINE
  5
3E5
330
D
100
AcDbEntity
 67
     1
  8
AM_VIS
100
AcDbLine
 10
4.288499873377856
 20
8.311927836842372
 30
0.0
 11
4.288499873377856
 21
8.280677836842372
 31
0.0
  0
LINE
  5
3E6
330
D
100
AcDbEntity
 67
     1
  8
AM_VIS
100
AcDbLine
 10
4.288499873377856
 20
8.280677836842372
 30
0.0
 11
4.288499873377856
 21
8.043177836842371
 31
0.0
  0
LINE
  5
3E7
330
D
100
AcDbEntity
 67
     1
  8
AM_VIS
100
AcDbLine
 10
4.288499873377856
 20
8.311927836842372
 30
0.0
 11
4.003499873377847
 21
8.311927836842372
 31
0.0
  0
LINE
  5
3E8
330
D
100
AcDbEntity
 67
     1
  8
AM_HID
100
AcDbLine
 10
4.003499873377847
 20
8.311927836842372
 30
0.0
 11
3.603499873377854
 21
8.311927836842372
 31
0.0
  0
LINE
  5
3E9
330
D
100
AcDbEntity
 67
     1
  8
AM_VIS
100
AcDbLine
 10
3.603499873377854
 20
8.311927836842372
 30
0.0
 11
3.288499873377856
 21
8.311927836842372
 31
0.0
  0
LINE
  5
3EA
330
D
100
AcDbEntity
 67
     1
  8
AM_VIS
100
AcDbLine
 10
3.288499873377856
 20
8.280677836842372
 30
0.0
 11
3.288499873377856
 21
8.311927836842372
 31
0.0
  0
LINE
  5
3EB
330
D
100
AcDbEntity
 67
     1
  8
AM_HID
100
AcDbLine
 10
3.496870370262256
 20
8.081927836842371
 30
0.0
 11
4.080129376493451
 21
8.081927836842371
 31
0.0
  0
LINE
  5
3EC
330
D
100
AcDbEntity
 67
     1
  8
AM_HID
100
AcDbLine
 10
3.496870370262258
 20
8.241927836842371
 30
0.0
 11
4.080129376493453
 21
8.241927836842371
 31
0.0
  0
CIRCLE
  5
3ED
330
D
100
AcDbEntity
 67
     1
  8
AM_HID
100
AcDbCircle
 10
4.123499873377856
 20
8.161927836842371
 30
0.0
 40
0.091
  0
CIRCLE
  5
3EE
330
D
100
AcDbEntity
 67
     1
  8
AM_HID
100
AcDbCircle
 10
3.453499873377854
 20
8.161927836842371
 30
0.0
 40
0.091
  0
LINE
  5
3EF
330
D
100
AcDbEntity
 67
     1
  8
AM_VIS
100
AcDbLine
 10
3.288499873377854
 20
8.043177836842371
 30
0.0
 11
3.288499873377854
 21
8.280677836842372
 31
0.0
  0
VIEWPORT
  5
3F9
330
D
100
AcDbEntity
 67
     1
  8
0
 62
     1
100
AcDbViewport
 10
8.306248013188849
 20
4.835715126384318
 30
0.0
 40
17.0886538800085
 41
13.10397558873891
 68
     1
 69
     1
 12
8.306248013188849
 22
4.835715126384318
 13
0.0
 23
0.0
 14
1.0
 24
1.0
 15
0.0
 25
0.0
 16
0.0
 26
0.0
 36
1.0
 17
0.0
 27
0.0
 37
0.0
 42
50.0
 43
0.0
 44
0.0
 45
13.10397558873891
 50
0.0
 51
0.0
 72
   100
 90
    32800
  1

281
     0
 71
     0
 74
     0
110
0.0
120
0.0
130
0.0
111
1.0
121
0.0
131
0.0
112
0.0
122
1.0
132
0.0
 79
     0
146
0.0
  0
ENDSEC
  0
SECTION
  2
OBJECTS
  0
DICTIONARY
  5
8
330
0
100
AcDbDictionary
281
     1
  3
ACAD_GROUP
350
21
  3
ACAD_LAYOUT
350
C
  3
ACAD_MLINESTYLE
350
22
  3
ACAD_PLOTSETTINGS
350
23
  3
ACAD_PLOTSTYLENAME
350
7
  3
AcDbVariableDictionary
350
3F1
  3
AcmDictionary
350
4B5
  3
AMG
350
3FA
  3
AMGSNAPSETTINGS
350
4F1
  3
DWGPROPS
350
4B8
  3
MAPISURF_MODULE
350
487
  0
DICTIONARY
  5
3
330
2
100
AcDbDictionary
280
     1
281
     1
  3
ACAD_INDEX
360
4F8
  0
DICTIONARY
  5
21
102
{ACAD_REACTORS
330
8
102
}
330
8
100
AcDbDictionary
281
     1
  0
DICTIONARY
  5
C
102
{ACAD_REACTORS
330
8
102
}
330
8
100
AcDbDictionary
281
     1
  3
Layout1
350
10
  3
Model
350
B
  0
DICTIONARY
  5
22
102
{ACAD_REACTORS
330
8
102
}
330
8
100
AcDbDictionary
281
     1
  3
Standard
350
25
  0
DICTIONARY
  5
23
102
{ACAD_REACTORS
330
8
102
}
330
8
100
AcDbDictionary
281
     1
  0
ACDBDICTIONARYWDFLT
  5
7
102
{ACAD_REACTORS
330
8
102
}
330
8
100
AcDbDictionary
281
     1
  3
Normal
350
6
100
AcDbDictionaryWithDefault
340
6
  0
DICTIONARY
  5
3F1
102
{ACAD_REACTORS
330
8
102
}
330
8
100
AcDbDictionary
281
     1
  3
DIMASSOC
350
3F3
  3
HIDETEXT
350
3F2
  3
INDEXCTL
350
503
  0
DICTIONARY
  5
4B5
102
{ACAD_REACTORS
330
8
102
}
330
8
100
AcDbDictionary
281
     1
  3
AcmBOMDATA
350
4B6
  3
AcmStdDictionary
350
4C4
  0
DICTIONARY
  5
3FA
102
{ACAD_REACTORS
330
8
102
}
330
8
100
AcDbDictionary
281
     1
  3
AcMgSettings
350
3FB
  3
AMGLAYCFG
350
4C6
  0
DICTIONARY
  5
4F1
102
{ACAD_REACTORS
330
8
102
}
330
8
100
AcDbDictionary
281
     1
  3
DIMENSION
350
4F6
  3
FEA
350
4F5
  3
HATCH (1)
350
4F2
  3
HATCH (2)
350
4F3
  3
SIMPLE WELD
350
4F7
  3
SYMBOLS
350
4F4
  0
XRECORD
  5
4B8
102
{ACAD_REACTORS
330
8
102
}
330
8
100
AcDbXrecord
280
     1
  1
DWGPROPS COOKIE
  2

  3

  4

  6

  7

  8

  9

300
AmdtFileType=84
301
=
302
=
303
=
304
=
305
=
306
=
307
=
308
=
309
=
 40
0.2792370023148148
 41
2449283.463960185
 42
2452255.432431087
  1

 90
        1
  0
DICTIONARY
  5
4F8
102
{ACAD_REACTORS
330
3
102
}
330
3
100
AcDbDictionary
281
     1
  3
*A1
350
4F9
  0
LAYOUT
  5
10
102
{ACAD_REACTORS
330
C
102
}
330
C
100
AcDbPlotSettings
  1

  2
\\NTSERVER_40\HP DesignJet 750C (D/A1) by HP
  4
User1287
  6

 40
4.995333194732666
 41
16.9333209991455
 42
4.995330810546875
 43
16.93331909179687
 44
431.71533203125
 45
279.2306518554687
 46
0.0
 47
0.0
 48
0.0
 49
0.0
140
0.0
141
0.0
142
1.0
143
1.0
 70
   688
 72
     0
 73
     0
 74
     5
  7

 75
    16
147
1.0
148
0.0
149
0.0
100
AcDbLayout
  1
Layout1
 70
     0
 71
     1
 10
-0.1966666612099475
 20
-0.6666661810687208
 11
16.79999995419359
 21
10.32666656914658
 12
0.0
 22
0.0
 32
0.0
 14
-0.1919956172655901
 24
-0.6628038335637747
 34
-0.0000069581527042
 15
16.80916268758764
 25
10.33809643383735
 35
0.0000281391902106
146
0.0
 13
0.0
 23
0.0
 33
0.0
 16
1.0
 26
0.0
 36
0.0
 17
0.0
 27
1.0
 37
0.0
 76
     0
330
D
331
3F9
  0
LAYOUT
  5
B
102
{ACAD_REACTORS
330
C
102
}
330
C
100
AcDbPlotSettings
  1

  2
HP-Plotter
  4

  6

 40
0.0
 41
0.0
 42
0.0
 43
0.0
 44
0.0
 45
0.0
 46
0.0
 47
0.0
 48
0.0
 49
0.0
140
0.0
141
0.0
142
1.0
143
1.0
 70
  1712
 72
     0
 73
     0
 74
     0
  7

 75
     0
147
1.0
148
0.0
149
0.0
100
AcDbLayout
  1
Model
 70
     1
 71
     0
 10
0.0
 20
0.0
 11
12.0
 21
9.0
 12
0.0
 22
0.0
 32
0.0
 14
0.0
 24
0.0
 34
0.0
 15
0.0
 25
0.0
 35
0.0
146
0.0
 13
0.0
 23
0.0
 33
0.0
 16
1.0
 26
0.0
 36
0.0
 17
0.0
 27
1.0
 37
0.0
 76
     0
330
2
  0
MLINESTYLE
  5
25
102
{ACAD_REACTORS
330
22
102
}
330
22
100
AcDbMlineStyle
  2
STANDARD
 70
     0
  3

 62
   256
 51
90.0
 52
90.0
 71
     2
 49
0.5
 62
   256
  6
BYLAYER
 49
-0.5
 62
   256
  6
BYLAYER
  0
ACDBPLACEHOLDER
  5
6
102
{ACAD_REACTORS
330
7
102
}
330
7
  0
DICTIONARYVAR
  5
3F3
102
{ACAD_REACTORS
330
3F1
102
}
330
3F1
100
DictionaryVariables
280
     0
  1
1
  0
DICTIONARYVAR
  5
3F2
102
{ACAD_REACTORS
330
3F1
102
}
330
3F1
100
DictionaryVariables
280
     0
  1
1
  0
DICTIONARYVAR
  5
503
102
{ACAD_REACTORS
330
3F1
102
}
330
3F1
100
DictionaryVariables
280
     0
  1
1
  0
ACMDATADICTIONARY
  5
4B6
102
{ACAD_REACTORS
330
4B5
102
}
330
4B5
100
AcDbDictionary
281
     1
  3
*A1
350
4B7
100
AcmDataDictionary
  0
DICTIONARY
  5
4C4
102
{ACAD_REACTORS
330
4B5
102
}
330
4B5
100
AcDbDictionary
281
     1
  3
ANSI
350
4C5
  0
DICTIONARY
  5
3FB
102
{ACAD_REACTORS
330
3FA
102
}
330
3FA
100
AcDbDictionary
281
     1
  3
DWGSETTINGS
350
3FC
  3
TRANSSETTINGS
350
400
  0
ACAMGFILTERDAT
  5
4F6
102
{ACAD_REACTORS
330
4F1
102
}
330
4F1
100
AcAmgFilterDat
 70
    15
  1
DIMENSION,AMDT_*_DIM
  2
*
  3
*
  4
*
  5
*
290
     1
  0
ACAMGFILTERDAT
  5
4F5
102
{ACAD_REACTORS
330
4F1
102
}
330
4F1
100
AcAmgFilterDat
 70
    15
  1
*
  2
AM_FEA-AM_*
  3
*
  4
*
  5
*
290
     1
  0
ACAMGFILTERDAT
  5
4F2
102
{ACAD_REACTORS
330
4F1
102
}
330
4F1
100
AcAmgFilterDat
 70
    15
  1
HATCH
  2
*
  3
*
  4
*
  5
*
290
     1
  0
ACAMGFILTERDAT
  5
4F3
102
{ACAD_REACTORS
330
4F1
102
}
330
4F1
100
AcAmgFilterDat
 70
    15
  1
LINE
  2
8,8N,*-8,*-8N,AM_8,AM_8N,*-AM_8,*-AM_8N
  3
*
  4
*
  5
INSERT,STDPART2D
290
     1
  0
ACAMGFILTERDAT
  5
4F7
102
{ACAD_REACTORS
330
4F1
102
}
330
4F1
100
AcAmgFilterDat
 70
    15
  1
ARC
  2
AM_5
  3
*
  4
2
  5
INSERT
290
     0
  0
ACAMGFILTERDAT
  5
4F4
102
{ACAD_REACTORS
330
4F1
102
}
330
4F1
100
AcAmgFilterDat
 70
    15
  1
ACMFCFRAME,ACMDATUMTARGET,ACMDATUMID,ACMWELDSYM,ACMSURFSYM,ACMFEATID,ACMPARTREF,ACMBALLOON,AMDTEDGESYM,AMGSCREWCALCTABLE
  2
*
  3
*
  4
*
  5
*
290
     1
  0
LAYER_INDEX
  5
4F9
102
{ACAD_REACTORS
330
4F8
102
}
330
4F8
100
AcDbIndex
 40
2452558.635650671
100
AcDbLayerIndex
  8
0
360
4FA
 90
        0
  8
DEFPOINTS
360
4FB
 90
        0
  8
STD10004-H38
360
4FC
 90
        0
  8
AM_VIS
360
4FD
 90
        0
  8
AM_HID
360
4FE
 90
        0
  8
CENTER
360
4FF
 90
        0
  8
PHANTOM
360
500
 90
        0
  8
10
360
501
 90
        0
  8
DIMENSION
360
502
 90
        0
  0
ACMDATAENTRYBLOCK
  5
4B7
102
{ACAD_REACTORS
330
4B6
102
}
330
4B6
100
AcmDataEntry
100
AcmDataEntryBlock
  0
IDBUFFER
  5
4FA
330
0
100
AcDbIdBuffer
  0
IDBUFFER
  5
4FB
330
0
100
AcDbIdBuffer
  0
IDBUFFER
  5
4FC
330
0
100
AcDbIdBuffer
  0
IDBUFFER
  5
4FD
330
0
100
AcDbIdBuffer
  0
IDBUFFER
  5
4FE
330
0
100
AcDbIdBuffer
  0
IDBUFFER
  5
4FF
330
0
100
AcDbIdBuffer
  0
IDBUFFER
  5
500
330
0
100
AcDbIdBuffer
  0
IDBUFFER
  5
501
330
0
100
AcDbIdBuffer
  0
IDBUFFER
  5
502
330
0
100
AcDbIdBuffer
  0
ENDSEC
  0
EOF
