  0
SECTION
  2
HEADER
  9
$ACADVER
  1
AC1015
  9
$ACADMAINTVER
 70
    13
  9
$DWGCODEPAGE
  3
ANSI_1252
  9
$INSBASE
 10
0.0
 20
0.0
 30
0.0
  9
$EXTMIN
 10
-0.1912567662467964
 20
-0.6617944179501838
 30
-0.00000001
  9
$EXTMAX
 10
34.01542334028903
 20
17.51569063733952
 30
0.00000002
  9
$LIMMIN
 10
0.0
 20
0.0
  9
$LIMMAX
 10
12.0
 20
9.0
  9
$ORTHOMODE
 70
     0
  9
$REGENMODE
 70
     1
  9
$FILLMODE
 70
     1
  9
$QTEXTMODE
 70
     0
  9
$MIRRTEXT
 70
     1
  9
$LTSCALE
 40
1.0
  9
$ATTMODE
 70
     1
  9
$TEXTSIZE
 40
0.06
  9
$TRACEWID
 40
0.05
  9
$TEXTSTYLE
  7
STANDARD
  9
$CLAYER
  8
DIMENSION
  9
$CELTYPE
  6
BYLAYER
  9
$CECOLOR
 62
   256
  9
$CELTSCALE
 40
1.0
  9
$DISPSILH
 70
     0
  9
$DIMSCALE
 40
1.0
  9
$DIMASZ
 40
0.125
  9
$DIMEXO
 40
0.0625
  9
$DIMDLI
 40
0.38
  9
$DIMRND
 40
0.0
  9
$DIMDLE
 40
0.0
  9
$DIMEXE
 40
0.0625
  9
$DIMTP
 40
0.0
  9
$DIMTM
 40
0.0
  9
$DIMTXT
 40
0.125
  9
$DIMCEN
 40
0.09
  9
$DIMTSZ
 40
0.0
  9
$DIMTOL
 70
     0
  9
$DIMLIM
 70
     0
  9
$DIMTIH
 70
     1
  9
$DIMTOH
 70
     1
  9
$DIMSE1
 70
     0
  9
$DIMSE2
 70
     0
  9
$DIMTAD
 70
     0
  9
$DIMZIN
 70
     0
  9
$DIMBLK
  1

  9
$DIMASO
 70
     1
  9
$DIMSHO
 70
     0
  9
$DIMPOST
  1

  9
$DIMAPOST
  1

  9
$DIMALT
 70
     0
  9
$DIMALTD
 70
     2
  9
$DIMALTF
 40
25.4
  9
$DIMLFAC
 40
1.0
  9
$DIMTOFL
 70
     0
  9
$DIMTVP
 40
0.0
  9
$DIMTIX
 70
     0
  9
$DIMSOXD
 70
     0
  9
$DIMSAH
 70
     0
  9
$DIMBLK1
  1

  9
$DIMBLK2
  1

  9
$DIMSTYLE
  2
STANDARD
  9
$DIMCLRD
 70
     0
  9
$DIMCLRE
 70
     0
  9
$DIMCLRT
 70
     0
  9
$DIMTFAC
 40
1.0
  9
$DIMGAP
 40
0.09
  9
$DIMJUST
 70
     0
  9
$DIMSD1
 70
     0
  9
$DIMSD2
 70
     0
  9
$DIMTOLJ
 70
     1
  9
$DIMTZIN
 70
     0
  9
$DIMALTZ
 70
     0
  9
$DIMALTTZ
 70
     0
  9
$DIMUPT
 70
     1
  9
$DIMDEC
 70
     4
  9
$DIMTDEC
 70
     4
  9
$DIMALTU
 70
     2
  9
$DIMALTTD
 70
     2
  9
$DIMTXSTY
  7
STANDARD
  9
$DIMAUNIT
 70
     0
  9
$DIMADEC
 70
     0
  9
$DIMALTRND
 40
0.0
  9
$DIMAZIN
 70
     0
  9
$DIMDSEP
 70
    46
  9
$DIMATFIT
 70
     3
  9
$DIMFRAC
 70
     0
  9
$DIMLDRBLK
  1

  9
$DIMLUNIT
 70
     5
  9
$DIMLWD
 70
    -2
  9
$DIMLWE
 70
    -2
  9
$DIMTMOVE
 70
     0
  9
$LUNITS
 70
     2
  9
$LUPREC
 70
     4
  9
$SKETCHINC
 40
0.1
  9
$FILLETRAD
 40
0.0
  9
$AUNITS
 70
     0
  9
$AUPREC
 70
     0
  9
$MENU
  1
ACAD
  9
$ELEVATION
 40
0.0
  9
$PELEVATION
 40
0.0
  9
$THICKNESS
 40
0.0
  9
$LIMCHECK
 70
     0
  9
$CHAMFERA
 40
0.0
  9
$CHAMFERB
 40
0.0
  9
$CHAMFERC
 40
0.0
  9
$CHAMFERD
 40
0.0
  9
$SKPOLY
 70
     0
  9
$TDCREATE
 40
2447762.569426620
  9
$TDUCREATE
 40
2447762.736093287
  9
$TDUPDATE
 40
2452255.437436157
  9
$TDUUPDATE
 40
2452255.604102824
  9
$TDINDWG
 40
0.3342489352
  9
$TDUSRTIMER
 40
0.3342489352
  9
$USRTIMER
 70
     1
  9
$ANGBASE
 50
0.0
  9
$ANGDIR
 70
     0
  9
$PDMODE
 70
     0
  9
$PDSIZE
 40
0.0
  9
$PLINEWID
 40
0.0
  9
$SPLFRAME
 70
     0
  9
$SPLINETYPE
 70
     6
  9
$SPLINESEGS
 70
     8
  9
$HANDSEED
  5
5C4
  9
$SURFTAB1
 70
     6
  9
$SURFTAB2
 70
     6
  9
$SURFTYPE
 70
     6
  9
$SURFU
 70
     6
  9
$SURFV
 70
     6
  9
$UCSBASE
  2

  9
$UCSNAME
  2

  9
$UCSORG
 10
0.0
 20
0.0
 30
0.0
  9
$UCSXDIR
 10
1.0
 20
0.0
 30
0.0
  9
$UCSYDIR
 10
0.0
 20
1.0
 30
0.0
  9
$UCSORTHOREF
  2

  9
$UCSORTHOVIEW
 70
     0
  9
$UCSORGTOP
 10
0.0
 20
0.0
 30
0.0
  9
$UCSORGBOTTOM
 10
0.0
 20
0.0
 30
0.0
  9
$UCSORGLEFT
 10
0.0
 20
0.0
 30
0.0
  9
$UCSORGRIGHT
 10
0.0
 20
0.0
 30
0.0
  9
$UCSORGFRONT
 10
0.0
 20
0.0
 30
0.0
  9
$UCSORGBACK
 10
0.0
 20
0.0
 30
0.0
  9
$PUCSBASE
  2

  9
$PUCSNAME
  2

  9
$PUCSORG
 10
0.0
 20
0.0
 30
0.0
  9
$PUCSXDIR
 10
1.0
 20
0.0
 30
0.0
  9
$PUCSYDIR
 10
0.0
 20
1.0
 30
0.0
  9
$PUCSORTHOREF
  2

  9
$PUCSORTHOVIEW
 70
     0
  9
$PUCSORGTOP
 10
0.0
 20
0.0
 30
0.0
  9
$PUCSORGBOTTOM
 10
0.0
 20
0.0
 30
0.0
  9
$PUCSORGLEFT
 10
0.0
 20
0.0
 30
0.0
  9
$PUCSORGRIGHT
 10
0.0
 20
0.0
 30
0.0
  9
$PUCSORGFRONT
 10
0.0
 20
0.0
 30
0.0
  9
$PUCSORGBACK
 10
0.0
 20
0.0
 30
0.0
  9
$USERI1
 70
     0
  9
$USERI2
 70
     0
  9
$USERI3
 70
     0
  9
$USERI4
 70
     0
  9
$USERI5
 70
     0
  9
$USERR1
 40
0.0
  9
$USERR2
 40
0.0
  9
$USERR3
 40
0.0
  9
$USERR4
 40
0.0
  9
$USERR5
 40
0.0
  9
$WORLDVIEW
 70
     1
  9
$SHADEDGE
 70
     3
  9
$SHADEDIF
 70
    70
  9
$TILEMODE
 70
     1
  9
$MAXACTVP
 70
    48
  9
$PINSBASE
 10
0.0
 20
0.0
 30
0.0
  9
$PLIMCHECK
 70
     0
  9
$PEXTMIN
 10
-0.1912567662467964
 20
-0.6617944179501838
 30
-0.4600000000000001
  9
$PEXTMAX
 10
16.80874323375321
 20
10.33820558204981
 30
0.0
  9
$PLIMMIN
 10
-0.1966666612099475
 20
-0.6666661810687208
  9
$PLIMMAX
 10
16.79999995419359
 20
10.32666656914658
  9
$UNITMODE
 70
     0
  9
$VISRETAIN
 70
     0
  9
$PLINEGEN
 70
     0
  9
$PSLTSCALE
 70
     0
  9
$TREEDEPTH
 70
  3020
  9
$CMLSTYLE
  2
STANDARD
  9
$CMLJUST
 70
     0
  9
$CMLSCALE
 40
1.0
  9
$PROXYGRAPHICS
 70
     1
  9
$MEASUREMENT
 70
     0
  9
$CELWEIGHT
370
    -1
  9
$ENDCAPS
280
     0
  9
$JOINSTYLE
280
     0
  9
$LWDISPLAY
290
     0
  9
$INSUNITS
 70
     0
  9
$HYPERLINKBASE
  1

  9
$STYLESHEET
  1

  9
$XEDIT
290
     1
  9
$CEPSNTYPE
380
     0
  9
$PSTYLEMODE
290
     1
  9
$FINGERPRINTGUID
  2
{48188CA0-689B-11D4-9FC7-005004B2D6C8}
  9
$VERSIONGUID
  2
{F136ED2B-EE3B-11D5-A05D-005004B2D6C8}
  9
$EXTNAMES
290
     1
  9
$PSVPSCALE
 40
0.0
  9
$OLESTARTUP
290
     0
  0
ENDSEC
  0
SECTION
  2
CLASSES
  0
CLASS
  1
DICTIONARYVAR
  2
AcDbDictionaryVar
  3
AutoCAD 2000
 90
        0
280
     0
281
     0
  0
CLASS
  1
ACME_DOCUMENT
  2
AcMeDoc
  3
AcMeServices
 90
    32768
280
     1
281
     0
  0
CLASS
  1
ACMESTATEMGR
  2
AcMeStateMgr
  3
AcMeServices
 90
    32768
280
     0
281
     0
  0
CLASS
  1
ACMESCOPE
  2
AcMeScope
  3
AcMeServices
 90
    32768
280
     0
281
     0
  0
CLASS
  1
ACMECOMMANDHISTORY
  2
AcMeCommandHistory
  3
AcMeServices
 90
    32768
280
     0
281
     0
  0
CLASS
  1
ACRFINSADJUSTERMGR
  2
AcRfInsAdjusterMgr
  3
AcMeServices
 90
    32768
280
     0
281
     0
  0
CLASS
  1
ACIMSYSVARMAN
  2
AcImSysVarManager
  3
AcMeServices
 90
    32768
280
     0
281
     0
  0
CLASS
  1
ACIMREALSYSVAR
  2
AcImRealSysVar
  3
AcMeServices
 90
    32768
280
     0
281
     0
  0
CLASS
  1
ACIMINTSYSVAR
  2
AcImIntSysVar
  3
AcMeServices
 90
    32768
280
     0
281
     0
  0
CLASS
  1
ACMEDRAWINGMAN
  2
AcMeDrawingMan
  3
AcMeServices
 90
    32768
280
     0
281
     0
  0
CLASS
  1
ACMEVIEW
  2
AcMeView
  3
AcMeServices
 90
    32768
280
     0
281
     0
  0
CLASS
  1
ACDBENTITYCACHE
  2
AcMeEntityCache
  3
AcMeServices
 90
    32768
280
     0
281
     0
  0
CLASS
  1
ACGREFMASTER
  2
AcGrefMaster
  3
AcAttribServices
 90
    32768
280
     0
281
     0
  0
CLASS
  1
AMIMASTER
  2
AmiMaster
  3
AmiServices
 90
    32768
280
     0
281
     0
  0
CLASS
  1
ACASGREFMASTER
  2
AcAsGrefMaster
  3
AutoSurfResolverServices
 90
    32768
280
     0
281
     0
  0
CLASS
  1
ADAPPL
  2
AcAdAppl
  3
DesignerServices
 90
    32768
280
     0
281
     0
  0
CLASS
  1
DEPMGR
  2
AcAdDepMgr
  3
DesignerServices
 90
    32768
280
     0
281
     0
  0
CLASS
  1
PARAMMGR
  2
AcAdParamMgr
  3
DesignerServices
 90
    32768
280
     0
281
     0
  0
CLASS
  1
PARAMSCOPE
  2
AcAdParamScope
  3
DesignerServices
 90
    32768
280
     0
281
     0
  0
CLASS
  1
ACIMSTRSYSVAR
  2
AcImStrSysVar
  3
AcMeServices
 90
    32768
280
     0
281
     0
  0
CLASS
  1
NAMEDAPPL
  2
AcAdNamedAppl
  3
DesignerServices
 90
    32768
280
     0
281
     0
  0
CLASS
  1
ADHNTMPLT
  2
AdHoleNoteTemplateMgr
  3
DesignerServices
 90
    32768
280
     0
281
     0
  0
CLASS
  1
AM_HNTEMPLATE_MGR_NAME
  2
AdHoleNoteTemplateMgrName
  3
DesignerServices
 90
    32768
280
     0
281
     0
  0
CLASS
  1
ACADGREFMODULE
  2
AcAdGrefModule
  3
AdGrefServices
 90
    32768
280
     0
281
     0
  0
CLASS
  1
AM_DRAWING_MGR
  2
AcDmDwgMgr
  3
AcMechDwgViewMgmt
 90
    32768
280
     0
281
     0
  0
CLASS
  1
AM_DWG_DOCUMENT
  2
AcDmDwgDocument
  3
AcMechDwgViewMgmt
 90
    32768
280
     0
281
     0
  0
CLASS
  1
AM_DWG_SHEET
  2
AcDmSheet
  3
AcMechDwgViewMgmt
 90
    32768
280
     0
281
     0
  0
CLASS
  1
AM_VIEWDIMPARMAP
  2
AcDmViewDimParMap
  3
AcMechDwgViewMgmt
 90
    32768
280
     0
281
     0
  0
CLASS
  1
AM_DWGMGR_NAME
  2
AcDmDwgMgrName
  3
AcMechDwgViewMgmt
 90
    32768
280
     0
281
     0
  0
CLASS
  1
ACAMPROJECT
  2
AcAmProject
  3
DesignerAssemblies
 90
    32768
280
     0
281
     0
  0
CLASS
  1
ACAMGRCOMPSET
  2
AcAmGrCompSet
  3
DesignerAssemblies
 90
    32768
280
     1
281
     0
  0
CLASS
  1
ACAMGRCOMPDEFSET
  2
AcAmGrCompDefSet
  3
DesignerAssemblies
 90
    32768
280
     0
281
     0
  0
CLASS
  1
ACAMGRCOMPDEF
  2
AcAmGrCompDef
  3
DesignerAssemblies
 90
    32768
280
     0
281
     0
  0
CLASS
  1
ACCMCONTEXT
  2
AcCmContext
  3
DesignerAssemblies
 90
    32768
280
     0
281
     0
  0
CLASS
  1
ACAMCOMPDEF
  2
AcAmCompDef
  3
DesignerAssemblies
 90
    32768
280
     0
281
     0
  0
CLASS
  1
ACAMCOMPDEFMGR
  2
AcAmCompDefMgr
  3
DesignerAssemblies
 90
    32768
280
     0
281
     0
  0
CLASS
  1
AMCONTEXTMGR
  2
AcAmContextMgr
  3
DesignerAssemblies
 90
    32768
280
     0
281
     0
  0
CLASS
  1
ACAMCONTEXTMODELER
  2
AcAmContextModeler
  3
DesignerAssemblies
 90
    32768
280
     0
281
     0
  0
CLASS
  1
ACMDATADICTIONARY
  2
AcmDataDictionary
  3
"AcmSymBB|Product Description: AutoCAD Mechanical 2000|Company: Autodesk"
 90
    32768
280
     0
281
     0
  0
CLASS
  1
ACMDATAENTRYBLOCK
  2
AcmDataEntryBlock
  3
"AcmSymBB|Product Description: AutoCAD Mechanical 2000|Company: Autodesk"
 90
    32768
280
     0
281
     0
  0
CLASS
  1
ACDMVIEWGEOM
  2
AcDmViewGeometry
  3
AcMechDwgViewMgmt
 90
    32768
280
     0
281
     1
  0
CLASS
  1
CBROWSERAPPOBJECT
  2
CBrowserAppObject
  3
McadcomServices
 90
    32768
280
     0
281
     0
  0
CLASS
  1
IM_STATIC_MAN
  2
AcImStaticVarManager
  3
AcMeServices
 90
    32768
280
     0
281
     0
  0
CLASS
  1
ASAPP
  2
AcAsAppObject
  3
AutoSurfServices
 90
    32768
280
     0
281
     0
  0
CLASS
  1
ACIMDBLSTATICVAR
  2
AcImDblStaticVar
  3
AcMeServices
 90
    32768
280
     0
281
     0
  0
CLASS
  1
ACIMSTRSTATICVAR
  2
AcImStrStaticVar
  3
AcMeServices
 90
    32768
280
     0
281
     0
  0
CLASS
  1
ACIMINTSTATICVAR
  2
AcImIntStaticVar
  3
AcMeServices
 90
    32768
280
     0
281
     0
  0
CLASS
  1
CATALOGSTATE
  2
AcAmCatalogState
  3
DesignerAssemblies
 90
    32768
280
     0
281
     0
  0
CLASS
  1
DM_PLACEHOLDER
  2
AcDmSelsetPlaceholder
  3
AcMechDwgViewMgmt
 90
    32768
280
     0
281
     0
  0
CLASS
  1
AGDICTIONARY
  2
AgDictionary
  3
"AccelView"
 90
    32769
280
     0
281
     0
  0
CLASS
  1
LAYER_INDEX
  2
AcDbLayerIndex
  3
AutoCAD 2000
 90
    32768
280
     0
281
     0
  0
CLASS
  1
IDBUFFER
  2
AcDbIdBuffer
  3
AutoCAD 2000
 90
    32768
280
     0
281
     0
  0
CLASS
  1
ACRFATTGENMGR
  2
AcRfAttGeneralMgr
  3
AcAttribServices
 90
    32768
280
     0
281
     0
  0
CLASS
  1
ACDBDICTIONARYWDFLT
  2
AcDbDictionaryWithDefault
  3
AutoCAD 2000
 90
        0
280
     0
281
     0
  0
CLASS
  1
ACDBPLACEHOLDER
  2
AcDbPlaceHolder
  3
AutoCAD 2000
 90
        0
280
     0
281
     0
  0
CLASS
  1
LAYOUT
  2
AcDbLayout
  3
AutoCAD 2000
 90
        0
280
     0
281
     0
  0
CLASS
  1
ACME_DOCUMENT
  2
AcMeDbDoc
  3
AcMeServices
 90
    32768
280
     0
281
     0
  0
CLASS
  1
GSMANAGER
  2
AcMeGSManager
  3
AcMeServices
 90
    32768
280
     0
281
     0
  0
CLASS
  1
AMDTINTERNALREACTOR
  2
AmdtInternalReactor
  3
AcMeServices
 90
    32768
280
     0
281
     0
  0
CLASS
  1
ACME_DATABASE
  2
AcMeDbDatabase
  3
AcMeServices
 90
    32768
280
     0
281
     0
  0
CLASS
  1
ACGREFACADMASTER
  2
AcGrefacadMaster
  3
AcGrefServices
 90
    32768
280
     0
281
     0
  0
CLASS
  1
AMDTMENUSTATEMGR
  2
AmdtMenuStateMgr
  3
McadcomServices
 90
    32768
280
     0
281
     0
  0
CLASS
  1
AMDTMCOMMENUSTATE
  2
AmdtMcomMenuState
  3
McadcomServices
 90
    32768
280
     0
281
     0
  0
CLASS
  1
MAPIAMMOUDLE
  2
MApiAmModule
  3
MApiAmServices
 90
    32768
280
     0
281
     0
  0
CLASS
  1
AMDTDMMENUSTATE
  2
AmdtDmMenuState
  3
AcMechDwgViewMgmt
 90
    32768
280
     0
281
     0
  0
CLASS
  1
AMDTADMENUSTATE
  2
AmdtAdMenuState
  3
DesignerServices
 90
    32768
280
     0
281
     0
  0
CLASS
  1
AMDTAMMENUSTATE
  2
AmdtAmMenuState
  3
DesignerAssemblies
 90
    32768
280
     0
281
     0
  0
CLASS
  1
MAPIADMODULE
  2
MApiAdModule
  3
MApiAdServices
 90
    32768
280
     0
281
     0
  0
CLASS
  1
AMDTBROWSERDBTAB
  2
AmdtBrowserDbTab
  3
McadcomServices
 90
    32768
280
     0
281
     0
  0
CLASS
  1
AMGOBJPROPCFG
  2
AmgObjPropCfg
  3
"AmgLay|Product Description: AutoCAD Mechanical 2000|Company: Autodesk"
 90
    32769
280
     0
281
     0
  0
CLASS
  1
ADPART
  2
AcAdPart
  3
DesignerServices
 90
    32768
280
     0
281
     1
  0
CLASS
  1
ADBASE
  2
AcAdBase
  3
DesignerServices
 90
    32768
280
     0
281
     0
  0
CLASS
  1
BODYID
  2
AcAdBodyId
  3
DesignerServices
 90
    32768
280
     0
281
     0
  0
CLASS
  1
WORKPLANEDISPLAYMGR
  2
AcAdDisplayMgr
  3
DesignerServices
 90
    32768
280
     0
281
     0
  0
CLASS
  1
ACCMBODY
  2
AcCmBody
  3
DesignerAssemblies
 90
    32768
280
     0
281
     0
  0
CLASS
  1
ACAMCOMPENT
  2
AcAmCompEnt
  3
DesignerAssemblies
 90
    32768
280
     0
281
     1
  0
CLASS
  1
ACAMCOMPFEEDBACK
  2
AcAmCompFeedback
  3
DesignerAssemblies
 90
    32768
280
     0
281
     0
  0
CLASS
  1
ACAMCOMP
  2
AcAmComp
  3
DesignerAssemblies
 90
    32768
280
     0
281
     0
  0
CLASS
  1
ACAMCOMPENTCLONE
  2
AcAmCompEntClone
  3
DesignerAssemblies
 90
    32768
280
     0
281
     1
  0
CLASS
  1
ACAMCLONEREACTOR
  2
AcAmGrCompCloneReactor
  3
DesignerAssemblies
 90
    32768
280
     0
281
     0
  0
CLASS
  1
ADDATUMPLANEABS
  2
AcAdDatumPlaneAbs
  3
DesignerServices
 90
    32768
280
     0
281
     0
  0
CLASS
  1
ADDATUMAXISABS
  2
AcAdDatumAxisAbs
  3
DesignerServices
 90
    32768
280
     0
281
     0
  0
CLASS
  1
ADDATUMORIENTEDPLANE
  2
AcAdDatumOrientedPlane
  3
DesignerServices
 90
    32768
280
     0
281
     0
  0
CLASS
  1
ACAD_ARC
  2
AcAdArc
  3
DesignerServices
 90
    32768
280
     0
281
     1
  0
CLASS
  1
ACADARCACAD
  2
AcAdVirtualArcAcad
  3
DesignerServices
 90
    32768
280
     0
281
     0
  0
CLASS
  1
ACAD_LINE
  2
AcAdLine
  3
DesignerServices
 90
    32768
280
     0
281
     1
  0
CLASS
  1
ACADLINEACAD
  2
AcAdVirtualBoundedLineAcad
  3
DesignerServices
 90
    32768
280
     0
281
     0
  0
CLASS
  1
ACADREFLINEACAD
  2
AcAdVirtualReferenceLine
  3
DesignerServices
 90
    32768
280
     0
281
     0
  0
CLASS
  1
ACADCONSLINE
  2
AcAdConstrainedLine
  3
DesignerServices
 90
    32768
280
     0
281
     0
  0
CLASS
  1
ACADCONSGROUP
  2
AcAdConstraintGroup
  3
DesignerServices
 90
    32768
280
     0
281
     0
  0
CLASS
  1
ACADCONSCIRCLE
  2
AcAdConstrainedCircle
  3
DesignerServices
 90
    32768
280
     0
281
     0
  0
CLASS
  1
ACADIMPPTACAD
  2
AcAdVirtualImplicitPoint
  3
DesignerServices
 90
    32768
280
     0
281
     0
  0
CLASS
  1
ACADCONSPOINT
  2
AcAdConstrainedPoint
  3
DesignerServices
 90
    32768
280
     0
281
     0
  0
CLASS
  1
ADPCURCNS
  2
AcAdPointCurveConstr
  3
DesignerServices
 90
    32768
280
     0
281
     0
  0
CLASS
  1
ADCTRPTCNS
  2
AcAdCenterPointConstr
  3
DesignerServices
 90
    32768
280
     0
281
     0
  0
CLASS
  1
ADHORCNS
  2
AcAdHorizontalConstr
  3
DesignerServices
 90
    32768
280
     0
281
     0
  0
CLASS
  1
ADVERCNS
  2
AcAdVerticalConstr
  3
DesignerServices
 90
    32768
280
     0
281
     0
  0
CLASS
  1
ADTANCNS
  2
AcAdTangentConstr
  3
DesignerServices
 90
    32768
280
     0
281
     0
  0
CLASS
  1
ADEQRADCNS
  2
AcAdEqualRadiusConstr
  3
DesignerServices
 90
    32768
280
     0
281
     0
  0
CLASS
  1
ADCLPROF2D
  2
AcAdClosedProfile2d
  3
DesignerServices
 90
    32768
280
     0
281
     0
  0
CLASS
  1
ACAD_FIXCONSTRAINT
  2
AcAdFixedConstraint
  3
DesignerServices
 90
    32768
280
     0
281
     0
  0
CLASS
  1
ADCOLNCNS
  2
AcAdColinearConstr
  3
DesignerServices
 90
    32768
280
     0
281
     0
  0
CLASS
  1
ADPARCNS
  2
AcAdParallelConstr
  3
DesignerServices
 90
    32768
280
     0
281
     0
  0
CLASS
  1
ADCONCCNS
  2
AcAdConcentricConstr
  3
DesignerServices
 90
    32768
280
     0
281
     0
  0
CLASS
  1
ACMELINEARARROW
  2
AcImLinearArrowDisplay
  3
AcMeServices
 90
    32768
280
     0
281
     1
  0
CLASS
  1
PARAM
  2
AcAdParam
  3
DesignerServices
 90
    32768
280
     0
281
     0
  0
CLASS
  1
ACADVOLFEATWITHTRIM
  2
AcAdVolFeatWithTrim
  3
DesignerServices
 90
    32768
280
     0
281
     0
  0
CLASS
  1
DEPEDGEFEATUREORDERING
  2
AcAdDepEdgeFeatureOrdering
  3
DesignerServices
 90
    32768
280
     0
281
     0
  0
CLASS
  1
ADPLANEID
  2
AcAdPlaneId
  3
DesignerServices
 90
    32768
280
     0
281
     0
  0
CLASS
  1
ADDATUMPLANEFACE
  2
AcAdDatumPlaneFace
  3
DesignerServices
 90
    32768
280
     0
281
     0
  0
CLASS
  1
ACMEPLINE
  2
AcImPlineDisplay
  3
AcMeServices
 90
    32768
280
     0
281
     1
  0
CLASS
  1
EDGEID
  2
AcAdEdgeId
  3
DesignerServices
 90
    32768
280
     0
281
     0
  0
CLASS
  1
ADFILLET
  2
AcAdFillet
  3
DesignerServices
 90
    32768
280
     0
281
     0
  0
CLASS
  1
FEEDBACK
  2
AcAmFeedback
  3
DesignerAssemblies
 90
    32768
280
     0
281
     1
  0
CLASS
  1
ACAMTRIAXISSYMBOL
  2
AcAmTriAxisSymbol
  3
DesignerAssemblies
 90
    32768
280
     0
281
     0
  0
CLASS
  1
ACAMTEXTCIRCLESYMBOL
  2
AcAmTextCircleSymbol
  3
DesignerAssemblies
 90
    32768
280
     0
281
     0
  0
CLASS
  1
DEPEDGESECONDARYDEPID
  2
AcAdDepEdgeSecondaryDepId
  3
DesignerServices
 90
    32768
280
     0
281
     0
  0
CLASS
  1
ACAMEXTERNALCOMPDEF
  2
AcAmExternalCompDef
  3
DesignerAssemblies
 90
    32768
280
     0
281
     0
  0
CLASS
  1
ACAMGRBLOCKRECORD
  2
AcAmGrBlockRecord
  3
DesignerAssemblies
 90
    32768
280
     0
281
     0
  0
CLASS
  1
ACAMVIEWREACTOR
  2
AcAmViewReactor
  3
DesignerAssemblies
 90
    32768
280
     0
281
     0
  0
CLASS
  1
AMVIEW
  2
AcAmView
  3
DesignerAssemblies
 90
    32768
280
     0
281
     0
  0
CLASS
  1
ACAMVIEWCONTEXT
  2
AcAmViewContext
  3
DesignerAssemblies
 90
    32768
280
     0
281
     0
  0
CLASS
  1
ACAMCOMPVIEWREACTOR
  2
AcAmGrCompViewReactor
  3
DesignerAssemblies
 90
    32768
280
     0
281
     0
  0
CLASS
  1
ACAMCOMPENTVIEW
  2
AcAmCompEntView
  3
DesignerAssemblies
 90
    32768
280
     0
281
     1
  0
CLASS
  1
ACAMTRANSTWEAK
  2
AcAmTransTweak
  3
DesignerAssemblies
 90
    32768
280
     0
281
     0
  0
CLASS
  1
ACAMVIEWENTITYFILTER
  2
AcAmViewEntityFilter
  3
DesignerAssemblies
 90
    32768
280
     0
281
     0
  0
CLASS
  1
FACEID
  2
AcAdFaceId
  3
DesignerServices
 90
    32768
280
     0
281
     0
  0
CLASS
  1
ACADPARTPLANARFACERES
  2
AcAdPartPlanarFaceRes
  3
AdGrefServices
 90
    32768
280
     0
281
     0
  0
CLASS
  1
ACRFINSADJ
  2
AcRfInsAdjuster
  3
AcMeServices
 90
    32768
280
     0
281
     0
  0
CLASS
  1
AM_GREF_PLANE
  2
AcDmGrefPlnDef
  3
AcMechDwgViewMgmt
 90
    32768
280
     0
281
     0
  0
CLASS
  1
ACADPARTLINEDGRES
  2
AcAdPartLinEdgRes
  3
AdGrefServices
 90
    32768
280
     0
281
     0
  0
CLASS
  1
AM_GREF_AXIS
  2
AcDmGrefAxisDef
  3
AcMechDwgViewMgmt
 90
    32768
280
     0
281
     0
  0
CLASS
  1
AM_BASE_VIEW_ORIENT
  2
AcDmBaseViewOr
  3
AcMechDwgViewMgmt
 90
    32768
280
     0
281
     0
  0
CLASS
  1
AM_DWG_VIEWPORT
  2
AcDmViewport
  3
AcMechDwgViewMgmt
 90
    32768
280
     0
281
     0
  0
CLASS
  1
AM_VIEW_DISPLAY
  2
AcDmDwgViewDisplay
  3
AcMechDwgViewMgmt
 90
    32768
280
     0
281
     0
  0
CLASS
  1
AM_CLDFLTS
  2
AcDmClDflts
  3
AcMechDwgViewMgmt
 90
    32768
280
     0
281
     0
  0
CLASS
  1
AM_BASE_VIEW
  2
AcDmBaseView
  3
AcMechDwgViewMgmt
 90
    32768
280
     0
281
     0
  0
CLASS
  1
AM_ORTHO_VIEW_ORIENT
  2
AcDmOrthoViewOr
  3
AcMechDwgViewMgmt
 90
    32768
280
     0
281
     0
  0
CLASS
  1
AM_ORTHO_VIEW
  2
AcDmOrthoView
  3
AcMechDwgViewMgmt
 90
    32768
280
     0
281
     0
  0
CLASS
  1
AM_ISO_VIEW_ORIENT
  2
AcDmIsoViewOr
  3
AcMechDwgViewMgmt
 90
    32768
280
     0
281
     0
  0
CLASS
  1
AM_ISO_VIEW
  2
AcDmIsoView
  3
AcMechDwgViewMgmt
 90
    32768
280
     0
281
     0
  0
CLASS
  1
ACDMVWEDARC
  2
AcDmViewEdgeArc
  3
AcMechDwgViewMgmt
 90
    32768
280
     0
281
     1
  0
CLASS
  1
ACDMVWEDLINE
  2
AcDmViewEdgeLine
  3
AcMechDwgViewMgmt
 90
    32768
280
     0
281
     1
  0
CLASS
  1
ACDMVWEDELLIPSE
  2
AcDmViewEdgeEllipse
  3
AcMechDwgViewMgmt
 90
    32768
280
     0
281
     1
  0
CLASS
  1
ACDMVWEDSPLINE
  2
AcDmViewEdgeSpline
  3
AcMechDwgViewMgmt
 90
    32768
280
     0
281
     1
  0
CLASS
  1
ACDMVWEDCIRC
  2
AcDmViewEdgeCircle
  3
AcMechDwgViewMgmt
 90
    32768
280
     0
281
     1
  0
CLASS
  1
ACMBOM
  2
AcmBom
  3
"AcmSymBB|Product Description: AutoCAD Mechanical 2000|Company: Autodesk"
 90
    32768
280
     0
281
     0
  0
CLASS
  1
ACMBOMROW
  2
AcmBomRow
  3
"AcmSymBB|Product Description: AutoCAD Mechanical 2000|Company: Autodesk"
 90
    32768
280
     0
281
     0
  0
CLASS
  1
ACMSTANDARDANSI
  2
AcmStandardANSI
  3
"Amdt_StdImp|Product Description: AutoCAD Mechanical 2000|Company: Autodesk"
 90
    32768
280
     0
281
     0
  0
CLASS
  1
ACMSURFSTANDARDANSI
  2
AcmSurfTextStdANSI
  3
"Amdt_StdImp|Product Description: AutoCAD Mechanical 2000|Company: Autodesk"
 90
    32768
280
     0
281
     0
  0
CLASS
  1
ACMFCFSTANDARDANSI
  2
AcmFCFStdANSI
  3
"Amdt_StdImp|Product Description: AutoCAD Mechanical 2000|Company: Autodesk"
 90
    32768
280
     0
281
     0
  0
CLASS
  1
ACMWELDSTANDARDANSI
  2
AcmWeldingStdANSI
  3
"Amdt_StdImp|Product Description: AutoCAD Mechanical 2000|Company: Autodesk"
 90
    32768
280
     0
281
     0
  0
CLASS
  1
ACMIDSTANDARDANSI
  2
AcmIdStdANSI
  3
"Amdt_StdImp|Product Description: AutoCAD Mechanical 2000|Company: Autodesk"
 90
    32768
280
     0
281
     0
  0
CLASS
  1
ACMDATUMSTANDARDANSI
  2
AcmDatumStdANSI
  3
"Amdt_StdImp|Product Description: AutoCAD Mechanical 2000|Company: Autodesk"
 90
    32768
280
     0
281
     0
  0
CLASS
  1
ACMBOMSTANDARDANSI
  2
AcmBOMStdANSI
  3
"Amdt_StdImp|Product Description: AutoCAD Mechanical 2000|Company: Autodesk"
 90
    32768
280
     0
281
     0
  0
CLASS
  1
ACMPICKOBJ
  2
AcmPickEnt
  3
"AcmSymBB|Product Description: AutoCAD Mechanical 2000|Company: Autodesk"
 90
    32768
280
     0
281
     1
  0
CLASS
  1
ACMBALLOON
  2
AcmBalloon
  3
"AcmSymBB|Product Description: AutoCAD Mechanical 2000|Company: Autodesk"
 90
    33791
280
     0
281
     1
  0
CLASS
  1
AM_VWNOTEADAPTER
  2
AcDmViewAnnotAdapter
  3
AcMechDwgViewMgmt
 90
    32768
280
     0
281
     0
  0
CLASS
  1
AM_VIEW_SELECT_FILTER
  2
AcDmSelectViewEntFilter
  3
AcMechDwgViewMgmt
 90
    32768
280
     0
281
     0
  0
CLASS
  1
AMGSETTINGSOBJ
  2
AmgSettingsObj
  3
"AcadM|Product Description: AutoCAD Mechanical 2000|Company: Autodesk"
 90
    32768
280
     0
281
     0
  0
CLASS
  1
AMDTMAPISURFMOUDULE
  2
AmdtMApiSurfModule
  3
MApiSurfServices
 90
    32768
280
     0
281
     0
  0
CLASS
  1
ACDMPARTVIEWDATA
  2
AcDmPartViewData
  3
AcMechDwgViewMgmt
 90
    32768
280
     0
281
     0
  0
CLASS
  1
ACDMDISPLAYATTRIBS
  2
AcDmDisplayAttribs
  3
AcMechDwgViewMgmt
 90
    32768
280
     0
281
     0
  0
CLASS
  1
ACDMBODYINSTANCEDATA
  2
AcDmBodyInstanceData
  3
AcMechDwgViewMgmt
 90
    32768
280
     0
281
     0
  0
CLASS
  1
AMDTFORMULAUPDATEDISPATCHER
  2
AmdtFormulaUpdateDispatcher
  3
AcMeServices
 90
    32768
280
     0
281
     0
  0
CLASS
  1
ACAMGTITLESTD
  2
AcAmgTitleStd
  3
"TITLEAPP"
 90
    32768
280
     0
281
     0
  0
CLASS
  1
ACMDETAILSTANDARDANSI
  2
AmdtDetailSymStdANSI
  3
"Amdt_StdImp|Product Description: AutoCAD Mechanical 2000|Company: Autodesk"
 90
    32768
280
     0
281
     0
  0
CLASS
  1
ACMSECTIONSTANDARDANSI
  2
AmdtSectionSymStdANSI
  3
"Amdt_StdImp|Product Description: AutoCAD Mechanical 2000|Company: Autodesk"
 90
    32768
280
     0
281
     0
  0
CLASS
  1
ACMCENTERLINESTANDARDANSI
  2
AmdtCenterLineStdANSI
  3
"Amdt_StdImp|Product Description: AutoCAD Mechanical 2000|Company: Autodesk"
 90
    32768
280
     0
281
     0
  0
CLASS
  1
ACMTHREADLINESTANDARDANSI
  2
AmdtThreadLineStdANSI
  3
"Amdt_StdImp|Product Description: AutoCAD Mechanical 2000|Company: Autodesk"
 90
    32768
280
     0
281
     0
  0
CLASS
  1
ACMNOTESTANDARDANSI
  2
AmdtNoteStdANSI
  3
"Amdt_StdImp|Product Description: AutoCAD Mechanical 2000|Company: Autodesk"
 90
    32768
280
     0
281
     0
  0
CLASS
  1
ACAMGLAYSTD
  2
AcAmgLayStd
  3
"AcAmgLayStd|Product Description: AutoCAD Mechanical 2000|Company: Autodesk"
 90
    32768
280
     0
281
     0
  0
CLASS
  1
ACAMGDIMSTD
  2
AcAmgDimStd
  3
"AcAmgDimStd|Product Description: AutoCAD Mechanical 2000|Company: Autodesk"
 90
    32768
280
     0
281
     0
  0
CLASS
  1
ACAMGHOLECHARTSTDANSI
  2
AcAmgHoleChartStdANSI
  3
ACMSYMBB_MODULE_NAME
 90
    32768
280
     0
281
     0
  0
CLASS
  1
ACAMGFILTERDAT
  2
AcAmgFilterDat
  3
"AcadM|Product Description: AutoCAD Mechanical 2000|Company: Autodesk"
 90
    32768
280
     0
281
     0
  0
ENDSEC
  0
SECTION
  2
TABLES
  0
TABLE
  2
VPORT
  5
1A
330
0
100
AcDbSymbolTable
 70
     1
  0
VPORT
  5
1B
330
1A
100
AcDbSymbolTableRecord
100
AcDbViewportTableRecord
  2
*Active
 70
     0
 10
0.0
 20
0.0
 11
1.0
 21
1.0
 12
16.91208328702112
 22
8.426948109694668
 13
0.0
 23
0.0
 14
1.0
 24
1.0
 15
0.0
 25
0.0
 16
0.0
 26
0.0
 36
1.0
 17
0.0
 27
0.0
 37
0.0
 40
18.1774850552897
 41
1.881815883907525
 42
50.0
 43
0.0
 44
0.0
 50
0.0
 51
0.0
 71
     0
 72
  2000
 73
     1
 74
     1
 75
     0
 76
     0
 77
     0
 78
     0
281
     0
 65
     0
110
0.0
120
0.0
130
0.0
111
1.0
121
0.0
131
0.0
112
0.0
122
1.0
132
0.0
 79
     0
146
0.0
  0
ENDTAB
  0
TABLE
  2
LTYPE
  5
15
330
0
100
AcDbSymbolTable
 70
     3
  0
LTYPE
  5
16
330
15
100
AcDbSymbolTableRecord
100
AcDbLinetypeTableRecord
  2
BYBLOCK
 70
     0
  3

 72
    65
 73
     0
 40
0.0
  0
LTYPE
  5
17
330
15
100
AcDbSymbolTableRecord
100
AcDbLinetypeTableRecord
  2
BYLAYER
 70
     0
  3

 72
    65
 73
     0
 40
0.0
  0
LTYPE
  5
9
330
15
100
AcDbSymbolTableRecord
100
AcDbLinetypeTableRecord
  2
CONTINUOUS
 70
     0
  3
Solid line
 72
    65
 73
     0
 40
0.0
  0
LTYPE
  5
185
330
15
100
AcDbSymbolTableRecord
100
AcDbLinetypeTableRecord
  2
HIDDEN
 70
     0
  3
_ _ _ _ _ _ _ _ _ _ _ _ _ _ _ _ _ _ _ _ _ _ _
 72
    65
 73
     2
 40
0.375
 49
0.25
 74
     0
 49
-0.125
 74
     0
  0
LTYPE
  5
38E
330
15
100
AcDbSymbolTableRecord
100
AcDbLinetypeTableRecord
  2
PHANTOM
 70
     0
  3
Phantom ______  __  __  ______  __  __  ______
 72
    65
 73
     6
 40
2.5
 49
1.25
 74
     0
 49
-0.25
 74
     0
 49
0.25
 74
     0
 49
-0.25
 74
     0
 49
0.25
 74
     0
 49
-0.25
 74
     0
  0
ENDTAB
  0
TABLE
  2
LAYER
  5
11
330
0
100
AcDbSymbolTable
 70
     9
  0
LAYER
  5
5
330
11
100
AcDbSymbolTableRecord
100
AcDbLayerTableRecord
  2
0
 70
     0
 62
     7
  6
CONTINUOUS
370
    -3
390
6
  0
LAYER
  5
454
330
11
100
AcDbSymbolTableRecord
100
AcDbLayerTableRecord
  2
Defpoints
 70
     0
 62
    -7
  6
CONTINUOUS
290
     0
370
    -3
390
6
  0
LAYER
  5
27
330
11
100
AcDbSymbolTableRecord
100
AcDbLayerTableRecord
  2
AM_VIS
 70
     0
 62
     7
  6
CONTINUOUS
370
    30
390
6
  0
LAYER
  5
184
330
11
100
AcDbSymbolTableRecord
100
AcDbLayerTableRecord
  2
AM_HID
 70
     0
 62
    -7
  6
HIDDEN
370
    15
390
6
  0
LAYER
  5
390
330
11
100
AcDbSymbolTableRecord
100
AcDbLayerTableRecord
  2
CENTER
 70
     0
 62
     5
  6
CONTINUOUS
370
    -3
390
6
  0
LAYER
  5
38D
330
11
100
AcDbSymbolTableRecord
100
AcDbLayerTableRecord
  2
PHANTOM
 70
     0
 62
     2
  6
PHANTOM
370
    -3
390
6
  0
LAYER
  5
395
330
11
100
AcDbSymbolTableRecord
100
AcDbLayerTableRecord
  2
10
 70
     0
 62
     7
  6
CONTINUOUS
370
    -3
390
6
  0
LAYER
  5
24
330
11
100
AcDbSymbolTableRecord
100
AcDbLayerTableRecord
  2
DIMENSION
 70
     0
 62
     1
  6
CONTINUOUS
370
    -3
390
6
  0
LAYER
  5
476
330
11
100
AcDbSymbolTableRecord
100
AcDbLayerTableRecord
  2
STD10004-H38
 70
     0
 62
     8
  6
CONTINUOUS
370
    -3
390
6
  0
ENDTAB
  0
TABLE
  2
STYLE
  5
12
330
0
100
AcDbSymbolTable
 70
     1
  0
STYLE
  5
13
330
12
100
AcDbSymbolTableRecord
100
AcDbTextStyleTableRecord
  2
STANDARD
 70
     0
 40
0.0
 41
1.0
 50
0.0
 71
     0
 42
0.06
  3
simplex.shx
  4

  0
ENDTAB
  0
TABLE
  2
VIEW
  5
18
330
0
100
AcDbSymbolTable
 70
     0
  0
ENDTAB
  0
TABLE
  2
UCS
  5
19
330
0
100
AcDbSymbolTable
 70
     0
  0
ENDTAB
  0
TABLE
  2
APPID
  5
1C
330
0
100
AcDbSymbolTable
 70
     1
  0
APPID
  5
1D
330
1C
100
AcDbSymbolTableRecord
100
AcDbRegAppTableRecord
  2
ACAD
 70
     0
  0
ENDTAB
  0
TABLE
  2
DIMSTYLE
  5
1E
330
0
100
AcDbSymbolTable
 70
     1
100
AcDbDimStyleTable
 71
     1
340
1F
  0
DIMSTYLE
105
1F
102
{ACAD_REACTORS
330
44A
330
459
330
467
102
}
330
1E
100
AcDbSymbolTableRecord
100
AcDbDimStyleTableRecord
  2
STANDARD
 70
     0
 41
0.125
 44
0.0625
140
0.125
277
     5
288
     1
340
13
  0
ENDTAB
  0
TABLE
  2
BLOCK_RECORD
  5
1
330
0
100
AcDbSymbolTable
 70
    13
  0
BLOCK_RECORD
  5
2
102
{ACAD_XDICTIONARY
360
3
102
}
330
1
100
AcDbSymbolTableRecord
100
AcDbBlockTableRecord
  2
*MODEL_SPACE
340
B
  0
BLOCK_RECORD
  5
D
330
1
100
AcDbSymbolTableRecord
100
AcDbBlockTableRecord
  2
*PAPER_SPACE
340
10
  0
BLOCK_RECORD
  5
365
330
1
100
AcDbSymbolTableRecord
100
AcDbBlockTableRecord
  2
*U0
340
0
102
{BLKREFS
331
364
102
}
  0
BLOCK_RECORD
  5
36A
330
1
100
AcDbSymbolTableRecord
100
AcDbBlockTableRecord
  2
*U1
340
0
102
{BLKREFS
331
369
102
}
  0
BLOCK_RECORD
  5
36F
330
1
100
AcDbSymbolTableRecord
100
AcDbBlockTableRecord
  2
*U2
340
0
102
{BLKREFS
331
36E
102
}
  0
BLOCK_RECORD
  5
374
330
1
100
AcDbSymbolTableRecord
100
AcDbBlockTableRecord
  2
*U3
340
0
102
{BLKREFS
331
373
102
}
  0
BLOCK_RECORD
  5
39E
330
1
100
AcDbSymbolTableRecord
100
AcDbBlockTableRecord
  2
A$C708B5813
340
0
102
{BLKREFS
331
40E
331
39D
102
}
  0
BLOCK_RECORD
  5
379
330
1
100
AcDbSymbolTableRecord
100
AcDbBlockTableRecord
  2
*U5
340
0
102
{BLKREFS
331
378
102
}
  0
BLOCK_RECORD
  5
37E
330
1
100
AcDbSymbolTableRecord
100
AcDbBlockTableRecord
  2
*U6
340
0
102
{BLKREFS
331
37D
102
}
  0
BLOCK_RECORD
  5
383
330
1
100
AcDbSymbolTableRecord
100
AcDbBlockTableRecord
  2
*U7
340
0
102
{BLKREFS
331
382
102
}
  0
BLOCK_RECORD
  5
388
330
1
100
AcDbSymbolTableRecord
100
AcDbBlockTableRecord
  2
*U8
340
0
102
{BLKREFS
331
387
102
}
  0
BLOCK_RECORD
  5
40D
330
1
100
AcDbSymbolTableRecord
100
AcDbBlockTableRecord
  2
A$C2BF30918
340
0
102
{BLKREFS
331
40C
102
}
  0
BLOCK_RECORD
  5
44B
330
1
100
AcDbSymbolTableRecord
100
AcDbBlockTableRecord
  2
*D10
340
0
  0
BLOCK_RECORD
  5
45A
330
1
100
AcDbSymbolTableRecord
100
AcDbBlockTableRecord
  2
*D11
340
0
  0
BLOCK_RECORD
  5
468
330
1
100
AcDbSymbolTableRecord
100
AcDbBlockTableRecord
  2
*D12
340
0
  0
ENDTAB
  0
ENDSEC
  0
SECTION
  2
BLOCKS
  0
BLOCK
  5
4
330
2
100
AcDbEntity
  8
0
 62
     2
100
AcDbBlockBegin
  2
*MODEL_SPACE
 70
     0
 10
0.0
 20
0.0
 30
0.0
  3
*MODEL_SPACE
  1

  0
ENDBLK
  5
A
330
2
100
AcDbEntity
  8
0
 62
     2
100
AcDbBlockEnd
  0
BLOCK
  5
E
330
D
100
AcDbEntity
 67
     1
  8
0
 62
     2
100
AcDbBlockBegin
  2
*PAPER_SPACE
 70
     0
 10
0.0
 20
0.0
 30
0.0
  3
*PAPER_SPACE
  1

  0
ENDBLK
  5
F
330
D
100
AcDbEntity
 67
     1
  8
0
 62
     2
100
AcDbBlockEnd
  0
BLOCK
  5
367
330
365
100
AcDbEntity
  8
0
  6
ByBlock
 62
     2
100
AcDbBlockBegin
  2
*U0
 70
     1
 10
0.0
 20
0.0
 30
0.0
  3
*U0
  1

  0
TEXT
  5
366
330
365
100
AcDbEntity
  8
0
  6
ByBlock
 62
     2
100
AcDbText
 10
15.253
 20
1.7495
 30
0.0
 40
0.094
  1
 
 41
0.8842105263157964
 72
     5
 11
15.3282
 21
1.7495
 31
0.0
100
AcDbText
  0
ENDBLK
  5
368
330
365
100
AcDbEntity
  8
0
100
AcDbBlockEnd
  0
BLOCK
  5
36C
330
36A
100
AcDbEntity
  8
0
  6
ByBlock
 62
     2
100
AcDbBlockBegin
  2
*U1
 70
     1
 10
0.0
 20
0.0
 30
0.0
  3
*U1
  1

  0
TEXT
  5
36B
330
36A
100
AcDbEntity
  8
0
  6
ByBlock
 62
     2
100
AcDbText
 10
15.253
 20
1.437
 30
0.0
 40
0.094
  1
 
 41
0.8842105263157964
 72
     5
 11
15.3282
 21
1.437
 31
0.0
100
AcDbText
  0
ENDBLK
  5
36D
330
36A
100
AcDbEntity
  8
0
100
AcDbBlockEnd
  0
BLOCK
  5
371
330
36F
100
AcDbEntity
  8
0
  6
ByBlock
 62
     2
100
AcDbBlockBegin
  2
*U2
 70
     1
 10
0.0
 20
0.0
 30
0.0
  3
*U2
  1

  0
TEXT
  5
370
330
36F
100
AcDbEntity
  8
0
  6
ByBlock
 62
     2
100
AcDbText
 10
15.253
 20
1.1245
 30
0.0
 40
0.094
  1
 
 41
0.8842105263157964
 72
     5
 11
15.3282
 21
1.1245
 31
0.0
100
AcDbText
  0
ENDBLK
  5
372
330
36F
100
AcDbEntity
  8
0
100
AcDbBlockEnd
  0
BLOCK
  5
376
330
374
100
AcDbEntity
  8
0
  6
ByBlock
 62
     2
100
AcDbBlockBegin
  2
*U3
 70
     1
 10
0.0
 20
0.0
 30
0.0
  3
*U3
  1

  0
TEXT
  5
375
330
374
100
AcDbEntity
  8
0
  6
ByBlock
 62
     2
100
AcDbText
 10
15.253
 20
0.812
 30
0.0
 40
0.094
  1
 
 41
0.8842105263157964
 72
     5
 11
15.3282
 21
0.812
 31
0.0
100
AcDbText
  0
ENDBLK
  5
377
330
374
100
AcDbEntity
  8
0
100
AcDbBlockEnd
  0
BLOCK
  5
3DF
330
39E
100
AcDbEntity
  8
0
100
AcDbBlockBegin
  2
A$C708B5813
 70
     0
 10
0.0
 20
0.0
 30
0.0
  3
A$C708B5813
  1

  0
LINE
  5
39F
330
39E
100
AcDbEntity
  8
10
100
AcDbLine
 10
0.2399999692803618
 20
0.2640315084226485
 30
0.0
 11
0.2436013672279564
 21
0.2661107764971518
 31
0.0
  0
CIRCLE
  5
3A0
330
39E
100
AcDbEntity
  8
10
100
AcDbCircle
 10
0.2399999692803618
 20
0.2640315084226485
 30
0.0
 40
0.0041585361490064
  0
ARC
  5
3A1
330
39E
100
AcDbEntity
  8
10
100
AcDbCircle
 10
0.2399999692803512
 20
0.2871255191902322
 30
0.0
 40
0.01
100
AcDbArc
 50
240.0
 51
300.0000000000008
  0
ARC
  5
3A2
330
39E
100
AcDbEntity
  8
10
100
AcDbCircle
 10
0.2399999692803618
 20
0.529612632249878
 30
0.0
 40
0.01
100
AcDbArc
 50
60.00000000000078
 51
119.9999999999996
  0
ARC
  5
3A3
330
39E
100
AcDbEntity
  8
10
100
AcDbCircle
 10
0.2399999692511088
 20
0.3949160812035983
 30
0.0
 40
0.01
100
AcDbArc
 50
239.9999999674645
 51
300.0000000465846
  0
ARC
  5
3A4
330
39E
100
AcDbEntity
  8
10
100
AcDbCircle
 10
0.2393667475655192
 20
0.4214564796978131
 30
0.0
 40
0.01
100
AcDbArc
 50
59.99999999999999
 51
119.9999999818938
  0
LINE
  5
3A5
330
39E
100
AcDbEntity
  8
10
100
AcDbLine
 10
0.0249999692803549
 20
0.3997088216822098
 30
0.0
 11
0.2349999692803522
 21
0.2784652651523878
 31
0.0
  0
LINE
  5
3A6
330
39E
100
AcDbEntity
  8
10
100
AcDbLine
 10
-0.0000000307196402
 20
0.3737280595686747
 30
0.0
 11
-0.0000000307196366
 21
0.1312409465090325
 31
0.0
  0
LINE
  5
3A7
330
39E
100
AcDbEntity
  8
10
100
AcDbLine
 10
0.0149999692803604
 20
0.3823883136065191
 30
0.0
 11
0.2249999692803613
 21
0.2611447570767011
 31
0.0
  0
LINE
  5
3A8
330
39E
100
AcDbEntity
  8
10
100
AcDbLine
 10
0.2399999692803618
 20
0.2640315084226485
 30
0.0
 11
0.2399999692803618
 21
0.2598729722736421
 31
0.0
  0
LINE
  5
3A9
330
39E
100
AcDbEntity
  8
10
100
AcDbLine
 10
0.2363985713327672
 20
0.2661107764971531
 30
0.0
 11
0.2399999692803618
 21
0.2640315084226485
 31
0.0
  0
LINE
  5
3AA
330
39E
100
AcDbEntity
  8
10
100
AcDbLine
 10
0.2299999692803709
 20
0.1139204384333419
 30
0.0
 11
0.1356921705519909
 21
0.168369071415853
 31
0.0
  0
LINE
  5
3AB
330
39E
100
AcDbEntity
  8
10
100
AcDbLine
 10
0.2299999692803674
 20
0.1370144492009269
 30
0.0
 11
0.1366506043749744
 21
0.1909097301577374
 31
0.0
  0
LINE
  5
3AC
330
39E
100
AcDbEntity
  8
10
100
AcDbLine
 10
0.2299999692803709
 20
0.113920438433345
 30
0.0
 11
0.2299999692803674
 21
0.0099973899792092
 31
0.0
  0
LINE
  5
3AD
330
39E
100
AcDbEntity
  8
10
100
AcDbLine
 10
0.2299999692803638
 20
0.2524845030388567
 30
0.0
 11
0.2299999692803674
 21
0.1370144492009304
 31
0.0
  0
ARC
  5
3AE
330
39E
100
AcDbEntity
  8
10
100
AcDbCircle
 10
0.1266506043749622
 20
0.1726410827766105
 30
0.0
 40
0.01
100
AcDbArc
 50
239.9999999999996
 51
334.709932108123
  0
LINE
  5
3AF
330
39E
100
AcDbEntity
  8
10
100
AcDbLine
 10
0.1366506043749744
 20
0.1909097301577414
 30
0.0
 11
0.1366506043749673
 21
0.1985892220820524
 31
0.0
  0
LINE
  5
3B0
330
39E
100
AcDbEntity
  8
10
100
AcDbLine
 10
0.1216506043749632
 20
0.1639808287387661
 30
0.0
 11
0.0983493341857553
 21
0.177433823354967
 31
0.0
  0
ARC
  5
3B1
330
39E
100
AcDbEntity
  8
10
100
AcDbCircle
 10
0.1266506043749658
 20
0.1985892220820524
 30
0.0
 40
0.01
100
AcDbArc
 50
0.0
 51
59.99999999999917
  0
LINE
  5
3B2
330
39E
100
AcDbEntity
  8
10
100
AcDbLine
 10
0.1316506043749648
 20
0.2072494761198969
 30
0.0
 11
0.1083493341857533
 21
0.2207024707360996
 31
0.0
  0
ARC
  5
3B3
330
39E
100
AcDbEntity
  8
10
100
AcDbCircle
 10
0.1033493341857543
 20
0.1860940773928115
 30
0.0
 40
0.01
100
AcDbArc
 50
180.0
 51
240.0
  0
LINE
  5
3B4
330
39E
100
AcDbEntity
  8
10
100
AcDbLine
 10
0.0933493341857528
 20
0.1860940773928115
 30
0.0
 11
0.0933493341857528
 21
0.2120422166982552
 31
0.0
  0
ARC
  5
3B5
330
39E
100
AcDbEntity
  8
10
100
AcDbCircle
 10
0.1033493341857543
 20
0.2120422166982552
 30
0.0
 40
0.01
100
AcDbArc
 50
59.99999999999999
 51
180.0
  0
ARC
  5
3B6
330
39E
100
AcDbEntity
  8
10
100
AcDbCircle
 10
0.009999969280365
 20
0.1312409465090325
 30
0.0
 40
0.01
100
AcDbArc
 50
180.0000000000007
 51
240.0000000000003
  0
LINE
  5
3B7
330
39E
100
AcDbEntity
  8
10
100
AcDbLine
 10
0.0049999692803659
 20
0.1225806924711881
 30
0.0
 11
0.2149999692803668
 21
0.0013371359413648
 31
0.0
  0
ARC
  5
3B8
330
39E
100
AcDbEntity
  8
10
100
AcDbCircle
 10
0.2199999692803658
 20
0.0099973899792092
 30
0.0
 40
0.01
100
AcDbArc
 50
240.0
 51
0.0
  0
ARC
  5
3B9
330
39E
100
AcDbEntity
  8
10
100
AcDbCircle
 10
0.2199999692803622
 20
0.2524845030388567
 30
0.0
 40
0.01
100
AcDbArc
 50
0.0000000000007124
 51
60.00000000000079
  0
LINE
  5
3BA
330
39E
100
AcDbEntity
  8
10
100
AcDbLine
 10
0.0249999692803549
 20
0.4170293297578987
 30
0.0
 11
0.2349999692803628
 21
0.5382728862877224
 31
0.0
  0
ARC
  5
3BB
330
39E
100
AcDbEntity
  8
10
100
AcDbCircle
 10
0.0299999692803539
 20
0.4083690757200542
 30
0.0
 40
0.01
100
AcDbArc
 50
119.9999999999997
 51
240.0000000000002
  0
LINE
  5
3BC
330
39E
100
AcDbEntity
  8
10
100
AcDbLine
 10
0.2349999692461928
 20
0.3862558271685934
 30
0.0
 11
0.2116986990911549
 21
0.3997088217818918
 31
0.0
  0
LINE
  5
3BD
330
39E
100
AcDbEntity
  8
10
100
AcDbLine
 10
0.2116986990911549
 20
0.4170293298575807
 30
0.0
 11
0.2343667475682558
 21
0.4301167337372376
 31
0.0
  0
ARC
  5
3BE
330
39E
100
AcDbEntity
  8
10
100
AcDbCircle
 10
0.2166986990911539
 20
0.4083690758197363
 30
0.0
 40
0.01
100
AcDbArc
 50
119.9999999999999
 51
240.0
  0
ARC
  5
3BF
330
39E
100
AcDbEntity
  8
10
100
AcDbCircle
 10
0.0099999692803614
 20
0.3737280595686747
 30
0.0
 40
0.01
100
AcDbArc
 50
60.00000000000071
 51
180.0
  0
LINE
  5
3C0
330
39E
100
AcDbEntity
  8
10
100
AcDbLine
 10
0.2449999692803502
 20
0.2784652651523878
 30
0.0
 11
0.4549999692803617
 21
0.399708821682216
 31
0.0
  0
LINE
  5
3C1
330
39E
100
AcDbEntity
  8
10
100
AcDbLine
 10
0.2599999692803685
 20
0.2640315084226534
 30
0.0
 11
0.4499999692803556
 21
0.3737280595686805
 31
0.0
  0
ARC
  5
3C2
330
39E
100
AcDbEntity
  8
10
100
AcDbCircle
 10
0.4599999692803572
 20
0.3564075514929916
 30
0.0
 40
0.02
100
AcDbArc
 50
0.0000000000006997
 51
119.9999999999999
  0
LINE
  5
3C3
330
39E
100
AcDbEntity
  8
10
100
AcDbLine
 10
0.3853226110081884
 20
0.1920490020623578
 30
0.0
 11
0.4799999692803603
 21
0.2467110003469632
 31
0.0
  0
LINE
  5
3C4
330
39E
100
AcDbEntity
  8
10
100
AcDbLine
 10
0.3860173827363553
 20
0.2155441394742277
 30
0.0
 11
0.4799999692803567
 21
0.269805011114542
 31
0.0
  0
ARC
  5
3C5
330
39E
100
AcDbEntity
  8
10
100
AcDbCircle
 10
0.37665060437498
 20
0.2120422166982596
 30
0.0
 40
0.01
100
AcDbArc
 50
20.49907611913283
 51
120.0000000000061
  0
LINE
  5
3C6
330
39E
100
AcDbEntity
  8
10
100
AcDbLine
 10
0.3853226110081849
 20
0.192049002062356
 30
0.0
 11
0.3853226110081813
 21
0.1857245431213443
 31
0.0
  0
LINE
  5
3C7
330
39E
100
AcDbEntity
  8
10
100
AcDbLine
 10
0.4799999692803603
 20
0.2467110003469597
 30
0.0
 11
0.4799999692803639
 21
0.1370144492009322
 31
0.0
  0
LINE
  5
3C8
330
39E
100
AcDbEntity
  8
10
100
AcDbLine
 10
0.4799999692803567
 20
0.3564075514929921
 30
0.0
 11
0.4799999692803567
 21
0.2698050111145451
 31
0.0
  0
ARC
  5
3C9
330
39E
100
AcDbEntity
  8
10
100
AcDbCircle
 10
0.3533493341857579
 20
0.1722355030579732
 30
0.0
 40
0.01
100
AcDbArc
 50
180.0
 51
301.5450923819967
  0
LINE
  5
3CA
330
39E
100
AcDbEntity
  8
10
100
AcDbLine
 10
0.3805543054044094
 20
0.1772022562366846
 30
0.0
 11
0.358581028581991
 21
0.1637132161733139
 31
0.0
  0
LINE
  5
3CB
330
39E
100
AcDbEntity
  8
10
100
AcDbLine
 10
0.3433493341857599
 20
0.1793627247739491
 30
0.0
 11
0.3433493341857563
 21
0.1722355030579732
 31
0.0
  0
ARC
  5
3CC
330
39E
100
AcDbEntity
  8
10
100
AcDbCircle
 10
0.3753226110081798
 20
0.1857245431213443
 30
0.0
 40
0.01
100
AcDbArc
 50
301.5450923819923
 51
0.0
  0
LINE
  5
3CD
330
39E
100
AcDbEntity
  8
10
100
AcDbLine
 10
0.3483493341857553
 20
0.2072494761198902
 30
0.0
 11
0.3716506043749774
 21
0.2207024707361036
 31
0.0
  0
ARC
  5
3CE
330
39E
100
AcDbEntity
  8
10
100
AcDbCircle
 10
0.3533493341857579
 20
0.1985892220820467
 30
0.0
 40
0.01
100
AcDbArc
 50
120.0000000000091
 51
180.0
  0
LINE
  5
3CF
330
39E
100
AcDbEntity
  8
10
100
AcDbLine
 10
0.3433493341857599
 20
0.1793627247739509
 30
0.0
 11
0.3433493341857563
 21
0.1985892220820467
 31
0.0
  0
ARC
  5
3D0
330
39E
100
AcDbEntity
  8
10
100
AcDbCircle
 10
0.2699999692803701
 20
0.2467110003469646
 30
0.0
 40
0.02
100
AcDbArc
 50
120.0000000000001
 51
180.0000000000027
  0
LINE
  5
3D1
330
39E
100
AcDbEntity
  8
10
100
AcDbLine
 10
0.2499999692803705
 20
0.2467110003469637
 30
0.0
 11
0.2499999692803705
 21
0.0273178980548985
 31
0.0
  0
ARC
  5
3D2
330
39E
100
AcDbEntity
  8
10
100
AcDbCircle
 10
0.2699999692803701
 20
0.0273178980548989
 30
0.0
 40
0.02
100
AcDbArc
 50
180.0000000000015
 51
300.0000000000004
  0
LINE
  5
3D3
330
39E
100
AcDbEntity
  8
10
100
AcDbLine
 10
0.2799999692803716
 20
0.0099973899792101
 30
0.0
 11
0.4699999692803658
 21
0.1196939411252429
 31
0.0
  0
ARC
  5
3D4
330
39E
100
AcDbEntity
  8
10
100
AcDbCircle
 10
0.4599999692803643
 20
0.1370144492009317
 30
0.0
 40
0.02
100
AcDbArc
 50
300.0000000000004
 51
0.0000000000017175
  0
ARC
  5
3D5
330
39E
100
AcDbEntity
  8
10
100
AcDbCircle
 10
0.2699999692803594
 20
0.2467110003469637
 30
0.0
 40
0.02
100
AcDbArc
 50
120.0000000000008
 51
180.0000000000007
  0
ARC
  5
3D6
330
39E
100
AcDbEntity
  8
10
100
AcDbCircle
 10
0.4499999692803627
 20
0.4083690757200605
 30
0.0
 40
0.01
100
AcDbArc
 50
300.0000000000009
 51
60.00000000000074
  0
LINE
  5
3D7
330
39E
100
AcDbEntity
  8
10
100
AcDbLine
 10
0.3599999691803148
 20
0.471877605388678
 30
0.0
 11
0.4549999692803617
 21
0.4170293297579049
 31
0.0
  0
LINE
  5
3D8
330
39E
100
AcDbEntity
  8
10
100
AcDbLine
 10
0.2449999692803608
 20
0.5382728862877224
 30
0.0
 11
0.3399999691803188
 21
0.4834246107724694
 31
0.0
  0
LINE
  5
3D9
330
39E
100
AcDbEntity
  8
10
100
AcDbLine
 10
0.2660173827513717
 20
0.4176167338147874
 30
0.0
 11
0.3599999691803148
 21
0.471877605388678
 31
0.0
  0
LINE
  5
3DA
330
39E
100
AcDbEntity
  8
10
100
AcDbLine
 10
0.2460173826459275
 20
0.429163739137699
 30
0.0
 11
0.3399999691803188
 21
0.4834246107724694
 31
0.0
  0
LINE
  5
3DB
330
39E
100
AcDbEntity
  8
10
100
AcDbLine
 10
0.2460173826459311
 20
0.4291637391376977
 30
0.0
 11
0.2443667475655182
 21
0.4301167337356575
 31
0.0
  0
LINE
  5
3DC
330
39E
100
AcDbEntity
  8
10
100
AcDbLine
 10
0.267668017831781
 20
0.4166637392168293
 30
0.0
 11
0.2660173827513788
 21
0.417616733814787
 31
0.0
  0
LINE
  5
3DD
330
39E
100
AcDbEntity
  8
10
100
AcDbLine
 10
0.2449999692581493
 20
0.3862558271698191
 30
0.0
 11
0.2676680178317312
 21
0.3993432311411684
 31
0.0
  0
ARC
  5
3DE
330
39E
100
AcDbEntity
  8
10
100
AcDbCircle
 10
0.2626680178317322
 20
0.4080034851790129
 30
0.0
 40
0.01
100
AcDbArc
 50
299.9999999999999
 51
59.99999999968121
  0
ENDBLK
  5
3E0
330
39E
100
AcDbEntity
  8
0
100
AcDbBlockEnd
  0
BLOCK
  5
37B
330
379
100
AcDbEntity
  8
0
  6
ByBlock
 62
     2
100
AcDbBlockBegin
  2
*U5
 70
     1
 10
0.0
 20
0.0
 30
0.0
  3
*U5
  1

  0
TEXT
  5
37A
330
379
100
AcDbEntity
  8
0
  6
ByBlock
 62
     2
100
AcDbText
 10
15.253
 20
1.7495
 30
0.0
 40
0.094
  1
 
 41
0.8842105263157964
 72
     5
 11
15.3282
 21
1.7495
 31
0.0
100
AcDbText
  0
ENDBLK
  5
37C
330
379
100
AcDbEntity
  8
0
100
AcDbBlockEnd
  0
BLOCK
  5
380
330
37E
100
AcDbEntity
  8
0
  6
ByBlock
 62
     2
100
AcDbBlockBegin
  2
*U6
 70
     1
 10
0.0
 20
0.0
 30
0.0
  3
*U6
  1

  0
TEXT
  5
37F
330
37E
100
AcDbEntity
  8
0
  6
ByBlock
 62
     2
100
AcDbText
 10
15.253
 20
1.437
 30
0.0
 40
0.094
  1
 
 41
0.8842105263157964
 72
     5
 11
15.3282
 21
1.437
 31
0.0
100
AcDbText
  0
ENDBLK
  5
381
330
37E
100
AcDbEntity
  8
0
100
AcDbBlockEnd
  0
BLOCK
  5
385
330
383
100
AcDbEntity
  8
0
  6
ByBlock
 62
     2
100
AcDbBlockBegin
  2
*U7
 70
     1
 10
0.0
 20
0.0
 30
0.0
  3
*U7
  1

  0
TEXT
  5
384
330
383
100
AcDbEntity
  8
0
  6
ByBlock
 62
     2
100
AcDbText
 10
15.253
 20
1.1245
 30
0.0
 40
0.094
  1
 
 41
0.8842105263157964
 72
     5
 11
15.3282
 21
1.1245
 31
0.0
100
AcDbText
  0
ENDBLK
  5
386
330
383
100
AcDbEntity
  8
0
100
AcDbBlockEnd
  0
BLOCK
  5
38A
330
388
100
AcDbEntity
  8
0
  6
ByBlock
 62
     2
100
AcDbBlockBegin
  2
*U8
 70
     1
 10
0.0
 20
0.0
 30
0.0
  3
*U8
  1

  0
TEXT
  5
389
330
388
100
AcDbEntity
  8
0
  6
ByBlock
 62
     2
100
AcDbText
 10
15.253
 20
0.812
 30
0.0
 40
0.094
  1
 
 41
0.8842105263157966
 72
     5
 11
15.3282
 21
0.812
 31
0.0
100
AcDbText
  0
ENDBLK
  5
38B
330
388
100
AcDbEntity
  8
0
100
AcDbBlockEnd
  0
BLOCK
  5
40F
330
40D
100
AcDbEntity
  8
0
100
AcDbBlockBegin
  2
A$C2BF30918
 70
     0
 10
0.0
 20
0.0
 30
0.0
  3
A$C2BF30918
  1

  0
INSERT
  5
40E
330
40D
100
AcDbEntity
  8
10
100
AcDbBlockReference
  2
A$C708B5813
 10
0.0000000098500248
 20
-0.0001119937962062
 30
0.0
 41
0.75
 42
0.75
 43
0.75
  0
ENDBLK
  5
410
330
40D
100
AcDbEntity
  8
0
100
AcDbBlockEnd
  0
BLOCK
  5
457
330
44B
100
AcDbEntity
  8
0
100
AcDbBlockBegin
  2
*D10
 70
     1
 10
0.0
 20
0.0
 30
0.0
  3
*D10
  1

  0
LINE
  5
44C
330
44B
100
AcDbEntity
  8
DIMENSION
 62
     0
370
    -2
100
AcDbLine
 10
2.688740390984741
 20
5.597126562905065
 30
0.0
 11
1.593600073811751
 21
5.597126562905066
 31
0.0
  0
LINE
  5
44D
330
44B
100
AcDbEntity
  8
DIMENSION
 62
     0
370
    -2
100
AcDbLine
 10
2.536620390984741
 20
3.999486701842025
 30
0.0
 11
1.59360007381175
 21
3.999486701842025
 31
0.0
  0
LINE
  5
44E
330
44B
100
AcDbEntity
  8
DIMENSION
 62
     0
370
    -2
100
AcDbLine
 10
1.65610007381175
 20
5.472126562905066
 30
0.0
 11
1.65610007381175
 21
5.102037852490242
 31
0.0
  0
LINE
  5
44F
330
44B
100
AcDbEntity
  8
DIMENSION
 62
     0
370
    -2
100
AcDbLine
 10
1.65610007381175
 20
4.124486701842025
 30
0.0
 11
1.65610007381175
 21
4.630371185823575
 31
0.0
  0
SOLID
  5
450
330
44B
100
AcDbEntity
  8
DIMENSION
 62
     0
100
AcDbTrace
 10
1.635266740478417
 20
5.472126562905066
 30
0.0
 11
1.676933407145084
 21
5.472126562905066
 31
0.0
 12
1.656100073811751
 22
5.597126562905066
 32
0.0
 13
1.656100073811751
 23
5.597126562905066
 33
0.0
  0
SOLID
  5
451
330
44B
100
AcDbEntity
  8
DIMENSION
 62
     0
100
AcDbTrace
 10
1.635266740478417
 20
4.124486701842025
 30
0.0
 11
1.676933407145083
 21
4.124486701842025
 31
0.0
 12
1.65610007381175
 22
3.999486701842025
 32
0.0
 13
1.65610007381175
 23
3.999486701842025
 33
0.0
  0
MTEXT
  5
452
330
44B
100
AcDbEntity
  8
DIMENSION
 62
     0
100
AcDbMText
 10
1.656100073811749
 20
4.866204519156909
 30
0.0
 40
0.125
 41
0.0
 71
     5
 72
     1
  1
\A1;1{\H1.000000x;\S5/8;}
 73
     1
 44
1.0
  0
POINT
  5
453
330
44B
100
AcDbEntity
  8
Defpoints
 62
     0
100
AcDbPoint
 10
2.751240390984741
 20
5.597126562905065
 30
0.0
  0
POINT
  5
455
330
44B
100
AcDbEntity
  8
Defpoints
 62
     0
100
AcDbPoint
 10
2.599120390984741
 20
3.999486701842025
 30
0.0
  0
POINT
  5
456
330
44B
100
AcDbEntity
  8
Defpoints
 62
     0
100
AcDbPoint
 10
1.65610007381175
 20
3.999486701842025
 30
0.0
  0
ENDBLK
  5
458
330
44B
100
AcDbEntity
  8
0
100
AcDbBlockEnd
  0
BLOCK
  5
465
330
45A
100
AcDbEntity
  8
0
100
AcDbBlockBegin
  2
*D11
 70
     1
 10
0.0
 20
0.0
 30
0.0
  3
*D11
  1

  0
LINE
  5
45B
330
45A
100
AcDbEntity
  8
DIMENSION
 62
     0
370
    -2
100
AcDbLine
 10
2.535920390984739
 20
4.000186701842027
 30
0.0
 11
2.535920390984739
 21
3.412247063243555
 31
0.0
  0
LINE
  5
45C
330
45A
100
AcDbEntity
  8
DIMENSION
 62
     0
370
    -2
100
AcDbLine
 10
4.325390390984733
 20
4.000186701842027
 30
0.0
 11
4.325390390984733
 21
3.412247063243555
 31
0.0
  0
LINE
  5
45D
330
45A
100
AcDbEntity
  8
DIMENSION
 62
     0
370
    -2
100
AcDbLine
 10
2.660920390984739
 20
3.474747063243555
 30
0.0
 11
3.219266722249695
 21
3.474747063243555
 31
0.0
  0
LINE
  5
45E
330
45A
100
AcDbEntity
  8
DIMENSION
 62
     0
370
    -2
100
AcDbLine
 10
4.200390390984733
 20
3.474747063243555
 30
0.0
 11
3.583790531773505
 21
3.474747063243555
 31
0.0
  0
SOLID
  5
45F
330
45A
100
AcDbEntity
  8
DIMENSION
 62
     0
100
AcDbTrace
 10
2.660920390984739
 20
3.495580396576888
 30
0.0
 11
2.660920390984739
 21
3.453913729910221
 31
0.0
 12
2.535920390984739
 22
3.474747063243555
 32
0.0
 13
2.535920390984739
 23
3.474747063243555
 33
0.0
  0
SOLID
  5
460
330
45A
100
AcDbEntity
  8
DIMENSION
 62
     0
100
AcDbTrace
 10
4.200390390984733
 20
3.495580396576888
 30
0.0
 11
4.200390390984733
 21
3.453913729910221
 31
0.0
 12
4.325390390984733
 22
3.474747063243555
 32
0.0
 13
4.325390390984733
 23
3.474747063243555
 33
0.0
  0
MTEXT
  5
461
330
45A
100
AcDbEntity
  8
DIMENSION
 62
     0
100
AcDbMText
 10
3.4015286270116
 20
3.474747063243555
 30
0.0
 40
0.125
 41
0.0
 71
     5
 72
     1
  1
\A1;1{\H1.000000x;\S3/4;}
 73
     1
 44
1.0
  0
POINT
  5
462
330
45A
100
AcDbEntity
  8
Defpoints
 62
     0
100
AcDbPoint
 10
2.535920390984739
 20
4.062686701842027
 30
0.0
  0
POINT
  5
463
330
45A
100
AcDbEntity
  8
Defpoints
 62
     0
100
AcDbPoint
 10
4.325390390984733
 20
4.062686701842027
 30
0.0
  0
POINT
  5
464
330
45A
100
AcDbEntity
  8
Defpoints
 62
     0
100
AcDbPoint
 10
4.325390390984733
 20
3.474747063243555
 30
0.0
  0
ENDBLK
  5
466
330
45A
100
AcDbEntity
  8
0
100
AcDbBlockEnd
  0
BLOCK
  5
473
330
468
100
AcDbEntity
  8
0
100
AcDbBlockBegin
  2
*D12
 70
     1
 10
0.0
 20
0.0
 30
0.0
  3
*D12
  1

  0
LINE
  5
469
330
468
100
AcDbEntity
  8
DIMENSION
 62
     0
370
    -2
100
AcDbLine
 10
7.69748494261362
 20
3.936986701842027
 30
0.0
 11
7.69748494261362
 21
3.445634736966979
 31
0.0
  0
LINE
  5
46A
330
468
100
AcDbEntity
  8
DIMENSION
 62
     0
370
    -2
100
AcDbLine
 10
7.32248494261362
 20
3.936986701842027
 30
0.0
 11
7.32248494261362
 21
3.445634736966979
 31
0.0
  0
LINE
  5
46B
330
468
100
AcDbEntity
  8
DIMENSION
 62
     0
370
    -2
100
AcDbLine
 10
7.82248494261362
 20
3.508134736966979
 30
0.0
 11
7.94748494261362
 21
3.508134736966979
 31
0.0
  0
LINE
  5
46C
330
468
100
AcDbEntity
  8
DIMENSION
 62
     0
370
    -2
100
AcDbLine
 10
7.19748494261362
 20
3.508134736966979
 30
0.0
 11
7.07248494261362
 21
3.508134736966979
 31
0.0
  0
SOLID
  5
46D
330
468
100
AcDbEntity
  8
DIMENSION
 62
     0
100
AcDbTrace
 10
7.82248494261362
 20
3.528968070300313
 30
0.0
 11
7.82248494261362
 21
3.487301403633646
 31
0.0
 12
7.69748494261362
 22
3.508134736966979
 32
0.0
 13
7.69748494261362
 23
3.508134736966979
 33
0.0
  0
SOLID
  5
46E
330
468
100
AcDbEntity
  8
DIMENSION
 62
     0
100
AcDbTrace
 10
7.19748494261362
 20
3.528968070300313
 30
0.0
 11
7.19748494261362
 21
3.487301403633646
 31
0.0
 12
7.32248494261362
 22
3.508134736966979
 32
0.0
 13
7.32248494261362
 23
3.508134736966979
 33
0.0
  0
MTEXT
  5
46F
330
468
100
AcDbEntity
  8
DIMENSION
 62
     0
100
AcDbMText
 10
7.50998494261362
 20
3.508134736966979
 30
0.0
 40
0.125
 41
0.0
 71
     5
 72
     1
  1
\A1;{\H1.000000x;\S3/8;}
 73
     1
 44
1.0
  0
POINT
  5
470
330
468
100
AcDbEntity
  8
Defpoints
 62
     0
100
AcDbPoint
 10
7.69748494261362
 20
3.999486701842027
 30
0.0
  0
POINT
  5
471
330
468
100
AcDbEntity
  8
Defpoints
 62
     0
100
AcDbPoint
 10
7.32248494261362
 20
3.999486701842027
 30
0.0
  0
POINT
  5
472
330
468
100
AcDbEntity
  8
Defpoints
 62
     0
100
AcDbPoint
 10
7.32248494261362
 20
3.508134736966979
 30
0.0
  0
ENDBLK
  5
474
330
468
100
AcDbEntity
  8
0
100
AcDbBlockEnd
  0
ENDSEC
  0
SECTION
  2
ENTITIES
  0
LINE
  5
26
330
2
100
AcDbEntity
  8
AM_VIS
100
AcDbLine
 10
12.69659677600651
 20
3.572868895046373
 30
0.0
 11
12.68245464038277
 21
3.564703929237096
 31
0.0
  0
LINE
  5
28
330
2
100
AcDbEntity
  8
AM_VIS
100
AcDbLine
 10
12.68245464038278
 20
3.564703929237094
 30
0.0
 11
12.68245464038278
 21
3.540321732538212
 31
0.0
  0
LINE
  5
29
330
2
100
AcDbEntity
  8
AM_VIS
100
AcDbLine
 10
12.7177123777478
 20
3.560677796696931
 30
0.0
 11
12.68245464038277
 21
3.540321732538214
 31
0.0
  0
ELLIPSE
  5
2A
330
2
100
AcDbEntity
  8
AM_VIS
100
AcDbEllipse
 10
12.69659677600651
 20
3.556538963427819
 30
0.0
 11
-0.0100000000000008
 21
0.0173205080756878
 31
0.0
210
0.0
220
-0.0000000000000001
230
1.0
 40
0.5773502691896259
 41
5.497787143781765
 42
7.06858347057685
  0
LINE
  5
2B
330
2
100
AcDbEntity
  8
AM_VIS
100
AcDbLine
 10
12.73315707615666
 20
3.551760795913029
 30
0.0
 11
12.69659677600651
 21
3.572868895046375
 31
0.0
  0
ELLIPSE
  5
2C
330
2
100
AcDbEntity
  8
AM_VIS
100
AcDbEllipse
 10
12.73315707615666
 20
3.535430864294475
 30
0.0
 11
-0.0100000000000008
 21
0.0173205080756878
 31
0.0
210
0.0
220
-0.0000000000000001
230
1.0
 40
0.5773502691896259
 41
3.926990816986902
 42
5.497787143781976
  0
LINE
  5
2D
330
2
100
AcDbEntity
  8
AM_VIS
100
AcDbLine
 10
12.74729921178039
 20
2.997898810021053
 30
0.0
 11
12.74729921178039
 21
3.527265898485196
 31
0.0
  0
LINE
  5
2E
330
2
100
AcDbEntity
  8
AM_VIS
100
AcDbLine
 10
12.78831140508921
 20
2.974220409174149
 30
0.0
 11
12.74729921178039
 21
2.997898810021054
 31
0.0
  0
LINE
  5
2F
330
2
100
AcDbEntity
  8
AM_VIS
100
AcDbLine
 10
12.8114596922556
 20
2.987585079000943
 30
0.0
 11
12.79326115255752
 21
2.977078147207399
 31
0.0
  0
ELLIPSE
  5
30
330
2
100
AcDbEntity
  8
AM_VIS
100
AcDbEllipse
 10
12.78831140508921
 20
2.979935885240642
 30
0.0
 11
-0.0035
 21
0.0060621778264911
 31
0.0
210
0.0
220
0.0
230
1.0
 40
0.5773502691896257
 41
2.356194490192312
 42
3.926990816987208
  0
LINE
  5
31
330
2
100
AcDbEntity
  8
AM_VIS
100
AcDbLine
 10
13.01882821575602
 20
3.503742010080244
 30
0.0
 11
12.79326115255751
 21
3.373510805422271
 31
0.0
  0
LINE
  5
32
330
2
100
AcDbEntity
  8
AM_VIS
100
AcDbLine
 10
12.79326115255752
 20
3.373510805422272
 30
0.0
 11
12.79326115255752
 21
2.977078147207397
 31
0.0
  0
ELLIPSE
  5
33
330
2
100
AcDbEntity
  8
AM_VIS
100
AcDbEllipse
 10
12.81588856955549
 20
3.360446860127426
 30
0.0
 11
-0.0160000000000017
 21
0.0277128129211011
 31
0.0
210
0.0
220
-0.0000000000000001
230
1.0
 40
0.5773502691896258
 41
-0.0000000000001692
 42
0.7853981633972627
  0
LINE
  5
34
330
2
100
AcDbEntity
  8
AM_VIS
100
AcDbLine
 10
13.0369343408594
 20
3.525018112921103
 30
0.0
 11
12.81136727766089
 21
3.394786908263131
 31
0.0
  0
LINE
  5
35
330
2
100
AcDbEntity
  8
AM_VIS
100
AcDbLine
 10
12.8113672776609
 20
3.394786908263132
 30
0.0
 11
12.79988856955549
 21
3.38815967304853
 31
0.0
  0
LINE
  5
36
330
2
100
AcDbEntity
  8
AM_VIS
100
AcDbLine
 10
13.0369343408594
 20
3.595563417513262
 30
0.0
 11
12.81136727766089
 21
3.46533221285529
 31
0.0
  0
LINE
  5
37
330
2
100
AcDbEntity
  8
AM_VIS
100
AcDbLine
 10
12.8113672776609
 20
3.465332212855291
 30
0.0
 11
12.8113672776609
 21
3.394786908263132
 31
0.0
  0
LINE
  5
38
330
2
100
AcDbEntity
  8
AM_VIS
100
AcDbLine
 10
13.00833894262822
 20
3.612072978379625
 30
0.0
 11
12.78277187942971
 21
3.481841773721653
 31
0.0
  0
LINE
  5
39
330
2
100
AcDbEntity
  8
AM_VIS
100
AcDbLine
 10
12.78277187942971
 20
3.481841773721649
 30
0.0
 11
12.81136727766089
 21
3.46533221285529
 31
0.0
  0
LINE
  5
3A
330
2
100
AcDbEntity
  8
AM_VIS
100
AcDbLine
 10
12.78277187942971
 20
3.523115675887541
 30
0.0
 11
12.78277187942971
 21
3.481841773721652
 31
0.0
  0
LINE
  5
3B
330
2
100
AcDbEntity
  8
AM_VIS
100
AcDbLine
 10
13.0369343408594
 20
3.636837319679154
 30
0.0
 11
12.81136727766089
 21
3.506606115021182
 31
0.0
  0
LINE
  5
3C
330
2
100
AcDbEntity
  8
AM_VIS
100
AcDbLine
 10
12.8113672776609
 20
3.506606115021181
 30
0.0
 11
12.78277187942971
 21
3.523115675887539
 31
0.0
  0
LINE
  5
3D
330
2
100
AcDbEntity
  8
AM_VIS
100
AcDbLine
 10
12.8113672776609
 20
3.547880017187079
 30
0.0
 11
12.8113672776609
 21
3.506606115021182
 31
0.0
  0
ELLIPSE
  5
3E
330
2
100
AcDbEntity
  8
AM_VIS
100
AcDbEllipse
 10
12.53417146880514
 20
3.126663645866084
 30
0.0
 11
-0.0035
 21
0.0060621778264911
 31
0.0
210
0.0
220
0.0
230
1.0
 40
0.5773502691896257
 41
0.785398163397559
 42
2.356194490192439
  0
LINE
  5
3F
330
2
100
AcDbEntity
  8
AM_VIS
100
AcDbLine
 10
12.52922172133684
 20
3.129521383899332
 30
0.0
 11
12.52922172133684
 21
3.525954042114205
 31
0.0
  0
ELLIPSE
  5
40
330
2
100
AcDbEntity
  8
AM_VIS
100
AcDbEllipse
 10
12.50659430433887
 20
3.539017987409048
 30
0.0
 11
-0.0160000000000017
 21
0.0277128129211011
 31
0.0
210
0.0
220
-0.0000000000000001
230
1.0
 40
0.5773502691896258
 41
3.926990816987055
 42
4.712388980384501
  0
LINE
  5
41
330
2
100
AcDbEntity
  8
AM_VIS
100
AcDbLine
 10
12.52259430433887
 20
3.548255591716084
 30
0.0
 11
12.51111559623346
 21
3.568137297359899
 31
0.0
  0
LINE
  5
42
330
2
100
AcDbEntity
  8
AM_VIS
100
AcDbLine
 10
12.51111559623346
 20
3.568137297359897
 30
0.0
 11
12.51111559623346
 21
3.638682601952057
 31
0.0
  0
LINE
  5
43
330
2
100
AcDbEntity
  8
AM_VIS
100
AcDbLine
 10
12.53971099446464
 20
3.655192162818413
 30
0.0
 11
12.51111559623346
 21
3.638682601952057
 31
0.0
  0
LINE
  5
44
330
2
100
AcDbEntity
  8
AM_VIS
100
AcDbLine
 10
12.51111559623346
 20
3.638682601952058
 30
0.0
 11
12.53971099446464
 21
3.622173041085702
 31
0.0
  0
LINE
  5
45
330
2
100
AcDbEntity
  8
AM_VIS
100
AcDbLine
 10
12.53971099446464
 20
3.622173041085705
 30
0.0
 11
12.53971099446464
 21
3.663446943251594
 31
0.0
  0
LINE
  5
46
330
2
100
AcDbEntity
  8
AM_VIS
100
AcDbLine
 10
12.53971099446464
 20
3.663446943251591
 30
0.0
 11
12.51111559623346
 21
3.679956504117947
 31
0.0
  0
LINE
  5
47
330
2
100
AcDbEntity
  8
AM_VIS
100
AcDbLine
 10
12.51111559623346
 20
3.679956504117948
 30
0.0
 11
12.51111559623346
 21
3.721230406283845
 31
0.0
  0
ELLIPSE
  5
48
330
2
100
AcDbEntity
  8
AM_VIS
100
AcDbEllipse
 10
12.66124143694718
 20
3.494223944371412
 30
0.0
 11
-0.0387500000000016
 21
0.0671169687932967
 31
0.0
210
0.0
220
0.0
230
1.0
 40
0.5773502691896258
 41
5.895267945931969
 42
11.38349164881189
  0
LINE
  5
49
330
2
100
AcDbEntity
  8
AM_VIS
100
AcDbLine
 10
12.64002823351158
 20
3.564816629966047
 30
0.0
 11
12.64002823351158
 21
3.589198826664929
 31
0.0
  0
ELLIPSE
  5
4A
330
2
100
AcDbEntity
  8
AM_VIS
100
AcDbEllipse
 10
12.62588609788785
 20
3.597363792474206
 30
0.0
 11
-0.0100000000000008
 21
0.0173205080756878
 31
0.0
210
0.0
220
-0.0000000000000001
230
1.0
 40
0.5773502691896259
 41
3.926990816987079
 42
5.497787143781987
  0
LINE
  5
4B
330
2
100
AcDbEntity
  8
AM_VIS
100
AcDbLine
 10
12.62588609788785
 20
3.61369372409276
 30
0.0
 11
12.5893257977377
 21
3.634801823226106
 31
0.0
  0
ELLIPSE
  5
4C
330
2
100
AcDbEntity
  8
AM_VIS
100
AcDbEllipse
 10
12.58932579773769
 20
3.618471891607551
 30
0.0
 11
-0.0100000000000008
 21
0.0173205080756878
 31
0.0
210
0.0
220
-0.0000000000000001
230
1.0
 40
0.5773502691896259
 41
5.497787143781931
 42
7.068583470576839
  0
LINE
  5
4D
330
2
100
AcDbEntity
  8
AM_VIS
100
AcDbLine
 10
12.58932579773769
 20
3.634801823226106
 30
0.0
 11
12.57518366211396
 21
3.626636857416829
 31
0.0
  0
LINE
  5
4E
330
2
100
AcDbEntity
  8
AM_VIS
100
AcDbLine
 10
12.57518366211396
 20
3.626636857416826
 30
0.0
 11
12.57518366211396
 21
3.097269768952684
 31
0.0
  0
LINE
  5
4F
330
2
100
AcDbEntity
  8
AM_VIS
100
AcDbLine
 10
12.74729921178039
 20
3.19664072788432
 30
0.0
 11
12.57518366211397
 21
3.097269768952687
 31
0.0
  0
LINE
  5
50
330
2
100
AcDbEntity
  8
AM_VIS
100
AcDbLine
 10
12.57518366211396
 20
3.097269768952685
 30
0.0
 11
12.53417146880514
 21
3.120948169799589
 31
0.0
  0
ELLIPSE
  5
51
330
2
100
AcDbEntity
  8
AM_VIS
100
AcDbEllipse
 10
12.26805518666815
 20
3.264658226052556
 30
0.0
 11
-0.0050550000000005
 21
0.0087555168322615
 31
0.0
210
0.0
220
0.0
230
0.9999999999999998
 40
0.5773502691896258
 41
5.497787143781786
 42
7.068583470577034
  0
LINE
  5
52
330
2
100
AcDbEntity
  8
AM_VIS
100
AcDbLine
 10
12.29700915377358
 20
3.289629587188162
 30
0.0
 11
12.26805518666815
 21
3.272913006485738
 31
0.0
  0
LINE
  5
53
330
2
100
AcDbEntity
  8
AM_VIS
100
AcDbLine
 10
12.20709509621714
 20
3.237717681854025
 30
0.0
 11
12.26090633711036
 21
3.268785616269147
 31
0.0
  0
LINE
  5
54
330
2
100
AcDbEntity
  8
AM_VIS
100
AcDbLine
 10
12.37684363974698
 20
3.388810802010771
 30
0.0
 11
12.15127657654847
 21
3.258579597352799
 31
0.0
  0
LINE
  5
55
330
2
100
AcDbEntity
  8
AM_VIS
100
AcDbLine
 10
12.15127657654847
 20
3.258579597352797
 30
0.0
 11
12.20709509621714
 21
3.237717681854026
 31
0.0
  0
ELLIPSE
  5
56
330
2
100
AcDbEntity
  8
AM_VIS
100
AcDbEllipse
 10
12.15903523091177
 20
3.203291562605047
 30
0.0
 11
-0.0315937500000013
 21
0.0547219802016314
 31
0.0
210
0.0
220
0.0
230
1.0
 40
0.5773502691896258
 41
5.672320068981552
 42
7.068583470577002
  0
LINE
  5
57
330
2
100
AcDbEntity
  8
AM_VIS
100
AcDbLine
 10
13.25676929904641
 20
2.962541056868518
 30
0.0
 11
13.0312022358479
 21
2.832309852210546
 31
0.0
  0
LINE
  5
58
330
2
100
AcDbEntity
  8
AM_VIS
100
AcDbLine
 10
13.03120223584789
 20
2.832309852210546
 30
0.0
 11
13.05442863802571
 21
2.818900082660877
 31
0.0
  0
LINE
  5
59
330
2
100
AcDbEntity
  8
AM_VIS
100
AcDbLine
 10
13.27999570122422
 20
2.949131287318849
 30
0.0
 11
13.05442863802571
 21
2.818900082660876
 31
0.0
  0
ELLIPSE
  5
5A
330
2
100
AcDbEntity
  8
AM_VIS
100
AcDbEllipse
 10
13.0312022358479
 20
2.824063236743175
 30
0.0
 11
-0.0050500000000007
 21
0.008746856578224
 31
0.0
210
0.0
220
0.0
230
1.0
 40
0.5773502691896258
 41
5.49778714378217
 42
7.068583470577067
  0
LINE
  5
5B
330
2
100
AcDbEntity
  8
AM_VIS
100
AcDbLine
 10
13.02406045735791
 20
2.776998740825336
 30
0.0
 11
13.02406045735791
 21
2.828186544476858
 31
0.0
  0
LINE
  5
5C
330
2
100
AcDbEntity
  8
AM_VIS
100
AcDbLine
 10
12.82196968787369
 20
2.898166632182892
 30
0.0
 11
12.81808060057716
 21
2.895921266585341
 31
0.0
  0
LINE
  5
5D
330
2
100
AcDbEntity
  8
AM_VIS
100
AcDbLine
 10
12.81808060057716
 20
2.895921266585343
 30
0.0
 11
13.02406045735791
 21
2.776998740825336
 31
0.0
  0
ELLIPSE
  5
5E
330
2
100
AcDbEntity
  8
AM_VIS
100
AcDbEllipse
 10
12.81808060057716
 20
2.887674651117972
 30
0.0
 11
-0.0050499999999998
 21
0.0087468565782224
 31
0.0
210
0.0
220
0.0
230
0.9999999999999998
 40
0.5773502691896259
 41
5.49778714378216
 42
7.068583470577056
  0
LINE
  5
5F
330
2
100
AcDbEntity
  8
AM_VIS
100
AcDbLine
 10
12.81093882208718
 20
2.722566795005672
 30
0.0
 11
12.81093882208718
 21
2.891797958851655
 31
0.0
  0
ELLIPSE
  5
60
330
2
100
AcDbEntity
  8
AM_VIS
100
AcDbEllipse
 10
13.52333589336785
 20
2.42676494397333
 30
0.0
 11
-0.0050549999999996
 21
0.00875551683226
 31
0.0
210
0.0000000000000001
220
-0.0000000000000001
230
1.0
 40
0.5773502691896259
 41
5.497787143782165
 42
6.283185307179466
  0
LINE
  5
61
330
2
100
AcDbEntity
  8
AM_VIS
100
AcDbLine
 10
13.52333589336785
 20
2.435019724406508
 30
0.0
 11
13.55193129159903
 21
2.418510163540148
 31
0.0
  0
ELLIPSE
  5
62
330
2
100
AcDbEntity
  8
AM_VIS
100
AcDbEllipse
 10
13.55193129159903
 20
2.410255383106973
 30
0.0
 11
-0.0050549999999991
 21
0.0087555168322592
 31
0.0
210
0.0
220
0.0
230
1.0
 40
0.5773502691896257
 41
3.926990816987612
 42
5.49778714378216
  0
LINE
  5
63
330
2
100
AcDbEntity
  8
AM_VIS
100
AcDbLine
 10
13.55908014115683
 20
2.406127992890384
 30
0.0
 11
13.55908014115683
 21
2.169509111821866
 31
0.0
  0
ELLIPSE
  5
64
330
2
100
AcDbEntity
  8
AM_VIS
100
AcDbEllipse
 10
13.51439099258584
 20
2.195310403779181
 30
0.0
 11
-0.0316000000000001
 21
0.0547328055191766
 31
0.0
210
0.0
220
0.0
230
1.0
 40
0.5773502691896258
 41
3.141592653589757
 42
3.926990816987244
  0
ELLIPSE
  5
65
330
2
100
AcDbEntity
  8
AM_VIS
100
AcDbEllipse
 10
13.05442863802571
 20
2.810645302227698
 30
0.0
 11
-0.0050549999999999
 21
0.0087555168322605
 31
0.0
210
0.0
220
0.0
230
1.0
 40
0.5773502691896258
 41
3.926990816986983
 42
5.497787143782055
  0
LINE
  5
66
330
2
100
AcDbEntity
  8
AM_VIS
100
AcDbLine
 10
13.28714455078202
 20
2.936749116669078
 30
0.0
 11
13.06157748758351
 21
2.806517912011106
 31
0.0
  0
LINE
  5
67
330
2
100
AcDbEntity
  8
AM_VIS
100
AcDbLine
 10
13.06157748758351
 20
2.806517912011106
 30
0.0
 11
13.11538872847672
 21
2.71331410876573
 31
0.0
  0
LINE
  5
68
330
2
100
AcDbEntity
  8
AM_VIS
100
AcDbLine
 10
13.34095579167523
 20
2.843545313423703
 30
0.0
 11
13.11538872847672
 21
2.713314108765731
 31
0.0
  0
LINE
  5
69
330
2
100
AcDbEntity
  8
AM_VIS
100
AcDbLine
 10
13.11538872847672
 20
2.713314108765729
 30
0.0
 11
13.17120724814539
 21
2.669722349551562
 31
0.0
  0
LINE
  5
6A
330
2
100
AcDbEntity
  8
AM_VIS
100
AcDbLine
 10
13.3967743113439
 20
2.799953554209535
 30
0.0
 11
13.17120724814539
 21
2.669722349551563
 31
0.0
  0
ELLIPSE
  5
6B
330
2
100
AcDbEntity
  8
AM_VIS
100
AcDbEllipse
 10
13.1634485937821
 20
2.623393237174205
 30
0.0
 11
-0.0315937500000003
 21
0.0547219802016298
 31
0.0
210
0.0
220
0.0
230
1.0
 40
0.5773502691896258
 41
3.926990816987248
 42
5.323254218582667
  0
ELLIPSE
  5
6C
330
2
100
AcDbEntity
  8
AM_VIS
100
AcDbEllipse
 10
13.22600102741281
 20
2.238589018208372
 30
0.0
 11
-0.0126375000000016
 21
0.0218887920806515
 31
0.0
210
0.0
220
-0.0000000000000001
230
1.0
 40
0.5773502691896259
 41
0.7853981633972646
 42
2.35619449019216
  0
LINE
  5
6D
330
2
100
AcDbEntity
  8
AM_VIS
100
AcDbLine
 10
13.2510220008651
 20
2.23239793288349
 30
0.0
 11
13.22600102741281
 21
2.217952067125425
 31
0.0
  0
LINE
  5
6E
330
2
100
AcDbEntity
  8
AM_VIS
100
AcDbLine
 10
13.22600102741281
 20
2.217952067125423
 30
0.0
 11
13.23314987697061
 21
2.213824676908832
 31
0.0
  0
LINE
  5
6F
330
2
100
AcDbEntity
  8
AM_VIS
100
AcDbLine
 10
13.2510220008651
 20
2.224143152450306
 30
0.0
 11
13.23314987697061
 21
2.213824676908832
 31
0.0
  0
ELLIPSE
  5
70
330
2
100
AcDbEntity
  8
AM_VIS
100
AcDbEllipse
 10
13.23314987697061
 20
2.23446162799178
 30
0.0
 11
-0.0126375000000016
 21
0.0218887920806515
 31
0.0
210
0.0
220
-0.0000000000000001
230
1.0
 40
0.5773502691896259
 41
2.356194490192197
 42
3.926990816987092
  0
LINE
  5
71
330
2
100
AcDbEntity
  8
AM_VIS
100
AcDbLine
 10
13.2510220008651
 20
2.224143152450306
 30
0.0
 11
13.2510220008651
 21
2.277799225265972
 31
0.0
  0
ELLIPSE
  5
72
330
2
100
AcDbEntity
  8
AM_VIS
100
AcDbEllipse
 10
13.25817085042289
 20
2.273671835049382
 30
0.0
 11
-0.0050549999999996
 21
0.00875551683226
 31
0.0
210
0.0000000000000001
220
-0.0000000000000001
230
1.0
 40
0.5773502691896259
 41
5.497787143782165
 42
7.068583470576535
  0
LINE
  5
73
330
2
100
AcDbEntity
  8
AM_VIS
100
AcDbLine
 10
13.52333589336785
 20
2.435019724406508
 30
0.0
 11
13.25817085042289
 21
2.281926615482559
 31
0.0
  0
LINE
  5
74
330
2
100
AcDbEntity
  8
AM_VIS
100
AcDbLine
 10
13.2581708504229
 20
2.281926615482561
 30
0.0
 11
13.28676624865408
 21
2.265417054616201
 31
0.0
  0
LINE
  5
75
330
2
100
AcDbEntity
  8
AM_VIS
100
AcDbLine
 10
13.55193129159903
 20
2.418510163540148
 30
0.0
 11
13.28676624865408
 21
2.265417054616199
 31
0.0
  0
ELLIPSE
  5
76
330
2
100
AcDbEntity
  8
AM_VIS
100
AcDbEllipse
 10
13.28676624865408
 20
2.257162274183023
 30
0.0
 11
-0.0050549999999991
 21
0.0087555168322592
 31
0.0
210
0.0
220
0.0
230
1.0
 40
0.5773502691896257
 41
3.926990816987614
 42
5.49778714378216
  0
LINE
  5
77
330
2
100
AcDbEntity
  8
AM_VIS
100
AcDbLine
 10
13.55908014115683
 20
2.406127992890384
 30
0.0
 11
13.29391509821188
 21
2.253034883966436
 31
0.0
  0
LINE
  5
78
330
2
100
AcDbEntity
  8
AM_VIS
100
AcDbLine
 10
13.29391509821188
 20
2.253034883966435
 30
0.0
 11
13.29391509821188
 21
2.016416002897917
 31
0.0
  0
LINE
  5
79
330
2
100
AcDbEntity
  8
AM_VIS
100
AcDbLine
 10
13.55908014115683
 20
2.169509111821865
 30
0.0
 11
13.29391509821188
 21
2.016416002897916
 31
0.0
  0
ELLIPSE
  5
7A
330
2
100
AcDbEntity
  8
AM_VIS
100
AcDbEllipse
 10
13.24922594964089
 20
2.042217294855234
 30
0.0
 11
-0.0316000000000001
 21
0.0547328055191766
 31
0.0
210
0.0
220
0.0
230
1.0
 40
0.5773502691896258
 41
2.356194490192344
 42
3.92699081698724
  0
LINE
  5
7B
330
2
100
AcDbEntity
  8
AM_VIS
100
AcDbLine
 10
13.24922594964089
 20
1.990614710940601
 30
0.0
 11
13.18617765328168
 21
2.027015661815538
 31
0.0
  0
LINE
  5
7C
330
2
100
AcDbEntity
  8
AM_VIS
100
AcDbLine
 10
13.18617765328168
 20
2.027015661815537
 30
0.0
 11
13.10006202119592
 21
2.248965809353211
 31
0.0
  0
ELLIPSE
  5
7D
330
2
100
AcDbEntity
  8
AM_VIS
100
AcDbEllipse
 10
13.1062531065208
 20
2.249518774790903
 30
0.0
 11
-0.0050549999999992
 21
0.0087555168322593
 31
0.0
210
0.0
220
0.0
230
0.9999999999999998
 40
0.5773502691896258
 41
5.585053606381958
 42
7.592182246175227
  0
LINE
  5
7E
330
2
100
AcDbEntity
  8
AM_VIS
100
AcDbLine
 10
13.15093810705596
 20
2.284260491899933
 30
0.0
 11
13.1056300432278
 21
2.258101869052284
 31
0.0
  0
LINE
  5
7F
330
2
100
AcDbEntity
  8
AM_VIS
100
AcDbLine
 10
13.1056300432278
 20
2.258101869052282
 30
0.0
 11
13.15093810705596
 21
2.236520412109876
 31
0.0
  0
LINE
  5
80
330
2
100
AcDbEntity
  8
AM_VIS
100
AcDbLine
 10
13.15093810705596
 20
2.236520412109875
 30
0.0
 11
13.15093810705596
 21
2.584051579336927
 31
0.0
  0
ELLIPSE
  5
81
330
2
100
AcDbEntity
  8
AM_VIS
100
AcDbEllipse
 10
13.12949155838257
 20
2.596433749986696
 30
0.0
 11
-0.0151650000000017
 21
0.0262665504967813
 31
0.0
210
0.0
220
0.0
230
1.0
 40
0.5773502691896259
 41
3.926990816987075
 42
7.068583470576882
  0
LINE
  5
82
330
2
100
AcDbEntity
  8
AM_VIS
100
AcDbLine
 10
13.12949155838257
 20
2.621198091286235
 30
0.0
 11
13.10804500970918
 21
2.608815920636465
 31
0.0
  0
LINE
  5
83
330
2
100
AcDbEntity
  8
AM_VIS
100
AcDbLine
 10
13.10804500970918
 20
2.608815920636464
 30
0.0
 11
13.10804500970918
 21
2.53983420699678
 31
0.0
  0
LINE
  5
84
330
2
100
AcDbEntity
  8
AM_VIS
100
AcDbLine
 10
13.15093810705596
 20
2.564598548296318
 30
0.0
 11
13.10804500970919
 21
2.53983420699678
 31
0.0
  0
LINE
  5
85
330
2
100
AcDbEntity
  8
AM_VIS
100
AcDbLine
 10
13.10804500970918
 20
2.539834206996781
 30
0.0
 11
13.08683180627359
 21
2.552081655710697
 31
0.0
  0
ELLIPSE
  5
86
330
2
100
AcDbEntity
  8
AM_VIS
100
AcDbEllipse
 10
13.08683180627358
 20
2.475535101248723
 30
0.0
 11
-0.0468750000000049
 21
0.0811898816047883
 31
0.0
210
0.0
220
0.0
230
0.9999999999999998
 40
0.5773502691896258
 41
5.497787143781928
 42
8.639379797371759
  0
LINE
  5
87
330
2
100
AcDbEntity
  8
AM_VIS
100
AcDbLine
 10
13.15093810705596
 20
2.436000336800205
 30
0.0
 11
13.08683180627358
 21
2.398988546786749
 31
0.0
  0
LINE
  5
88
330
2
100
AcDbEntity
  8
AM_VIS
100
AcDbLine
 10
13.08683180627358
 20
2.39898854678675
 30
0.0
 11
13.10804500970918
 21
2.386741098072834
 31
0.0
  0
LINE
  5
89
330
2
100
AcDbEntity
  8
AM_VIS
100
AcDbLine
 10
13.15093810705596
 20
2.411505439372373
 30
0.0
 11
13.10804500970918
 21
2.386741098072833
 31
0.0
  0
LINE
  5
8A
330
2
100
AcDbEntity
  8
AM_VIS
100
AcDbLine
 10
13.10804500970918
 20
2.386741098072834
 30
0.0
 11
13.10804500970918
 21
2.317759384433156
 31
0.0
  0
LINE
  5
8B
330
2
100
AcDbEntity
  8
AM_VIS
100
AcDbLine
 10
13.15093810705596
 20
2.342523725732689
 30
0.0
 11
13.10804500970918
 21
2.317759384433153
 31
0.0
  0
ELLIPSE
  5
8C
330
2
100
AcDbEntity
  8
AM_VIS
100
AcDbEllipse
 10
13.08570043542369
 20
2.330660030411811
 30
0.0
 11
-0.0158000000000005
 21
0.0273664027595891
 31
0.0
210
0.0
220
0.0
230
1.0
 40
0.5773502691896258
 41
2.356194490192354
 42
3.926990816987249
  0
LINE
  5
8D
330
2
100
AcDbEntity
  8
AM_VIS
100
AcDbLine
 10
13.08570043542369
 20
2.304858738454495
 30
0.0
 11
12.99813586717545
 21
2.355414165504087
 31
0.0
  0
ELLIPSE
  5
8E
330
2
100
AcDbEntity
  8
AM_VIS
100
AcDbEllipse
 10
12.99813586717545
 20
2.381215457461403
 30
0.0
 11
-0.0157999999999998
 21
0.0273664027595879
 31
0.0
210
0.0
220
0.0000000000000001
230
1.0
 40
0.5773502691896258
 41
0.7853981633974585
 42
2.356194490192354
  0
LINE
  5
8F
330
2
100
AcDbEntity
  8
AM_VIS
100
AcDbLine
 10
12.97579129288996
 20
2.394116103440062
 30
0.0
 11
12.97579129288996
 21
2.528691069908573
 31
0.0
  0
ELLIPSE
  5
90
330
2
100
AcDbEntity
  8
AM_VIS
100
AcDbEllipse
 10
12.9475070216425
 20
2.545021001527127
 30
0.0
 11
-0.0200000000000017
 21
0.0346410161513756
 31
0.0
210
0.0
220
-0.0000000000000001
230
1.0
 40
0.5773502691896259
 41
3.92699081698706
 42
5.497787143781957
  0
LINE
  5
91
330
2
100
AcDbEntity
  8
AM_VIS
100
AcDbLine
 10
12.9475070216425
 20
2.577680864764234
 30
0.0
 11
12.37497680305137
 21
2.908231340587015
 31
0.0
  0
ELLIPSE
  5
92
330
2
100
AcDbEntity
  8
AM_VIS
100
AcDbEllipse
 10
12.37497680305137
 20
2.875571477349907
 30
0.0
 11
-0.0200000000000019
 21
0.034641016151376
 31
0.0
210
0.0
220
0.0
230
0.9999999999999998
 40
0.5773502691896259
 41
5.497787143781868
 42
7.068583470576849
  0
LINE
  5
93
330
2
100
AcDbEntity
  8
AM_VIS
100
AcDbLine
 10
12.37497680305137
 20
2.908231340587018
 30
0.0
 11
12.34669253180391
 21
2.891901408968464
 31
0.0
  0
LINE
  5
94
330
2
100
AcDbEntity
  8
AM_VIS
100
AcDbLine
 10
12.34669253180391
 20
2.891901408968459
 30
0.0
 11
12.34669253180391
 21
2.757326442499948
 31
0.0
  0
LINE
  5
95
330
2
100
AcDbEntity
  8
AM_VIS
100
AcDbLine
 10
12.49152214272654
 20
2.840943857352762
 30
0.0
 11
12.34669253180391
 21
2.757326442499952
 31
0.0
  0
ELLIPSE
  5
96
330
2
100
AcDbEntity
  8
AM_VIS
100
AcDbEllipse
 10
12.32434795751841
 20
2.770227088478609
 30
0.0
 11
-0.0157999999999996
 21
0.0273664027595876
 31
0.0
210
0.0
220
0.0000000000000001
230
0.9999999999999996
 40
0.5773502691896259
 41
2.356194490192334
 42
3.926990816987234
  0
LINE
  5
97
330
2
100
AcDbEntity
  8
AM_VIS
100
AcDbLine
 10
12.32434795751842
 20
2.744425796521293
 30
0.0
 11
12.23678338927018
 21
2.794981223570883
 31
0.0
  0
ELLIPSE
  5
98
330
2
100
AcDbEntity
  8
AM_VIS
100
AcDbEllipse
 10
12.23678338927018
 20
2.8207825155282
 30
0.0
 11
-0.0157999999999998
 21
0.0273664027595879
 31
0.0
210
0.0
220
0.0000000000000001
230
1.0
 40
0.5773502691896258
 41
0.7853981633974598
 42
2.356194490192355
  0
LINE
  5
99
330
2
100
AcDbEntity
  8
AM_VIS
100
AcDbLine
 10
12.21443881498468
 20
2.833683161506858
 30
0.0
 11
12.21443881498468
 21
2.902664875146538
 31
0.0
  0
LINE
  5
9A
330
2
100
AcDbEntity
  8
AM_VIS
100
AcDbLine
 10
12.29929162872707
 20
2.9516546700022
 30
0.0
 11
12.21443881498468
 21
2.902664875146538
 31
0.0
  0
LINE
  5
9B
330
2
100
AcDbEntity
  8
AM_VIS
100
AcDbLine
 10
12.21443881498469
 20
2.902664875146538
 30
0.0
 11
12.23565201842028
 21
2.890417426432624
 31
0.0
  0
LINE
  5
9C
330
2
100
AcDbEntity
  8
AM_VIS
100
AcDbLine
 10
12.30194327915652
 20
2.928690703663612
 30
0.0
 11
12.23565201842028
 21
2.890417426432625
 31
0.0
  0
ELLIPSE
  5
9D
330
2
100
AcDbEntity
  8
AM_VIS
100
AcDbEllipse
 10
12.23565201842028
 20
2.966963980894599
 30
0.0
 11
-0.0468750000000049
 21
0.0811898816047883
 31
0.0
210
0.0
220
0.0
230
0.9999999999999998
 40
0.5773502691896258
 41
2.356194490192172
 42
5.497787143781965
  0
LINE
  5
9E
330
2
100
AcDbEntity
  8
AM_VIS
100
AcDbLine
 10
12.23565201842029
 20
3.043510535356569
 30
0.0
 11
12.21443881498469
 21
3.055757984070482
 31
0.0
  0
LINE
  5
9F
330
2
100
AcDbEntity
  8
AM_VIS
100
AcDbLine
 10
12.21443881498469
 20
3.055757984070483
 30
0.0
 11
12.21443881498469
 21
3.124739697710166
 31
0.0
  0
ELLIPSE
  5
A0
330
2
100
AcDbEntity
  8
AM_VIS
100
AcDbEllipse
 10
12.1929922663113
 20
3.137121868359935
 30
0.0
 11
-0.0151650000000012
 21
0.0262665504967805
 31
0.0
210
0.0
220
0.0000000000000001
230
0.9999999999999998
 40
0.5773502691896258
 41
3.926990816987197
 42
7.068583470576884
  0
LINE
  5
A1
330
2
100
AcDbEntity
  8
AM_VIS
100
AcDbLine
 10
12.1929922663113
 20
3.161886209659474
 30
0.0
 11
12.17154571763791
 21
3.149504039009705
 31
0.0
  0
LINE
  5
A2
330
2
100
AcDbEntity
  8
AM_VIS
100
AcDbLine
 10
12.17154571763791
 20
3.149504039009705
 30
0.0
 11
12.17154571763791
 21
2.801972871782658
 31
0.0
  0
LINE
  5
A3
330
2
100
AcDbEntity
  8
AM_VIS
100
AcDbLine
 10
12.21509180358689
 20
2.827114216227455
 30
0.0
 11
12.17154571763791
 21
2.801972871782656
 31
0.0
  0
LINE
  5
A4
330
2
100
AcDbEntity
  8
AM_VIS
100
AcDbLine
 10
12.17154571763791
 20
2.801972871782657
 30
0.0
 11
12.21685378146607
 21
2.771237083029768
 31
0.0
  0
LINE
  5
A5
330
2
100
AcDbEntity
  8
AM_VIS
100
AcDbLine
 10
12.24738161426776
 20
2.788862335515599
 30
0.0
 11
12.21685378146607
 21
2.771237083029765
 31
0.0
  0
ELLIPSE
  5
A6
330
2
100
AcDbEntity
  8
AM_VIS
100
AcDbEllipse
 10
12.21623071817306
 20
2.763373440288262
 30
0.0
 11
-0.0050549999999996
 21
0.0087555168322599
 31
0.0
210
0.0
220
0.0
230
1.0
 40
0.5773502691896258
 41
3.403392041388972
 42
5.410520681182211
  0
LINE
  5
A7
330
2
100
AcDbEntity
  8
AM_VIS
100
AcDbLine
 10
12.26364570710547
 20
2.779472257137623
 30
0.0
 11
12.22242180349795
 21
2.755671625292773
 31
0.0
  0
LINE
  5
A8
330
2
100
AcDbEntity
  8
AM_VIS
100
AcDbLine
 10
12.22242180349795
 20
2.755671625292775
 30
0.0
 11
12.13630617141219
 21
2.633159244487401
 31
0.0
  0
LINE
  5
A9
330
2
100
AcDbEntity
  8
AM_VIS
100
AcDbLine
 10
12.32682437842141
 20
2.743154982589704
 30
0.0
 11
12.13630617141218
 21
2.6331592444874
 31
0.0
  0
LINE
  5
AA
330
2
100
AcDbEntity
  8
AM_VIS
100
AcDbLine
 10
12.13630617141219
 20
2.6331592444874
 30
0.0
 11
12.07325787505298
 21
2.669560195362333
 31
0.0
  0
ELLIPSE
  5
AB
330
2
100
AcDbEntity
  8
AM_VIS
100
AcDbEllipse
 10
12.07325787505298
 20
2.721162779276967
 30
0.0
 11
-0.0316000000000003
 21
0.054732805519177
 31
0.0
210
0.0
220
0.0
230
0.9999999999999998
 40
0.5773502691896258
 41
0.7853981633974401
 42
2.356194490192339
  0
LINE
  5
AC
330
2
100
AcDbEntity
  8
AM_VIS
100
AcDbLine
 10
12.02856872648199
 20
2.746964071234284
 30
0.0
 11
12.02856872648199
 21
2.983582952302801
 31
0.0
  0
ELLIPSE
  5
AD
330
2
100
AcDbEntity
  8
AM_VIS
100
AcDbEllipse
 10
12.03571757603978
 20
2.979455562086211
 30
0.0
 11
-0.0050549999999987
 21
0.0087555168322584
 31
0.0
210
0.0
220
-0.0000000000000001
230
1.0
 40
0.5773502691896257
 41
5.49778714378216
 42
7.06858347057688
  0
LINE
  5
AE
330
2
100
AcDbEntity
  8
AM_VIS
100
AcDbLine
 10
12.11435492117554
 20
3.033111634901874
 30
0.0
 11
12.03571757603979
 21
2.987710342519388
 31
0.0
  0
LINE
  5
AF
330
2
100
AcDbEntity
  8
AM_VIS
100
AcDbLine
 10
12.03571757603978
 20
2.98771034251939
 30
0.0
 11
12.06431297427096
 21
2.97120078165303
 31
0.0
  0
LINE
  5
B0
330
2
100
AcDbEntity
  8
AM_VIS
100
AcDbLine
 10
12.11435492117554
 20
3.000092513169155
 30
0.0
 11
12.06431297427097
 21
2.971200781653029
 31
0.0
  0
ELLIPSE
  5
B1
330
2
100
AcDbEntity
  8
AM_VIS
100
AcDbEllipse
 10
12.06431297427097
 20
2.962946001219854
 30
0.0
 11
-0.005055
 21
0.0087555168322607
 31
0.0
210
0.0
220
-0.0000000000000001
230
1.0
 40
0.5773502691896258
 41
3.926990816987244
 42
5.497787143782137
  0
LINE
  5
B2
330
2
100
AcDbEntity
  8
AM_VIS
100
AcDbLine
 10
12.11435492117554
 20
2.9835829523028
 30
0.0
 11
12.07146182382876
 21
2.958818611003263
 31
0.0
  0
LINE
  5
B3
330
2
100
AcDbEntity
  8
AM_VIS
100
AcDbLine
 10
12.07146182382877
 20
2.958818611003266
 30
0.0
 11
12.07146182382877
 21
2.905162538187598
 31
0.0
  0
LINE
  5
B4
330
2
100
AcDbEntity
  8
AM_VIS
100
AcDbLine
 10
12.11435492117554
 20
2.929926879487133
 30
0.0
 11
12.07146182382877
 21
2.905162538187596
 31
0.0
  0
ELLIPSE
  5
B5
330
2
100
AcDbEntity
  8
AM_VIS
100
AcDbEllipse
 10
12.08933394772325
 20
2.894844062646122
 30
0.0
 11
-0.0126375000000016
 21
0.0218887920806515
 31
0.0
210
0.0
220
-0.0000000000000001
230
1.0
 40
0.5773502691896259
 41
0.7853981633972952
 42
2.356194490192194
  0
LINE
  5
B6
330
2
100
AcDbEntity
  8
AM_VIS
100
AcDbLine
 10
12.11435492117554
 20
2.888652977321239
 30
0.0
 11
12.08933394772325
 21
2.874207111563177
 31
0.0
  0
LINE
  5
B7
330
2
100
AcDbEntity
  8
AM_VIS
100
AcDbLine
 10
12.08933394772325
 20
2.874207111563176
 30
0.0
 11
12.09648279728105
 21
2.870079721346586
 31
0.0
  0
LINE
  5
B8
330
2
100
AcDbEntity
  8
AM_VIS
100
AcDbLine
 10
12.11435492117554
 20
2.88039819688806
 30
0.0
 11
12.09648279728105
 21
2.870079721346588
 31
0.0
  0
ELLIPSE
  5
B9
330
2
100
AcDbEntity
  8
AM_VIS
100
AcDbEllipse
 10
12.09648279728105
 20
2.890716672429533
 30
0.0
 11
-0.0126375000000012
 21
0.0218887920806507
 31
0.0
210
-0.0000000000000001
220
0.0000000000000001
230
1.0
 40
0.5773502691896258
 41
2.3561944901923
 42
3.926990816986984
  0
LINE
  5
BA
330
2
100
AcDbEntity
  8
AM_VIS
100
AcDbLine
 10
12.11435492117554
 20
2.880398196888057
 30
0.0
 11
12.11435492117554
 21
3.229087751458736
 31
0.0
  0
LINE
  5
BB
330
2
100
AcDbEntity
  8
AM_VIS
100
AcDbLine
 10
12.26805518666815
 20
3.272913006485737
 30
0.0
 11
12.29127451777816
 21
3.259507319418973
 31
0.0
  0
LINE
  5
BC
330
2
100
AcDbEntity
  8
AM_VIS
100
AcDbLine
 10
12.31586764367759
 20
3.273706167277223
 30
0.0
 11
12.29127451777816
 21
3.259507319418971
 31
0.0
  0
ELLIPSE
  5
BD
330
2
100
AcDbEntity
  8
AM_VIS
100
AcDbEllipse
 10
12.29127451777816
 20
3.251252538985797
 30
0.0
 11
-0.005055
 21
0.0087555168322607
 31
0.0
210
0.0
220
-0.0000000000000001
230
1.0
 40
0.5773502691896258
 41
3.926990816987241
 42
5.497787143781786
  0
LINE
  5
BE
330
2
100
AcDbEntity
  8
AM_VIS
100
AcDbLine
 10
12.30231245463248
 20
3.249370514366757
 30
0.0
 11
12.29842336733595
 21
3.247125148769206
 31
0.0
  0
LINE
  5
BF
330
2
100
AcDbEntity
  8
AM_VIS
100
AcDbLine
 10
12.29842336733595
 20
3.247125148769205
 30
0.0
 11
12.29842336733595
 21
3.195945510083488
 31
0.0
  0
LINE
  5
C0
330
2
100
AcDbEntity
  8
AM_VIS
100
AcDbLine
 10
12.30231245463248
 20
3.198190875681042
 30
0.0
 11
12.29842336733595
 21
3.195945510083491
 31
0.0
  0
LINE
  5
C1
330
2
100
AcDbEntity
  8
AM_VIS
100
AcDbLine
 10
12.29842336733595
 20
3.19594551008349
 30
0.0
 11
12.5044032241167
 21
3.077022984323485
 31
0.0
  0
LINE
  5
C2
330
2
100
AcDbEntity
  8
AM_VIS
100
AcDbLine
 10
12.50829231141322
 20
3.079268349921038
 30
0.0
 11
12.5044032241167
 21
3.077022984323487
 31
0.0
  0
ELLIPSE
  5
C3
330
2
100
AcDbEntity
  8
AM_VIS
100
AcDbEllipse
 10
12.5044032241167
 20
3.068776368856116
 30
0.0
 11
-0.00505
 21
0.0087468565782228
 31
0.0
210
-0.0000000000000001
220
0.0000000000000001
230
0.9999999999999998
 40
0.5773502691896258
 41
3.926990816987263
 42
5.49778714378217
  0
LINE
  5
C4
330
2
100
AcDbEntity
  8
AM_VIS
100
AcDbLine
 10
12.71128385925151
 20
2.780102614624931
 30
0.0
 11
12.81093882208718
 21
2.722566795005672
 31
0.0
  0
LINE
  5
C5
330
2
100
AcDbEntity
  8
AM_VIS
100
AcDbLine
 10
12.74806126513608
 20
2.940837679945834
 30
0.0
 11
12.62585691234693
 21
2.87028296396688
 31
0.0
  0
LINE
  5
C6
330
2
100
AcDbEntity
  8
AM_VIS
100
AcDbLine
 10
12.39898800155204
 20
4.069673767801269
 30
0.0
 11
12.35939002180559
 21
4.046811863535292
 31
0.0
  0
LINE
  5
C7
330
2
100
AcDbEntity
  8
AM_VIS
100
AcDbLine
 10
12.813502051504
 20
2.986396807960629
 30
0.0
 11
12.79181140508921
 21
2.973873707414152
 31
0.0
  0
LINE
  5
C8
330
2
100
AcDbEntity
  8
AM_VIS
100
AcDbLine
 10
12.74729921178039
 20
3.454420132112835
 30
0.0
 11
12.69999143694718
 21
3.427106975578117
 31
0.0
  0
LINE
  5
C9
330
2
100
AcDbEntity
  8
AM_VIS
100
AcDbLine
 10
12.64002823351158
 20
3.571465787381894
 30
0.0
 11
12.62249143694718
 21
3.561340913164711
 31
0.0
  0
LINE
  5
CA
330
2
100
AcDbEntity
  8
AM_VIS
100
AcDbLine
 10
12.29700915377358
 20
3.293048829198001
 30
0.0
 11
12.26300018666815
 21
3.273413742884821
 31
0.0
  0
LINE
  5
CB
330
2
100
AcDbEntity
  8
AM_VIS
100
AcDbLine
 10
12.35300854411027
 20
3.388244747464653
 30
0.0
 11
12.12744148091177
 21
3.258013542806681
 31
0.0
  0
LINE
  5
CC
330
2
100
AcDbEntity
  8
AM_VIS
100
AcDbLine
 10
13.2517192990464
 20
2.963041297979369
 30
0.0
 11
13.0261522358479
 21
2.832810093321397
 31
0.0
  0
LINE
  5
CD
330
2
100
AcDbEntity
  8
AM_VIS
100
AcDbLine
 10
12.81901146636367
 20
2.899874562168022
 30
0.0
 11
12.81303060057716
 21
2.896421507696194
 31
0.0
  0
LINE
  5
CE
330
2
100
AcDbEntity
  8
AM_VIS
100
AcDbLine
 10
13.51828089336785
 20
2.435520460805591
 30
0.0
 11
13.2531158504229
 21
2.282427351881642
 31
0.0
  0
LINE
  5
CF
330
2
100
AcDbEntity
  8
AM_VIS
100
AcDbLine
 10
13.54599099258584
 20
2.140577598260007
 30
0.0
 11
13.28082594964089
 21
1.987484489336058
 31
0.0
  0
LINE
  5
D0
330
2
100
AcDbEntity
  8
AM_VIS
100
AcDbLine
 10
13.15093810705595
 20
2.286991694321626
 30
0.0
 11
13.1011981065208
 21
2.258274291623162
 31
0.0
  0
LINE
  5
D1
330
2
100
AcDbEntity
  8
AM_VIS
100
AcDbLine
 10
13.15093810705596
 20
2.331836480677221
 30
0.0
 11
13.10150043542369
 21
2.303293627652223
 31
0.0
  0
LINE
  5
D2
330
2
100
AcDbEntity
  8
AM_VIS
100
AcDbLine
 10
12.50077756844105
 20
2.835600234825028
 30
0.0
 11
12.34014795751842
 21
2.742860685719021
 31
0.0
  0
LINE
  5
D3
330
2
100
AcDbEntity
  8
AM_VIS
100
AcDbLine
 10
12.11435492117554
 20
3.036530876911706
 30
0.0
 11
12.03066257603979
 21
2.988211078918467
 31
0.0
  0
LINE
  5
D4
330
2
100
AcDbEntity
  8
AM_VIS
100
AcDbLine
 10
13.09674692329556
 20
2.923352411064701
 30
0.0
 11
13.17806420313202
 21
2.970300964468048
 31
0.0
  0
ELLIPSE
  5
D5
330
2
100
AcDbEntity
  8
AM_VIS
100
AcDbEllipse
 10
13.17147162863073
 20
2.970577222709714
 30
0.0
 11
0.0065867959762491
 21
-0.0004469094449675
 31
0.0
210
0.0000000000000001
220
0.0
230
0.9999999999999998
 40
0.617499058536575
 41
0.0418723853208454
 42
1.612668712115852
  0
LINE
  5
D6
330
2
100
AcDbEntity
  8
AM_VIS
100
AcDbLine
 10
13.17147162863073
 20
2.974659705614351
 30
0.0
 11
13.0963829282123
 21
2.931307224214668
 31
0.0
  0
LINE
  5
D7
330
2
100
AcDbEntity
  8
AM_VIS
100
AcDbLine
 10
13.17806420313202
 20
2.970300964468046
 30
0.0
 11
13.17806420313202
 21
2.974710046005056
 31
0.0
  0
LINE
  5
D8
330
2
100
AcDbEntity
  8
AM_VIS
100
AcDbLine
 10
13.09674692329556
 20
2.923352411064701
 30
0.0
 11
13.09674692329556
 21
2.927761492601711
 31
0.0
  0
LINE
  5
D9
330
2
100
AcDbEntity
  8
AM_VIS
100
AcDbLine
 10
13.02815756552047
 20
2.888161408426718
 30
0.0
 11
13.09674692329556
 21
2.927761492601711
 31
0.0
  0
LINE
  5
DA
330
2
100
AcDbEntity
  8
AM_VIS
100
AcDbLine
 10
13.02815756552047
 20
2.888161408426718
 30
0.0
 11
13.02815756552047
 21
2.864156408947443
 31
0.0
  0
LINE
  5
DB
330
2
100
AcDbEntity
  8
AM_VIS
100
AcDbLine
 10
13.09674692329556
 20
2.903756493122438
 30
0.0
 11
13.02815756552047
 21
2.864156408947443
 31
0.0
  0
LINE
  5
DC
330
2
100
AcDbEntity
  8
AM_VIS
100
AcDbLine
 10
13.09674692329557
 20
2.890692547827594
 30
0.0
 11
13.09674692329557
 21
2.903756493122438
 31
0.0
  0
LINE
  5
DD
330
2
100
AcDbEntity
  8
AM_VIS
100
AcDbLine
 10
13.17806420313202
 20
2.937641101230937
 30
0.0
 11
13.09674692329557
 21
2.890692547827593
 31
0.0
  0
LINE
  5
DE
330
2
100
AcDbEntity
  8
AM_VIS
100
AcDbLine
 10
13.17806420313202
 20
2.950705046525781
 30
0.0
 11
13.17806420313202
 21
2.937641101230937
 31
0.0
  0
LINE
  5
DF
330
2
100
AcDbEntity
  8
AM_VIS
100
AcDbLine
 10
13.24665356090711
 20
2.990305130700779
 30
0.0
 11
13.17806420313202
 21
2.950705046525786
 31
0.0
  0
LINE
  5
E0
330
2
100
AcDbEntity
  8
AM_VIS
100
AcDbLine
 10
13.24665356090711
 20
3.014310130180051
 30
0.0
 11
13.24665356090711
 21
2.990305130700776
 31
0.0
  0
LINE
  5
E1
330
2
100
AcDbEntity
  8
AM_VIS
100
AcDbLine
 10
13.17806420313202
 20
2.974710046005059
 30
0.0
 11
13.24665356090711
 21
3.014310130180053
 31
0.0
  0
ELLIPSE
  5
E2
330
2
100
AcDbEntity
  8
AM_VIS
100
AcDbEllipse
 10
12.88484350241021
 20
2.970577222709714
 30
0.0
 11
-0.0065867959762491
 21
-0.0004469094449675
 31
0.0
210
0.0000000000000001
220
0.0
230
1.0
 40
0.6174990585365726
 41
4.670516595063308
 42
6.241312921858335
  0
LINE
  5
E3
330
2
100
AcDbEntity
  8
AM_VIS
100
AcDbLine
 10
12.87825092790892
 20
2.970300964468048
 30
0.0
 11
12.95956820774537
 21
2.923352411064701
 31
0.0
  0
LINE
  5
E4
330
2
100
AcDbEntity
  8
AM_VIS
100
AcDbLine
 10
12.95993220282864
 20
2.93130722421467
 30
0.0
 11
12.88484350241021
 21
2.974659705614351
 31
0.0
  0
LINE
  5
E5
330
2
100
AcDbEntity
  8
AM_VIS
100
AcDbLine
 10
12.95956820774537
 20
2.923352411064705
 30
0.0
 11
12.95956820774537
 21
2.927761492601715
 31
0.0
  0
LINE
  5
E6
330
2
100
AcDbEntity
  8
AM_VIS
100
AcDbLine
 10
12.87825092790892
 20
2.974710046005057
 30
0.0
 11
12.87825092790892
 21
2.970300964468047
 31
0.0
  0
LINE
  5
E7
330
2
100
AcDbEntity
  8
AM_VIS
100
AcDbLine
 10
12.80966157013383
 20
3.014310130180051
 30
0.0
 11
12.87825092790892
 21
2.974710046005057
 31
0.0
  0
LINE
  5
E8
330
2
100
AcDbEntity
  8
AM_VIS
100
AcDbLine
 10
12.80966157013383
 20
2.990305130700775
 30
0.0
 11
12.80966157013383
 21
3.01431013018005
 31
0.0
  0
LINE
  5
E9
330
2
100
AcDbEntity
  8
AM_VIS
100
AcDbLine
 10
12.87825092790892
 20
2.950705046525781
 30
0.0
 11
12.80966157013383
 21
2.990305130700775
 31
0.0
  0
LINE
  5
EA
330
2
100
AcDbEntity
  8
AM_VIS
100
AcDbLine
 10
12.87825092790892
 20
2.937641101230937
 30
0.0
 11
12.87825092790892
 21
2.950705046525781
 31
0.0
  0
LINE
  5
EB
330
2
100
AcDbEntity
  8
AM_VIS
100
AcDbLine
 10
12.95956820774537
 20
2.890692547827594
 30
0.0
 11
12.87825092790892
 21
2.937641101230939
 31
0.0
  0
LINE
  5
EC
330
2
100
AcDbEntity
  8
AM_VIS
100
AcDbLine
 10
12.95956820774538
 20
2.903756493122436
 30
0.0
 11
12.95956820774538
 21
2.890692547827593
 31
0.0
  0
LINE
  5
ED
330
2
100
AcDbEntity
  8
AM_VIS
100
AcDbLine
 10
13.02815756552047
 20
2.864156408947442
 30
0.0
 11
12.95956820774537
 21
2.903756493122436
 31
0.0
  0
LINE
  5
EE
330
2
100
AcDbEntity
  8
AM_VIS
100
AcDbLine
 10
12.95956820774537
 20
2.927761492601712
 30
0.0
 11
13.02815756552047
 21
2.888161408426717
 31
0.0
  0
ELLIPSE
  5
EF
330
2
100
AcDbEntity
  8
AM_VIS
100
AcDbEllipse
 10
12.88484350241021
 20
2.937917359472606
 30
0.0
 11
-0.0065867959762491
 21
-0.0004469094449675
 31
0.0
210
0.0000000000000001
220
0.0
230
1.0
 40
0.6174990585365727
 41
6.241312921858324
 42
7.026711085255806
  0
ELLIPSE
  5
F0
330
2
100
AcDbEntity
  8
AM_VIS
100
AcDbEllipse
 10
12.96004670105595
 20
2.894498772490564
 30
0.0
 11
0.0003275784777824
 21
0.0055815404538519
 31
0.0
210
0.0
220
-0.0000000000000001
230
0.9999999999999998
 40
0.0624883054187576
 41
2.324856738266864
 42
3.895653065061719
  0
ELLIPSE
  5
F1
330
2
100
AcDbEntity
  8
AM_VIS
100
AcDbEllipse
 10
13.17147162863073
 20
2.937917359472605
 30
0.0
 11
0.0065867959762491
 21
-0.0004469094449675
 31
0.0
210
0.0
220
0.0
230
0.9999999999999998
 40
0.617499058536576
 41
5.539659529103174
 42
6.325057692500737
  0
ELLIPSE
  5
F2
330
2
100
AcDbEntity
  8
AM_VIS
100
AcDbEllipse
 10
13.09626842998499
 20
2.894498772490567
 30
0.0
 11
0.0003275784777824
 21
-0.0055815404538519
 31
0.0
210
0.0
220
0.0
230
1.0
 40
0.0624883054187491
 41
5.529124895706297
 42
7.099921222501322
  0
ELLIPSE
  5
F3
330
2
100
AcDbEntity
  8
AM_VIS
100
AcDbEllipse
 10
13.09626842998498
 20
2.90756271778541
 30
0.0
 11
0.0003275784777824
 21
-0.0055815404538519
 31
0.0
210
0.0
220
-0.0000000000000002
230
1.0
 40
0.0624883054187489
 41
0.0313377519237129
 42
0.8167359153217333
  0
LINE
  5
F4
330
2
100
AcDbEntity
  8
AM_VIS
100
AcDbLine
 10
13.09493544980989
 20
2.90101961863059
 30
0.0
 11
13.09626842998498
 21
2.890416289585927
 31
0.0
  0
ELLIPSE
  5
F5
330
2
100
AcDbEntity
  8
AM_VIS
100
AcDbEllipse
 10
12.81673263794569
 20
2.990305130700777
 30
0.0
 11
-0.0070710678118655
 21
0.0
 31
0.0
210
-0.0000000000000001
220
0.0
230
0.9999999999999998
 40
0.577350269189626
 41
0.0000000000001122
 42
0.7853981633975871
  0
LINE
  5
F6
330
2
100
AcDbEntity
  8
AM_VIS
100
AcDbLine
 10
13.02815756552047
 20
2.862465389160185
 30
0.0
 11
13.02815756552047
 21
2.864156408947442
 31
0.0
  0
ELLIPSE
  5
F7
330
2
100
AcDbEntity
  8
AM_VIS
100
AcDbEllipse
 10
12.96004670105595
 20
2.907562717785406
 30
0.0
 11
0.0003275784777824
 21
0.0055815404538519
 31
0.0
210
0.0
220
-0.0000000000000001
230
0.9999999999999998
 40
0.0624883054187575
 41
2.324856738265735
 42
3.110254901662127
  0
ELLIPSE
  5
F8
330
2
100
AcDbEntity
  8
AM_VIS
100
AcDbEllipse
 10
13.23958249309524
 20
2.990305130700777
 30
0.0
 11
0.0070710678118655
 21
0.0
 31
0.0
210
-0.0000000000000001
220
0.0
230
0.9999999999999998
 40
0.577350269189626
 41
5.497787143782181
 42
6.283185307179718
  0
LINE
  5
F9
330
2
100
AcDbEntity
  8
AM_VIS
100
AcDbLine
 10
12.87825092790892
 20
2.974710046005057
 30
0.0
 11
12.92395800229398
 21
2.976625376047805
 31
0.0
  0
LINE
  5
FA
330
2
100
AcDbEntity
  8
AM_VIS
100
AcDbLine
 10
12.92440713459009
 20
2.976317598059534
 30
0.0
 11
12.88484350241021
 21
2.974659705614352
 31
0.0
  0
LINE
  5
FB
330
2
100
AcDbEntity
  8
AM_VIS
100
AcDbLine
 10
12.90221182690258
 20
2.997481817448315
 30
0.0
 11
12.88423714028795
 21
2.996728598001541
 31
0.0
  0
ELLIPSE
  5
FC
330
2
100
AcDbEntity
  8
AM_VIS
100
AcDbEllipse
 10
12.88423714028795
 20
2.98399125133907
 30
0.0
 11
-0.0038612676758059
 21
-0.0157199962855455
 31
0.0
210
0.0
220
0.0
230
0.9999999999999998
 40
0.2909939316482407
 41
3.842651064510556
 42
5.413447391305416
  0
LINE
  5
FD
330
2
100
AcDbEntity
  8
AM_VIS
100
AcDbLine
 10
12.88423714028795
 20
3.057366355683505
 30
0.0
 11
12.89219906552047
 21
3.057032715545712
 31
0.0
  0
LINE
  5
FE
330
2
100
AcDbEntity
  8
AM_VIS
100
AcDbLine
 10
12.83172330170684
 20
3.027047476842522
 30
0.0
 11
12.88423714028795
 21
3.057366355683504
 31
0.0
  0
LINE
  5
FF
330
2
100
AcDbEntity
  8
AM_VIS
100
AcDbLine
 10
12.88423714028795
 20
2.996728598001539
 30
0.0
 11
12.83172330170685
 21
3.027047476842521
 31
0.0
  0
LINE
  5
100
330
2
100
AcDbEntity
  8
AM_VIS
100
AcDbLine
 10
13.16411606552047
 20
3.057032715545712
 30
0.0
 11
13.17207799075299
 21
3.057366355683504
 31
0.0
  0
ELLIPSE
  5
101
330
2
100
AcDbEntity
  8
AM_VIS
100
AcDbEllipse
 10
13.17207799075298
 20
3.044629009021033
 30
0.0
 11
-0.0038612676758064
 21
-0.0157199962855454
 31
0.0
210
0.0
220
0.0
230
1.0
 40
0.2909939316482411
 41
3.05725290111353
 42
3.842651064510935
  0
LINE
  5
102
330
2
100
AcDbEntity
  8
AM_VIS
100
AcDbLine
 10
13.17207799075299
 20
2.99672859800154
 30
0.0
 11
13.15410330413837
 21
2.997481817448314
 31
0.0
  0
LINE
  5
103
330
2
100
AcDbEntity
  8
AM_VIS
100
AcDbLine
 10
13.2245918293341
 20
3.027047476842522
 30
0.0
 11
13.17207799075299
 21
2.996728598001539
 31
0.0
  0
LINE
  5
104
330
2
100
AcDbEntity
  8
AM_VIS
100
AcDbLine
 10
13.17207799075299
 20
3.057366355683505
 30
0.0
 11
13.22459182933409
 21
3.027047476842523
 31
0.0
  0
ELLIPSE
  5
105
330
2
100
AcDbEntity
  8
AM_VIS
100
AcDbEllipse
 10
12.97564372693936
 20
2.931217633930174
 30
0.0
 11
-0.0151461934677321
 21
-0.0075243603893424
 31
0.0
210
0.0000000000000001
220
0.0
230
1.0
 40
0.7158841592412513
 41
4.370699804293929
 42
5.941496131088906
  0
LINE
  5
106
330
2
100
AcDbEntity
  8
AM_VIS
100
AcDbLine
 10
12.97564372693936
 20
2.943954980592645
 30
0.0
 11
12.97694834129042
 21
2.954332670748196
 31
0.0
  0
ELLIPSE
  5
107
330
2
100
AcDbEntity
  8
AM_VIS
100
AcDbEllipse
 10
13.22459182933409
 20
3.014310130180051
 30
0.0
 11
0.0220617315730203
 21
0.0
 31
0.0
210
-0.0000000000000001
220
0.0
230
1.0
 40
0.577350269189626
 41
0.000000000000018
 42
1.570796326794934
  0
LINE
  5
108
330
2
100
AcDbEntity
  8
AM_VIS
100
AcDbLine
 10
13.13235712874696
 20
2.976625376047804
 30
0.0
 11
13.17806420313202
 21
2.974710046005057
 31
0.0
  0
ELLIPSE
  5
109
330
2
100
AcDbEntity
  8
AM_VIS
100
AcDbEllipse
 10
13.17207799075298
 20
2.983991251339068
 30
0.0
 11
-0.0038612676758064
 21
0.0157199962855454
 31
0.0
210
0.0
220
0.0
230
1.0
 40
0.2909939316482388
 41
4.01133056946317
 42
5.582126896258105
  0
LINE
  5
10A
330
2
100
AcDbEntity
  8
AM_VIS
100
AcDbLine
 10
13.13190799645086
 20
2.976317598059534
 30
0.0
 11
13.17147162863073
 21
2.974659705614352
 31
0.0
  0
LINE
  5
10B
330
2
100
AcDbEntity
  8
AM_VIS
100
AcDbLine
 10
13.08067140410157
 20
2.943954980592645
 30
0.0
 11
13.02815756552047
 21
2.913636101751663
 31
0.0
  0
LINE
  5
10C
330
2
100
AcDbEntity
  8
AM_VIS
100
AcDbLine
 10
13.02815756552047
 20
2.888161408426718
 30
0.0
 11
13.02815756552047
 21
2.913636101751663
 31
0.0
  0
ELLIPSE
  5
10D
330
2
100
AcDbEntity
  8
AM_VIS
100
AcDbEllipse
 10
13.08067140410157
 20
2.931217633930174
 30
0.0
 11
0.015146193467732
 21
-0.0075243603893425
 31
0.0
210
0.0
220
0.0
230
1.0
 40
0.7158841592412517
 41
0.3416891760907235
 42
1.912485502885666
  0
LINE
  5
10E
330
2
100
AcDbEntity
  8
AM_VIS
100
AcDbLine
 10
13.02815756552047
 20
2.913636101751663
 30
0.0
 11
12.97564372693936
 21
2.943954980592644
 31
0.0
  0
LINE
  5
10F
330
2
100
AcDbEntity
  8
AM_VIS
100
AcDbLine
 10
13.07936678975051
 20
2.954332670748195
 30
0.0
 11
13.08067140410157
 21
2.943954980592645
 31
0.0
  0
ELLIPSE
  5
110
330
2
100
AcDbEntity
  8
AM_VIS
100
AcDbEllipse
 10
12.83172330170685
 20
3.014310130180051
 30
0.0
 11
-0.0220617315730203
 21
0.0
 31
0.0
210
0.0
220
0.0
230
1.0
 40
0.577350269189626
 41
4.712388980384713
 42
6.283185307179585
  0
ELLIPSE
  5
111
330
2
100
AcDbEntity
  8
AM_VIS
100
AcDbEllipse
 10
12.88423714028795
 20
3.044629009021033
 30
0.0
 11
0.0038612676758064
 21
-0.0157199962855454
 31
0.0
210
0.0
220
0.0
230
1.0
 40
0.2909939316482389
 41
2.440534242668354
 42
3.225932406065731
  0
LINE
  5
112
330
2
100
AcDbEntity
  8
AM_VIS
100
AcDbLine
 10
12.96137968123105
 20
2.901019618630591
 30
0.0
 11
12.96004670105595
 21
2.890416289585925
 31
0.0
  0
LINE
  5
113
330
2
100
AcDbEntity
  8
AM_VIS
100
AcDbLine
 10
12.95970835519129
 20
2.888920613874709
 30
0.0
 11
12.88018184827487
 21
2.934835264050617
 31
0.0
  0
LINE
  5
114
330
2
100
AcDbEntity
  8
AM_VIS
100
AcDbLine
 10
13.09660677584965
 20
2.888920613874713
 30
0.0
 11
13.17613328276607
 21
2.934835264050619
 31
0.0
  0
LINE
  5
115
330
2
100
AcDbEntity
  8
AM_VIS
100
AcDbLine
 10
12.87825092790892
 20
2.94901402673852
 30
0.0
 11
12.81173263794569
 21
2.987418379354825
 31
0.0
  0
LINE
  5
116
330
2
100
AcDbEntity
  8
AM_VIS
100
AcDbLine
 10
13.09660677584965
 20
2.901984559169555
 30
0.0
 11
13.02815756552047
 21
2.862465389160186
 31
0.0
  0
LINE
  5
117
330
2
100
AcDbEntity
  8
AM_VIS
100
AcDbLine
 10
13.02815756552047
 20
2.862465389160185
 30
0.0
 11
12.95970835519129
 21
2.901984559169552
 31
0.0
  0
LINE
  5
118
330
2
100
AcDbEntity
  8
AM_VIS
100
AcDbLine
 10
13.24458249309525
 20
2.987418379354828
 30
0.0
 11
13.17806420313202
 21
2.949014026738526
 31
0.0
  0
LINE
  5
119
330
2
100
AcDbEntity
  8
AM_VIS
100
AcDbLine
 10
13.1755401850693
 20
3.060387781049666
 30
0.0
 11
13.16411606552047
 21
3.059909059545868
 31
0.0
  0
LINE
  5
11A
330
2
100
AcDbEntity
  8
AM_VIS
100
AcDbLine
 10
12.96329544411477
 20
2.958060475823
 30
0.0
 11
12.95965179254996
 21
2.929076671571893
 31
0.0
  0
LINE
  5
11B
330
2
100
AcDbEntity
  8
AM_VIS
100
AcDbLine
 10
13.17631088211982
 20
3.060198476449658
 30
0.0
 11
13.24019182933409
 21
3.023316794379411
 31
0.0
  0
LINE
  5
11C
330
2
100
AcDbEntity
  8
AM_VIS
100
AcDbLine
 10
13.09666333849097
 20
2.929076671571895
 30
0.0
 11
13.09301968692617
 21
2.958060475822999
 31
0.0
  0
LINE
  5
11D
330
2
100
AcDbEntity
  8
AM_VIS
100
AcDbLine
 10
12.88000424892111
 20
3.060198476449656
 30
0.0
 11
12.81612330170684
 21
3.023316794379409
 31
0.0
  0
LINE
  5
11E
330
2
100
AcDbEntity
  8
AM_VIS
100
AcDbLine
 10
12.89219906552047
 20
3.059909059545868
 30
0.0
 11
12.88077494597163
 21
3.060387781049666
 31
0.0
  0
LINE
  5
11F
330
2
100
AcDbEntity
  8
AM_VIS
100
AcDbLine
 10
12.51550514916022
 20
3.184141419013018
 30
0.0
 11
12.52922172133683
 21
3.192060685651545
 31
0.0
  0
LINE
  5
120
330
2
100
AcDbEntity
  8
AM_VIS
100
AcDbLine
 10
12.51550514916022
 20
3.184141419013018
 30
0.0
 11
12.51550514916022
 21
3.160136419533743
 31
0.0
  0
LINE
  5
121
330
2
100
AcDbEntity
  8
AM_VIS
100
AcDbLine
 10
12.52922172133684
 20
3.168055686172275
 30
0.0
 11
12.51550514916022
 21
3.160136419533746
 31
0.0
  0
ELLIPSE
  5
122
330
2
100
AcDbEntity
  8
AM_VIS
100
AcDbEllipse
 10
12.37219108604996
 20
3.266557233296015
 30
0.0
 11
-0.0065867959762491
 21
-0.0004469094449675
 31
0.0
210
0.0000000000000001
220
0.0
230
1.0
 40
0.6174990585365726
 41
4.670516595063285
 42
6.241312921858312
  0
LINE
  5
123
330
2
100
AcDbEntity
  8
AM_VIS
100
AcDbLine
 10
12.36559851154867
 20
3.26628097505435
 30
0.0
 11
12.44691579138512
 21
3.219332421651003
 31
0.0
  0
LINE
  5
124
330
2
100
AcDbEntity
  8
AM_VIS
100
AcDbLine
 10
12.4472797864684
 20
3.227287234800972
 30
0.0
 11
12.37219108604996
 21
3.270639716200654
 31
0.0
  0
LINE
  5
125
330
2
100
AcDbEntity
  8
AM_VIS
100
AcDbLine
 10
12.44691579138512
 20
3.219332421651003
 30
0.0
 11
12.44691579138512
 21
3.223741503188013
 31
0.0
  0
LINE
  5
126
330
2
100
AcDbEntity
  8
AM_VIS
100
AcDbLine
 10
12.36559851154867
 20
3.270690056591359
 30
0.0
 11
12.36559851154867
 21
3.266280975054349
 31
0.0
  0
LINE
  5
127
330
2
100
AcDbEntity
  8
AM_VIS
100
AcDbLine
 10
12.29700915377358
 20
3.310290140766351
 30
0.0
 11
12.36559851154867
 21
3.270690056591357
 31
0.0
  0
LINE
  5
128
330
2
100
AcDbEntity
  8
AM_VIS
100
AcDbLine
 10
12.29700915377358
 20
3.286285141287077
 30
0.0
 11
12.29700915377358
 21
3.310290140766352
 31
0.0
  0
LINE
  5
129
330
2
100
AcDbEntity
  8
AM_VIS
100
AcDbLine
 10
12.36559851154867
 20
3.246685057112083
 30
0.0
 11
12.29700915377358
 21
3.286285141287077
 31
0.0
  0
LINE
  5
12A
330
2
100
AcDbEntity
  8
AM_VIS
100
AcDbLine
 10
12.36559851154867
 20
3.233621111817239
 30
0.0
 11
12.36559851154867
 21
3.246685057112082
 31
0.0
  0
LINE
  5
12B
330
2
100
AcDbEntity
  8
AM_VIS
100
AcDbLine
 10
12.44691579138513
 20
3.186672558413896
 30
0.0
 11
12.36559851154867
 21
3.233621111817241
 31
0.0
  0
LINE
  5
12C
330
2
100
AcDbEntity
  8
AM_VIS
100
AcDbLine
 10
12.44691579138513
 20
3.199736503708738
 30
0.0
 11
12.44691579138513
 21
3.186672558413894
 31
0.0
  0
LINE
  5
12D
330
2
100
AcDbEntity
  8
AM_VIS
100
AcDbLine
 10
12.51550514916022
 20
3.160136419533742
 30
0.0
 11
12.44691579138513
 21
3.199736503708736
 31
0.0
  0
LINE
  5
12E
330
2
100
AcDbEntity
  8
AM_VIS
100
AcDbLine
 10
12.44691579138513
 20
3.223741503188012
 30
0.0
 11
12.51550514916022
 21
3.184141419013017
 31
0.0
  0
ELLIPSE
  5
12F
330
2
100
AcDbEntity
  8
AM_VIS
100
AcDbEllipse
 10
12.37219108604996
 20
3.233897370058905
 30
0.0
 11
-0.0065867959762491
 21
-0.0004469094449675
 31
0.0
210
0.0000000000000001
220
0.0
230
1.0
 40
0.6174990585365727
 41
6.241312921858302
 42
7.026711085255784
  0
ELLIPSE
  5
130
330
2
100
AcDbEntity
  8
AM_VIS
100
AcDbEllipse
 10
12.4473942846957
 20
3.190478783076866
 30
0.0
 11
0.0003275784777824
 21
0.0055815404538519
 31
0.0
210
0.0
220
-0.0000000000000001
230
0.9999999999999998
 40
0.0624883054187576
 41
2.324856738272113
 42
3.895653065066967
  0
ELLIPSE
  5
131
330
2
100
AcDbEntity
  8
AM_VIS
100
AcDbEllipse
 10
12.30408022158544
 20
3.286285141287077
 30
0.0
 11
-0.0070710678118655
 21
0.0
 31
0.0
210
-0.0000000000000001
220
0.0
230
0.9999999999999998
 40
0.577350269189626
 41
0.0000000000001557
 42
0.7853981633976252
  0
LINE
  5
132
330
2
100
AcDbEntity
  8
AM_VIS
100
AcDbLine
 10
12.51550514916022
 20
3.158445399746486
 30
0.0
 11
12.51550514916022
 21
3.160136419533744
 31
0.0
  0
ELLIPSE
  5
133
330
2
100
AcDbEntity
  8
AM_VIS
100
AcDbEllipse
 10
12.44739428469571
 20
3.20354272837171
 30
0.0
 11
0.0003275784777824
 21
0.0055815404538519
 31
0.0
210
0.0
220
-0.0000000000000001
230
0.9999999999999998
 40
0.0624883054187575
 41
2.324856738265758
 42
3.110254901662149
  0
LINE
  5
134
330
2
100
AcDbEntity
  8
AM_VIS
100
AcDbLine
 10
12.36559851154867
 20
3.270690056591359
 30
0.0
 11
12.41130558593373
 21
3.272605386634107
 31
0.0
  0
LINE
  5
135
330
2
100
AcDbEntity
  8
AM_VIS
100
AcDbLine
 10
12.41175471822984
 20
3.272297608645835
 30
0.0
 11
12.37219108604996
 21
3.270639716200653
 31
0.0
  0
LINE
  5
136
330
2
100
AcDbEntity
  8
AM_VIS
100
AcDbLine
 10
12.38955941054233
 20
3.293461828034615
 30
0.0
 11
12.3715847239277
 21
3.292708608587841
 31
0.0
  0
ELLIPSE
  5
137
330
2
100
AcDbEntity
  8
AM_VIS
100
AcDbEllipse
 10
12.3715847239277
 20
3.279971261925371
 30
0.0
 11
-0.0038612676758059
 21
-0.0157199962855455
 31
0.0
210
0.0
220
0.0
230
0.9999999999999998
 40
0.2909939316482407
 41
3.842651064510556
 42
5.413447391305416
  0
LINE
  5
138
330
2
100
AcDbEntity
  8
AM_VIS
100
AcDbLine
 10
12.3715847239277
 20
3.353346366269807
 30
0.0
 11
12.37954664916022
 21
3.353012726132014
 31
0.0
  0
LINE
  5
139
330
2
100
AcDbEntity
  8
AM_VIS
100
AcDbLine
 10
12.3190708853466
 20
3.323027487428824
 30
0.0
 11
12.3715847239277
 21
3.353346366269806
 31
0.0
  0
LINE
  5
13A
330
2
100
AcDbEntity
  8
AM_VIS
100
AcDbLine
 10
12.37158472392771
 20
3.29270860858784
 30
0.0
 11
12.3190708853466
 21
3.323027487428823
 31
0.0
  0
ELLIPSE
  5
13B
330
2
100
AcDbEntity
  8
AM_VIS
100
AcDbEllipse
 10
12.46299131057911
 20
3.227197644516476
 30
0.0
 11
-0.0151461934677321
 21
-0.0075243603893424
 31
0.0
210
0.0000000000000001
220
0.0
230
1.0
 40
0.7158841592412513
 41
4.370699804293904
 42
5.941496131088881
  0
LINE
  5
13C
330
2
100
AcDbEntity
  8
AM_VIS
100
AcDbLine
 10
12.46299131057912
 20
3.239934991178945
 30
0.0
 11
12.46429592493018
 21
3.250312681334496
 31
0.0
  0
LINE
  5
13D
330
2
100
AcDbEntity
  8
AM_VIS
100
AcDbLine
 10
12.52922172133684
 20
3.217535378976492
 30
0.0
 11
12.51550514916022
 21
3.209616112337965
 31
0.0
  0
LINE
  5
13E
330
2
100
AcDbEntity
  8
AM_VIS
100
AcDbLine
 10
12.51550514916022
 20
3.184141419013018
 30
0.0
 11
12.51550514916022
 21
3.209616112337963
 31
0.0
  0
LINE
  5
13F
330
2
100
AcDbEntity
  8
AM_VIS
100
AcDbLine
 10
12.51550514916022
 20
3.209616112337963
 30
0.0
 11
12.46299131057911
 21
3.239934991178944
 31
0.0
  0
ELLIPSE
  5
140
330
2
100
AcDbEntity
  8
AM_VIS
100
AcDbEllipse
 10
12.3190708853466
 20
3.310290140766353
 30
0.0
 11
-0.0220617315730203
 21
0.0
 31
0.0
210
0.0
220
0.0
230
1.0
 40
0.577350269189626
 41
4.712388980384749
 42
6.283185307179627
  0
ELLIPSE
  5
141
330
2
100
AcDbEntity
  8
AM_VIS
100
AcDbEllipse
 10
12.3715847239277
 20
3.340609019607335
 30
0.0
 11
0.0038612676758064
 21
-0.0157199962855454
 31
0.0
210
0.0
220
0.0
230
1.0
 40
0.2909939316482389
 41
2.440534242668361
 42
3.225932406065743
  0
LINE
  5
142
330
2
100
AcDbEntity
  8
AM_VIS
100
AcDbLine
 10
12.4487272648708
 20
3.196999629216893
 30
0.0
 11
12.4473942846957
 21
3.186396300172226
 31
0.0
  0
LINE
  5
143
330
2
100
AcDbEntity
  8
AM_VIS
100
AcDbLine
 10
12.44705593883104
 20
3.184900624461011
 30
0.0
 11
12.36752943191462
 21
3.230815274636919
 31
0.0
  0
LINE
  5
144
330
2
100
AcDbEntity
  8
AM_VIS
100
AcDbLine
 10
12.36559851154867
 20
3.244994037324826
 30
0.0
 11
12.29908022158544
 21
3.283398389941129
 31
0.0
  0
LINE
  5
145
330
2
100
AcDbEntity
  8
AM_VIS
100
AcDbLine
 10
12.52922172133684
 20
3.166364666385014
 30
0.0
 11
12.51550514916022
 21
3.158445399746486
 31
0.0
  0
LINE
  5
146
330
2
100
AcDbEntity
  8
AM_VIS
100
AcDbLine
 10
12.51550514916022
 20
3.158445399746486
 30
0.0
 11
12.44705593883104
 21
3.197964569755854
 31
0.0
  0
LINE
  5
147
330
2
100
AcDbEntity
  8
AM_VIS
100
AcDbLine
 10
12.45064302775452
 20
3.254040486409301
 30
0.0
 11
12.44699937618972
 21
3.225056682158194
 31
0.0
  0
LINE
  5
148
330
2
100
AcDbEntity
  8
AM_VIS
100
AcDbLine
 10
12.36735183256087
 20
3.356178487035958
 30
0.0
 11
12.3034708853466
 21
3.319296804965711
 31
0.0
  0
LINE
  5
149
330
2
100
AcDbEntity
  8
AM_VIS
100
AcDbLine
 10
12.37954664916022
 20
3.355889070132167
 30
0.0
 11
12.36812252961138
 21
3.356367791635966
 31
0.0
  0
ELLIPSE
  5
14A
330
2
100
AcDbEntity
  8
AM_VIS
100
AcDbEllipse
 10
12.52736120856038
 20
3.214398741060747
 30
0.0
 11
0.1104904058810084
 21
0.1913749967348135
 31
0.0
210
0.0000000000000001
220
0.0000000000000001
230
1.0
 40
0.5773502691896259
 41
0.8613465220998904
 42
1.184436107448795
  0
ELLIPSE
  5
14B
330
2
100
AcDbEntity
  8
AM_VIS
100
AcDbEllipse
 10
12.50364908976007
 20
3.228088939233161
 30
0.0
 11
0.1104904058810198
 21
0.1913749967348068
 31
0.0
210
0.0
220
0.0
230
0.9999999999999998
 40
0.5773502691896259
 41
0.861346522100063
 42
1.184436107448968
  0
LINE
  5
14C
330
2
100
AcDbEntity
  8
AM_VIS
100
AcDbLine
 10
12.44293822536579
 20
3.359292131445471
 30
0.0
 11
12.49179303035991
 21
3.387498466260034
 31
0.0
  0
LINE
  5
14D
330
2
100
AcDbEntity
  8
AM_VIS
100
AcDbLine
 10
12.49179303035991
 20
3.401153793323537
 30
0.0
 11
12.49179303035991
 21
3.387498466260034
 31
0.0
  0
ELLIPSE
  5
14E
330
2
100
AcDbEntity
  8
AM_VIS
100
AcDbEllipse
 10
12.50364908976007
 20
3.228088939233161
 30
0.0
 11
0.1104904058810198
 21
0.1913749967348068
 31
0.0
210
0.0
220
0.0
230
0.9999999999999998
 40
0.5773502691896259
 41
0.6210011761856027
 42
0.7094498046951696
  0
LINE
  5
14F
330
2
100
AcDbEntity
  8
AM_VIS
100
AcDbLine
 10
12.51550514916023
 20
3.401188664432448
 30
0.0
 11
12.51550514916023
 21
3.41484399149595
 31
0.0
  0
LINE
  5
150
330
2
100
AcDbEntity
  8
AM_VIS
100
AcDbLine
 10
12.51550514916023
 20
3.401188664432448
 30
0.0
 11
12.52922172133684
 21
3.409107931070974
 31
0.0
  0
ELLIPSE
  5
151
330
2
100
AcDbEntity
  8
AM_VIS
100
AcDbEllipse
 10
12.52736120856038
 20
3.228088939233161
 30
0.0
 11
-0.1104904058810083
 21
0.1913749967348135
 31
0.0
210
0.0000000000000001
220
-0.0000000000000001
230
1.0
 40
0.5773502691896258
 41
5.573735502484575
 42
5.896825087833489
  0
LINE
  5
152
330
2
100
AcDbEntity
  8
AM_VIS
100
AcDbLine
 10
12.4666503441661
 20
3.42939499924701
 30
0.0
 11
12.51550514916022
 21
3.401188664432447
 31
0.0
  0
ELLIPSE
  5
153
330
2
100
AcDbEntity
  8
AM_VIS
100
AcDbEllipse
 10
12.51550514916023
 20
3.387498466260035
 30
0.0
 11
0.087480000000001
 21
-0.0000000000000052
 31
0.0
210
0.0000000000000001
220
0.0
230
1.0
 40
0.5773502691896257
 41
2.163334474092942
 42
2.549054506292078
  0
ELLIPSE
  5
154
330
2
100
AcDbEntity
  8
AM_VIS
100
AcDbEllipse
 10
12.51550514916023
 20
3.387498466260035
 30
0.0
 11
0.087480000000001
 21
-0.0000000000000052
 31
0.0
210
0.0
220
0.0
230
1.0
 40
0.5773502691896257
 41
3.734130800887869
 42
4.119850833087007
  0
ELLIPSE
  5
155
330
2
100
AcDbEntity
  8
AM_VIS
100
AcDbEllipse
 10
12.50364908976007
 20
3.214398741060747
 30
0.0
 11
-0.1104904058810197
 21
0.1913749967348069
 31
0.0
210
0.0000000000000001
220
-0.0000000000000001
230
1.0
 40
0.5773502691896258
 41
5.573735502484407
 42
5.896825087833319
  0
ELLIPSE
  5
156
330
2
100
AcDbEntity
  8
AM_VIS
100
AcDbEllipse
 10
12.50364908976007
 20
3.214398741060747
 30
0.0
 11
-0.1104904058810197
 21
0.1913749967348069
 31
0.0
210
0.0000000000000001
220
-0.0000000000000001
230
1.0
 40
0.5773502691896258
 41
5.333390156569937
 42
5.421838785079509
  0
ELLIPSE
  5
157
330
2
100
AcDbEntity
  8
AM_VIS
100
AcDbEllipse
 10
12.51550514916022
 20
3.323027487428825
 30
0.0
 11
0.1359585000000001
 21
0.0
 31
0.0
210
0.0000000000000002
220
0.0
230
1.0
 40
0.5773502691896255
 41
3.141592653589786
 42
4.813448848949775
  0
ELLIPSE
  5
158
330
2
100
AcDbEntity
  8
AM_VIS
100
AcDbEllipse
 10
12.51550514916022
 20
3.358189486381144
 30
0.0
 11
0.1359585000000001
 21
0.0
 31
0.0
210
0.0000000000000002
220
0.0
230
1.0
 40
0.5773502691896255
 41
3.141592653589778
 42
4.813448848949768
  0
ELLIPSE
  5
159
330
2
100
AcDbEntity
  8
AM_VIS
100
AcDbEllipse
 10
12.51550514916023
 20
3.367833545975102
 30
0.0
 11
0.1299262816901407
 21
0.0
 31
0.0
210
-0.0000000000000001
220
0.0
230
1.0
 40
0.5773502691896258
 41
1.785236471432556
 42
4.81815803787694
  0
LINE
  5
15A
330
2
100
AcDbEntity
  8
AM_VIS
100
AcDbLine
 10
12.37954664916022
 20
3.323027487428824
 30
0.0
 11
12.37954664916022
 21
3.358189486381144
 31
0.0
  0
SPLINE
  5
15B
330
2
100
AcDbEntity
  8
AM_VIS
100
AcDbSpline
210
-0.0000000000000152
220
0.000000000000022
230
1.0
 70
     8
 71
     1
 72
    13
 73
    11
 74
     0
 42
0.0000000001
 43
0.0000000001
 40
2.57063463483058
 40
2.57063463483058
 40
2.706270253046246
 40
2.841905871261911
 40
2.977541489477577
 40
3.113177107693243
 40
3.248812725908909
 40
3.384448344124574
 40
3.52008396234024
 40
3.655719580555905
 40
3.791355198771571
 40
3.926990816987236
 40
3.926990816987236
 10
12.48785678062347
 20
3.441128398889166
 30
0.0
 10
12.47086873321263
 20
3.438283413251491
 30
-0.0000000000000036
 10
12.45459046967917
 20
3.434109031186626
 30
-0.0000000000000018
 10
12.43927737085211
 20
3.428643759156177
 30
-0.0000000000000018
 10
12.4251692540063
 20
3.421929732631376
 30
-0.0000000000000018
 10
12.41249284839377
 20
3.414005747613103
 30
0.0
 10
12.40147260171477
 20
3.404902018026916
 30
-0.0000000000000018
 10
12.39235335559143
 20
3.394645639339692
 30
-0.0000000000000036
 10
12.38543000914756
 20
3.383294997669606
 30
-0.0000000000000018
 10
12.38105245744905
 20
3.371019408836527
 30
0.0
 10
12.37954664916022
 20
3.358189486381146
 30
-0.0000000000000018
  0
ARC
  5
15C
330
2
100
AcDbEntity
  8
AM_VIS
100
AcDbCircle
 10
12.51550514916023
 20
3.221243840146955
 30
0.0
 40
0.2216159999999996
100
AcDbArc
 50
86.45150019174769
 51
97.1667807044049
  0
ELLIPSE
  5
15D
330
2
100
AcDbEntity
  8
AM_VIS
100
AcDbEllipse
 10
13.04001362492062
 20
2.918418730474446
 30
0.0
 11
0.1104904058810084
 21
0.1913749967348135
 31
0.0
210
0.0000000000000001
220
0.0000000000000001
230
1.0
 40
0.5773502691896259
 41
0.8613465220998904
 42
1.184436107448795
  0
ELLIPSE
  5
15E
330
2
100
AcDbEntity
  8
AM_VIS
100
AcDbEllipse
 10
13.04001362492062
 20
2.918418730474446
 30
0.0
 11
0.1104904058810084
 21
0.1913749967348135
 31
0.0
210
0.0000000000000001
220
0.0000000000000001
230
1.0
 40
0.5773502691896259
 41
0.3863602193460959
 42
0.7094498046949971
  0
LINE
  5
15F
330
2
100
AcDbEntity
  8
AM_VIS
100
AcDbLine
 10
13.05186968432078
 20
3.105173782737235
 30
0.0
 11
13.05186968432078
 21
3.091518455673733
 31
0.0
  0
ELLIPSE
  5
160
330
2
100
AcDbEntity
  8
AM_VIS
100
AcDbEllipse
 10
13.01630150612032
 20
2.932108928646862
 30
0.0
 11
0.1104904058810198
 21
0.1913749967348068
 31
0.0
210
0.0
220
0.0
230
0.9999999999999998
 40
0.5773502691896259
 41
0.8613465221000636
 42
1.184436107448968
  0
LINE
  5
161
330
2
100
AcDbEntity
  8
AM_VIS
100
AcDbLine
 10
12.95559064172604
 20
3.063312120859169
 30
0.0
 11
13.00444544672016
 21
3.091518455673732
 31
0.0
  0
LINE
  5
162
330
2
100
AcDbEntity
  8
AM_VIS
100
AcDbLine
 10
13.00444544672016
 20
3.105173782737235
 30
0.0
 11
13.00444544672016
 21
3.091518455673733
 31
0.0
  0
ELLIPSE
  5
163
330
2
100
AcDbEntity
  8
AM_VIS
100
AcDbEllipse
 10
13.01630150612032
 20
2.932108928646862
 30
0.0
 11
0.1104904058810198
 21
0.1913749967348068
 31
0.0
210
0.0
220
0.0
230
0.9999999999999998
 40
0.5773502691896259
 41
0.3863602193462692
 42
0.7094498046951701
  0
LINE
  5
164
330
2
100
AcDbEntity
  8
AM_VIS
100
AcDbLine
 10
13.02815756552047
 20
3.105208653846148
 30
0.0
 11
13.02815756552047
 21
3.11886398090965
 31
0.0
  0
LINE
  5
165
330
2
100
AcDbEntity
  8
AM_VIS
100
AcDbLine
 10
13.02815756552047
 20
3.105208653846148
 30
0.0
 11
13.07701237051459
 21
3.13341498866071
 31
0.0
  0
ELLIPSE
  5
166
330
2
100
AcDbEntity
  8
AM_VIS
100
AcDbEllipse
 10
13.04001362492062
 20
2.932108928646862
 30
0.0
 11
-0.1104904058810083
 21
0.1913749967348135
 31
0.0
210
0.0000000000000001
220
-0.0000000000000001
230
1.0
 40
0.5773502691896258
 41
5.573735502484575
 42
5.896825087833489
  0
LINE
  5
167
330
2
100
AcDbEntity
  8
AM_VIS
100
AcDbLine
 10
12.97930276052635
 20
3.13341498866071
 30
0.0
 11
13.02815756552047
 21
3.105208653846147
 31
0.0
  0
LINE
  5
168
330
2
100
AcDbEntity
  8
AM_VIS
100
AcDbLine
 10
13.05186968432078
 20
3.091518455673732
 30
0.0
 11
13.1007244893149
 21
3.06331212085917
 31
0.0
  0
ELLIPSE
  5
169
330
2
100
AcDbEntity
  8
AM_VIS
100
AcDbEllipse
 10
13.04001362492062
 20
2.932108928646862
 30
0.0
 11
-0.1104904058810083
 21
0.1913749967348135
 31
0.0
210
0.0000000000000001
220
-0.0000000000000001
230
1.0
 40
0.5773502691896258
 41
5.098749199730781
 42
5.421838785079677
  0
ELLIPSE
  5
16A
330
2
100
AcDbEntity
  8
AM_VIS
100
AcDbEllipse
 10
13.02815756552047
 20
3.091518455673734
 30
0.0
 11
0.087480000000001
 21
-0.0000000000000052
 31
0.0
210
0.0000000000000001
220
0.0
230
1.0
 40
0.5773502691896257
 41
5.304927127682754
 42
5.69064715988188
  0
ELLIPSE
  5
16B
330
2
100
AcDbEntity
  8
AM_VIS
100
AcDbEllipse
 10
13.02815756552047
 20
3.091518455673734
 30
0.0
 11
0.087480000000001
 21
-0.0000000000000052
 31
0.0
210
0.0
220
0.0
230
1.0
 40
0.5773502691896257
 41
0.592538147298034
 42
0.9782581794971713
  0
ELLIPSE
  5
16C
330
2
100
AcDbEntity
  8
AM_VIS
100
AcDbEllipse
 10
13.02815756552047
 20
3.091518455673734
 30
0.0
 11
0.087480000000001
 21
-0.0000000000000052
 31
0.0
210
0.0000000000000001
220
0.0
230
1.0
 40
0.5773502691896257
 41
2.163334474092941
 42
2.549054506292077
  0
ELLIPSE
  5
16D
330
2
100
AcDbEntity
  8
AM_VIS
100
AcDbEllipse
 10
13.02815756552047
 20
3.091518455673734
 30
0.0
 11
0.087480000000001
 21
-0.0000000000000052
 31
0.0
210
0.0
220
0.0
230
1.0
 40
0.5773502691896257
 41
3.734130800887869
 42
4.119850833087006
  0
ELLIPSE
  5
16E
330
2
100
AcDbEntity
  8
AM_VIS
100
AcDbEllipse
 10
13.01630150612031
 20
2.918418730474447
 30
0.0
 11
-0.1104904058810197
 21
0.1913749967348069
 31
0.0
210
0.0000000000000001
220
-0.0000000000000001
230
1.0
 40
0.5773502691896258
 41
5.573735502484407
 42
5.896825087833319
  0
ELLIPSE
  5
16F
330
2
100
AcDbEntity
  8
AM_VIS
100
AcDbEllipse
 10
13.01630150612031
 20
2.918418730474447
 30
0.0
 11
-0.1104904058810197
 21
0.1913749967348069
 31
0.0
210
0.0000000000000001
220
-0.0000000000000001
230
1.0
 40
0.5773502691896258
 41
5.098749199730612
 42
5.421838785079509
  0
ELLIPSE
  5
170
330
2
100
AcDbEntity
  8
AM_VIS
100
AcDbEllipse
 10
13.02815756552047
 20
3.027047476842524
 30
0.0
 11
0.1359585000000001
 21
0.0
 31
0.0
210
0.0000000000000002
220
0.0
230
1.0
 40
0.5773502691896255
 41
3.141592653589785
 42
6.283185307179582
  0
ELLIPSE
  5
171
330
2
100
AcDbEntity
  8
AM_VIS
100
AcDbEllipse
 10
13.02815756552047
 20
3.062209475794842
 30
0.0
 11
0.1359585000000001
 21
0.0
 31
0.0
210
0.0000000000000002
220
0.0
230
1.0
 40
0.5773502691896255
 41
3.141592653589779
 42
6.28318530717958
  0
ELLIPSE
  5
172
330
2
100
AcDbEntity
  8
AM_VIS
100
AcDbEllipse
 10
13.02815756552047
 20
3.071853535388802
 30
0.0
 11
0.1299262816901407
 21
0.0
 31
0.0
210
-0.0000000000000001
220
0.0
230
1.0
 40
0.5773502691896258
 41
0.7853981633974439
 42
1.356356182157513
  0
ELLIPSE
  5
173
330
2
100
AcDbEntity
  8
AM_VIS
100
AcDbEllipse
 10
13.02815756552047
 20
3.071853535388802
 30
0.0
 11
0.1299262816901407
 21
0.0
 31
0.0
210
-0.0000000000000001
220
0.0
230
1.0
 40
0.5773502691896258
 41
1.785236471432556
 42
7.068583470577057
  0
LINE
  5
174
330
2
100
AcDbEntity
  8
AM_VIS
100
AcDbLine
 10
12.89219906552047
 20
3.027047476842524
 30
0.0
 11
12.89219906552047
 21
3.062209475794844
 31
0.0
  0
LINE
  5
175
330
2
100
AcDbEntity
  8
AM_VIS
100
AcDbLine
 10
13.16411606552047
 20
3.027047476842522
 30
0.0
 11
13.16411606552047
 21
3.062209475794842
 31
0.0
  0
SPLINE
  5
176
330
2
100
AcDbEntity
  8
AM_VIS
100
AcDbSpline
210
0.0000000000000346
220
0.0000000000000534
230
-1.0
 70
     8
 71
     1
 72
    14
 73
    12
 74
     0
 42
0.0000000001
 43
0.0000000001
 40
0.7853981633974483
 40
0.7853981633974483
 40
0.9186485505907967
 40
1.051898937784145
 40
1.187534555999925
 40
1.323170174215706
 40
1.458805792431487
 40
1.594441410647267
 40
1.730077028863048
 40
1.865712647078829
 40
2.00134826529461
 40
2.13698388351039
 40
2.141754345555255
 40
2.141754345555255
 10
13.16411606552047
 20
3.062209475794844
 30
-0.0000000000000036
 10
13.16266232636726
 20
3.074817141921549
 30
0.0
 10
13.15843200147968
 20
3.086897422230197
 30
-0.0000000000000018
 10
13.15159203786193
 20
3.098284427565328
 30
-0.0000000000000036
 10
13.14254465142636
 20
3.108580649352296
 30
-0.0000000000000018
 10
13.13158690208236
 20
3.11772541528219
 30
-0.0000000000000036
 10
13.11896489803505
 20
3.125691351043958
 30
0.0
 10
13.10490334599854
 20
3.132448551050197
 30
-0.0000000000000018
 10
13.08962864980347
 20
3.137958459291818
 30
-0.0000000000000018
 10
13.07338008783003
 20
3.142178936536167
 30
-0.0000000000000036
 10
13.05641251122335
 20
3.145071241634182
 30
-0.0000000000000018
 10
13.05580593405708
 20
3.145148388302883
 30
0.0
  0
SPLINE
  5
177
330
2
100
AcDbEntity
  8
AM_VIS
100
AcDbSpline
210
0.0000000000001591
220
-0.0000000000002308
230
1.0
 70
     8
 71
     1
 72
    13
 73
    11
 74
     0
 42
0.0000000001
 43
0.0000000001
 40
2.57063463483058
 40
2.57063463483058
 40
2.706270253046246
 40
2.841905871261911
 40
2.977541489477577
 40
3.113177107693243
 40
3.248812725908909
 40
3.384448344124574
 40
3.52008396234024
 40
3.655719580555905
 40
3.791355198771571
 40
3.926990816987236
 40
3.926990816987236
 10
13.00050919698371
 20
3.145148388302864
 30
0.0
 10
12.98352114957288
 20
3.142303402665191
 30
0.0
 10
12.96724288603942
 20
3.138129020600327
 30
0.0
 10
12.95192978721236
 20
3.132663748569875
 30
-0.0000000000000018
 10
12.93782167036655
 20
3.125949722045074
 30
-0.0000000000000018
 10
12.92514526475402
 20
3.118025737026801
 30
-0.0000000000000018
 10
12.91412501807502
 20
3.108922007440618
 30
-0.0000000000000036
 10
12.90500577195167
 20
3.098665628753391
 30
-0.0000000000000053
 10
12.89808242550781
 20
3.087314987083306
 30
-0.0000000000000036
 10
12.8937048738093
 20
3.075039398250225
 30
0.0
 10
12.89219906552047
 20
3.062209475794848
 30
-0.0000000000000036
  0
ARC
  5
178
330
2
100
AcDbEntity
  8
AM_VIS
100
AcDbCircle
 10
13.02815756552047
 20
2.925263829560655
 30
0.0
 40
0.2216159999999996
100
AcDbArc
 50
82.83321929559509
 51
97.1667807044049
  0
LINE
  5
179
330
2
100
AcDbEntity
  8
AM_VIS
100
AcDbLine
 10
13.24135026004821
 20
2.963039860373855
 30
0.0
 11
13.02356137144276
 21
2.837299386910986
 31
0.0
  0
LINE
  5
17A
330
2
100
AcDbEntity
  8
AM_VIS
100
AcDbLine
 10
13.02356137144276
 20
2.7817776194079
 30
0.0
 11
13.02356137144276
 21
2.837299386910986
 31
0.0
  0
LINE
  5
17B
330
2
100
AcDbEntity
  8
AM_VIS
100
AcDbLine
 10
13.02406045735791
 20
2.782065766795364
 30
0.0
 11
13.02356137144276
 21
2.781777619407901
 31
0.0
  0
LINE
  5
17C
330
2
100
AcDbEntity
  8
AM_VIS
100
AcDbLine
 10
13.24135026004821
 20
2.957054730522525
 30
0.0
 11
13.24135026004821
 21
2.963039860373856
 31
0.0
  0
LINE
  5
17D
330
2
100
AcDbEntity
  8
AM_VIS
100
AcDbLine
 10
13.02356137144276
 20
2.837299386910986
 30
0.0
 11
12.30231245463248
 21
3.253712643184126
 31
0.0
  0
LINE
  5
17E
330
2
100
AcDbEntity
  8
AM_VIS
100
AcDbLine
 10
12.30231245463248
 20
3.198190875681042
 30
0.0
 11
12.30231245463248
 21
3.253712643184127
 31
0.0
  0
LINE
  5
17F
330
2
100
AcDbEntity
  8
AM_VIS
100
AcDbLine
 10
13.02356137144276
 20
2.7817776194079
 30
0.0
 11
12.30231245463248
 21
3.19819087568104
 31
0.0
  0
LINE
  5
180
330
2
100
AcDbEntity
  8
AM_VIS
100
AcDbLine
 10
12.30231245463248
 20
3.253712643184126
 30
0.0
 11
12.32640494893084
 21
3.267622451252733
 31
0.0
  0
LINE
  5
181
330
2
100
AcDbEntity
  8
AM_VIS
100
AcDbLine
 10
13.22185395982756
 20
2.97429605455445
 30
0.0
 11
13.24135026004822
 21
2.963039860373855
 31
0.0
  0
LINE
  5
182
330
2
100
AcDbEntity
  8
AM_VIS
100
AcDbLine
 10
7.64148494261362
 20
4.876182462905111
 30
0.0
 11
7.32248494261362
 21
4.876182462905111
 31
0.0
  0
LINE
  5
183
330
2
100
AcDbEntity
  8
AM_HID
100
AcDbLine
 10
7.64148494261362
 20
4.803390462905108
 30
0.0
 11
7.32248494261362
 21
4.803390462905108
 31
0.0
  0
LINE
  5
186
330
2
100
AcDbEntity
  8
AM_HID
100
AcDbLine
 10
7.64148494261362
 20
4.586025462905109
 30
0.0
 11
7.32248494261362
 21
4.586025462905109
 31
0.0
  0
LINE
  5
187
330
2
100
AcDbEntity
  8
AM_VIS
100
AcDbLine
 10
7.69748494261362
 20
4.352484462905112
 30
0.0
 11
7.69748494261362
 21
4.362594462905106
 31
0.0
  0
LINE
  5
188
330
2
100
AcDbEntity
  8
AM_VIS
100
AcDbLine
 10
7.69748494261362
 20
4.352484462905112
 30
0.0
 11
7.69748494261362
 21
4.062686701842027
 31
0.0
  0
LINE
  5
189
330
2
100
AcDbEntity
  8
AM_VIS
100
AcDbLine
 10
7.69748494261362
 20
3.999486701842027
 30
0.0
 11
7.69748494261362
 21
4.062686701842027
 31
0.0
  0
LINE
  5
18A
330
2
100
AcDbEntity
  8
AM_VIS
100
AcDbLine
 10
7.32248494261362
 20
4.86607246290511
 30
0.0
 11
7.32248494261362
 21
4.876182462905112
 31
0.0
  0
LINE
  5
18B
330
2
100
AcDbEntity
  8
AM_VIS
100
AcDbLine
 10
7.64148494261362
 20
4.86607246290511
 30
0.0
 11
7.32248494261362
 21
4.86607246290511
 31
0.0
  0
LINE
  5
18C
330
2
100
AcDbEntity
  8
AM_VIS
100
AcDbLine
 10
7.32248494261362
 20
4.866072462905109
 30
0.0
 11
7.32248494261362
 21
4.789971876225799
 31
0.0
  0
LINE
  5
18D
330
2
100
AcDbEntity
  8
AM_VIS
100
AcDbLine
 10
7.64148494261362
 20
4.7899718762258
 30
0.0
 11
7.32248494261362
 21
4.7899718762258
 31
0.0
  0
LINE
  5
18E
330
2
100
AcDbEntity
  8
AM_VIS
100
AcDbLine
 10
7.32248494261362
 20
4.7899718762258
 30
0.0
 11
7.32248494261362
 21
4.776052746466818
 31
0.0
  0
LINE
  5
18F
330
2
100
AcDbEntity
  8
AM_VIS
100
AcDbLine
 10
7.32248494261362
 20
4.713825206573359
 30
0.0
 11
7.32248494261362
 21
4.776052746466818
 31
0.0
  0
LINE
  5
190
330
2
100
AcDbEntity
  8
AM_HID
100
AcDbLine
 10
7.69748494261362
 20
4.26149446290511
 30
0.0
 11
7.32248494261362
 21
4.26149446290511
 31
0.0
  0
LINE
  5
191
330
2
100
AcDbEntity
  8
AM_VIS
100
AcDbLine
 10
7.69748494261362
 20
4.362594462905105
 30
0.0
 11
7.32248494261362
 21
4.362594462905105
 31
0.0
  0
LINE
  5
192
330
2
100
AcDbEntity
  8
AM_VIS
100
AcDbLine
 10
7.32248494261362
 20
4.352484462905112
 30
0.0
 11
7.32248494261362
 21
4.362594462905106
 31
0.0
  0
LINE
  5
193
330
2
100
AcDbEntity
  8
AM_VIS
100
AcDbLine
 10
7.32248494261362
 20
4.352484462905112
 30
0.0
 11
7.32248494261362
 21
4.062686701842027
 31
0.0
  0
LINE
  5
194
330
2
100
AcDbEntity
  8
AM_VIS
100
AcDbLine
 10
7.32248494261362
 20
3.999486701842027
 30
0.0
 11
7.32248494261362
 21
4.062686701842027
 31
0.0
  0
LINE
  5
195
330
2
100
AcDbEntity
  8
AM_VIS
100
AcDbLine
 10
7.69748494261362
 20
3.999486701842027
 30
0.0
 11
7.32248494261362
 21
3.999486701842027
 31
0.0
  0
LINE
  5
196
330
2
100
AcDbEntity
  8
AM_HID
100
AcDbLine
 10
7.69748494261362
 20
4.231158448195049
 30
0.0
 11
7.32248494261362
 21
4.231158448195049
 31
0.0
  0
LINE
  5
197
330
2
100
AcDbEntity
  8
AM_HID
100
AcDbLine
 10
7.69748494261362
 20
4.572310462905107
 30
0.0
 11
7.32248494261362
 21
4.572310462905107
 31
0.0
  0
LINE
  5
198
330
2
100
AcDbEntity
  8
AM_HID
100
AcDbLine
 10
7.69748494261362
 20
4.384810462905107
 30
0.0
 11
7.32248494261362
 21
4.384810462905107
 31
0.0
  0
LINE
  5
199
330
2
100
AcDbEntity
  8
AM_HID
100
AcDbLine
 10
7.69748494261362
 20
4.268725462905107
 30
0.0
 11
7.32248494261362
 21
4.268725462905107
 31
0.0
  0
LINE
  5
19A
330
2
100
AcDbEntity
  8
AM_HID
100
AcDbLine
 10
7.69748494261362
 20
4.50514546290511
 30
0.0
 11
7.32248494261362
 21
4.50514546290511
 31
0.0
  0
LINE
  5
19B
330
2
100
AcDbEntity
  8
AM_HID
100
AcDbLine
 10
7.641484942613619
 20
4.656795462905106
 30
0.0
 11
7.32248494261362
 21
4.656795462905106
 31
0.0
  0
LINE
  5
19C
330
2
100
AcDbEntity
  8
AM_HID
100
AcDbLine
 10
7.641484942613619
 20
5.34775656290506
 30
0.0
 11
7.32248494261362
 21
5.34775656290506
 31
0.0
  0
LINE
  5
19D
330
2
100
AcDbEntity
  8
AM_HID
100
AcDbLine
 10
7.69748494261362
 20
4.687125462905114
 30
0.0
 11
7.32248494261362
 21
4.687125462905114
 31
0.0
  0
ARC
  5
19E
330
2
100
AcDbEntity
  8
AM_HID
100
AcDbCircle
 10
7.631484942613618
 20
4.932033462905106
 30
0.0
 40
0.005
100
AcDbArc
 50
359.9999999999992
 51
89.99999999999317
  0
LINE
  5
19F
330
2
100
AcDbEntity
  8
AM_HID
100
AcDbLine
 10
7.576724527203068
 20
4.937033462905107
 30
0.0
 11
7.579493793657813
 21
4.937033462905107
 31
0.0
  0
LINE
  5
1A0
330
2
100
AcDbEntity
  8
AM_HID
100
AcDbLine
 10
7.579493793657812
 20
4.937033462905107
 30
0.0
 11
7.631484942613618
 21
4.937033462905107
 31
0.0
  0
ELLIPSE
  5
1A1
330
2
100
AcDbEntity
  8
AM_VIS
100
AcDbEllipse
 10
7.428808250884292
 20
4.932033462905106
 30
0.0
 11
0.0
 21
0.005
 31
0.0
210
0.0
220
0.0
230
1.0
 40
0.8646616541353592
 41
-0.000000000000056
 42
1.57079632679491
  0
ELLIPSE
  5
1A2
330
2
100
AcDbEntity
  8
AM_VIS
100
AcDbEllipse
 10
7.535161634342943
 20
4.932033462905106
 30
0.0
 11
0.0
 21
-0.005
 31
0.0
210
0.0
220
0.0
230
1.0
 40
0.8646616541353512
 41
1.57079632679491
 42
3.141592653589917
  0
LINE
  5
1A3
330
2
100
AcDbEntity
  8
AM_VIS
100
AcDbLine
 10
7.535161634342943
 20
4.937033462905107
 30
0.0
 11
7.428808250884292
 21
4.937033462905107
 31
0.0
  0
LINE
  5
1A4
330
2
100
AcDbEntity
  8
AM_VIS
100
AcDbLine
 10
7.53948494261362
 20
4.932033462905106
 30
0.0
 11
7.53948494261362
 21
4.937433462905106
 31
0.0
  0
LINE
  5
1A5
330
2
100
AcDbEntity
  8
AM_VIS
100
AcDbLine
 10
7.424484942613616
 20
4.932033462905106
 30
0.0
 11
7.424484942613616
 21
4.937433462905106
 31
0.0
  0
LINE
  5
1A6
330
2
100
AcDbEntity
  8
AM_VIS
100
AcDbLine
 10
7.327484942613619
 20
4.937433462905107
 30
0.0
 11
7.327484942613619
 21
4.908033462905107
 31
0.0
  0
LINE
  5
1A7
330
2
100
AcDbEntity
  8
AM_VIS
100
AcDbLine
 10
7.42448494261362
 20
4.892033462905107
 30
0.0
 11
7.42448494261362
 21
4.908033462905107
 31
0.0
  0
LINE
  5
1A8
330
2
100
AcDbEntity
  8
AM_VIS
100
AcDbLine
 10
7.539484942613621
 20
4.908033462905107
 30
0.0
 11
7.539484942613621
 21
4.892033462905107
 31
0.0
  0
LINE
  5
1A9
330
2
100
AcDbEntity
  8
AM_VIS
100
AcDbLine
 10
7.636484942613618
 20
4.937433462905107
 30
0.0
 11
7.636484942613618
 21
4.908033462905107
 31
0.0
  0
ARC
  5
1AA
330
2
100
AcDbEntity
  8
AM_HID
100
AcDbCircle
 10
7.332484942613619
 20
4.932033462905106
 30
0.0
 40
0.005
100
AcDbArc
 50
89.99999999999657
 51
179.9999999999992
  0
LINE
  5
1AB
330
2
100
AcDbEntity
  8
AM_VIS
100
AcDbLine
 10
7.327484942613619
 20
4.908033462905107
 30
0.0
 11
7.327484942613619
 21
4.892033462905107
 31
0.0
  0
ARC
  5
1AC
330
2
100
AcDbEntity
  8
AM_VIS
100
AcDbCircle
 10
7.332484942613619
 20
4.892033462905107
 30
0.0
 40
0.005
100
AcDbArc
 50
180.0000000000002
 51
269.9999999999979
  0
ELLIPSE
  5
1AD
330
2
100
AcDbEntity
  8
AM_VIS
100
AcDbEllipse
 10
7.535161634342944
 20
4.892033462905107
 30
0.0
 11
0.0
 21
0.005
 31
0.0
210
0.0
220
0.0
230
1.0
 40
0.8646616541353488
 41
3.14159265358967
 42
4.712388980384678
  0
ELLIPSE
  5
1AE
330
2
100
AcDbEntity
  8
AM_VIS
100
AcDbEllipse
 10
7.428808250884297
 20
4.892033462905107
 30
0.0
 11
0.0
 21
-0.005
 31
0.0
210
0.0
220
0.0
230
1.0
 40
0.8646616541353626
 41
4.712388980384679
 42
6.283185307179702
  0
LINE
  5
1AF
330
2
100
AcDbEntity
  8
AM_VIS
100
AcDbLine
 10
7.428808250884297
 20
4.887033462905106
 30
0.0
 11
7.535161634342944
 21
4.887033462905106
 31
0.0
  0
ELLIPSE
  5
1B0
330
2
100
AcDbEntity
  8
AM_HID
100
AcDbEllipse
 10
7.428808250884297
 20
4.908033462905107
 30
0.0
 11
0.0
 21
-0.005
 31
0.0
210
0.0
220
0.0
230
1.0
 40
0.8646616541353632
 41
4.712388980384675
 42
6.2831853071796
  0
LINE
  5
1B1
330
2
100
AcDbEntity
  8
AM_HID
100
AcDbLine
 10
7.476090576235445
 20
4.903033462905107
 30
0.0
 11
7.428808250884293
 21
4.903033462905107
 31
0.0
  0
SPLINE
  5
1B2
330
2
100
AcDbEntity
  8
AM_HID
100
AcDbSpline
210
0.0
220
0.0
230
1.0
 70
     8
 71
     3
 72
    14
 73
    10
 74
     0
 42
0.0000000001
 43
0.0000000001
 40
0.008322015342173
 40
0.008322015342173
 40
0.008322015342173
 40
0.008322015342173
 40
0.0108383486000981
 40
0.0108383486000981
 40
0.0131131555432174
 40
0.0131131555432174
 40
0.0150716653566343
 40
0.0150716653566343
 40
0.0167760747934346
 40
0.0167760747934346
 40
0.0167760747934346
 40
0.0167760747934346
 10
7.476090576235449
 20
4.903033462905106
 30
0.0
 10
7.476639190558671
 20
4.903033462905107
 30
0.0
 10
7.477288392260629
 20
4.903200561537087
 30
0.0
 10
7.478272018865571
 20
4.903738089288878
 30
0.0
 10
7.478792725432672
 20
4.904178735515167
 30
0.0
 10
7.479494422460474
 20
4.905095393998914
 30
0.0
 10
7.479817846324141
 20
4.905703018684886
 30
0.0
 10
7.480164870637187
 20
4.906802688939192
 30
0.0
 10
7.480269752414268
 20
4.907465326426174
 30
0.0
 10
7.48026975241427
 20
4.908033462905107
 30
0.0
  0
LINE
  5
1B3
330
2
100
AcDbEntity
  8
AM_HID
100
AcDbLine
 10
7.480269752414268
 20
4.908033462905107
 30
0.0
 11
7.480269752414268
 21
4.887033462905107
 31
0.0
  0
ARC
  5
1B4
330
2
100
AcDbEntity
  8
AM_VIS
100
AcDbCircle
 10
7.631484942613618
 20
4.892033462905107
 30
0.0
 40
0.005
100
AcDbArc
 50
269.9999999999947
 51
0.0000000000000799
  0
LINE
  5
1B5
330
2
100
AcDbEntity
  8
AM_VIS
100
AcDbLine
 10
7.636484942613618
 20
4.892033462905107
 30
0.0
 11
7.636484942613618
 21
4.908033462905107
 31
0.0
  0
ARC
  5
1B6
330
2
100
AcDbEntity
  8
AM_HID
100
AcDbCircle
 10
7.576917192080357
 20
4.90797520355478
 30
0.0
 40
0.0049459697796926
100
AcDbArc
 50
179.3254932200915
 51
268.6635805426368
  0
LINE
  5
1B7
330
2
100
AcDbEntity
  8
AM_VIS
100
AcDbLine
 10
7.571968597365914
 20
4.887033462905107
 30
0.0
 11
7.571968597365914
 21
4.903033462905107
 31
0.0
  0
LINE
  5
1B8
330
2
100
AcDbEntity
  8
AM_HID
100
AcDbLine
 10
7.571968597365914
 20
4.903033462905107
 30
0.0
 11
7.571968597365914
 21
4.908033462905107
 31
0.0
  0
LINE
  5
1B9
330
2
100
AcDbEntity
  8
AM_VIS
100
AcDbLine
 10
7.631484942613618
 20
4.887033462905107
 30
0.0
 11
7.571968597365914
 21
4.887033462905107
 31
0.0
  0
ARC
  5
1BA
330
2
100
AcDbEntity
  8
AM_HID
100
AcDbCircle
 10
7.387052693146886
 20
4.907975203554778
 30
0.0
 40
0.0049459697796904
100
AcDbArc
 50
271.3364194573277
 51
0.674506779932198
  0
LINE
  5
1BB
330
2
100
AcDbEntity
  8
AM_HID
100
AcDbLine
 10
7.392001287861327
 20
4.908033462905107
 30
0.0
 11
7.392001287861327
 21
4.903033462905107
 31
0.0
  0
LINE
  5
1BC
330
2
100
AcDbEntity
  8
AM_VIS
100
AcDbLine
 10
7.392001287861327
 20
4.903033462905107
 30
0.0
 11
7.392001287861327
 21
4.887033462905107
 31
0.0
  0
LINE
  5
1BD
330
2
100
AcDbEntity
  8
AM_HID
100
AcDbLine
 10
7.483700132812974
 20
4.887033462905107
 30
0.0
 11
7.483700132812974
 21
4.908033462905107
 31
0.0
  0
SPLINE
  5
1BE
330
2
100
AcDbEntity
  8
AM_HID
100
AcDbSpline
210
0.0
220
0.0
230
1.0
 70
     8
 71
     3
 72
    14
 73
    10
 74
     0
 42
0.0000000001
 43
0.0000000001
 40
0.0167760747934346
 40
0.0167760747934346
 40
0.0167760747934346
 40
0.0167760747934346
 40
0.0184804842302349
 40
0.0184804842302349
 40
0.0204389940436518
 40
0.0204389940436518
 40
0.022713800986771
 40
0.022713800986771
 40
0.0252301342446961
 40
0.0252301342446961
 40
0.0252301342446961
 40
0.0252301342446961
 10
7.483700132812971
 20
4.908033462905107
 30
0.0
 10
7.483700132812974
 20
4.907465326426174
 30
0.0
 10
7.483805014590055
 20
4.906802688939192
 30
0.0
 10
7.484152038903101
 20
4.905703018684886
 30
0.0
 10
7.484475462766768
 20
4.905095393998914
 30
0.0
 10
7.48517715979457
 20
4.904178735515167
 30
0.0
 10
7.485697866361671
 20
4.903738089288878
 30
0.0
 10
7.486681492966613
 20
4.903200561537087
 30
0.0
 10
7.487330694668571
 20
4.903033462905107
 30
0.0
 10
7.487879308991793
 20
4.903033462905107
 30
0.0
  0
ARC
  5
1BF
330
2
100
AcDbEntity
  8
AM_VIS
100
AcDbCircle
 10
7.332484942613619
 20
4.908033462905107
 30
0.0
 40
0.005
100
AcDbArc
 50
180.0
 51
270.0000000000055
  0
LINE
  5
1C0
330
2
100
AcDbEntity
  8
AM_VIS
100
AcDbLine
 10
7.332484942613619
 20
4.903033462905107
 30
0.0
 11
7.42448494261362
 21
4.903033462905107
 31
0.0
  0
LINE
  5
1C1
330
2
100
AcDbEntity
  8
AM_HID
100
AcDbLine
 10
7.42448494261362
 20
4.903033462905107
 30
0.0
 11
7.428808250884292
 21
4.903033462905107
 31
0.0
  0
ELLIPSE
  5
1C2
330
2
100
AcDbEntity
  8
AM_HID
100
AcDbEllipse
 10
7.535161634342944
 20
4.908033462905107
 30
0.0
 11
0.0
 21
0.005
 31
0.0
210
0.0
220
0.0
230
1.0
 40
0.8646616541353488
 41
3.141592653589572
 42
4.712388980384675
  0
LINE
  5
1C3
330
2
100
AcDbEntity
  8
AM_HID
100
AcDbLine
 10
7.535161634342943
 20
4.903033462905107
 30
0.0
 11
7.539484942613621
 21
4.903033462905107
 31
0.0
  0
LINE
  5
1C4
330
2
100
AcDbEntity
  8
AM_VIS
100
AcDbLine
 10
7.539484942613621
 20
4.903033462905107
 30
0.0
 11
7.631484942613618
 21
4.903033462905107
 31
0.0
  0
ARC
  5
1C5
330
2
100
AcDbEntity
  8
AM_VIS
100
AcDbCircle
 10
7.631484942613618
 20
4.908033462905107
 30
0.0
 40
0.005
100
AcDbArc
 50
269.9999999999941
 51
0.0
  0
SPLINE
  5
1C6
330
2
100
AcDbEntity
  8
AM_HID
100
AcDbSpline
210
0.0
220
0.0
230
1.0
 70
     8
 71
     3
 72
    16
 73
    12
 74
     0
 42
0.0000000001
 43
0.0000000001
 40
-0.0001393386234964
 40
-0.0001393386234964
 40
-0.0001393386234964
 40
-0.0001393386234964
 40
0.0
 40
0.0
 40
0.0038174347223595
 40
0.0038174347223595
 40
0.00672116886183
 40
0.00672116886183
 40
0.0088861195468057
 40
0.0088861195468057
 40
0.0105570185460207
 40
0.0105570185460207
 40
0.0105570185460207
 40
0.0105570185460207
 10
7.49335728102157
 20
4.932033462905106
 30
0.0
 10
7.493325145115116
 20
4.932066746191318
 30
0.0
 10
7.493293048057925
 20
4.932100030444817
 30
0.0
 10
7.492382826544279
 20
4.933045075504719
 30
0.0
 10
7.491552310397755
 20
4.933937461030402
 30
0.0
 10
7.490325894689968
 20
4.935297231347638
 30
0.0
 10
7.489887290783125
 20
4.935800020694514
 30
0.0
 10
7.48933001899262
 20
4.93647425677637
 30
0.0
 10
7.489149024110429
 20
4.936708761860757
 30
0.0
 10
7.488985254732911
 20
4.936973112008903
 30
0.0
 10
7.488969265048683
 20
4.937033468087075
 30
0.0
 10
7.48901424640695
 20
4.937033462905107
 30
0.0
  0
SPLINE
  5
1C7
330
2
100
AcDbEntity
  8
AM_HID
100
AcDbSpline
210
0.0
220
0.0
230
1.0
 70
     8
 71
     3
 72
    16
 73
    12
 74
     0
 42
0.0000000001
 43
0.0000000001
 40
0.009553823551747
 40
0.009553823551747
 40
0.009553823551747
 40
0.009553823551747
 40
0.0109173236296876
 40
0.0109173236296876
 40
0.0126839836307341
 40
0.0126839836307341
 40
0.0150535114881025
 40
0.0150535114881025
 40
0.018168644445819
 40
0.018168644445819
 40
0.0182823486398396
 40
0.0182823486398396
 40
0.0182823486398396
 40
0.0182823486398396
 10
7.474955638820287
 20
4.937033462905107
 30
0.0
 10
7.475000620178554
 20
4.937033468087075
 30
0.0
 10
7.474984630494327
 20
4.936973112008903
 30
0.0
 10
7.474820861116809
 20
4.936708761860757
 30
0.0
 10
7.474639866234617
 20
4.93647425677637
 30
0.0
 10
7.474082594444113
 20
4.935800020694514
 30
0.0
 10
7.47364399053727
 20
4.935297231347638
 30
0.0
 10
7.472417574829483
 20
4.933937461030403
 30
0.0
 10
7.471587058682959
 20
4.93304507550472
 30
0.0
 10
7.470676837169313
 20
4.932100030444817
 30
0.0
 10
7.470644740112121
 20
4.932066746191318
 30
0.0
 10
7.470612604205667
 20
4.932033462905106
 30
0.0
  0
ARC
  5
1C8
330
2
100
AcDbEntity
  8
AM_HID
100
AcDbCircle
 10
7.576887994139652
 20
4.931380792027929
 30
0.0
 40
0.0056602629334805
100
AcDbArc
 50
91.65644811238561
 51
173.3808951925142
  0
ARC
  5
1C9
330
2
100
AcDbEntity
  8
AM_HID
100
AcDbCircle
 10
7.387081891087589
 20
4.931380792027929
 30
0.0
 40
0.0056602629334803
100
AcDbArc
 50
6.619104807482303
 51
88.34355188758717
  0
LINE
  5
1CA
330
2
100
AcDbEntity
  8
AM_VIS
100
AcDbLine
 10
7.546619159879947
 20
4.953033462905107
 30
0.0
 11
7.534831638739516
 21
4.953033462905107
 31
0.0
  0
LINE
  5
1CB
330
2
100
AcDbEntity
  8
AM_VIS
100
AcDbLine
 10
7.620884942613619
 20
4.953033462905107
 30
0.0
 11
7.546619159879947
 21
4.953033462905107
 31
0.0
  0
LINE
  5
1CC
330
2
100
AcDbEntity
  8
AM_HID
100
AcDbLine
 10
7.384476091569426
 20
4.937033462905107
 30
0.0
 11
7.387245358024173
 21
4.937033462905107
 31
0.0
  0
LINE
  5
1CD
330
2
100
AcDbEntity
  8
AM_HID
100
AcDbLine
 10
7.332484942613619
 20
4.937033462905107
 30
0.0
 11
7.384476091569427
 21
4.937033462905107
 31
0.0
  0
ARC
  5
1CE
330
2
100
AcDbEntity
  8
AM_VIS
100
AcDbCircle
 10
7.620884942613619
 20
4.937433462905107
 30
0.0
 40
0.0156
100
AcDbArc
 50
359.9999999999997
 51
90.00000000000095
  0
ELLIPSE
  5
1CF
330
2
100
AcDbEntity
  8
AM_VIS
100
AcDbEllipse
 10
7.546619159879947
 20
4.937433462905107
 30
0.0
 11
0.0
 21
0.0156
 31
0.0
210
0.0
220
0.0
230
1.0
 40
0.4573216196363262
 41
-0.0000000000000429
 42
1.570796326794892
  0
LINE
  5
1D0
330
2
100
AcDbEntity
  8
AM_VIS
100
AcDbLine
 10
7.417350725347289
 20
4.953033462905107
 30
0.0
 11
7.343084942613619
 21
4.953033462905107
 31
0.0
  0
ARC
  5
1D1
330
2
100
AcDbEntity
  8
AM_VIS
100
AcDbCircle
 10
7.343084942613619
 20
4.937433462905107
 30
0.0
 40
0.0156
100
AcDbArc
 50
89.99999999999744
 51
179.9999999999997
  0
ELLIPSE
  5
1D2
330
2
100
AcDbEntity
  8
AM_VIS
100
AcDbEllipse
 10
7.417350725347289
 20
4.937433462905107
 30
0.0
 11
0.0
 21
0.0156
 31
0.0
210
0.0
220
0.0
230
1.0
 40
0.4573216196363237
 41
4.712388980384693
 42
6.283185307179635
  0
LINE
  5
1D3
330
2
100
AcDbEntity
  8
AM_VIS
100
AcDbLine
 10
7.429138246487723
 20
4.953033462905107
 30
0.0
 11
7.41735072534729
 21
4.953033462905107
 31
0.0
  0
LINE
  5
1D4
330
2
100
AcDbEntity
  8
AM_HID
100
AcDbLine
 10
7.535161634342943
 20
4.903033462905107
 30
0.0
 11
7.487879308991792
 21
4.903033462905107
 31
0.0
  0
LINE
  5
1D5
330
2
100
AcDbEntity
  8
AM_VIS
100
AcDbLine
 10
7.392001287861327
 20
4.887033462905107
 30
0.0
 11
7.332484942613618
 21
4.887033462905107
 31
0.0
  0
LINE
  5
1D6
330
2
100
AcDbEntity
  8
AM_HID
100
AcDbLine
 10
7.57198494261362
 20
4.932033462905106
 30
0.0
 11
7.57198494261362
 21
4.887033462905106
 31
0.0
  0
LINE
  5
1D7
330
2
100
AcDbEntity
  8
AM_HID
100
AcDbLine
 10
7.39198494261362
 20
4.932033462905106
 30
0.0
 11
7.39198494261362
 21
4.887033462905106
 31
0.0
  0
ARC
  5
1D8
330
2
100
AcDbEntity
  8
AM_HID
100
AcDbCircle
 10
7.57698494261362
 20
4.932033462905106
 30
0.0
 40
0.005
100
AcDbArc
 50
90.00000000000003
 51
180.0
  0
ARC
  5
1D9
330
2
100
AcDbEntity
  8
AM_HID
100
AcDbCircle
 10
7.38698494261362
 20
4.932033462905106
 30
0.0
 40
0.005
100
AcDbArc
 50
0.0000000000000127
 51
90.00000000000003
  0
SPLINE
  5
1DA
330
2
100
AcDbEntity
  8
AM_VIS
100
AcDbSpline
210
0.0
220
0.0
230
1.0
 70
     8
 71
     1
 72
    11
 73
     9
 74
     0
 42
0.0000000001
 43
0.0000000001
 40
0.0
 40
0.0
 40
0.0039444772641993
 40
0.0070873093268869
 40
0.0102758501077309
 40
0.0134643908885748
 40
0.0166389130497507
 40
0.0198134352109266
 40
0.0226993907476797
 40
0.0255853462844328
 40
0.0255853462844328
 10
7.488989077599789
 20
4.937433462905106
 30
0.0
 10
7.48954597795137
 20
4.941338152791937
 30
0.0
 10
7.490741186405339
 20
4.944242882148839
 30
0.0
 10
7.49255059005614
 20
4.94687938877041
 30
0.0
 10
7.49483824786919
 20
4.949109901950058
 30
0.0
 10
7.497478489385807
 20
4.950860705347647
 30
0.0
 10
7.500376925584135
 20
4.952117142483813
 30
0.0
 10
7.503153388992822
 20
4.952800520424302
 30
0.0
 10
7.505993969879686
 20
4.953033462905107
 30
0.0
  0
LINE
  5
1DB
330
2
100
AcDbEntity
  8
AM_VIS
100
AcDbLine
 10
7.488989077599789
 20
4.937433462905107
 30
0.0
 11
7.488989077599789
 21
4.937033462905107
 31
0.0
  0
LINE
  5
1DC
330
2
100
AcDbEntity
  8
AM_HID
100
AcDbLine
 10
7.488989077599789
 20
4.937033462905107
 30
0.0
 11
7.488989077599789
 21
4.93700824491816
 31
0.0
  0
SPLINE
  5
1DD
330
2
100
AcDbEntity
  8
AM_VIS
100
AcDbSpline
210
0.0
220
0.0
230
1.0
 70
     8
 71
     1
 72
    11
 73
     9
 74
     0
 42
0.0000000001
 43
0.0000000001
 40
0.0
 40
0.0
 40
0.0039286627065795
 40
0.0071000933582571
 40
0.0102715240099348
 40
0.0134502256403108
 40
0.0166289272706869
 40
0.0197698758248777
 40
0.0226268519881667
 40
0.0256098792183942
 40
0.0256098792183942
 10
7.457975915347552
 20
4.953033462905107
 30
0.0
 10
7.461822329802425
 20
4.952607509488844
 30
0.0
 10
7.464823871482414
 20
4.951655959286583
 30
0.0
 10
7.467624196967275
 20
4.950193802581788
 30
0.0
 10
7.470130831372937
 20
4.948237856484404
 30
0.0
 10
7.472228885467933
 20
4.945842990245922
 30
0.0
 10
7.473779886702669
 20
4.943115675618631
 30
0.0
 10
7.474661643410737
 20
4.940399249462328
 30
0.0
 10
7.474980807627447
 20
4.937433462905107
 30
0.0
  0
LINE
  5
1DE
330
2
100
AcDbEntity
  8
AM_HID
100
AcDbLine
 10
7.474980807627447
 20
4.93700824491816
 30
0.0
 11
7.474980807627447
 21
4.937033462905107
 31
0.0
  0
LINE
  5
1DF
330
2
100
AcDbEntity
  8
AM_VIS
100
AcDbLine
 10
7.474980807627447
 20
4.937033462905107
 30
0.0
 11
7.474980807627447
 21
4.937433462905107
 31
0.0
  0
ARC
  5
1E0
330
2
100
AcDbEntity
  8
AM_VIS
100
AcDbCircle
 10
7.48198494261362
 20
4.828374462905108
 30
0.0
 40
0.2209808117620166
100
AcDbArc
 50
94.35152041459579
 51
112.8631900597198
  0
LINE
  5
1E1
330
2
100
AcDbEntity
  8
AM_HID
100
AcDbLine
 10
7.396126814803842
 20
5.031993963582228
 30
0.0
 11
7.465217942613621
 21
5.031993963582228
 31
0.0
  0
ARC
  5
1E2
330
2
100
AcDbEntity
  8
AM_VIS
100
AcDbCircle
 10
7.48198494261362
 20
4.828374462905108
 30
0.0
 40
0.2209808117620166
100
AcDbArc
 50
67.13680994028019
 51
85.64847958540402
  0
LINE
  5
1E3
330
2
100
AcDbEntity
  8
AM_HID
100
AcDbLine
 10
7.49875194261362
 20
5.031993963582228
 30
0.0
 11
7.567843070423398
 21
5.031993963582228
 31
0.0
  0
LINE
  5
1E4
330
2
100
AcDbEntity
  8
AM_VIS
100
AcDbLine
 10
7.49875194261362
 20
5.031993963582227
 30
0.0
 11
7.49875194261362
 21
5.048718255370427
 31
0.0
  0
LINE
  5
1E5
330
2
100
AcDbEntity
  8
AM_VIS
100
AcDbLine
 10
7.465217942613621
 20
5.031993963582228
 30
0.0
 11
7.49875194261362
 21
5.031993963582228
 31
0.0
  0
LINE
  5
1E6
330
2
100
AcDbEntity
  8
AM_VIS
100
AcDbLine
 10
7.567843070423398
 20
5.031993963582228
 30
0.0
 11
7.569464942613621
 21
5.031993963582228
 31
0.0
  0
LINE
  5
1E7
330
2
100
AcDbEntity
  8
AM_VIS
100
AcDbLine
 10
7.394504942613619
 20
5.031993963582228
 30
0.0
 11
7.396126814803842
 21
5.031993963582228
 31
0.0
  0
LINE
  5
1E8
330
2
100
AcDbEntity
  8
AM_VIS
100
AcDbLine
 10
7.46521794261362
 20
5.048718255370427
 30
0.0
 11
7.46521794261362
 21
5.031993963582227
 31
0.0
  0
LINE
  5
1E9
330
2
100
AcDbEntity
  8
AM_HID
100
AcDbLine
 10
7.55123994261362
 20
4.665590462905107
 30
0.0
 11
7.41272994261362
 21
4.665590462905107
 31
0.0
  0
LINE
  5
1EA
330
2
100
AcDbEntity
  8
AM_VIS
100
AcDbLine
 10
7.534831638739516
 20
4.953033462905107
 30
0.0
 11
7.429138246487723
 21
4.953033462905107
 31
0.0
  0
LINE
  5
1EB
330
2
100
AcDbEntity
  8
AM_HID
100
AcDbLine
 10
7.53563994261362
 20
4.649990462905106
 30
0.0
 11
7.42832994261362
 21
4.649990462905106
 31
0.0
  0
LINE
  5
1EC
330
2
100
AcDbEntity
  8
AM_HID
100
AcDbLine
 10
7.41272994261362
 20
4.665590462905107
 30
0.0
 11
7.41272994261362
 21
4.876182462905111
 31
0.0
  0
LINE
  5
1ED
330
2
100
AcDbEntity
  8
AM_VIS
100
AcDbLine
 10
7.41272994261362
 20
4.876182462905111
 30
0.0
 11
7.41272994261362
 21
4.903033462905107
 31
0.0
  0
LINE
  5
1EE
330
2
100
AcDbEntity
  8
AM_HID
100
AcDbLine
 10
7.41272994261362
 20
4.903033462905107
 30
0.0
 11
7.41272994261362
 21
4.953033462905107
 31
0.0
  0
LINE
  5
1EF
330
2
100
AcDbEntity
  8
AM_HID
100
AcDbLine
 10
7.55123994261362
 20
4.665590462905107
 30
0.0
 11
7.55123994261362
 21
4.876182462905111
 31
0.0
  0
LINE
  5
1F0
330
2
100
AcDbEntity
  8
AM_VIS
100
AcDbLine
 10
7.55123994261362
 20
4.876182462905111
 30
0.0
 11
7.55123994261362
 21
4.903033462905107
 31
0.0
  0
LINE
  5
1F1
330
2
100
AcDbEntity
  8
AM_HID
100
AcDbLine
 10
7.55123994261362
 20
4.903033462905107
 30
0.0
 11
7.55123994261362
 21
4.953033462905107
 31
0.0
  0
LINE
  5
1F2
330
2
100
AcDbEntity
  8
AM_VIS
100
AcDbLine
 10
7.34602644261362
 20
4.953033462905107
 30
0.0
 11
7.34602644261362
 21
4.996097940789838
 31
0.0
  0
LINE
  5
1F3
330
2
100
AcDbEntity
  8
AM_VIS
100
AcDbLine
 10
7.61794344261362
 20
4.953033462905107
 30
0.0
 11
7.61794344261362
 21
4.996097940789838
 31
0.0
  0
ARC
  5
1F4
330
2
100
AcDbEntity
  8
AM_VIS
100
AcDbCircle
 10
7.60336344261362
 20
4.996097940789838
 30
0.0
 40
0.0145800000000007
100
AcDbArc
 50
0.0000000000000127
 51
54.10740889711825
  0
ARC
  5
1F5
330
2
100
AcDbEntity
  8
AM_VIS
100
AcDbCircle
 10
7.360606442613621
 20
4.996097940789838
 30
0.0
 40
0.0145800000000007
100
AcDbArc
 50
125.8925911028817
 51
180.0
  0
ARC
  5
1F6
330
2
100
AcDbEntity
  8
AM_VIS
100
AcDbCircle
 10
7.48198494261362
 20
4.828374462905108
 30
0.0
 40
0.2216159999999996
100
AcDbArc
 50
54.10740889711782
 51
66.75043740941295
  0
ARC
  5
1F7
330
2
100
AcDbEntity
  8
AM_VIS
100
AcDbCircle
 10
7.48198494261362
 20
4.828374462905108
 30
0.0
 40
0.2216159999999996
100
AcDbArc
 50
113.249562590587
 51
125.8925911028822
  0
LINE
  5
1F8
330
2
100
AcDbEntity
  8
AM_HID
100
AcDbLine
 10
7.42832994261362
 20
4.649990462905106
 30
0.0
 11
7.41272994261362
 21
4.665590462905107
 31
0.0
  0
LINE
  5
1F9
330
2
100
AcDbEntity
  8
AM_HID
100
AcDbLine
 10
7.53563994261362
 20
4.649990462905106
 30
0.0
 11
7.55123994261362
 21
4.665590462905107
 31
0.0
  0
LINE
  5
1FA
330
2
100
AcDbEntity
  8
AM_HID
100
AcDbLine
 10
7.635984942613619
 20
4.871390462905107
 30
0.0
 11
7.327984942613619
 21
4.871390462905107
 31
0.0
  0
LINE
  5
1FB
330
2
100
AcDbEntity
  8
AM_HID
100
AcDbLine
 10
7.327984942613619
 20
4.803390462905106
 30
0.0
 11
7.327984942613619
 21
4.871390462905106
 31
0.0
  0
LINE
  5
1FC
330
2
100
AcDbEntity
  8
AM_HID
100
AcDbLine
 10
7.635984942613619
 20
4.803390462905106
 30
0.0
 11
7.635984942613619
 21
4.871390462905106
 31
0.0
  0
LINE
  5
1FD
330
2
100
AcDbEntity
  8
AM_HID
100
AcDbLine
 10
7.42848494261362
 20
4.803390462905106
 30
0.0
 11
7.42848494261362
 21
4.871390462905106
 31
0.0
  0
LINE
  5
1FE
330
2
100
AcDbEntity
  8
AM_HID
100
AcDbLine
 10
7.535484942613619
 20
4.803390462905106
 30
0.0
 11
7.535484942613619
 21
4.871390462905106
 31
0.0
  0
LINE
  5
1FF
330
2
100
AcDbEntity
  8
AM_HID
100
AcDbLine
 10
3.359885390984736
 20
8.474423814348615
 30
0.0
 11
3.359885390984736
 21
8.155423814348615
 31
0.0
  0
LINE
  5
200
330
2
100
AcDbEntity
  8
AM_HID
100
AcDbLine
 10
3.501425390984735
 20
8.474423814348615
 30
0.0
 11
3.501425390984735
 21
8.155423814348615
 31
0.0
  0
LINE
  5
201
330
2
100
AcDbEntity
  8
AM_HID
100
AcDbLine
 10
3.218951990984734
 20
8.474423814348615
 30
0.0
 11
3.218951990984734
 21
8.155423814348615
 31
0.0
  0
LINE
  5
202
330
2
100
AcDbEntity
  8
AM_VIS
100
AcDbLine
 10
4.204070390984732
 20
8.474423814348615
 30
0.0
 11
4.110070390984731
 21
8.474423814348615
 31
0.0
  0
LINE
  5
203
330
2
100
AcDbEntity
  8
AM_VIS
100
AcDbLine
 10
3.642964718667954
 20
8.474423814348615
 30
0.0
 11
4.110070390984731
 21
8.474423814348615
 31
0.0
  0
LINE
  5
204
330
2
100
AcDbEntity
  8
AM_HID
100
AcDbLine
 10
3.602524718667957
 20
8.474423814348615
 30
0.0
 11
3.642964718667954
 21
8.474423814348615
 31
0.0
  0
LINE
  5
205
330
2
100
AcDbEntity
  8
AM_HID
100
AcDbLine
 10
3.552358790984733
 20
8.474423814348615
 30
0.0
 11
3.602524718667957
 21
8.474423814348615
 31
0.0
  0
LINE
  5
206
330
2
100
AcDbEntity
  8
AM_HID
100
AcDbLine
 10
3.552358790984733
 20
8.474423814348615
 30
0.0
 11
3.532358790984734
 21
8.474423814348615
 31
0.0
  0
LINE
  5
207
330
2
100
AcDbEntity
  8
AM_HID
100
AcDbLine
 10
3.480654718667953
 20
8.474423814348615
 30
0.0
 11
3.532358790984734
 21
8.474423814348615
 31
0.0
  0
LINE
  5
208
330
2
100
AcDbEntity
  8
AM_HID
100
AcDbLine
 10
3.480654718667956
 20
8.474423814348615
 30
0.0
 11
3.460654718667953
 21
8.474423814348615
 31
0.0
  0
LINE
  5
209
330
2
100
AcDbEntity
  8
AM_HID
100
AcDbLine
 10
3.400654718667951
 20
8.474423814348615
 30
0.0
 11
3.460654718667953
 21
8.474423814348615
 31
0.0
  0
LINE
  5
20A
330
2
100
AcDbEntity
  8
AM_HID
100
AcDbLine
 10
3.400654718667951
 20
8.474423814348615
 30
0.0
 11
3.380654718667951
 21
8.474423814348615
 31
0.0
  0
LINE
  5
20B
330
2
100
AcDbEntity
  8
AM_HID
100
AcDbLine
 10
3.32895064635117
 20
8.474423814348615
 30
0.0
 11
3.380654718667951
 21
8.474423814348615
 31
0.0
  0
LINE
  5
20C
330
2
100
AcDbEntity
  8
AM_HID
100
AcDbLine
 10
3.32895064635117
 20
8.474423814348615
 30
0.0
 11
3.308950646351171
 21
8.474423814348615
 31
0.0
  0
LINE
  5
20D
330
2
100
AcDbEntity
  8
AM_HID
100
AcDbLine
 10
3.258784718667946
 20
8.474423814348615
 30
0.0
 11
3.308950646351171
 21
8.474423814348615
 31
0.0
  0
LINE
  5
20E
330
2
100
AcDbEntity
  8
AM_HID
100
AcDbLine
 10
3.218344718667953
 20
8.474423814348615
 30
0.0
 11
3.258784718667946
 21
8.474423814348615
 31
0.0
  0
LINE
  5
20F
330
2
100
AcDbEntity
  8
AM_VIS
100
AcDbLine
 10
2.75124039098474
 20
8.474423814348615
 30
0.0
 11
3.218344718667953
 21
8.474423814348615
 31
0.0
  0
LINE
  5
210
330
2
100
AcDbEntity
  8
AM_VIS
100
AcDbLine
 10
2.75124039098474
 20
8.474423814348615
 30
0.0
 11
2.657240390984739
 21
8.474423814348615
 31
0.0
  0
LINE
  5
211
330
2
100
AcDbEntity
  8
AM_VIS
100
AcDbLine
 10
2.657240390984739
 20
8.530423814348615
 30
0.0
 11
2.75124039098474
 21
8.530423814348615
 31
0.0
  0
LINE
  5
212
330
2
100
AcDbEntity
  8
AM_VIS
100
AcDbLine
 10
2.657240390984739
 20
8.530423814348615
 30
0.0
 11
2.657240390984739
 21
8.474423814348615
 31
0.0
  0
LINE
  5
213
330
2
100
AcDbEntity
  8
AM_VIS
100
AcDbLine
 10
3.218344718667953
 20
8.474423814348615
 30
0.0
 11
3.218344718667953
 21
8.155423814348615
 31
0.0
  0
LINE
  5
214
330
2
100
AcDbEntity
  8
AM_VIS
100
AcDbLine
 10
3.218344718667953
 20
8.155423814348615
 30
0.0
 11
3.642964718667954
 21
8.155423814348615
 31
0.0
  0
LINE
  5
215
330
2
100
AcDbEntity
  8
AM_VIS
100
AcDbLine
 10
3.642964718667954
 20
8.474423814348615
 30
0.0
 11
3.642964718667954
 21
8.155423814348615
 31
0.0
  0
LINE
  5
216
330
2
100
AcDbEntity
  8
AM_VIS
100
AcDbLine
 10
2.75124039098474
 20
8.530423814348615
 30
0.0
 11
4.110070390984731
 21
8.530423814348615
 31
0.0
  0
LINE
  5
217
330
2
100
AcDbEntity
  8
AM_VIS
100
AcDbLine
 10
4.204070390984728
 20
8.474423814348615
 30
0.0
 11
4.204070390984728
 21
8.530423814348615
 31
0.0
  0
LINE
  5
218
330
2
100
AcDbEntity
  8
AM_VIS
100
AcDbLine
 10
4.110070390984731
 20
8.530423814348615
 30
0.0
 11
4.204070390984732
 21
8.530423814348615
 31
0.0
  0
LINE
  5
219
330
2
100
AcDbEntity
  8
AM_VIS
100
AcDbLine
 10
4.204070390984728
 20
8.474423814348615
 30
0.0
 11
4.204070390984728
 21
8.155423814348615
 31
0.0
  0
LINE
  5
21A
330
2
100
AcDbEntity
  8
AM_HID
100
AcDbLine
 10
3.460654718667953
 20
8.474423814348615
 30
0.0
 11
3.460654718667953
 21
8.155423814348615
 31
0.0
  0
LINE
  5
21B
330
2
100
AcDbEntity
  8
AM_HID
100
AcDbLine
 10
3.552358790984733
 20
8.474423814348615
 30
0.0
 11
3.552358790984733
 21
8.155423814348615
 31
0.0
  0
LINE
  5
21C
330
2
100
AcDbEntity
  8
AM_HID
100
AcDbLine
 10
3.617358790984734
 20
8.474423814348615
 30
0.0
 11
3.617358790984734
 21
8.155423814348615
 31
0.0
  0
LINE
  5
21D
330
2
100
AcDbEntity
  8
AM_HID
100
AcDbLine
 10
3.602524718667957
 20
8.474423814348615
 30
0.0
 11
3.602524718667957
 21
8.155423814348615
 31
0.0
  0
LINE
  5
21E
330
2
100
AcDbEntity
  8
AM_HID
100
AcDbLine
 10
3.243950646351169
 20
8.474423814348615
 30
0.0
 11
3.243950646351169
 21
8.155423814348615
 31
0.0
  0
LINE
  5
21F
330
2
100
AcDbEntity
  8
AM_HID
100
AcDbLine
 10
3.258784718667946
 20
8.474423814348615
 30
0.0
 11
3.258784718667946
 21
8.155423814348615
 31
0.0
  0
LINE
  5
220
330
2
100
AcDbEntity
  8
AM_HID
100
AcDbLine
 10
3.400654718667951
 20
8.474423814348615
 30
0.0
 11
3.400654718667951
 21
8.155423814348615
 31
0.0
  0
LINE
  5
221
330
2
100
AcDbEntity
  8
AM_HID
100
AcDbLine
 10
3.308950646351171
 20
8.474423814348615
 30
0.0
 11
3.308950646351171
 21
8.155423814348615
 31
0.0
  0
LINE
  5
222
330
2
100
AcDbEntity
  8
AM_VIS
100
AcDbLine
 10
2.864495390984735
 20
8.474423814348615
 30
0.0
 11
2.864495390984735
 21
8.155423814348615
 31
0.0
  0
LINE
  5
223
330
2
100
AcDbEntity
  8
AM_VIS
100
AcDbLine
 10
2.87460539098474
 20
8.155423814348615
 30
0.0
 11
2.864495390984735
 21
8.155423814348615
 31
0.0
  0
LINE
  5
224
330
2
100
AcDbEntity
  8
AM_VIS
100
AcDbLine
 10
2.788394804305426
 20
8.474423814348615
 30
0.0
 11
2.788394804305426
 21
8.155423814348615
 31
0.0
  0
LINE
  5
225
330
2
100
AcDbEntity
  8
AM_VIS
100
AcDbLine
 10
2.788394804305426
 20
8.155423814348615
 30
0.0
 11
2.864495390984735
 21
8.155423814348615
 31
0.0
  0
LINE
  5
226
330
2
100
AcDbEntity
  8
AM_VIS
100
AcDbLine
 10
2.709455496758412
 20
8.155423814348615
 30
0.0
 11
2.788394804305426
 21
8.155423814348615
 31
0.0
  0
LINE
  5
227
330
2
100
AcDbEntity
  8
AM_VIS
100
AcDbLine
 10
2.657240390984735
 20
8.474423814348615
 30
0.0
 11
2.657240390984735
 21
8.155423814348615
 31
0.0
  0
LINE
  5
228
330
2
100
AcDbEntity
  8
AM_VIS
100
AcDbLine
 10
2.709455496758412
 20
8.155423814348615
 30
0.0
 11
2.657240390984739
 21
8.155423814348615
 31
0.0
  0
LINE
  5
229
330
2
100
AcDbEntity
  8
AM_VIS
100
AcDbLine
 10
3.953858298019735
 20
8.155423814348615
 30
0.0
 11
3.986705390984734
 21
8.155423814348615
 31
0.0
  0
LINE
  5
22A
330
2
100
AcDbEntity
  8
AM_VIS
100
AcDbLine
 10
3.943758298019734
 20
8.474423814348615
 30
0.0
 11
3.943758298019734
 21
8.469423814348614
 31
0.0
  0
LINE
  5
22B
330
2
100
AcDbEntity
  8
AM_HID
100
AcDbLine
 10
3.943758298019734
 20
8.469423814348616
 30
0.0
 11
3.943758298019734
 21
8.160423814348614
 31
0.0
  0
LINE
  5
22C
330
2
100
AcDbEntity
  8
AM_VIS
100
AcDbLine
 10
3.943758298019734
 20
8.160423814348614
 30
0.0
 11
3.943758298019734
 21
8.155423814348615
 31
0.0
  0
LINE
  5
22D
330
2
100
AcDbEntity
  8
AM_VIS
100
AcDbLine
 10
3.953858298019735
 20
8.155423814348615
 30
0.0
 11
3.943758298019734
 21
8.155423814348615
 31
0.0
  0
LINE
  5
22E
330
2
100
AcDbEntity
  8
AM_VIS
100
AcDbLine
 10
3.652458790984731
 20
8.155423814348615
 30
0.0
 11
3.943758298019737
 21
8.155423814348615
 31
0.0
  0
LINE
  5
22F
330
2
100
AcDbEntity
  8
AM_HID
100
AcDbLine
 10
3.642358790984733
 20
8.474423814348615
 30
0.0
 11
3.642358790984733
 21
8.155423814348615
 31
0.0
  0
LINE
  5
230
330
2
100
AcDbEntity
  8
AM_VIS
100
AcDbLine
 10
3.652458790984731
 20
8.155423814348615
 30
0.0
 11
3.642964718667954
 21
8.155423814348615
 31
0.0
  0
LINE
  5
231
330
2
100
AcDbEntity
  8
AM_VIS
100
AcDbLine
 10
4.204070390984728
 20
8.530423814348615
 30
0.0
 11
4.229345390984729
 21
8.530423814348615
 31
0.0
  0
LINE
  5
232
330
2
100
AcDbEntity
  8
AM_VIS
100
AcDbLine
 10
4.229345390984729
 20
8.530423814348615
 30
0.0
 11
4.239455390984733
 21
8.530423814348615
 31
0.0
  0
LINE
  5
233
330
2
100
AcDbEntity
  8
AM_VIS
100
AcDbLine
 10
4.239455390984733
 20
8.530423814348615
 30
0.0
 11
4.264730390984734
 21
8.530423814348615
 31
0.0
  0
LINE
  5
234
330
2
100
AcDbEntity
  8
AM_VIS
100
AcDbLine
 10
4.274840390984728
 20
8.530423814348615
 30
0.0
 11
4.26473039098473
 21
8.530423814348615
 31
0.0
  0
LINE
  5
235
330
2
100
AcDbEntity
  8
AM_VIS
100
AcDbLine
 10
4.274840390984728
 20
8.530423814348615
 30
0.0
 11
4.315280390984732
 21
8.530423814348615
 31
0.0
  0
LINE
  5
236
330
2
100
AcDbEntity
  8
AM_VIS
100
AcDbLine
 10
4.325390390984729
 20
8.530423814348615
 30
0.0
 11
4.315280390984732
 21
8.530423814348615
 31
0.0
  0
LINE
  5
237
330
2
100
AcDbEntity
  8
AM_VIS
100
AcDbLine
 10
2.546030390984736
 20
8.530423814348615
 30
0.0
 11
2.535920390984738
 21
8.530423814348615
 31
0.0
  0
LINE
  5
238
330
2
100
AcDbEntity
  8
AM_VIS
100
AcDbLine
 10
2.546030390984732
 20
8.530423814348615
 30
0.0
 11
2.586470390984736
 21
8.530423814348615
 31
0.0
  0
LINE
  5
239
330
2
100
AcDbEntity
  8
AM_VIS
100
AcDbLine
 10
2.59658039098474
 20
8.530423814348615
 30
0.0
 11
2.586470390984739
 21
8.530423814348615
 31
0.0
  0
LINE
  5
23A
330
2
100
AcDbEntity
  8
AM_VIS
100
AcDbLine
 10
2.596580390984737
 20
8.530423814348615
 30
0.0
 11
2.621855390984737
 21
8.530423814348615
 31
0.0
  0
LINE
  5
23B
330
2
100
AcDbEntity
  8
AM_VIS
100
AcDbLine
 10
2.621855390984737
 20
8.530423814348615
 30
0.0
 11
2.631965390984738
 21
8.530423814348615
 31
0.0
  0
LINE
  5
23C
330
2
100
AcDbEntity
  8
AM_VIS
100
AcDbLine
 10
2.631965390984738
 20
8.530423814348615
 30
0.0
 11
2.657240390984735
 21
8.530423814348615
 31
0.0
  0
LINE
  5
23D
330
2
100
AcDbEntity
  8
AM_VIS
100
AcDbLine
 10
3.996815390984735
 20
8.155423814348615
 30
0.0
 11
3.986705390984734
 21
8.155423814348615
 31
0.0
  0
LINE
  5
23E
330
2
100
AcDbEntity
  8
AM_VIS
100
AcDbLine
 10
3.996815390984735
 20
8.474423814348615
 30
0.0
 11
3.996815390984735
 21
8.155423814348615
 31
0.0
  0
LINE
  5
23F
330
2
100
AcDbEntity
  8
AM_VIS
100
AcDbLine
 10
3.996815390984735
 20
8.155423814348615
 30
0.0
 11
4.072915977664045
 21
8.155423814348615
 31
0.0
  0
LINE
  5
240
330
2
100
AcDbEntity
  8
AM_VIS
100
AcDbLine
 10
4.072915977664045
 20
8.474423814348615
 30
0.0
 11
4.072915977664045
 21
8.155423814348615
 31
0.0
  0
LINE
  5
241
330
2
100
AcDbEntity
  8
AM_VIS
100
AcDbLine
 10
4.072915977664045
 20
8.155423814348615
 30
0.0
 11
4.151855285211059
 21
8.155423814348615
 31
0.0
  0
LINE
  5
242
330
2
100
AcDbEntity
  8
AM_VIS
100
AcDbLine
 10
4.204070390984728
 20
8.155423814348615
 30
0.0
 11
4.151855285211059
 21
8.155423814348615
 31
0.0
  0
LINE
  5
243
330
2
100
AcDbEntity
  8
AM_VIS
100
AcDbLine
 10
4.204070390984728
 20
8.155423814348615
 30
0.0
 11
4.229345390984729
 21
8.155423814348615
 31
0.0
  0
LINE
  5
244
330
2
100
AcDbEntity
  8
AM_VIS
100
AcDbLine
 10
4.229345390984729
 20
8.155423814348615
 30
0.0
 11
4.239455390984733
 21
8.155423814348615
 31
0.0
  0
LINE
  5
245
330
2
100
AcDbEntity
  8
AM_VIS
100
AcDbLine
 10
4.239455390984733
 20
8.155423814348615
 30
0.0
 11
4.264730390984734
 21
8.155423814348615
 31
0.0
  0
LINE
  5
246
330
2
100
AcDbEntity
  8
AM_VIS
100
AcDbLine
 10
4.26473039098473
 20
8.530423814348615
 30
0.0
 11
4.26473039098473
 21
8.155423814348615
 31
0.0
  0
LINE
  5
247
330
2
100
AcDbEntity
  8
AM_VIS
100
AcDbLine
 10
4.274840390984728
 20
8.155423814348615
 30
0.0
 11
4.26473039098473
 21
8.155423814348615
 31
0.0
  0
LINE
  5
248
330
2
100
AcDbEntity
  8
AM_VIS
100
AcDbLine
 10
4.274840390984728
 20
8.155423814348615
 30
0.0
 11
4.315280390984732
 21
8.155423814348615
 31
0.0
  0
LINE
  5
249
330
2
100
AcDbEntity
  8
AM_VIS
100
AcDbLine
 10
4.325390390984729
 20
8.155423814348615
 30
0.0
 11
4.315280390984732
 21
8.155423814348615
 31
0.0
  0
LINE
  5
24A
330
2
100
AcDbEntity
  8
AM_VIS
100
AcDbLine
 10
4.325390390984733
 20
8.530423814348615
 30
0.0
 11
4.325390390984733
 21
8.155423814348615
 31
0.0
  0
LINE
  5
24B
330
2
100
AcDbEntity
  8
AM_HID
100
AcDbLine
 10
4.173026635189017
 20
8.530423814348615
 30
0.0
 11
4.173026635189017
 21
8.155423814348615
 31
0.0
  0
LINE
  5
24C
330
2
100
AcDbEntity
  8
AM_HID
100
AcDbLine
 10
4.123190390984735
 20
8.530423814348615
 30
0.0
 11
4.123190390984735
 21
8.155423814348615
 31
0.0
  0
LINE
  5
24D
330
2
100
AcDbEntity
  8
AM_HID
100
AcDbLine
 10
4.062530390984736
 20
8.530423814348615
 30
0.0
 11
4.062530390984736
 21
8.155423814348615
 31
0.0
  0
LINE
  5
24E
330
2
100
AcDbEntity
  8
AM_HID
100
AcDbLine
 10
3.875495390984735
 20
8.530423814348615
 30
0.0
 11
3.875495390984735
 21
8.155423814348615
 31
0.0
  0
LINE
  5
24F
330
2
100
AcDbEntity
  8
AM_HID
100
AcDbLine
 10
2.985815390984733
 20
8.530423814348615
 30
0.0
 11
2.985815390984733
 21
8.155423814348615
 31
0.0
  0
LINE
  5
250
330
2
100
AcDbEntity
  8
AM_HID
100
AcDbLine
 10
2.798780390984742
 20
8.530423814348615
 30
0.0
 11
2.798780390984742
 21
8.155423814348615
 31
0.0
  0
LINE
  5
251
330
2
100
AcDbEntity
  8
AM_HID
100
AcDbLine
 10
2.738120390984736
 20
8.530423814348615
 30
0.0
 11
2.738120390984736
 21
8.155423814348615
 31
0.0
  0
LINE
  5
252
330
2
100
AcDbEntity
  8
AM_HID
100
AcDbLine
 10
2.688284146780443
 20
8.530423814348615
 30
0.0
 11
2.688284146780443
 21
8.155423814348615
 31
0.0
  0
LINE
  5
253
330
2
100
AcDbEntity
  8
AM_VIS
100
AcDbLine
 10
2.535920390984738
 20
8.530423814348615
 30
0.0
 11
2.535920390984738
 21
8.155423814348615
 31
0.0
  0
LINE
  5
254
330
2
100
AcDbEntity
  8
AM_VIS
100
AcDbLine
 10
2.546030390984736
 20
8.155423814348615
 30
0.0
 11
2.535920390984738
 21
8.155423814348615
 31
0.0
  0
LINE
  5
255
330
2
100
AcDbEntity
  8
AM_VIS
100
AcDbLine
 10
2.546030390984732
 20
8.155423814348615
 30
0.0
 11
2.586470390984736
 21
8.155423814348615
 31
0.0
  0
LINE
  5
256
330
2
100
AcDbEntity
  8
AM_VIS
100
AcDbLine
 10
2.59658039098474
 20
8.155423814348615
 30
0.0
 11
2.586470390984739
 21
8.155423814348615
 31
0.0
  0
LINE
  5
257
330
2
100
AcDbEntity
  8
AM_VIS
100
AcDbLine
 10
2.596580390984737
 20
8.530423814348615
 30
0.0
 11
2.596580390984737
 21
8.155423814348615
 31
0.0
  0
LINE
  5
258
330
2
100
AcDbEntity
  8
AM_VIS
100
AcDbLine
 10
2.596580390984737
 20
8.155423814348615
 30
0.0
 11
2.621855390984737
 21
8.155423814348615
 31
0.0
  0
LINE
  5
259
330
2
100
AcDbEntity
  8
AM_VIS
100
AcDbLine
 10
2.621855390984737
 20
8.155423814348615
 30
0.0
 11
2.631965390984738
 21
8.155423814348615
 31
0.0
  0
LINE
  5
25A
330
2
100
AcDbEntity
  8
AM_VIS
100
AcDbLine
 10
2.631965390984742
 20
8.155423814348615
 30
0.0
 11
2.657240390984739
 21
8.155423814348615
 31
0.0
  0
LINE
  5
25B
330
2
100
AcDbEntity
  8
AM_VIS
100
AcDbLine
 10
2.874605390984736
 20
8.155423814348615
 30
0.0
 11
2.907442483949736
 21
8.155423814348615
 31
0.0
  0
LINE
  5
25C
330
2
100
AcDbEntity
  8
AM_VIS
100
AcDbLine
 10
2.917552483949734
 20
8.155423814348615
 30
0.0
 11
2.907442483949736
 21
8.155423814348615
 31
0.0
  0
LINE
  5
25D
330
2
100
AcDbEntity
  8
AM_VIS
100
AcDbLine
 10
2.917552483949734
 20
8.474423814348615
 30
0.0
 11
2.917552483949734
 21
8.469423814348612
 31
0.0
  0
LINE
  5
25E
330
2
100
AcDbEntity
  8
AM_HID
100
AcDbLine
 10
2.917552483949734
 20
8.469423814348614
 30
0.0
 11
2.917552483949734
 21
8.468923814348615
 31
0.0
  0
LINE
  5
25F
330
2
100
AcDbEntity
  8
AM_HID
100
AcDbLine
 10
2.917552483949734
 20
8.160923814348615
 30
0.0
 11
2.917552483949734
 21
8.160423814348614
 31
0.0
  0
LINE
  5
260
330
2
100
AcDbEntity
  8
AM_VIS
100
AcDbLine
 10
2.917552483949734
 20
8.160423814348614
 30
0.0
 11
2.917552483949734
 21
8.155423814348615
 31
0.0
  0
LINE
  5
261
330
2
100
AcDbEntity
  8
AM_VIS
100
AcDbLine
 10
2.917552483949734
 20
8.155423814348615
 30
0.0
 11
3.208851990984733
 21
8.155423814348615
 31
0.0
  0
LINE
  5
262
330
2
100
AcDbEntity
  8
AM_VIS
100
AcDbLine
 10
3.218344718667953
 20
8.155423814348615
 30
0.0
 11
3.208851990984733
 21
8.155423814348615
 31
0.0
  0
LINE
  5
263
330
2
100
AcDbEntity
  8
AM_HID
100
AcDbLine
 10
3.508154718667956
 20
8.474423814348615
 30
0.0
 11
3.508154718667956
 21
8.155423814348615
 31
0.0
  0
LINE
  5
264
330
2
100
AcDbEntity
  8
AM_HID
100
AcDbLine
 10
3.353154718667948
 20
8.474423814348615
 30
0.0
 11
3.353154718667948
 21
8.155423814348615
 31
0.0
  0
LINE
  5
265
330
2
100
AcDbEntity
  8
AM_HID
100
AcDbLine
 10
4.049886257193264
 20
8.530423814348615
 30
0.0
 11
4.049886257193264
 21
8.155423814348615
 31
0.0
  0
LINE
  5
266
330
2
100
AcDbEntity
  8
AM_HID
100
AcDbLine
 10
3.938780390984732
 20
8.530423814348615
 30
0.0
 11
3.938780390984732
 21
8.155423814348615
 31
0.0
  0
LINE
  5
267
330
2
100
AcDbEntity
  8
AM_HID
100
AcDbLine
 10
2.922530390984732
 20
8.530423814348615
 30
0.0
 11
2.922530390984732
 21
8.155423814348615
 31
0.0
  0
LINE
  5
268
330
2
100
AcDbEntity
  8
AM_HID
100
AcDbLine
 10
2.811424524776199
 20
8.530423814348615
 30
0.0
 11
2.811424524776199
 21
8.155423814348615
 31
0.0
  0
LINE
  5
269
330
2
100
AcDbEntity
  8
AM_VIS
100
AcDbLine
 10
2.910552483949732
 20
8.372423814348614
 30
0.0
 11
2.910552483949732
 21
8.257423814348612
 31
0.0
  0
LINE
  5
26A
330
2
100
AcDbEntity
  8
AM_VIS
100
AcDbLine
 10
3.122552483949732
 20
8.469423814348614
 30
0.0
 11
3.007552483949734
 21
8.469423814348614
 31
0.0
  0
LINE
  5
26B
330
2
100
AcDbEntity
  8
AM_HID
100
AcDbLine
 10
3.21955248394973
 20
8.257423814348612
 30
0.0
 11
3.21955248394973
 21
8.372423814348618
 31
0.0
  0
LINE
  5
26C
330
2
100
AcDbEntity
  8
AM_HID
100
AcDbLine
 10
3.21955248394973
 20
8.160423814348614
 30
0.0
 11
3.21955248394973
 21
8.257423814348612
 31
0.0
  0
LINE
  5
26D
330
2
100
AcDbEntity
  8
AM_HID
100
AcDbLine
 10
3.21955248394973
 20
8.372423814348616
 30
0.0
 11
3.21955248394973
 21
8.469423814348614
 31
0.0
  0
LINE
  5
26E
330
2
100
AcDbEntity
  8
AM_VIS
100
AcDbLine
 10
3.00755248394973
 20
8.160423814348614
 30
0.0
 11
3.122552483949736
 21
8.160423814348614
 31
0.0
  0
LINE
  5
26F
330
2
100
AcDbEntity
  8
AM_VIS
100
AcDbLine
 10
2.910552483949732
 20
8.160423814348614
 30
0.0
 11
3.00755248394973
 21
8.160423814348614
 31
0.0
  0
LINE
  5
270
330
2
100
AcDbEntity
  8
AM_VIS
100
AcDbLine
 10
3.122552483949732
 20
8.160423814348614
 30
0.0
 11
3.218344718667957
 21
8.160423814348614
 31
0.0
  0
LINE
  5
271
330
2
100
AcDbEntity
  8
AM_HID
100
AcDbLine
 10
3.218344718667957
 20
8.160423814348614
 30
0.0
 11
3.219552483949733
 21
8.160423814348614
 31
0.0
  0
LINE
  5
272
330
2
100
AcDbEntity
  8
AM_HID
100
AcDbLine
 10
3.059158117571563
 20
8.220106851493863
 30
0.0
 11
3.056830545076934
 21
8.217414963304424
 31
0.0
  0
LINE
  5
273
330
2
100
AcDbEntity
  8
AM_HID
100
AcDbLine
 10
3.059158117571563
 20
8.220106851493863
 30
0.0
 11
3.063337293750379
 21
8.224940159596323
 31
0.0
  0
LINE
  5
274
330
2
100
AcDbEntity
  8
AM_HID
100
AcDbLine
 10
2.970235521094977
 20
8.309029447970443
 30
0.0
 11
2.975068829197438
 21
8.313208624149263
 31
0.0
  0
LINE
  5
275
330
2
100
AcDbEntity
  8
AM_HID
100
AcDbLine
 10
2.967543632905542
 20
8.306701875475818
 30
0.0
 11
2.970235521094977
 21
8.309029447970443
 31
0.0
  0
LINE
  5
276
330
2
100
AcDbEntity
  8
AM_HID
100
AcDbLine
 10
3.159869446804489
 20
8.309029447970441
 30
0.0
 11
3.162561334993924
 21
8.306701875475816
 31
0.0
  0
LINE
  5
277
330
2
100
AcDbEntity
  8
AM_HID
100
AcDbLine
 10
3.155036138702026
 20
8.313208624149265
 30
0.0
 11
3.159869446804485
 21
8.309029447970445
 31
0.0
  0
LINE
  5
278
330
2
100
AcDbEntity
  8
AM_HID
100
AcDbLine
 10
3.070946850327903
 20
8.409740777203371
 30
0.0
 11
3.073274422822532
 21
8.41243266539281
 31
0.0
  0
LINE
  5
279
330
2
100
AcDbEntity
  8
AM_HID
100
AcDbLine
 10
3.066767674149083
 20
8.404907469100908
 30
0.0
 11
3.070946850327903
 21
8.409740777203369
 31
0.0
  0
LINE
  5
27A
330
2
100
AcDbEntity
  8
AM_HID
100
AcDbLine
 10
3.21955248394973
 20
8.469423814348614
 30
0.0
 11
3.218344718667953
 21
8.469423814348614
 31
0.0
  0
LINE
  5
27B
330
2
100
AcDbEntity
  8
AM_VIS
100
AcDbLine
 10
3.218344718667953
 20
8.469423814348614
 30
0.0
 11
3.122552483949732
 21
8.469423814348614
 31
0.0
  0
LINE
  5
27C
330
2
100
AcDbEntity
  8
AM_VIS
100
AcDbLine
 10
3.00755248394973
 20
8.469423814348614
 30
0.0
 11
2.910552483949732
 21
8.469423814348614
 31
0.0
  0
LINE
  5
27D
330
2
100
AcDbEntity
  8
AM_HID
100
AcDbLine
 10
3.066767674149083
 20
8.224940159596322
 30
0.0
 11
3.070946850327903
 21
8.220106851493863
 31
0.0
  0
ARC
  5
27E
330
2
100
AcDbEntity
  8
AM_HID
100
AcDbCircle
 10
3.065052483949731
 20
8.314923814348617
 30
0.0
 40
0.09
100
AcDbArc
 50
352.740738682628
 51
7.259261317370298
  0
ARC
  5
27F
330
2
100
AcDbEntity
  8
AM_HID
100
AcDbCircle
 10
3.065052483949617
 20
8.314923814348606
 30
0.0
 40
0.0900000000001159
100
AcDbArc
 50
7.259261317366617
 51
14.63891734717139
  0
ARC
  5
280
330
2
100
AcDbEntity
  8
AM_HID
100
AcDbCircle
 10
3.065052483949731
 20
8.314923814348617
 30
0.0
 40
0.09
100
AcDbArc
 50
14.63891734718368
 51
75.36108265281558
  0
ARC
  5
281
330
2
100
AcDbEntity
  8
AM_HID
100
AcDbCircle
 10
3.065052483949685
 20
8.314923814348322
 30
0.0
 40
0.0900000000002991
100
AcDbArc
 50
75.36108265283276
 51
82.74073868262332
  0
ARC
  5
282
330
2
100
AcDbEntity
  8
AM_HID
100
AcDbCircle
 10
3.065052483949731
 20
8.314923814348617
 30
0.0
 40
0.09
100
AcDbArc
 50
82.74073868262869
 51
97.25926131736905
  0
ARC
  5
283
330
2
100
AcDbEntity
  8
AM_HID
100
AcDbCircle
 10
3.065052483949731
 20
8.31492381434861
 30
0.0
 40
0.0900000000000052
100
AcDbArc
 50
97.25926131736645
 51
104.6389173471834
  0
ARC
  5
284
330
2
100
AcDbEntity
  8
AM_HID
100
AcDbCircle
 10
3.065052483949731
 20
8.314923814348617
 30
0.0
 40
0.09
100
AcDbArc
 50
104.6389173471844
 51
165.3610826528179
  0
ARC
  5
285
330
2
100
AcDbEntity
  8
AM_HID
100
AcDbCircle
 10
3.06505248394987
 20
8.314923814348599
 30
0.0
 40
0.0900000000001364
100
AcDbArc
 50
165.3610826528298
 51
172.7407386826329
  0
ARC
  5
286
330
2
100
AcDbEntity
  8
AM_HID
100
AcDbCircle
 10
3.065052483949731
 20
8.314923814348617
 30
0.0
 40
0.09
100
AcDbArc
 50
172.7407386826321
 51
187.2592613173697
  0
ARC
  5
287
330
2
100
AcDbEntity
  8
AM_HID
100
AcDbCircle
 10
3.065052483949852
 20
8.314923814348626
 30
0.0
 40
0.0900000000001191
100
AcDbArc
 50
187.2592613173657
 51
194.6389173471708
  0
ARC
  5
288
330
2
100
AcDbEntity
  8
AM_HID
100
AcDbCircle
 10
3.065052483949731
 20
8.314923814348617
 30
0.0
 40
0.09
100
AcDbArc
 50
194.6389173471842
 51
255.3610826528158
  0
ARC
  5
289
330
2
100
AcDbEntity
  8
AM_HID
100
AcDbCircle
 10
3.065052483949699
 20
8.314923814348428
 30
0.0
 40
0.0899999999998099
100
AcDbArc
 50
255.3610826528076
 51
262.740738682636
  0
ARC
  5
28A
330
2
100
AcDbEntity
  8
AM_HID
100
AcDbCircle
 10
3.065052483949731
 20
8.314923814348617
 30
0.0
 40
0.09
100
AcDbArc
 50
262.7407386826309
 51
277.2592613173713
  0
ARC
  5
28B
330
2
100
AcDbEntity
  8
AM_HID
100
AcDbCircle
 10
3.065052483949784
 20
8.31492381434835
 30
0.0
 40
0.0899999999997291
100
AcDbArc
 50
277.2592613173567
 51
284.638917347194
  0
ARC
  5
28C
330
2
100
AcDbEntity
  8
AM_HID
100
AcDbCircle
 10
3.065052483949731
 20
8.314923814348617
 30
0.0
 40
0.09
100
AcDbArc
 50
284.6389173471841
 51
345.3610826528135
  0
ARC
  5
28D
330
2
100
AcDbEntity
  8
AM_HID
100
AcDbCircle
 10
3.065052483950591
 20
8.314923814348457
 30
0.0
 40
0.0899999999991289
100
AcDbArc
 50
345.3610826527742
 51
352.7407386826601
  0
LINE
  5
28E
330
2
100
AcDbEntity
  8
AM_HID
100
AcDbLine
 10
3.155036138702026
 20
8.316639004547969
 30
0.0
 11
3.159869446804486
 21
8.320818180726789
 31
0.0
  0
LINE
  5
28F
330
2
100
AcDbEntity
  8
AM_HID
100
AcDbLine
 10
3.059158117571559
 20
8.409740777203371
 30
0.0
 11
3.06333729375038
 21
8.40490746910091
 31
0.0
  0
LINE
  5
290
330
2
100
AcDbEntity
  8
AM_HID
100
AcDbLine
 10
2.970235521094977
 20
8.320818180726789
 30
0.0
 11
2.975068829197438
 21
8.316639004547967
 31
0.0
  0
LINE
  5
291
330
2
100
AcDbEntity
  8
AM_VIS
100
AcDbLine
 10
2.910552483949732
 20
8.469423814348614
 30
0.0
 11
2.910552483949732
 21
8.372423814348614
 31
0.0
  0
LINE
  5
292
330
2
100
AcDbEntity
  8
AM_VIS
100
AcDbLine
 10
2.910552483949732
 20
8.257423814348614
 30
0.0
 11
2.910552483949732
 21
8.160423814348614
 31
0.0
  0
LINE
  5
293
330
2
100
AcDbEntity
  8
AM_HID
100
AcDbLine
 10
3.073274422822532
 20
8.217414963304422
 30
0.0
 11
3.070946850327903
 21
8.220106851493863
 31
0.0
  0
ARC
  5
294
330
2
100
AcDbEntity
  8
AM_HID
100
AcDbCircle
 10
3.053048348963564
 20
8.220685283252073
 30
0.0
 40
0.005
100
AcDbArc
 50
319.1512852664117
 51
82.74073868263881
  0
ARC
  5
295
330
2
100
AcDbEntity
  8
AM_HID
100
AcDbCircle
 10
2.970813952853191
 20
8.302919679362446
 30
0.0
 40
0.005
100
AcDbArc
 50
7.259261317372549
 51
130.8487147335584
  0
LINE
  5
296
330
2
100
AcDbEntity
  8
AM_VIS
100
AcDbLine
 10
3.00755248394973
 20
8.160423814348614
 30
0.0
 11
3.02802765966296
 21
8.184103800173479
 31
0.0
  0
LINE
  5
297
330
2
100
AcDbEntity
  8
AM_HID
100
AcDbLine
 10
3.02802765966296
 20
8.184103800173478
 30
0.0
 11
3.056830545076934
 21
8.21741496330442
 31
0.0
  0
LINE
  5
298
330
2
100
AcDbEntity
  8
AM_VIS
100
AcDbLine
 10
3.00755248394973
 20
8.160423814348614
 30
0.0
 11
3.000418266683404
 21
8.176023814348614
 31
0.0
  0
ARC
  5
299
330
2
100
AcDbEntity
  8
AM_HID
100
AcDbCircle
 10
2.970813952853191
 20
8.32692794933478
 30
0.0
 40
0.005
100
AcDbArc
 50
229.1512852663974
 51
352.7407386826274
  0
ARC
  5
29A
330
2
100
AcDbEntity
  8
AM_HID
100
AcDbCircle
 10
3.053048348963564
 20
8.409162345445157
 30
0.0
 40
0.005
100
AcDbArc
 50
277.2592613173624
 51
40.84871473354617
  0
LINE
  5
29B
330
2
100
AcDbEntity
  8
AM_VIS
100
AcDbLine
 10
2.910552483949732
 20
8.372423814348614
 30
0.0
 11
2.934232469774595
 21
8.351948638635386
 31
0.0
  0
LINE
  5
29C
330
2
100
AcDbEntity
  8
AM_HID
100
AcDbLine
 10
2.934232469774595
 20
8.351948638635388
 30
0.0
 11
2.967543632905542
 21
8.323145753221412
 31
0.0
  0
LINE
  5
29D
330
2
100
AcDbEntity
  8
AM_VIS
100
AcDbLine
 10
2.910552483949732
 20
8.372423814348614
 30
0.0
 11
2.926152483949731
 21
8.379558031614941
 31
0.0
  0
ARC
  5
29E
330
2
100
AcDbEntity
  8
AM_HID
100
AcDbCircle
 10
3.077056618935902
 20
8.409162345445157
 30
0.0
 40
0.005
100
AcDbArc
 50
139.1512852664195
 51
262.7407386826375
  0
ARC
  5
29F
330
2
100
AcDbEntity
  8
AM_HID
100
AcDbCircle
 10
3.159291015046274
 20
8.326927949334784
 30
0.0
 40
0.005
100
AcDbArc
 50
187.2592613173725
 51
310.8487147335584
  0
LINE
  5
2A0
330
2
100
AcDbEntity
  8
AM_VIS
100
AcDbLine
 10
3.122552483949732
 20
8.469423814348614
 30
0.0
 11
3.102077308236509
 21
8.445743828523756
 31
0.0
  0
LINE
  5
2A1
330
2
100
AcDbEntity
  8
AM_HID
100
AcDbLine
 10
3.102077308236509
 20
8.445743828523756
 30
0.0
 11
3.073274422822532
 21
8.41243266539281
 31
0.0
  0
LINE
  5
2A2
330
2
100
AcDbEntity
  8
AM_VIS
100
AcDbLine
 10
3.122552483949732
 20
8.469423814348612
 30
0.0
 11
3.129686701216058
 21
8.453823814348613
 31
0.0
  0
ARC
  5
2A3
330
2
100
AcDbEntity
  8
AM_HID
100
AcDbCircle
 10
3.159291015046274
 20
8.302919679362442
 30
0.0
 40
0.005
100
AcDbArc
 50
49.15128526641074
 51
172.7407386826274
  0
ARC
  5
2A4
330
2
100
AcDbEntity
  8
AM_HID
100
AcDbCircle
 10
3.077056618935902
 20
8.220685283252073
 30
0.0
 40
0.005
100
AcDbArc
 50
97.25926131736246
 51
220.8487147335881
  0
LINE
  5
2A5
330
2
100
AcDbEntity
  8
AM_HID
100
AcDbLine
 10
3.073274422822532
 20
8.217414963304424
 30
0.0
 11
3.102077308236506
 21
8.184103800173478
 31
0.0
  0
LINE
  5
2A6
330
2
100
AcDbEntity
  8
AM_VIS
100
AcDbLine
 10
3.102077308236506
 20
8.184103800173478
 30
0.0
 11
3.122552483949732
 21
8.160423814348616
 31
0.0
  0
LINE
  5
2A7
330
2
100
AcDbEntity
  8
AM_VIS
100
AcDbLine
 10
3.122552483949732
 20
8.160423814348614
 30
0.0
 11
3.129686701216058
 21
8.176023814348615
 31
0.0
  0
LINE
  5
2A8
330
2
100
AcDbEntity
  8
AM_VIS
100
AcDbLine
 10
2.910552483949732
 20
8.469423814348614
 30
0.0
 11
2.926152483949731
 21
8.453823814348613
 31
0.0
  0
LINE
  5
2A9
330
2
100
AcDbEntity
  8
AM_VIS
100
AcDbLine
 10
3.00755248394973
 20
8.469423814348614
 30
0.0
 11
3.000418266683404
 21
8.453823814348615
 31
0.0
  0
LINE
  5
2AA
330
2
100
AcDbEntity
  8
AM_HID
100
AcDbLine
 10
3.056830545076934
 20
8.412432665392808
 30
0.0
 11
3.028027659662956
 21
8.445743828523756
 31
0.0
  0
LINE
  5
2AB
330
2
100
AcDbEntity
  8
AM_VIS
100
AcDbLine
 10
3.028027659662956
 20
8.445743828523756
 30
0.0
 11
3.007552483949734
 21
8.469423814348616
 31
0.0
  0
LINE
  5
2AC
330
2
100
AcDbEntity
  8
AM_VIS
100
AcDbLine
 10
3.218344718667953
 20
8.468216049066837
 30
0.0
 11
3.203952483949731
 21
8.453823814348615
 31
0.0
  0
LINE
  5
2AD
330
2
100
AcDbEntity
  8
AM_HID
100
AcDbLine
 10
3.21955248394973
 20
8.469423814348616
 30
0.0
 11
3.218344718667953
 21
8.468216049066839
 31
0.0
  0
LINE
  5
2AE
330
2
100
AcDbEntity
  8
AM_HID
100
AcDbLine
 10
3.162561334993924
 20
8.323145753221414
 30
0.0
 11
3.195872498124874
 21
8.351948638635393
 31
0.0
  0
LINE
  5
2AF
330
2
100
AcDbEntity
  8
AM_VIS
100
AcDbLine
 10
3.195872498124874
 20
8.351948638635393
 30
0.0
 11
3.218344718667953
 21
8.371379506022266
 31
0.0
  0
LINE
  5
2B0
330
2
100
AcDbEntity
  8
AM_HID
100
AcDbLine
 10
3.218344718667953
 20
8.371379506022266
 30
0.0
 11
3.21955248394973
 21
8.372423814348616
 31
0.0
  0
LINE
  5
2B1
330
2
100
AcDbEntity
  8
AM_HID
100
AcDbLine
 10
3.218344718667953
 20
8.372976151523419
 30
0.0
 11
3.21955248394973
 21
8.372423814348616
 31
0.0
  0
LINE
  5
2B2
330
2
100
AcDbEntity
  8
AM_VIS
100
AcDbLine
 10
3.203952483949731
 20
8.379558031614942
 30
0.0
 11
3.218344718667953
 21
8.372976151523419
 31
0.0
  0
LINE
  5
2B3
330
2
100
AcDbEntity
  8
AM_VIS
100
AcDbLine
 10
3.218344718667953
 20
8.161631579630391
 30
0.0
 11
3.203952483949731
 21
8.176023814348615
 31
0.0
  0
LINE
  5
2B4
330
2
100
AcDbEntity
  8
AM_HID
100
AcDbLine
 10
3.21955248394973
 20
8.160423814348614
 30
0.0
 11
3.218344718667953
 21
8.161631579630393
 31
0.0
  0
LINE
  5
2B5
330
2
100
AcDbEntity
  8
AM_HID
100
AcDbLine
 10
3.218344718667953
 20
8.25687147717381
 30
0.0
 11
3.21955248394973
 21
8.257423814348612
 31
0.0
  0
LINE
  5
2B6
330
2
100
AcDbEntity
  8
AM_VIS
100
AcDbLine
 10
3.203952483949731
 20
8.250289597082286
 30
0.0
 11
3.218344718667953
 21
8.25687147717381
 31
0.0
  0
LINE
  5
2B7
330
2
100
AcDbEntity
  8
AM_HID
100
AcDbLine
 10
3.219552483949733
 20
8.25742381434861
 30
0.0
 11
3.218344718667953
 21
8.258468122674962
 31
0.0
  0
LINE
  5
2B8
330
2
100
AcDbEntity
  8
AM_VIS
100
AcDbLine
 10
3.218344718667953
 20
8.258468122674962
 30
0.0
 11
3.195872498124874
 21
8.277898990061835
 31
0.0
  0
LINE
  5
2B9
330
2
100
AcDbEntity
  8
AM_HID
100
AcDbLine
 10
3.195872498124874
 20
8.277898990061835
 30
0.0
 11
3.162561334993927
 21
8.306701875475814
 31
0.0
  0
LINE
  5
2BA
330
2
100
AcDbEntity
  8
AM_VIS
100
AcDbLine
 10
2.926152483949731
 20
8.176023814348614
 30
0.0
 11
2.910552483949732
 21
8.160423814348614
 31
0.0
  0
LINE
  5
2BB
330
2
100
AcDbEntity
  8
AM_VIS
100
AcDbLine
 10
2.910552483949732
 20
8.257423814348612
 30
0.0
 11
2.926152483949731
 21
8.250289597082286
 31
0.0
  0
LINE
  5
2BC
330
2
100
AcDbEntity
  8
AM_HID
100
AcDbLine
 10
2.967543632905542
 20
8.306701875475818
 30
0.0
 11
2.934232469774595
 21
8.277898990061842
 31
0.0
  0
LINE
  5
2BD
330
2
100
AcDbEntity
  8
AM_VIS
100
AcDbLine
 10
2.934232469774595
 20
8.277898990061842
 30
0.0
 11
2.910552483949732
 21
8.257423814348616
 31
0.0
  0
LINE
  5
2BE
330
2
100
AcDbEntity
  8
AM_HID
100
AcDbLine
 10
3.162561334993924
 20
8.323145753221414
 30
0.0
 11
3.159869446804489
 21
8.320818180726789
 31
0.0
  0
LINE
  5
2BF
330
2
100
AcDbEntity
  8
AM_HID
100
AcDbLine
 10
3.05683054507693
 20
8.412432665392808
 30
0.0
 11
3.059158117571556
 21
8.409740777203371
 31
0.0
  0
LINE
  5
2C0
330
2
100
AcDbEntity
  8
AM_HID
100
AcDbLine
 10
2.970235521094981
 20
8.320818180726785
 30
0.0
 11
2.967543632905542
 21
8.323145753221412
 31
0.0
  0
LINE
  5
2C1
330
2
100
AcDbEntity
  8
AM_HID
100
AcDbLine
 10
3.635552483949734
 20
8.372423814348614
 30
0.0
 11
3.635552483949734
 21
8.257423814348612
 31
0.0
  0
LINE
  5
2C2
330
2
100
AcDbEntity
  8
AM_VIS
100
AcDbLine
 10
3.847552483949733
 20
8.469423814348614
 30
0.0
 11
3.732552483949735
 21
8.469423814348614
 31
0.0
  0
LINE
  5
2C3
330
2
100
AcDbEntity
  8
AM_VIS
100
AcDbLine
 10
3.944552483949731
 20
8.257423814348612
 30
0.0
 11
3.944552483949731
 21
8.372423814348618
 31
0.0
  0
LINE
  5
2C4
330
2
100
AcDbEntity
  8
AM_VIS
100
AcDbLine
 10
3.944552483949731
 20
8.160423814348614
 30
0.0
 11
3.944552483949731
 21
8.257423814348612
 31
0.0
  0
LINE
  5
2C5
330
2
100
AcDbEntity
  8
AM_VIS
100
AcDbLine
 10
3.944552483949731
 20
8.372423814348616
 30
0.0
 11
3.944552483949731
 21
8.469423814348614
 31
0.0
  0
LINE
  5
2C6
330
2
100
AcDbEntity
  8
AM_VIS
100
AcDbLine
 10
3.732552483949731
 20
8.160423814348614
 30
0.0
 11
3.847552483949737
 21
8.160423814348614
 31
0.0
  0
LINE
  5
2C7
330
2
100
AcDbEntity
  8
AM_HID
100
AcDbLine
 10
3.635552483949734
 20
8.160423814348614
 30
0.0
 11
3.642964718667954
 21
8.160423814348614
 31
0.0
  0
LINE
  5
2C8
330
2
100
AcDbEntity
  8
AM_VIS
100
AcDbLine
 10
3.642964718667954
 20
8.160423814348614
 30
0.0
 11
3.732552483949731
 21
8.160423814348614
 31
0.0
  0
LINE
  5
2C9
330
2
100
AcDbEntity
  8
AM_VIS
100
AcDbLine
 10
3.847552483949733
 20
8.160423814348614
 30
0.0
 11
3.944552483949735
 21
8.160423814348614
 31
0.0
  0
LINE
  5
2CA
330
2
100
AcDbEntity
  8
AM_HID
100
AcDbLine
 10
3.784158117571564
 20
8.220106851493863
 30
0.0
 11
3.781830545076935
 21
8.217414963304424
 31
0.0
  0
LINE
  5
2CB
330
2
100
AcDbEntity
  8
AM_HID
100
AcDbLine
 10
3.784158117571564
 20
8.220106851493863
 30
0.0
 11
3.788337293750381
 21
8.224940159596323
 31
0.0
  0
LINE
  5
2CC
330
2
100
AcDbEntity
  8
AM_HID
100
AcDbLine
 10
3.695235521094978
 20
8.309029447970443
 30
0.0
 11
3.70006882919744
 21
8.313208624149263
 31
0.0
  0
LINE
  5
2CD
330
2
100
AcDbEntity
  8
AM_HID
100
AcDbLine
 10
3.692543632905543
 20
8.306701875475818
 30
0.0
 11
3.695235521094978
 21
8.309029447970443
 31
0.0
  0
LINE
  5
2CE
330
2
100
AcDbEntity
  8
AM_HID
100
AcDbLine
 10
3.88486944680449
 20
8.309029447970441
 30
0.0
 11
3.887561334993925
 21
8.306701875475816
 31
0.0
  0
LINE
  5
2CF
330
2
100
AcDbEntity
  8
AM_HID
100
AcDbLine
 10
3.880036138702028
 20
8.313208624149265
 30
0.0
 11
3.884869446804487
 21
8.309029447970445
 31
0.0
  0
LINE
  5
2D0
330
2
100
AcDbEntity
  8
AM_HID
100
AcDbLine
 10
3.795946850327904
 20
8.409740777203371
 30
0.0
 11
3.798274422822533
 21
8.41243266539281
 31
0.0
  0
LINE
  5
2D1
330
2
100
AcDbEntity
  8
AM_HID
100
AcDbLine
 10
3.791767674149085
 20
8.404907469100908
 30
0.0
 11
3.795946850327904
 21
8.409740777203369
 31
0.0
  0
LINE
  5
2D2
330
2
100
AcDbEntity
  8
AM_VIS
100
AcDbLine
 10
3.944552483949731
 20
8.469423814348614
 30
0.0
 11
3.847552483949733
 21
8.469423814348614
 31
0.0
  0
LINE
  5
2D3
330
2
100
AcDbEntity
  8
AM_VIS
100
AcDbLine
 10
3.732552483949731
 20
8.469423814348614
 30
0.0
 11
3.642964718667951
 21
8.469423814348614
 31
0.0
  0
LINE
  5
2D4
330
2
100
AcDbEntity
  8
AM_HID
100
AcDbLine
 10
3.642964718667951
 20
8.469423814348614
 30
0.0
 11
3.635552483949734
 21
8.469423814348614
 31
0.0
  0
LINE
  5
2D5
330
2
100
AcDbEntity
  8
AM_HID
100
AcDbLine
 10
3.791767674149085
 20
8.224940159596322
 30
0.0
 11
3.795946850327905
 21
8.220106851493861
 31
0.0
  0
ARC
  5
2D6
330
2
100
AcDbEntity
  8
AM_HID
100
AcDbCircle
 10
3.790052483949732
 20
8.314923814348617
 30
0.0
 40
0.09
100
AcDbArc
 50
352.740738682628
 51
7.259261317370298
  0
ARC
  5
2D7
330
2
100
AcDbEntity
  8
AM_HID
100
AcDbCircle
 10
3.790052483949594
 20
8.314923814348603
 30
0.0
 40
0.0900000000001401
100
AcDbArc
 50
7.259261317367289
 51
14.63891734717013
  0
ARC
  5
2D8
330
2
100
AcDbEntity
  8
AM_HID
100
AcDbCircle
 10
3.790052483949732
 20
8.314923814348617
 30
0.0
 40
0.09
100
AcDbArc
 50
14.63891734718368
 51
75.36108265281558
  0
ARC
  5
2D9
330
2
100
AcDbEntity
  8
AM_HID
100
AcDbCircle
 10
3.790052483949686
 20
8.31492381434832
 30
0.0
 40
0.0900000000002997
100
AcDbArc
 50
75.36108265283283
 51
82.74073868262332
  0
ARC
  5
2DA
330
2
100
AcDbEntity
  8
AM_HID
100
AcDbCircle
 10
3.790052483949732
 20
8.314923814348617
 30
0.0
 40
0.09
100
AcDbArc
 50
82.74073868262869
 51
97.25926131736905
  0
ARC
  5
2DB
330
2
100
AcDbEntity
  8
AM_HID
100
AcDbCircle
 10
3.790052483949732
 20
8.31492381434861
 30
0.0
 40
0.0900000000000052
100
AcDbArc
 50
97.25926131736645
 51
104.6389173471834
  0
ARC
  5
2DC
330
2
100
AcDbEntity
  8
AM_HID
100
AcDbCircle
 10
3.790052483949732
 20
8.314923814348617
 30
0.0
 40
0.09
100
AcDbArc
 50
104.6389173471844
 51
165.3610826528179
  0
ARC
  5
2DD
330
2
100
AcDbEntity
  8
AM_HID
100
AcDbCircle
 10
3.790052483949871
 20
8.314923814348599
 30
0.0
 40
0.0900000000001364
100
AcDbArc
 50
165.3610826528298
 51
172.7407386826329
  0
ARC
  5
2DE
330
2
100
AcDbEntity
  8
AM_HID
100
AcDbCircle
 10
3.790052483949732
 20
8.314923814348617
 30
0.0
 40
0.09
100
AcDbArc
 50
172.7407386826321
 51
187.2592613173697
  0
ARC
  5
2DF
330
2
100
AcDbEntity
  8
AM_HID
100
AcDbCircle
 10
3.790052483949853
 20
8.314923814348626
 30
0.0
 40
0.0900000000001191
100
AcDbArc
 50
187.2592613173657
 51
194.6389173471708
  0
ARC
  5
2E0
330
2
100
AcDbEntity
  8
AM_HID
100
AcDbCircle
 10
3.790052483949732
 20
8.314923814348617
 30
0.0
 40
0.09
100
AcDbArc
 50
194.6389173471842
 51
255.3610826528158
  0
ARC
  5
2E1
330
2
100
AcDbEntity
  8
AM_HID
100
AcDbCircle
 10
3.7900524839497
 20
8.314923814348437
 30
0.0
 40
0.0899999999998181
100
AcDbArc
 50
255.3610826528089
 51
262.7407386826368
  0
ARC
  5
2E2
330
2
100
AcDbEntity
  8
AM_HID
100
AcDbCircle
 10
3.790052483949732
 20
8.314923814348617
 30
0.0
 40
0.09
100
AcDbArc
 50
262.7407386826309
 51
277.2592613173713
  0
ARC
  5
2E3
330
2
100
AcDbEntity
  8
AM_HID
100
AcDbCircle
 10
3.790052483949786
 20
8.31492381434835
 30
0.0
 40
0.0899999999997278
100
AcDbArc
 50
277.2592613173569
 51
284.6389173471944
  0
ARC
  5
2E4
330
2
100
AcDbEntity
  8
AM_HID
100
AcDbCircle
 10
3.790052483949732
 20
8.314923814348617
 30
0.0
 40
0.09
100
AcDbArc
 50
284.6389173471841
 51
345.3610826528135
  0
ARC
  5
2E5
330
2
100
AcDbEntity
  8
AM_HID
100
AcDbCircle
 10
3.790052483950567
 20
8.31492381434846
 30
0.0
 40
0.0899999999991535
100
AcDbArc
 50
345.3610826527748
 51
352.7407386826586
  0
LINE
  5
2E6
330
2
100
AcDbEntity
  8
AM_HID
100
AcDbLine
 10
3.880036138702028
 20
8.316639004547969
 30
0.0
 11
3.884869446804487
 21
8.320818180726789
 31
0.0
  0
LINE
  5
2E7
330
2
100
AcDbEntity
  8
AM_HID
100
AcDbLine
 10
3.784158117571561
 20
8.409740777203371
 30
0.0
 11
3.788337293750381
 21
8.40490746910091
 31
0.0
  0
LINE
  5
2E8
330
2
100
AcDbEntity
  8
AM_HID
100
AcDbLine
 10
3.695235521094978
 20
8.320818180726789
 30
0.0
 11
3.70006882919744
 21
8.316639004547967
 31
0.0
  0
LINE
  5
2E9
330
2
100
AcDbEntity
  8
AM_HID
100
AcDbLine
 10
3.635552483949734
 20
8.469423814348614
 30
0.0
 11
3.635552483949734
 21
8.372423814348614
 31
0.0
  0
LINE
  5
2EA
330
2
100
AcDbEntity
  8
AM_HID
100
AcDbLine
 10
3.635552483949734
 20
8.257423814348614
 30
0.0
 11
3.635552483949734
 21
8.160423814348614
 31
0.0
  0
LINE
  5
2EB
330
2
100
AcDbEntity
  8
AM_HID
100
AcDbLine
 10
3.798274422822533
 20
8.217414963304422
 30
0.0
 11
3.795946850327904
 21
8.220106851493863
 31
0.0
  0
ARC
  5
2EC
330
2
100
AcDbEntity
  8
AM_HID
100
AcDbCircle
 10
3.778048348963565
 20
8.220685283252073
 30
0.0
 40
0.005
100
AcDbArc
 50
319.1512852664117
 51
82.74073868263881
  0
ARC
  5
2ED
330
2
100
AcDbEntity
  8
AM_HID
100
AcDbCircle
 10
3.695813952853193
 20
8.302919679362446
 30
0.0
 40
0.005
100
AcDbArc
 50
7.259261317372549
 51
130.8487147335584
  0
LINE
  5
2EE
330
2
100
AcDbEntity
  8
AM_VIS
100
AcDbLine
 10
3.732552483949731
 20
8.160423814348614
 30
0.0
 11
3.753027659662961
 21
8.184103800173479
 31
0.0
  0
LINE
  5
2EF
330
2
100
AcDbEntity
  8
AM_HID
100
AcDbLine
 10
3.753027659662961
 20
8.184103800173478
 30
0.0
 11
3.781830545076935
 21
8.21741496330442
 31
0.0
  0
LINE
  5
2F0
330
2
100
AcDbEntity
  8
AM_VIS
100
AcDbLine
 10
3.732552483949731
 20
8.160423814348614
 30
0.0
 11
3.725418266683405
 21
8.176023814348614
 31
0.0
  0
ARC
  5
2F1
330
2
100
AcDbEntity
  8
AM_HID
100
AcDbCircle
 10
3.695813952853193
 20
8.32692794933478
 30
0.0
 40
0.005
100
AcDbArc
 50
229.1512852663974
 51
352.7407386826274
  0
ARC
  5
2F2
330
2
100
AcDbEntity
  8
AM_HID
100
AcDbCircle
 10
3.778048348963565
 20
8.409162345445157
 30
0.0
 40
0.005
100
AcDbArc
 50
277.2592613173624
 51
40.84871473354617
  0
LINE
  5
2F3
330
2
100
AcDbEntity
  8
AM_HID
100
AcDbLine
 10
3.635552483949734
 20
8.372423814348614
 30
0.0
 11
3.642964718667958
 21
8.366014739216314
 31
0.0
  0
LINE
  5
2F4
330
2
100
AcDbEntity
  8
AM_VIS
100
AcDbLine
 10
3.642964718667958
 20
8.366014739216316
 30
0.0
 11
3.659232469774597
 21
8.351948638635386
 31
0.0
  0
LINE
  5
2F5
330
2
100
AcDbEntity
  8
AM_HID
100
AcDbLine
 10
3.659232469774597
 20
8.351948638635388
 30
0.0
 11
3.692543632905543
 21
8.323145753221412
 31
0.0
  0
LINE
  5
2F6
330
2
100
AcDbEntity
  8
AM_VIS
100
AcDbLine
 10
3.642964718667954
 20
8.375813589535077
 30
0.0
 11
3.651152483949733
 21
8.379558031614942
 31
0.0
  0
LINE
  5
2F7
330
2
100
AcDbEntity
  8
AM_HID
100
AcDbLine
 10
3.635552483949734
 20
8.372423814348614
 30
0.0
 11
3.642964718667954
 21
8.375813589535075
 31
0.0
  0
ARC
  5
2F8
330
2
100
AcDbEntity
  8
AM_HID
100
AcDbCircle
 10
3.802056618935903
 20
8.409162345445157
 30
0.0
 40
0.005
100
AcDbArc
 50
139.1512852664195
 51
262.7407386826375
  0
ARC
  5
2F9
330
2
100
AcDbEntity
  8
AM_HID
100
AcDbCircle
 10
3.884291015046276
 20
8.326927949334784
 30
0.0
 40
0.005
100
AcDbArc
 50
187.2592613173725
 51
310.8487147335584
  0
LINE
  5
2FA
330
2
100
AcDbEntity
  8
AM_VIS
100
AcDbLine
 10
3.847552483949733
 20
8.469423814348614
 30
0.0
 11
3.827077308236511
 21
8.445743828523756
 31
0.0
  0
LINE
  5
2FB
330
2
100
AcDbEntity
  8
AM_HID
100
AcDbLine
 10
3.827077308236511
 20
8.445743828523756
 30
0.0
 11
3.798274422822533
 21
8.41243266539281
 31
0.0
  0
LINE
  5
2FC
330
2
100
AcDbEntity
  8
AM_VIS
100
AcDbLine
 10
3.847552483949733
 20
8.469423814348612
 30
0.0
 11
3.85468670121606
 21
8.453823814348613
 31
0.0
  0
ARC
  5
2FD
330
2
100
AcDbEntity
  8
AM_HID
100
AcDbCircle
 10
3.884291015046276
 20
8.302919679362442
 30
0.0
 40
0.005
100
AcDbArc
 50
49.15128526641074
 51
172.7407386826274
  0
ARC
  5
2FE
330
2
100
AcDbEntity
  8
AM_HID
100
AcDbCircle
 10
3.802056618935903
 20
8.220685283252073
 30
0.0
 40
0.005
100
AcDbArc
 50
97.25926131736246
 51
220.8487147335881
  0
LINE
  5
2FF
330
2
100
AcDbEntity
  8
AM_HID
100
AcDbLine
 10
3.798274422822533
 20
8.217414963304424
 30
0.0
 11
3.827077308236507
 21
8.184103800173478
 31
0.0
  0
LINE
  5
300
330
2
100
AcDbEntity
  8
AM_VIS
100
AcDbLine
 10
3.827077308236507
 20
8.184103800173478
 30
0.0
 11
3.847552483949733
 21
8.160423814348616
 31
0.0
  0
LINE
  5
301
330
2
100
AcDbEntity
  8
AM_VIS
100
AcDbLine
 10
3.847552483949733
 20
8.160423814348614
 30
0.0
 11
3.85468670121606
 21
8.176023814348615
 31
0.0
  0
LINE
  5
302
330
2
100
AcDbEntity
  8
AM_VIS
100
AcDbLine
 10
3.642964718667954
 20
8.462011579630392
 30
0.0
 11
3.651152483949733
 21
8.453823814348613
 31
0.0
  0
LINE
  5
303
330
2
100
AcDbEntity
  8
AM_HID
100
AcDbLine
 10
3.635552483949734
 20
8.469423814348614
 30
0.0
 11
3.642964718667954
 21
8.462011579630392
 31
0.0
  0
LINE
  5
304
330
2
100
AcDbEntity
  8
AM_VIS
100
AcDbLine
 10
3.732552483949731
 20
8.469423814348614
 30
0.0
 11
3.725418266683405
 21
8.453823814348615
 31
0.0
  0
LINE
  5
305
330
2
100
AcDbEntity
  8
AM_HID
100
AcDbLine
 10
3.781830545076935
 20
8.412432665392808
 30
0.0
 11
3.753027659662958
 21
8.445743828523756
 31
0.0
  0
LINE
  5
306
330
2
100
AcDbEntity
  8
AM_VIS
100
AcDbLine
 10
3.753027659662958
 20
8.445743828523756
 30
0.0
 11
3.732552483949735
 21
8.469423814348616
 31
0.0
  0
LINE
  5
307
330
2
100
AcDbEntity
  8
AM_VIS
100
AcDbLine
 10
3.944552483949731
 20
8.469423814348616
 30
0.0
 11
3.928952483949732
 21
8.453823814348616
 31
0.0
  0
LINE
  5
308
330
2
100
AcDbEntity
  8
AM_HID
100
AcDbLine
 10
3.887561334993925
 20
8.323145753221414
 30
0.0
 11
3.920872498124875
 21
8.351948638635393
 31
0.0
  0
LINE
  5
309
330
2
100
AcDbEntity
  8
AM_VIS
100
AcDbLine
 10
3.920872498124875
 20
8.351948638635393
 30
0.0
 11
3.944552483949731
 21
8.372423814348616
 31
0.0
  0
LINE
  5
30A
330
2
100
AcDbEntity
  8
AM_VIS
100
AcDbLine
 10
3.928952483949732
 20
8.379558031614942
 30
0.0
 11
3.944552483949731
 21
8.372423814348616
 31
0.0
  0
LINE
  5
30B
330
2
100
AcDbEntity
  8
AM_VIS
100
AcDbLine
 10
3.944552483949731
 20
8.160423814348614
 30
0.0
 11
3.928952483949732
 21
8.176023814348615
 31
0.0
  0
LINE
  5
30C
330
2
100
AcDbEntity
  8
AM_VIS
100
AcDbLine
 10
3.928952483949732
 20
8.250289597082286
 30
0.0
 11
3.944552483949731
 21
8.257423814348612
 31
0.0
  0
LINE
  5
30D
330
2
100
AcDbEntity
  8
AM_VIS
100
AcDbLine
 10
3.944552483949735
 20
8.25742381434861
 30
0.0
 11
3.920872498124875
 21
8.277898990061835
 31
0.0
  0
LINE
  5
30E
330
2
100
AcDbEntity
  8
AM_HID
100
AcDbLine
 10
3.920872498124875
 20
8.277898990061835
 30
0.0
 11
3.887561334993929
 21
8.306701875475814
 31
0.0
  0
LINE
  5
30F
330
2
100
AcDbEntity
  8
AM_HID
100
AcDbLine
 10
3.642964718667954
 20
8.167836049066835
 30
0.0
 11
3.635552483949734
 21
8.160423814348614
 31
0.0
  0
LINE
  5
310
330
2
100
AcDbEntity
  8
AM_VIS
100
AcDbLine
 10
3.651152483949733
 20
8.176023814348614
 30
0.0
 11
3.642964718667954
 21
8.167836049066835
 31
0.0
  0
LINE
  5
311
330
2
100
AcDbEntity
  8
AM_VIS
100
AcDbLine
 10
3.642964718667954
 20
8.254034039162153
 30
0.0
 11
3.651152483949733
 21
8.250289597082288
 31
0.0
  0
LINE
  5
312
330
2
100
AcDbEntity
  8
AM_HID
100
AcDbLine
 10
3.635552483949734
 20
8.257423814348612
 30
0.0
 11
3.642964718667954
 21
8.254034039162151
 31
0.0
  0
LINE
  5
313
330
2
100
AcDbEntity
  8
AM_HID
100
AcDbLine
 10
3.692543632905543
 20
8.306701875475818
 30
0.0
 11
3.659232469774597
 21
8.277898990061842
 31
0.0
  0
LINE
  5
314
330
2
100
AcDbEntity
  8
AM_VIS
100
AcDbLine
 10
3.659232469774597
 20
8.277898990061842
 30
0.0
 11
3.642964718667954
 21
8.26383288948091
 31
0.0
  0
LINE
  5
315
330
2
100
AcDbEntity
  8
AM_HID
100
AcDbLine
 10
3.642964718667954
 20
8.263832889480909
 30
0.0
 11
3.635552483949734
 21
8.257423814348614
 31
0.0
  0
LINE
  5
316
330
2
100
AcDbEntity
  8
AM_HID
100
AcDbLine
 10
3.887561334993925
 20
8.323145753221414
 30
0.0
 11
3.88486944680449
 21
8.320818180726789
 31
0.0
  0
LINE
  5
317
330
2
100
AcDbEntity
  8
AM_HID
100
AcDbLine
 10
3.781830545076932
 20
8.412432665392808
 30
0.0
 11
3.784158117571557
 21
8.409740777203371
 31
0.0
  0
LINE
  5
318
330
2
100
AcDbEntity
  8
AM_HID
100
AcDbLine
 10
3.695235521094982
 20
8.320818180726785
 30
0.0
 11
3.692543632905543
 21
8.323145753221412
 31
0.0
  0
LINE
  5
319
330
2
100
AcDbEntity
  8
AM_VIS
100
AcDbLine
 10
3.081819483949736
 20
8.229065686538838
 30
0.0
 11
3.081819483949736
 21
8.298156814348617
 31
0.0
  0
LINE
  5
31A
330
2
100
AcDbEntity
  8
AM_VIS
100
AcDbLine
 10
3.081819483949736
 20
8.331690814348615
 30
0.0
 11
3.081819483949736
 21
8.400781942158392
 31
0.0
  0
LINE
  5
31B
330
2
100
AcDbEntity
  8
AM_VIS
100
AcDbLine
 10
3.048285483949737
 20
8.298156814348617
 30
0.0
 11
3.048285483949737
 21
8.229065686538838
 31
0.0
  0
LINE
  5
31C
330
2
100
AcDbEntity
  8
AM_VIS
100
AcDbLine
 10
3.048285483949737
 20
8.400781942158394
 30
0.0
 11
3.048285483949737
 21
8.331690814348615
 31
0.0
  0
LINE
  5
31D
330
2
100
AcDbEntity
  8
AM_VIS
100
AcDbLine
 10
3.048285483949737
 20
8.331690814348615
 30
0.0
 11
2.979194356139956
 21
8.331690814348615
 31
0.0
  0
LINE
  5
31E
330
2
100
AcDbEntity
  8
AM_VIS
100
AcDbLine
 10
3.150910611759513
 20
8.331690814348615
 30
0.0
 11
3.081819483949736
 21
8.331690814348615
 31
0.0
  0
ARC
  5
31F
330
2
100
AcDbEntity
  8
AM_VIS
100
AcDbCircle
 10
3.065052483949735
 20
8.314923814348617
 30
0.0
 40
0.087480000000001
100
AcDbArc
 50
348.9499350406702
 51
11.05006495933031
  0
ARC
  5
320
330
2
100
AcDbEntity
  8
AM_VIS
100
AcDbCircle
 10
3.065052483949735
 20
8.314923814348617
 30
0.0
 40
0.087480000000001
100
AcDbArc
 50
78.94993504066839
 51
101.0500649593291
  0
ARC
  5
321
330
2
100
AcDbEntity
  8
AM_VIS
100
AcDbCircle
 10
3.065052483949735
 20
8.314923814348617
 30
0.0
 40
0.087480000000001
100
AcDbArc
 50
168.949935040669
 51
191.0500649593297
  0
ARC
  5
322
330
2
100
AcDbEntity
  8
AM_VIS
100
AcDbCircle
 10
3.065052483949735
 20
8.314923814348617
 30
0.0
 40
0.087480000000001
100
AcDbArc
 50
258.9499350406707
 51
281.0500649593316
  0
LINE
  5
323
330
2
100
AcDbEntity
  8
AM_VIS
100
AcDbLine
 10
2.979194356139956
 20
8.298156814348615
 30
0.0
 11
3.048285483949737
 21
8.298156814348615
 31
0.0
  0
LINE
  5
324
330
2
100
AcDbEntity
  8
AM_VIS
100
AcDbLine
 10
3.081819483949736
 20
8.298156814348615
 30
0.0
 11
3.150910611759513
 21
8.298156814348615
 31
0.0
  0
CIRCLE
  5
325
330
2
100
AcDbEntity
  8
AM_HID
100
AcDbCircle
 10
3.065052483949735
 20
8.314923814348617
 30
0.0
 40
0.0692550000000001
  0
CIRCLE
  5
326
330
2
100
AcDbEntity
  8
AM_VIS
100
AcDbCircle
 10
3.065052483949735
 20
8.314923814348617
 30
0.0
 40
0.1359585000000001
  0
CIRCLE
  5
327
330
2
100
AcDbEntity
  8
AM_HID
100
AcDbCircle
 10
3.065052483949735
 20
8.314923814348617
 30
0.0
 40
0.053655
  0
LINE
  5
328
330
2
100
AcDbEntity
  8
AM_VIS
100
AcDbLine
 10
3.806819483949738
 20
8.229065686538838
 30
0.0
 11
3.806819483949738
 21
8.298156814348617
 31
0.0
  0
LINE
  5
329
330
2
100
AcDbEntity
  8
AM_VIS
100
AcDbLine
 10
3.806819483949738
 20
8.331690814348615
 30
0.0
 11
3.806819483949738
 21
8.400781942158392
 31
0.0
  0
LINE
  5
32A
330
2
100
AcDbEntity
  8
AM_VIS
100
AcDbLine
 10
3.773285483949738
 20
8.298156814348617
 30
0.0
 11
3.773285483949738
 21
8.229065686538838
 31
0.0
  0
LINE
  5
32B
330
2
100
AcDbEntity
  8
AM_VIS
100
AcDbLine
 10
3.773285483949738
 20
8.400781942158394
 30
0.0
 11
3.773285483949738
 21
8.331690814348615
 31
0.0
  0
LINE
  5
32C
330
2
100
AcDbEntity
  8
AM_VIS
100
AcDbLine
 10
3.773285483949738
 20
8.331690814348615
 30
0.0
 11
3.704194356139957
 21
8.331690814348615
 31
0.0
  0
LINE
  5
32D
330
2
100
AcDbEntity
  8
AM_VIS
100
AcDbLine
 10
3.875910611759515
 20
8.331690814348615
 30
0.0
 11
3.806819483949738
 21
8.331690814348615
 31
0.0
  0
ARC
  5
32E
330
2
100
AcDbEntity
  8
AM_VIS
100
AcDbCircle
 10
3.790052483949736
 20
8.314923814348617
 30
0.0
 40
0.087480000000001
100
AcDbArc
 50
348.9499350406702
 51
11.05006495933031
  0
ARC
  5
32F
330
2
100
AcDbEntity
  8
AM_VIS
100
AcDbCircle
 10
3.790052483949736
 20
8.314923814348617
 30
0.0
 40
0.087480000000001
100
AcDbArc
 50
78.94993504066839
 51
101.0500649593291
  0
ARC
  5
330
330
2
100
AcDbEntity
  8
AM_VIS
100
AcDbCircle
 10
3.790052483949736
 20
8.314923814348617
 30
0.0
 40
0.087480000000001
100
AcDbArc
 50
168.949935040669
 51
191.0500649593297
  0
ARC
  5
331
330
2
100
AcDbEntity
  8
AM_VIS
100
AcDbCircle
 10
3.790052483949736
 20
8.314923814348617
 30
0.0
 40
0.087480000000001
100
AcDbArc
 50
258.9499350406707
 51
281.0500649593316
  0
LINE
  5
332
330
2
100
AcDbEntity
  8
AM_VIS
100
AcDbLine
 10
3.704194356139957
 20
8.298156814348615
 30
0.0
 11
3.773285483949738
 21
8.298156814348615
 31
0.0
  0
LINE
  5
333
330
2
100
AcDbEntity
  8
AM_VIS
100
AcDbLine
 10
3.806819483949738
 20
8.298156814348615
 30
0.0
 11
3.875910611759515
 21
8.298156814348615
 31
0.0
  0
CIRCLE
  5
334
330
2
100
AcDbEntity
  8
AM_HID
100
AcDbCircle
 10
3.790052483949736
 20
8.314923814348617
 30
0.0
 40
0.0692550000000001
  0
CIRCLE
  5
335
330
2
100
AcDbEntity
  8
AM_VIS
100
AcDbCircle
 10
3.790052483949736
 20
8.314923814348617
 30
0.0
 40
0.1359585000000001
  0
CIRCLE
  5
336
330
2
100
AcDbEntity
  8
AM_HID
100
AcDbCircle
 10
3.790052483949736
 20
8.314923814348617
 30
0.0
 40
0.053655
  0
LINE
  5
337
330
2
100
AcDbEntity
  8
AM_HID
100
AcDbLine
 10
3.937552483949733
 20
8.468923814348615
 30
0.0
 11
3.937552483949733
 21
8.160923814348615
 31
0.0
  0
LINE
  5
338
330
2
100
AcDbEntity
  8
AM_HID
100
AcDbLine
 10
3.937552483949733
 20
8.160923814348615
 30
0.0
 11
2.917552483949734
 21
8.160923814348615
 31
0.0
  0
LINE
  5
339
330
2
100
AcDbEntity
  8
AM_HID
100
AcDbLine
 10
2.917552483949734
 20
8.160923814348615
 30
0.0
 11
2.917552483949734
 21
8.468923814348615
 31
0.0
  0
LINE
  5
33A
330
2
100
AcDbEntity
  8
AM_HID
100
AcDbLine
 10
2.917552483949734
 20
8.468923814348615
 30
0.0
 11
3.937552483949733
 21
8.468923814348615
 31
0.0
  0
CIRCLE
  5
33B
330
2
100
AcDbEntity
  8
AM_HID
100
AcDbCircle
 10
3.790052483949736
 20
8.314923814348615
 30
0.0
 40
0.0535
  0
CIRCLE
  5
33C
330
2
100
AcDbEntity
  8
AM_HID
100
AcDbCircle
 10
3.065052483949735
 20
8.314923814348615
 30
0.0
 40
0.0535
  0
ELLIPSE
  5
33D
330
2
100
AcDbEntity
  8
AM_VIS
100
AcDbEllipse
 10
12.66124191234693
 20
2.808994346141059
 30
0.0
 11
-0.0353849999999998
 21
0.0612886178258244
 31
0.0
210
0.0
220
0.0
230
1.0
 40
0.5773502691896258
 41
3.92699081698721
 42
7.068583470577068
  0
LINE
  5
33E
330
2
100
AcDbEntity
  8
AM_VIS
100
AcDbLine
 10
12.81093882208718
 20
2.837638434244187
 30
0.0
 11
12.71128385925151
 21
2.780102614624928
 31
0.0
  0
LINE
  5
33F
330
2
100
AcDbEntity
  8
AM_VIS
100
AcDbLine
 10
12.66913435539581
 20
2.986406152530676
 30
0.0
 11
12.51154500260668
 21
2.895421897276451
 31
0.0
  0
LINE
  5
340
330
2
100
AcDbEntity
  8
AM_VIS
100
AcDbLine
 10
12.51154500260668
 20
2.895421897276445
 30
0.0
 11
12.61119996544236
 21
2.837886077657183
 31
0.0
  0
LINE
  5
341
330
2
100
AcDbEntity
  8
AM_VIS
100
AcDbLine
 10
12.52257586839319
 20
3.071021734453665
 30
0.0
 11
12.51154500260668
 21
3.06465306112243
 31
0.0
  0
LINE
  5
342
330
2
100
AcDbEntity
  8
AM_VIS
100
AcDbLine
 10
12.51154500260668
 20
3.064653061122431
 30
0.0
 11
12.51154500260668
 21
2.895421897276451
 31
0.0
  0
ELLIPSE
  5
343
330
2
100
AcDbEntity
  8
AM_VIS
100
AcDbEllipse
 10
13.2567692990464
 20
2.954294441401147
 30
0.0
 11
-0.0050500000000012
 21
0.0087468565782237
 31
0.0
210
0.0
220
0.0
230
1.0
 40
0.5773502691896257
 41
5.497787143781999
 42
6.283185307179362
  0
LINE
  5
344
330
2
100
AcDbEntity
  8
AM_VIS
100
AcDbLine
 10
13.27999570122422
 20
2.949131287318849
 30
0.0
 11
13.2567692990464
 21
2.962541056868517
 31
0.0
  0
ELLIPSE
  5
345
330
2
100
AcDbEntity
  8
AM_VIS
100
AcDbEllipse
 10
13.27999570122422
 20
2.94087650688567
 30
0.0
 11
-0.0050550000000004
 21
0.0087555168322602
 31
0.0
210
0.0000000000000001
220
-0.0000000000000001
230
1.0
 40
0.5773502691896258
 41
3.926990816986893
 42
5.497787143781966
  0
LINE
  5
346
330
2
100
AcDbEntity
  8
AM_VIS
100
AcDbLine
 10
13.34095579167523
 20
2.843545313423701
 30
0.0
 11
13.28714455078202
 21
2.936749116669077
 31
0.0
  0
LINE
  5
347
330
2
100
AcDbEntity
  8
AM_VIS
100
AcDbLine
 10
13.3967743113439
 20
2.799953554209535
 30
0.0
 11
13.34095579167523
 21
2.843545313423702
 31
0.0
  0
ELLIPSE
  5
348
330
2
100
AcDbEntity
  8
AM_VIS
100
AcDbEllipse
 10
13.3890156569806
 20
2.753624441832178
 30
0.0
 11
-0.0315937500000036
 21
0.0547219802016279
 31
0.0
210
0.0
220
0.0
230
1.0
 40
0.5773502691896258
 41
3.926990816987188
 42
5.323254218582494
  0
LINE
  5
349
330
2
100
AcDbEntity
  8
AM_VIS
100
AcDbLine
 10
13.43369596671683
 20
3.372290111744945
 30
0.0
 11
13.43369596671683
 21
2.727828252978495
 31
0.0
  0
ELLIPSE
  5
34A
330
2
100
AcDbEntity
  8
AM_VIS
100
AcDbEllipse
 10
13.3672279292853
 20
3.410665451048549
 30
0.0
 11
-0.047
 21
0.0814063879557372
 31
0.0
210
0.0
220
0.0
230
1.0
 40
0.5773502691896259
 41
3.926990816987238
 42
5.497787143782135
  0
LINE
  5
34B
330
2
100
AcDbEntity
  8
AM_VIS
100
AcDbLine
 10
13.0369343408594
 20
3.678111221845053
 30
0.0
 11
13.3672279292853
 21
3.487416129655755
 31
0.0
  0
LINE
  5
34C
330
2
100
AcDbEntity
  8
AM_VIS
100
AcDbLine
 10
13.0369343408594
 20
3.636837319679154
 30
0.0
 11
13.0369343408594
 21
3.678111221845051
 31
0.0
  0
LINE
  5
34D
330
2
100
AcDbEntity
  8
AM_VIS
100
AcDbLine
 10
13.00833894262822
 20
3.612072978379623
 30
0.0
 11
13.00833894262822
 21
3.620327758812799
 31
0.0
  0
LINE
  5
34E
330
2
100
AcDbEntity
  8
AM_VIS
100
AcDbLine
 10
13.0369343408594
 20
3.595563417513266
 30
0.0
 11
13.00833894262821
 21
3.612072978379625
 31
0.0
  0
LINE
  5
34F
330
2
100
AcDbEntity
  8
AM_VIS
100
AcDbLine
 10
13.0369343408594
 20
3.525018112921103
 30
0.0
 11
13.0369343408594
 21
3.595563417513263
 31
0.0
  0
ELLIPSE
  5
350
330
2
100
AcDbEntity
  8
AM_VIS
100
AcDbEllipse
 10
13.04145563275399
 20
3.490678064785399
 30
0.0
 11
-0.016
 21
0.027712812921102
 31
0.0
210
0.0
220
0.0
230
1.0
 40
0.5773502691896258
 41
0.0000000000000253
 42
0.7853981633974618
  0
LINE
  5
351
330
2
100
AcDbEntity
  8
AM_VIS
100
AcDbLine
 10
13.01882821575603
 20
3.146683374066039
 30
0.0
 11
13.01882821575603
 21
3.503742010080244
 31
0.0
  0
LINE
  5
352
330
2
100
AcDbEntity
  8
AM_VIS
100
AcDbLine
 10
12.40639002180559
 20
4.042156154186763
 30
0.0
 11
12.73668265943197
 21
3.851461610941819
 31
0.0
  0
ELLIPSE
  5
353
330
2
100
AcDbEntity
  8
AM_VIS
100
AcDbEllipse
 10
12.40639002180559
 20
3.965405475579556
 30
0.0
 11
-0.047
 21
0.0814063879557372
 31
0.0
210
0.0
220
0.0
230
1.0
 40
0.5773502691896259
 41
5.497787143782135
 42
7.068583470577027
  0
LINE
  5
354
330
2
100
AcDbEntity
  8
AM_VIS
100
AcDbLine
 10
12.33992198437405
 20
3.380689218678178
 30
0.0
 11
12.33992198437405
 21
4.003780814883165
 31
0.0
  0
ELLIPSE
  5
355
330
2
100
AcDbEntity
  8
AM_VIS
100
AcDbEllipse
 10
12.38460229411028
 20
3.333522767263023
 30
0.0
 11
-0.0315937500000045
 21
0.0547219802016295
 31
0.0
210
0.0
220
-0.0000000000000001
230
1.0
 40
0.5773502691896258
 41
5.672320068981379
 42
6.283185307179396
  0
LINE
  5
356
330
2
100
AcDbEntity
  8
AM_VIS
100
AcDbLine
 10
12.38640607679776
 20
3.38523688505812
 30
0.0
 11
12.37684363974699
 21
3.38881080201077
 31
0.0
  0
LINE
  5
357
330
2
100
AcDbEntity
  8
AM_VIS
100
AcDbLine
 10
12.40639002180559
 20
4.042156154186763
 30
0.0
 11
12.44598800155203
 21
4.065018058452739
 31
0.0
  0
ELLIPSE
  5
358
330
2
100
AcDbEntity
  8
AM_VIS
100
AcDbEllipse
 10
12.44598800155203
 20
3.988267379845533
 30
0.0
 11
-0.0470000000000049
 21
0.0814063879557345
 31
0.0
210
0.0
220
0.0
230
1.0
 40
0.5773502691896258
 41
5.497787143781963
 42
6.283185307179358
  0
LINE
  5
359
330
2
100
AcDbEntity
  8
AM_VIS
100
AcDbLine
 10
12.73668265943197
 20
3.851461610941818
 30
0.0
 11
12.51111559623346
 21
3.721230406283846
 31
0.0
  0
LINE
  5
35A
330
2
100
AcDbEntity
  8
AM_VIS
100
AcDbLine
 10
12.51111559623346
 20
3.721230406283846
 30
0.0
 11
12.81136727766089
 21
3.54788001718708
 31
0.0
  0
LINE
  5
35B
330
2
100
AcDbEntity
  8
AM_VIS
100
AcDbLine
 10
13.0369343408594
 20
3.678111221845053
 30
0.0
 11
12.81136727766089
 21
3.547880017187081
 31
0.0
  0
LINE
  5
35C
330
2
100
AcDbEntity
  8
AM_VIS
100
AcDbLine
 10
13.40682590903174
 20
3.51027803392173
 30
0.0
 11
13.36722792928529
 21
3.487416129655754
 31
0.0
  0
LINE
  5
35D
330
2
100
AcDbEntity
  8
AM_VIS
100
AcDbLine
 10
12.44598800155204
 20
4.065018058452738
 30
0.0
 11
13.40682590903175
 21
3.510278033921731
 31
0.0
  0
LINE
  5
35E
330
2
100
AcDbEntity
  8
AM_VIS
100
AcDbLine
 10
13.43369596671683
 20
3.372290111744945
 30
0.0
 11
13.47329394646328
 21
3.395152016010921
 31
0.0
  0
ELLIPSE
  5
35F
330
2
100
AcDbEntity
  8
AM_VIS
100
AcDbEllipse
 10
13.40682590903174
 20
3.433527355314526
 30
0.0
 11
-0.0470000000000049
 21
0.0814063879557344
 31
0.0
210
-0.0000000000000001
220
0.0000000000000001
230
1.0
 40
0.5773502691896259
 41
3.926990816987066
 42
5.497787143781962
  0
LINE
  5
360
330
2
100
AcDbEntity
  8
AM_VIS
100
AcDbLine
 10
13.43369596671683
 20
2.72782825297849
 30
0.0
 11
13.20812890351832
 21
2.597597048320518
 31
0.0
  0
LINE
  5
361
330
2
100
AcDbEntity
  8
AM_VIS
100
AcDbLine
 10
13.20812890351832
 20
2.597597048320519
 30
0.0
 11
13.20812890351832
 21
2.248907493749847
 31
0.0
  0
LINE
  5
362
330
2
100
AcDbEntity
  8
AM_VIS
100
AcDbLine
 10
13.2510220008651
 20
2.273671835049386
 30
0.0
 11
13.20812890351832
 21
2.248907493749847
 31
0.0
  0
LINE
  5
363
330
2
100
AcDbEntity
  8
AM_VIS
100
AcDbLine
 10
13.47329394646328
 20
3.395152016010923
 30
0.0
 11
13.47329394646328
 21
2.409547234900215
 31
0.0
  0
INSERT
  5
364
330
2
100
AcDbEntity
  8
0
 62
     2
100
AcDbBlockReference
  2
*U0
 10
-0.1037567662468
 20
-0.4117944179501834
 30
0.0
  0
INSERT
  5
369
330
2
100
AcDbEntity
  8
0
 62
     2
100
AcDbBlockReference
  2
*U1
 10
-0.1037567662468
 20
-0.4117944179501834
 30
0.0
  0
INSERT
  5
36E
330
2
100
AcDbEntity
  8
0
 62
     2
100
AcDbBlockReference
  2
*U2
 10
-0.1037567662468
 20
-0.4117944179501834
 30
0.0
  0
INSERT
  5
373
330
2
100
AcDbEntity
  8
0
 62
     2
100
AcDbBlockReference
  2
*U3
 10
-0.1037567662468
 20
-0.4117944179501834
 30
0.0
  0
INSERT
  5
378
330
2
100
AcDbEntity
  8
0
 62
     2
100
AcDbBlockReference
  2
*U5
 10
-0.4842192561968837
 20
13.70316803334217
 30
0.0
  0
INSERT
  5
37D
330
2
100
AcDbEntity
  8
0
 62
     2
100
AcDbBlockReference
  2
*U6
 10
-0.4842192561968837
 20
13.70316803334217
 30
0.0
  0
INSERT
  5
382
330
2
100
AcDbEntity
  8
0
 62
     2
100
AcDbBlockReference
  2
*U7
 10
-0.4842192561968837
 20
13.70316803334217
 30
0.0
  0
INSERT
  5
387
330
2
100
AcDbEntity
  8
0
 62
     2
100
AcDbBlockReference
  2
*U8
 10
-0.4842192561968837
 20
13.70316803334217
 30
0.0
  0
MTEXT
  5
38C
330
2
100
AcDbEntity
  8
PHANTOM
 62
     7
100
AcDbMText
 10
23.21992704409118
 20
15.49129991481741
 30
0.0
 40
0.18
 41
0.0
 71
     4
 72
     5
  1

 73
     1
 44
1.0
  0
MTEXT
  5
38F
330
2
100
AcDbEntity
  8
CENTER
 62
     7
100
AcDbMText
 10
14.55682465044315
 20
4.808546654057444
 30
0.0
 40
0.18
 41
0.0
 71
     4
 72
     5
  1

 73
     1
 44
1.0
  0
MTEXT
  5
391
330
2
100
AcDbEntity
  8
PHANTOM
 62
     7
100
AcDbMText
 10
31.38087559224331
 20
12.11798637137428
 30
0.0
 40
0.18
 41
0.0
 71
     6
 72
     5
  1

 73
     1
 44
1.0
  0
MTEXT
  5
392
330
2
100
AcDbEntity
  8
PHANTOM
 62
     7
100
AcDbMText
 10
33.59971729903509
 20
17.42569063733952
 30
0.0
 40
0.18
 41
0.0
 71
     4
 72
     5
  1

 73
     1
 44
1.0
  0
MTEXT
  5
393
330
2
100
AcDbEntity
  8
PHANTOM
 62
     7
100
AcDbMText
 10
34.01542334028903
 20
17.03551611629313
 30
0.0
 40
0.18
 41
0.0
 71
     4
 72
     5
  1

 73
     1
 44
1.0
  0
LINE
  5
394
330
2
100
AcDbEntity
  8
10
100
AcDbLine
 10
16.8087432337532
 20
10.33820558204981
 30
0.0
 11
16.80874323375319
 21
10.08820558204981
 31
0.0
  0
LINE
  5
396
330
2
100
AcDbEntity
  8
10
100
AcDbLine
 10
-0.1912567662467964
 20
-0.6617944179501834
 30
0.0
 11
0.0587432337532036
 21
-0.6617944179501838
 31
0.0
  0
LINE
  5
397
330
2
100
AcDbEntity
  8
10
100
AcDbLine
 10
-0.1912567662467964
 20
10.33820558204981
 30
0.0
 11
0.0587432337532036
 21
10.33820558204981
 31
0.0
  0
LINE
  5
398
330
2
100
AcDbEntity
  8
10
100
AcDbLine
 10
-0.1912567662467964
 20
10.33820558204981
 30
0.0
 11
-0.1912567662467929
 21
10.08820558204981
 31
0.0
  0
LINE
  5
399
330
2
100
AcDbEntity
  8
10
100
AcDbLine
 10
16.80874323375319
 20
-0.4117944179501816
 30
0.0
 11
16.8087432337532
 21
-0.6617944179501812
 31
0.0
  0
LINE
  5
39A
330
2
100
AcDbEntity
  8
10
100
AcDbLine
 10
16.55874323375319
 20
-0.6617944179501812
 30
0.0
 11
16.8087432337532
 21
-0.6617944179501812
 31
0.0
  0
LINE
  5
39B
330
2
100
AcDbEntity
  8
10
100
AcDbLine
 10
16.55874323375319
 20
10.33820558204981
 30
0.0
 11
16.80874323375321
 21
10.33820558204981
 31
0.0
  0
LINE
  5
39C
330
2
100
AcDbEntity
  8
10
100
AcDbLine
 10
-0.1912567662467929
 20
-0.4117944179501834
 30
0.0
 11
-0.1912567662467964
 21
-0.6617944179501834
 31
0.0
  0
INSERT
  5
39D
330
2
100
AcDbEntity
  8
10
100
AcDbBlockReference
  2
A$C708B5813
 10
6.59289811616111
 20
-0.3670099066259165
 30
0.0000000075
 41
0.75
 42
0.75
 43
0.7500000000000001
  0
MTEXT
  5
3E1
330
2
100
AcDbEntity
  8
10
 62
     7
100
AcDbMText
 10
11.48504781602777
 20
0.0591137652043681
 30
0.0
 40
0.1
 41
6.8
 71
     1
 72
     5
  1
P.O. BOX 496\P664 STATE STREET\PBEAVER, PA 15009
 73
     1
 44
1.0
  0
MTEXT
  5
3E2
330
2
100
AcDbEntity
  8
10
 62
     7
100
AcDbMText
 10
14.97287988059597
 20
0.0041465746429537
 30
0.0
 40
0.09
 41
4.5
 71
     1
 72
     5
  1
\LDRAWING NO.
 73
     1
 44
1.0
  0
MTEXT
  5
3E3
330
2
100
AcDbEntity
  8
10
 62
     7
100
AcDbMText
 10
15.13460452919048
 20
-0.1677802077622261
 30
0.0
 40
0.125
 41
1.8464
 71
     1
 72
     5
  1
OD10108
 73
     1
 44
1.0
  0
LINE
  5
3E4
330
2
100
AcDbEntity
  8
10
100
AcDbLine
 10
14.9148336312537
 20
-0.4042220768440981
 30
0.0
 11
14.9148336312537
 21
0.095777923155902
 31
0.0
  0
MTEXT
  5
3E5
330
2
100
AcDbEntity
  8
10
 62
     7
100
AcDbMText
 10
13.67055925046173
 20
1.41732587451076
 30
0.0
 40
0.11
 41
2.799999999999999
 71
     1
 72
     5
  1
TERMINAL BLOCK PRODUCT LINE\PDIN RAIL MOUNTED \P25A TERMINAL BLOCK (FLATTOP)\PDATA SHEET 
 73
     1
 44
1.0
  0
LINE
  5
3E6
330
2
100
AcDbEntity
  8
10
100
AcDbLine
 10
8.812649468088329
 20
0.5447489857244677
 30
0.0
 11
13.55874321808832
 21
0.5447489857244677
 31
0.0
  0
TEXT
  5
3E7
330
2
100
AcDbEntity
  8
10
 62
     7
100
AcDbText
 10
8.935586801269986
 20
0.1558051918080316
 30
0.0
 40
0.094921875
  1
REV
100
AcDbText
  0
TEXT
  5
3E8
330
2
100
AcDbEntity
  8
10
 62
     7
100
AcDbText
 10
10.4240761093247
 20
0.1606425951017716
 30
0.0
 40
0.094921875
  1
DESCRIPTION
100
AcDbText
  0
TEXT
  5
3E9
330
2
100
AcDbEntity
  8
10
 62
     7
100
AcDbText
 10
12.54661084389702
 20
0.1577160512841704
 30
0.0
 40
0.094921875
  1
DATE
100
AcDbText
  0
TEXT
  5
3EA
330
2
100
AcDbEntity
  8
10
 62
     7
100
AcDbText
 10
13.26067704163897
 20
0.162553593462885
 30
0.0
 40
0.094921875
  1
BY
100
AcDbText
  0
LINE
  5
3EB
330
2
100
AcDbEntity
  8
10
100
AcDbLine
 10
8.812649468088329
 20
0.3469950794744676
 30
0.0
 11
13.55874321808832
 21
0.3469950794744676
 31
0.0
  0
LINE
  5
3EC
330
2
100
AcDbEntity
  8
10
100
AcDbLine
 10
9.287258843088325
 20
0.5447489857244677
 30
0.0
 11
9.287258843088293
 21
0.0882055820498182
 31
0.0
  0
LINE
  5
3ED
330
2
100
AcDbEntity
  8
10
100
AcDbLine
 10
13.08413384308832
 20
0.5447489857244677
 30
0.0
 11
13.08413384308832
 21
0.0882055820498183
 31
0.0
  0
LINE
  5
3EE
330
2
100
AcDbEntity
  8
10
100
AcDbLine
 10
12.37221978058833
 20
0.5447489857244677
 30
0.0
 11
12.37221978058836
 21
0.0882055820498183
 31
0.0
  0
MTEXT
  5
3EF
330
2
100
AcDbEntity
  8
10
 62
     7
100
AcDbMText
 10
13.60694432712384
 20
-0.0047982598865617
 30
0.0
 40
0.09
 41
4.5
 71
     1
 72
     5
  1
\LSCALE:
 73
     1
 44
1.0
  0
TEXT
  5
3F0
330
2
100
AcDbEntity
  8
10
 62
     7
100
AcDbText
 10
8.929133992349804
 20
0.385814291027053
 30
0.0
 40
0.094921875
  1
XXX
100
AcDbText
  0
TEXT
  5
3F1
330
2
100
AcDbEntity
  8
10
 62
     7
100
AcDbText
 10
10.41762330040451
 20
0.3906516943207947
 30
0.0
 40
0.094921875
  1
XXXXXXXXXXX
100
AcDbText
  0
TEXT
  5
3F2
330
2
100
AcDbEntity
  8
10
 62
     7
100
AcDbText
 10
12.54015803497684
 20
0.3877251505031935
 30
0.0
 40
0.094921875
  1
XXXX
100
AcDbText
  0
TEXT
  5
3F3
330
2
100
AcDbEntity
  8
10
 62
     7
100
AcDbText
 10
13.20414415176139
 20
0.3925626926819063
 30
0.0
 40
0.094921875
  1
XXX
100
AcDbText
  0
LINE
  5
3F4
330
2
100
AcDbEntity
  8
10
100
AcDbLine
 10
0.0587432337532036
 20
-0.4117944179501829
 30
0.0
 11
16.55874323375319
 21
-0.4117944179501932
 31
0.0
  0
LINE
  5
3F5
330
2
100
AcDbEntity
  8
10
100
AcDbLine
 10
8.812649468088315
 20
0.5447489857244677
 30
0.0
 11
8.812649468088297
 21
0.0882055820498182
 31
0.0
  0
LINE
  5
3F6
330
2
100
AcDbEntity
  8
10
100
AcDbLine
 10
13.55874323012792
 20
1.564768082049818
 30
0.0
 11
13.55874319406612
 21
0.0882055820498278
 31
0.0
  0
LINE
  5
3F7
330
2
100
AcDbEntity
  8
10
100
AcDbLine
 10
16.55874323375319
 20
10.08820558204981
 30
0.0
 11
16.55874323375319
 21
-0.4117944179501932
 31
0.0
  0
CIRCLE
  5
3F8
330
2
100
AcDbEntity
  8
10
 62
     1
100
AcDbCircle
 10
0.0587432337532
 20
-0.4117944179501834
 30
0.00000001
 40
0.1415883773737505
  0
LINE
  5
3F9
330
2
100
AcDbEntity
  8
10
100
AcDbLine
 10
0.0587432337532107
 20
10.08820558204982
 30
0.0
 11
16.55874323375319
 21
10.08820558204981
 31
0.0
  0
LINE
  5
3FA
330
2
100
AcDbEntity
  8
10
100
AcDbLine
 10
0.0587432337532107
 20
10.08820558204982
 30
0.0
 11
0.0587432337532036
 21
-0.4117944179501825
 31
0.0
  0
LINE
  5
3FB
330
2
100
AcDbEntity
  8
10
100
AcDbLine
 10
13.62874323375319
 20
1.524143166271232
 30
0.0
 11
16.48874323375318
 21
1.524143166271233
 31
0.0
  0
LINE
  5
3FC
330
2
100
AcDbEntity
  8
10
100
AcDbLine
 10
16.50874323375319
 20
1.504143166271232
 30
0.0
 11
16.50874323375319
 21
0.6082055820498185
 31
0.0
  0
LINE
  5
3FD
330
2
100
AcDbEntity
  8
10
100
AcDbLine
 10
13.6087432337532
 20
1.504143166271232
 30
0.0
 11
13.60874323375319
 21
0.6082055820498185
 31
0.0
  0
LINE
  5
3FE
330
2
100
AcDbEntity
  8
10
100
AcDbLine
 10
13.62874323375319
 20
0.5882055820498185
 30
0.0
 11
16.48874323375319
 21
0.5882055820498185
 31
0.0
  0
LINE
  5
3FF
330
2
100
AcDbEntity
  8
10
100
AcDbLine
 10
13.55874320505638
 20
0.5447489324281058
 30
0.0
 11
16.55874323375319
 21
0.5447489324281058
 31
0.0
  0
MTEXT
  5
400
330
2
100
AcDbEntity
  8
10
 62
     7
100
AcDbMText
 10
13.85215756260992
 20
-0.1807313684445066
 30
0.0
 40
0.125
 41
1.8464
 71
     1
 72
     5
  1
2:1
 73
     1
 44
1.0
  0
MTEXT
  5
401
330
2
100
AcDbEntity
  8
10
 62
     7
100
AcDbMText
 10
13.62256203520151
 20
0.4584200108009409
 30
0.0
 40
0.09
 41
4.5
 71
     1
 72
     5
  1
\LDRAWN BY:
 73
     1
 44
1.0
  0
MTEXT
  5
402
330
2
100
AcDbEntity
  8
10
 62
     7
100
AcDbMText
 10
14.04812409584751
 20
0.2824869022429954
 30
0.0
 40
0.125
 41
1.8464
 71
     1
 72
     5
  1
RCG
 73
     1
 44
1.0
  0
MTEXT
  5
403
330
2
100
AcDbEntity
  8
10
 62
     7
100
AcDbMText
 10
14.98651104973154
 20
0.4740341243608573
 30
0.0
 40
0.09
 41
4.5
 71
     1
 72
     5
  1
\LDATE:
 73
     1
 44
1.0
  0
MTEXT
  5
404
330
2
100
AcDbEntity
  8
10
 62
     7
100
AcDbMText
 10
15.31946153111982
 20
0.2981010158029118
 30
0.0
 40
0.125
 41
1.8464
 71
     1
 72
     5
  1
12-11-01
 73
     1
 44
1.0
  0
LINE
  5
405
330
2
100
AcDbEntity
  8
10
100
AcDbLine
 10
14.9148336312537
 20
0.0882055820498185
 30
0.0
 11
14.9148336312537
 21
0.5382055820498186
 31
0.0000000000000001
  0
LINE
  5
406
330
2
100
AcDbEntity
  8
10
100
AcDbLine
 10
13.62874323375319
 20
1.524143166271232
 30
0.0
 11
13.60874323375319
 21
1.504143166271232
 31
0.0
  0
LINE
  5
407
330
2
100
AcDbEntity
  8
10
100
AcDbLine
 10
16.48874323375318
 20
1.524143166271232
 30
0.0
 11
16.50874323375319
 21
1.504143166271232
 31
0.0
  0
LINE
  5
408
330
2
100
AcDbEntity
  8
10
100
AcDbLine
 10
16.50874323375319
 20
0.6082055820498185
 30
0.0
 11
16.48874323375319
 21
0.5882055820498185
 31
0.0
  0
LINE
  5
409
330
2
100
AcDbEntity
  8
10
100
AcDbLine
 10
13.62874323375319
 20
0.5882055820498185
 30
0.0
 11
13.60874323375319
 21
0.6082055820498185
 31
0.0
  0
LINE
  5
40A
330
2
100
AcDbEntity
  8
10
100
AcDbLine
 10
13.55874319406612
 20
0.0882055820498185
 30
0.0
 11
13.55874319406612
 21
-0.4117944179501914
 31
0.0
  0
MTEXT
  5
40B
330
2
100
AcDbEntity
  8
10
 62
     7
100
AcDbMText
 10
7.109888170807924
 20
-0.06436374967834
 30
0.0
 40
0.2
 41
4.7621
 71
     1
 72
     5
  1
CONTROL CONCEPTS CORP.
 73
     1
 44
1.0
  0
INSERT
  5
40C
330
2
100
AcDbEntity
  8
DIMENSION
100
AcDbBlockReference
  2
A$C2BF30918
 10
13.08751270335333
 20
-0.3668979128297103
 30
0.0000000075
  0
LINE
  5
411
330
2
100
AcDbEntity
  8
10
100
AcDbLine
 10
6.558743184519359
 20
0.0882055820498198
 30
0.0
 11
6.558743184519359
 21
-0.4117944179501869
 31
0.0
  0
LINE
  5
412
330
2
100
AcDbEntity
  8
10
100
AcDbLine
 10
6.558743184519359
 20
-0.1617944179501833
 30
0.0
 11
0.0587432337532038
 21
-0.1617944179501789
 31
0.0
  0
LINE
  5
413
330
2
100
AcDbEntity
  8
10
100
AcDbLine
 10
5.258743184519359
 20
0.0882055820498198
 30
0.0
 11
5.258743184519359
 21
-0.4117944179501869
 31
0.0
  0
LINE
  5
414
330
2
100
AcDbEntity
  8
10
100
AcDbLine
 10
3.958743184519359
 20
0.0882055820498198
 30
0.0
 11
3.958743184519359
 21
-0.4117944179501869
 31
0.0
  0
LINE
  5
415
330
2
100
AcDbEntity
  8
10
100
AcDbLine
 10
2.65874318451936
 20
0.0882055820498198
 30
0.0
 11
2.65874318451936
 21
-0.4117944179501869
 31
0.0
  0
LINE
  5
416
330
2
100
AcDbEntity
  8
10
100
AcDbLine
 10
1.35874318451936
 20
0.0882055820498198
 30
0.0
 11
1.35874318451936
 21
-0.4117944179501869
 31
0.0
  0
LINE
  5
417
330
2
100
AcDbEntity
  8
10
100
AcDbLine
 10
8.81264945505638
 20
1.335764344242656
 30
0.0
 11
13.55874320505637
 21
1.335764344242656
 31
0.0
  0
TEXT
  5
418
330
2
100
AcDbEntity
  8
10
 62
     7
100
AcDbText
 10
8.929133979317857
 20
1.374583555795242
 30
0.0
 40
0.094921875
  1
XXX
100
AcDbText
  0
LINE
  5
419
330
2
100
AcDbEntity
  8
10
100
AcDbLine
 10
8.812649455056369
 20
1.564768082049818
 30
0.0
 11
8.812649455056357
 21
1.335764344242656
 31
0.0
  0
LINE
  5
41A
330
2
100
AcDbEntity
  8
10
100
AcDbLine
 10
9.287258830056378
 20
1.564768082049818
 30
0.0
 11
9.287258830056364
 21
1.335764344242656
 31
0.0
  0
TEXT
  5
41B
330
2
100
AcDbEntity
  8
10
 62
     7
100
AcDbText
 10
10.41762328737257
 20
1.379420959088984
 30
0.0
 40
0.094921875
  1
XXXXXXXXXXX
100
AcDbText
  0
LINE
  5
41C
330
2
100
AcDbEntity
  8
10
100
AcDbLine
 10
12.37221976755639
 20
1.564768082049818
 30
0.0
 11
12.3722197675564
 21
1.335764344242656
 31
0.0
  0
LINE
  5
41D
330
2
100
AcDbEntity
  8
10
100
AcDbLine
 10
13.08413383005637
 20
1.564768082049818
 30
0.0
 11
13.08413383005637
 21
1.335764344242656
 31
0.0
  0
TEXT
  5
41E
330
2
100
AcDbEntity
  8
10
 62
     7
100
AcDbText
 10
12.54015802194489
 20
1.376494415271382
 30
0.0
 40
0.094921875
  1
XXXX
100
AcDbText
  0
TEXT
  5
41F
330
2
100
AcDbEntity
  8
10
 62
     7
100
AcDbText
 10
13.20414413872943
 20
1.381331957450095
 30
0.0
 40
0.094921875
  1
XXX
100
AcDbText
  0
LINE
  5
420
330
2
100
AcDbEntity
  8
10
100
AcDbLine
 10
8.81264945505638
 20
1.138010491289017
 30
0.0
 11
13.55874320505637
 21
1.138010491289017
 31
0.0
  0
LINE
  5
421
330
2
100
AcDbEntity
  8
10
100
AcDbLine
 10
8.81264945505638
 20
1.335764397539017
 30
0.0
 11
13.55874320505637
 21
1.335764397539017
 31
0.0
  0
TEXT
  5
422
330
2
100
AcDbEntity
  8
10
 62
     7
100
AcDbText
 10
8.929133979317857
 20
1.176829702841603
 30
0.0
 40
0.094921875
  1
XXX
100
AcDbText
  0
LINE
  5
423
330
2
100
AcDbEntity
  8
10
100
AcDbLine
 10
8.812649455056369
 20
1.335764397539016
 30
0.0
 11
8.812649455056357
 21
1.138010491289017
 31
0.0
  0
LINE
  5
424
330
2
100
AcDbEntity
  8
10
100
AcDbLine
 10
9.287258830056376
 20
1.335764397539016
 30
0.0
 11
9.287258830056364
 21
1.138010491289017
 31
0.0
  0
TEXT
  5
425
330
2
100
AcDbEntity
  8
10
 62
     7
100
AcDbText
 10
10.41762328737257
 20
1.181667106135345
 30
0.0
 40
0.094921875
  1
XXXXXXXXXXX
100
AcDbText
  0
LINE
  5
426
330
2
100
AcDbEntity
  8
10
100
AcDbLine
 10
12.37221976755639
 20
1.335764397539017
 30
0.0
 11
12.3722197675564
 21
1.138010491289017
 31
0.0
  0
LINE
  5
427
330
2
100
AcDbEntity
  8
10
100
AcDbLine
 10
13.08413383005637
 20
1.335764397539017
 30
0.0
 11
13.08413383005637
 21
1.138010491289017
 31
0.0
  0
TEXT
  5
428
330
2
100
AcDbEntity
  8
10
 62
     7
100
AcDbText
 10
12.54015802194489
 20
1.178740562317743
 30
0.0
 40
0.094921875
  1
XXXX
100
AcDbText
  0
TEXT
  5
429
330
2
100
AcDbEntity
  8
10
 62
     7
100
AcDbText
 10
13.20414413872943
 20
1.183578104496456
 30
0.0
 40
0.094921875
  1
XXX
100
AcDbText
  0
LINE
  5
42A
330
2
100
AcDbEntity
  8
10
100
AcDbLine
 10
8.812649461572352
 20
0.742502785381745
 30
0.0
 11
13.55874321157234
 21
0.742502785381745
 31
0.0
  0
LINE
  5
42B
330
2
100
AcDbEntity
  8
10
100
AcDbLine
 10
8.812649461572352
 20
0.940256691631745
 30
0.0
 11
13.55874321157234
 21
0.940256691631745
 31
0.0
  0
TEXT
  5
42C
330
2
100
AcDbEntity
  8
10
 62
     7
100
AcDbText
 10
8.929133985833829
 20
0.7813219969343313
 30
0.0
 40
0.094921875
  1
XXX
100
AcDbText
  0
LINE
  5
42D
330
2
100
AcDbEntity
  8
10
100
AcDbLine
 10
8.812649461572341
 20
0.9402566916317445
 30
0.0
 11
8.812649461572329
 21
0.742502785381745
 31
0.0
  0
LINE
  5
42E
330
2
100
AcDbEntity
  8
10
100
AcDbLine
 10
9.287258836572348
 20
0.9402566916317445
 30
0.0
 11
9.287258836572336
 21
0.742502785381745
 31
0.0
  0
TEXT
  5
42F
330
2
100
AcDbEntity
  8
10
 62
     7
100
AcDbText
 10
10.41762329388854
 20
0.7861594002280734
 30
0.0
 40
0.094921875
  1
XXXXXXXXXXX
100
AcDbText
  0
LINE
  5
430
330
2
100
AcDbEntity
  8
10
100
AcDbLine
 10
12.37221977407236
 20
0.940256691631745
 30
0.0
 11
12.37221977407237
 21
0.742502785381745
 31
0.0
  0
LINE
  5
431
330
2
100
AcDbEntity
  8
10
100
AcDbLine
 10
13.08413383657234
 20
0.940256691631745
 30
0.0
 11
13.08413383657234
 21
0.742502785381745
 31
0.0
  0
TEXT
  5
432
330
2
100
AcDbEntity
  8
10
 62
     7
100
AcDbText
 10
12.54015802846087
 20
0.7832328564104714
 30
0.0
 40
0.094921875
  1
XXXX
100
AcDbText
  0
TEXT
  5
433
330
2
100
AcDbEntity
  8
10
 62
     7
100
AcDbText
 10
13.20414414524541
 20
0.7880703985891844
 30
0.0
 40
0.094921875
  1
XXX
100
AcDbText
  0
LINE
  5
434
330
2
100
AcDbEntity
  8
10
100
AcDbLine
 10
8.812649461572352
 20
0.9402566383353821
 30
0.0
 11
13.55874321157234
 21
0.9402566383353821
 31
0.0
  0
LINE
  5
435
330
2
100
AcDbEntity
  8
10
100
AcDbLine
 10
8.812649461572352
 20
1.138010544585382
 30
0.0
 11
13.55874321157234
 21
1.138010544585382
 31
0.0
  0
TEXT
  5
436
330
2
100
AcDbEntity
  8
10
 62
     7
100
AcDbText
 10
8.929133985833829
 20
0.9790758498879682
 30
0.0
 40
0.094921875
  1
XXX
100
AcDbText
  0
LINE
  5
437
330
2
100
AcDbEntity
  8
10
100
AcDbLine
 10
8.812649461572341
 20
1.138010544585381
 30
0.0
 11
8.812649461572329
 21
0.9402566383353821
 31
0.0
  0
LINE
  5
438
330
2
100
AcDbEntity
  8
10
100
AcDbLine
 10
9.287258836572348
 20
1.138010544585381
 30
0.0
 11
9.287258836572336
 21
0.9402566383353821
 31
0.0
  0
TEXT
  5
439
330
2
100
AcDbEntity
  8
10
 62
     7
100
AcDbText
 10
10.41762329388854
 20
0.9839132531817105
 30
0.0
 40
0.094921875
  1
XXXXXXXXXXX
100
AcDbText
  0
LINE
  5
43A
330
2
100
AcDbEntity
  8
10
100
AcDbLine
 10
12.37221977407236
 20
1.138010544585382
 30
0.0
 11
12.37221977407237
 21
0.9402566383353821
 31
0.0
  0
LINE
  5
43B
330
2
100
AcDbEntity
  8
10
100
AcDbLine
 10
13.08413383657234
 20
1.138010544585382
 30
0.0
 11
13.08413383657234
 21
0.9402566383353821
 31
0.0
  0
TEXT
  5
43C
330
2
100
AcDbEntity
  8
10
 62
     7
100
AcDbText
 10
12.54015802846087
 20
0.9809867093641084
 30
0.0
 40
0.094921875
  1
XXXX
100
AcDbText
  0
TEXT
  5
43D
330
2
100
AcDbEntity
  8
10
 62
     7
100
AcDbText
 10
13.20414414524541
 20
0.9858242515428214
 30
0.0
 40
0.094921875
  1
XXX
100
AcDbText
  0
LINE
  5
43E
330
2
100
AcDbEntity
  8
10
100
AcDbLine
 10
8.812649461572352
 20
0.5447489324281058
 30
0.0
 11
13.55874321157234
 21
0.544748932428106
 31
0.0
  0
LINE
  5
43F
330
2
100
AcDbEntity
  8
10
100
AcDbLine
 10
8.812649461572352
 20
0.7425028386781061
 30
0.0
 11
13.55874321157234
 21
0.7425028386781061
 31
0.0
  0
TEXT
  5
440
330
2
100
AcDbEntity
  8
10
 62
     7
100
AcDbText
 10
8.929133985833829
 20
0.5835681439806923
 30
0.0
 40
0.094921875
  1
XXX
100
AcDbText
  0
LINE
  5
441
330
2
100
AcDbEntity
  8
10
100
AcDbLine
 10
8.812649461572341
 20
0.7425028386781057
 30
0.0
 11
8.812649461572329
 21
0.5447489324281058
 31
0.0
  0
LINE
  5
442
330
2
100
AcDbEntity
  8
10
100
AcDbLine
 10
9.287258836572348
 20
0.7425028386781057
 30
0.0
 11
9.287258836572336
 21
0.5447489324281058
 31
0.0
  0
TEXT
  5
443
330
2
100
AcDbEntity
  8
10
 62
     7
100
AcDbText
 10
10.41762329388854
 20
0.5884055472744344
 30
0.0
 40
0.094921875
  1
XXXXXXXXXXX
100
AcDbText
  0
LINE
  5
444
330
2
100
AcDbEntity
  8
10
100
AcDbLine
 10
12.37221977407236
 20
0.7425028386781061
 30
0.0
 11
12.37221977407237
 21
0.5447489324281058
 31
0.0
  0
LINE
  5
445
330
2
100
AcDbEntity
  8
10
100
AcDbLine
 10
13.08413383657234
 20
0.7425028386781061
 30
0.0
 11
13.08413383657234
 21
0.544748932428106
 31
0.0
  0
TEXT
  5
446
330
2
100
AcDbEntity
  8
10
 62
     7
100
AcDbText
 10
12.54015802846087
 20
0.5854790034568324
 30
0.0
 40
0.094921875
  1
XXXX
100
AcDbText
  0
TEXT
  5
447
330
2
100
AcDbEntity
  8
10
 62
     7
100
AcDbText
 10
13.20414414524541
 20
0.5903165456355457
 30
0.0
 40
0.094921875
  1
XXX
100
AcDbText
  0
LINE
  5
448
330
2
100
AcDbEntity
  8
10
100
AcDbLine
 10
8.812649455056368
 20
1.564768082049818
 30
0.0
 11
16.55874323375319
 21
1.564768082049818
 31
0.0
  0
LINE
  5
449
330
2
100
AcDbEntity
  8
10
100
AcDbLine
 10
0.0587432337532032
 20
0.0882055820498167
 30
0.0
 11
16.55874323375319
 21
0.0882055820498167
 31
0.0
  0
DIMENSION
  5
44A
330
2
100
AcDbEntity
  8
DIMENSION
100
AcDbDimension
  2
*D10
 10
1.65610007381175
 20
3.999486701842025
 30
0.0
 11
1.656100073811749
 21
4.866204519156909
 31
0.0
 70
   128
 71
     5
 42
1.59763986106304
  3
STANDARD
100
AcDbAlignedDimension
 13
2.751240390984741
 23
5.597126562905065
 33
0.0
 14
2.599120390984741
 24
3.999486701842025
 34
0.0
 50
90.0
100
AcDbRotatedDimension
  0
DIMENSION
  5
459
330
2
100
AcDbEntity
  8
DIMENSION
100
AcDbDimension
  2
*D11
 10
4.325390390984733
 20
3.474747063243555
 30
0.0
 11
3.4015286270116
 21
3.474747063243555
 31
0.0
 70
   128
 71
     5
 42
1.789469999999994
  3
STANDARD
100
AcDbAlignedDimension
 13
2.535920390984739
 23
4.062686701842027
 33
0.0
 14
4.325390390984733
 24
4.062686701842027
 34
0.0
100
AcDbRotatedDimension
1001
ACAD
1000
DSTYLE
1002
{
1070
   271
1070
     2
1002
}
  0
DIMENSION
  5
467
330
2
100
AcDbEntity
  8
DIMENSION
100
AcDbDimension
  2
*D12
 10
7.32248494261362
 20
3.508134736966979
 30
0.0
 11
7.50998494261362
 21
3.508134736966979
 31
0.0
 70
   128
 71
     5
 42
0.375
  3
STANDARD
100
AcDbAlignedDimension
 13
7.69748494261362
 23
3.999486701842027
 33
0.0
 14
7.32248494261362
 24
3.999486701842027
 34
0.0
100
AcDbRotatedDimension
  0
MTEXT
  5
475
330
2
100
AcDbEntity
  8
STD10004-H38
 62
     1
100
AcDbMText
 10
7.5274902296741
 20
8.671051299661897
 30
0.0
 40
0.125
 41
6.6173
 71
     1
 72
     5
  1
{\LNOTE:\P\P}1) CAPTIVE WIRE CLAMPS CAN ACCEPT UP TO #22 TO TWO #12 WIRES\P\P2) RATING - 25A 600v
 73
     1
 44
1.0
  0
ARC
  5
477
330
2
100
AcDbEntity
  8
AM_VIS
100
AcDbCircle
 10
3.430655390984735
 20
4.586025462905107
 30
0.0
 40
0.0707699999999996
100
AcDbArc
 50
359.9999999999977
 51
180.0000000000015
  0
LINE
  5
478
330
2
100
AcDbEntity
  8
AM_VIS
100
AcDbLine
 10
3.218951990984731
 20
4.586025462905105
 30
0.0
 11
3.359885390984736
 21
4.586025462905105
 31
0.0
  0
LINE
  5
479
330
2
100
AcDbEntity
  8
AM_VIS
100
AcDbLine
 10
3.218951990984731
 20
4.793290462905106
 30
0.0
 11
3.218951990984731
 21
4.586025462905112
 31
0.0
  0
LINE
  5
47A
330
2
100
AcDbEntity
  8
AM_VIS
100
AcDbLine
 10
4.204070390984728
 20
5.503126562905065
 30
0.0
 11
4.204070390984728
 21
4.713825206573366
 31
0.0
  0
ARC
  5
47B
330
2
100
AcDbEntity
  8
AM_VIS
100
AcDbCircle
 10
4.110070390984731
 20
5.503126562905065
 30
0.0
 40
0.094
100
AcDbArc
 50
0.0000000000000254
 51
90.00000000000003
  0
LINE
  5
47C
330
2
100
AcDbEntity
  8
AM_VIS
100
AcDbLine
 10
3.642964718667954
 20
5.597126562905065
 30
0.0
 11
4.110070390984731
 21
5.597126562905065
 31
0.0
  0
LINE
  5
47D
330
2
100
AcDbEntity
  8
AM_VIS
100
AcDbLine
 10
2.75124039098474
 20
5.597126562905065
 30
0.0
 11
3.218344718667953
 21
5.597126562905065
 31
0.0
  0
ARC
  5
47E
330
2
100
AcDbEntity
  8
AM_VIS
100
AcDbCircle
 10
2.75124039098474
 20
5.503126562905065
 30
0.0
 40
0.094
100
AcDbArc
 50
90.00000000000003
 51
179.9999999999997
  0
LINE
  5
47F
330
2
100
AcDbEntity
  8
AM_VIS
100
AcDbLine
 10
2.657240390984732
 20
4.713825206573364
 30
0.0
 11
2.657240390984732
 21
5.503126562905066
 31
0.0
  0
LINE
  5
480
330
2
100
AcDbEntity
  8
AM_VIS
100
AcDbLine
 10
3.218344718667953
 20
5.597126562905065
 30
0.0
 11
3.642964718667954
 21
5.597126562905065
 31
0.0
  0
LINE
  5
481
330
2
100
AcDbEntity
  8
AM_VIS
100
AcDbLine
 10
4.204070390984728
 20
4.713825206573359
 30
0.0
 11
4.204070390984728
 21
4.286769462905111
 31
0.0
  0
LINE
  5
482
330
2
100
AcDbEntity
  8
AM_VIS
100
AcDbLine
 10
3.460654718667953
 20
5.526576562905065
 30
0.0
 11
3.460654718667953
 21
5.496714592544849
 31
0.0
  0
ARC
  5
483
330
2
100
AcDbEntity
  8
AM_VIS
100
AcDbCircle
 10
3.480654718667953
 20
5.526576562905065
 30
0.0
 40
0.0199999999999996
100
AcDbArc
 50
89.99999999998985
 51
180.0000000000006
  0
LINE
  5
484
330
2
100
AcDbEntity
  8
AM_VIS
100
AcDbLine
 10
3.532358790984734
 20
5.546576562905064
 30
0.0
 11
3.480654718667953
 21
5.546576562905064
 31
0.0
  0
ARC
  5
485
330
2
100
AcDbEntity
  8
AM_VIS
100
AcDbCircle
 10
3.532358790984734
 20
5.526576562905068
 30
0.0
 40
0.0199999999999996
100
AcDbArc
 50
359.9999999999898
 51
90.00000000000003
  0
LINE
  5
486
330
2
100
AcDbEntity
  8
AM_VIS
100
AcDbLine
 10
3.552358790984733
 20
4.878236936225109
 30
0.0
 11
3.552358790984733
 21
5.526576562905065
 31
0.0
  0
LINE
  5
487
330
2
100
AcDbEntity
  8
AM_VIS
100
AcDbLine
 10
3.610358790984736
 20
4.878236936225109
 30
0.0
 11
3.552358790984733
 21
4.878236936225109
 31
0.0
  0
ARC
  5
488
330
2
100
AcDbEntity
  8
AM_VIS
100
AcDbCircle
 10
3.610358790984736
 20
4.88523693622511
 30
0.0
 40
0.007
100
AcDbArc
 50
270.0
 51
0.0
  0
LINE
  5
489
330
2
100
AcDbEntity
  8
AM_VIS
100
AcDbLine
 10
3.617358790984734
 20
5.370765801225912
 30
0.0
 11
3.617358790984734
 21
4.88523693622511
 31
0.0
  0
ARC
  5
48A
330
2
100
AcDbEntity
  8
AM_VIS
100
AcDbCircle
 10
3.649358790984734
 20
5.370765801225912
 30
0.0
 40
0.032
100
AcDbArc
 50
135.0000000000006
 51
179.9999999999996
  0
LINE
  5
48B
330
2
100
AcDbEntity
  8
AM_VIS
100
AcDbLine
 10
3.642964718667954
 20
5.409626562905066
 30
0.0
 11
3.626731373986764
 21
5.393393218223882
 31
0.0
  0
LINE
  5
48C
330
2
100
AcDbEntity
  8
AM_VIS
100
AcDbLine
 10
3.642964718667954
 20
5.49602656290507
 30
0.0
 11
3.642964718667954
 21
5.409626562905065
 31
0.0
  0
LINE
  5
48D
330
2
100
AcDbEntity
  8
AM_VIS
100
AcDbLine
 10
3.602524718667954
 20
5.49602656290507
 30
0.0
 11
3.642964718667954
 21
5.49602656290507
 31
0.0
  0
LINE
  5
48E
330
2
100
AcDbEntity
  8
AM_VIS
100
AcDbLine
 10
3.602524718667954
 20
5.546576562905064
 30
0.0
 11
3.602524718667954
 21
5.496026562905074
 31
0.0
  0
LINE
  5
48F
330
2
100
AcDbEntity
  8
AM_VIS
100
AcDbLine
 10
3.642964718667954
 20
5.546576562905064
 30
0.0
 11
3.602524718667957
 21
5.546576562905064
 31
0.0
  0
LINE
  5
490
330
2
100
AcDbEntity
  8
AM_VIS
100
AcDbLine
 10
3.642964718667954
 20
5.597126562905065
 30
0.0
 11
3.642964718667954
 21
5.546576562905064
 31
0.0
  0
ARC
  5
491
330
2
100
AcDbEntity
  8
AM_VIS
100
AcDbCircle
 10
3.250950646351171
 20
4.885236936225108
 30
0.0
 40
0.007
100
AcDbArc
 50
180.0000000000009
 51
270.0
  0
LINE
  5
492
330
2
100
AcDbEntity
  8
AM_VIS
100
AcDbLine
 10
3.243950646351169
 20
4.885236936225108
 30
0.0
 11
3.243950646351169
 21
5.370765801225909
 31
0.0
  0
ARC
  5
493
330
2
100
AcDbEntity
  8
AM_VIS
100
AcDbCircle
 10
3.211950646351169
 20
5.370765801225909
 30
0.0
 40
0.032
100
AcDbArc
 50
359.9999999999996
 51
44.99999999999946
  0
LINE
  5
494
330
2
100
AcDbEntity
  8
AM_VIS
100
AcDbLine
 10
3.23457806334914
 20
5.393393218223879
 30
0.0
 11
3.218344718667953
 21
5.409626562905065
 31
0.0
  0
LINE
  5
495
330
2
100
AcDbEntity
  8
AM_VIS
100
AcDbLine
 10
3.218344718667953
 20
5.409626562905065
 30
0.0
 11
3.218344718667953
 21
5.49602656290507
 31
0.0
  0
LINE
  5
496
330
2
100
AcDbEntity
  8
AM_VIS
100
AcDbLine
 10
3.218344718667953
 20
5.49602656290507
 30
0.0
 11
3.258784718667946
 21
5.49602656290507
 31
0.0
  0
LINE
  5
497
330
2
100
AcDbEntity
  8
AM_VIS
100
AcDbLine
 10
3.258784718667946
 20
5.496026562905074
 30
0.0
 11
3.258784718667946
 21
5.546576562905064
 31
0.0
  0
LINE
  5
498
330
2
100
AcDbEntity
  8
AM_VIS
100
AcDbLine
 10
3.258784718667946
 20
5.546576562905064
 30
0.0
 11
3.218344718667953
 21
5.546576562905064
 31
0.0
  0
LINE
  5
499
330
2
100
AcDbEntity
  8
AM_VIS
100
AcDbLine
 10
3.218344718667953
 20
5.546576562905064
 30
0.0
 11
3.218344718667953
 21
5.597126562905065
 31
0.0
  0
ARC
  5
49A
330
2
100
AcDbEntity
  8
AM_VIS
100
AcDbCircle
 10
3.430654718667952
 20
5.425256562905063
 30
0.0
 40
0.0775000000000031
100
AcDbArc
 50
112.7739724006598
 51
67.22602759934017
  0
LINE
  5
49B
330
2
100
AcDbEntity
  8
AM_VIS
100
AcDbLine
 10
3.400654718667951
 20
5.496714592544849
 30
0.0
 11
3.400654718667951
 21
5.526576562905065
 31
0.0
  0
ARC
  5
49C
330
2
100
AcDbEntity
  8
AM_VIS
100
AcDbCircle
 10
3.380654718667951
 20
5.526576562905065
 30
0.0
 40
0.0199999999999996
100
AcDbArc
 50
359.9999999999993
 51
90.00000000000003
  0
LINE
  5
49D
330
2
100
AcDbEntity
  8
AM_VIS
100
AcDbLine
 10
3.380654718667951
 20
5.546576562905064
 30
0.0
 11
3.32895064635117
 21
5.546576562905064
 31
0.0
  0
ARC
  5
49E
330
2
100
AcDbEntity
  8
AM_VIS
100
AcDbCircle
 10
3.32895064635117
 20
5.526576562905065
 30
0.0
 40
0.0199999999999996
100
AcDbArc
 50
90.00000000000003
 51
180.0000000000006
  0
LINE
  5
49F
330
2
100
AcDbEntity
  8
AM_VIS
100
AcDbLine
 10
3.308950646351171
 20
5.526576562905065
 30
0.0
 11
3.308950646351171
 21
4.878236936225109
 31
0.0
  0
LINE
  5
4A0
330
2
100
AcDbEntity
  8
AM_VIS
100
AcDbLine
 10
3.308950646351171
 20
4.878236936225109
 30
0.0
 11
3.250950646351171
 21
4.878236936225109
 31
0.0
  0
ARC
  5
4A1
330
2
100
AcDbEntity
  8
AM_VIS
100
AcDbCircle
 10
2.874605390984736
 20
4.86607246290511
 30
0.0
 40
0.010110000000001
100
AcDbArc
 50
89.99999999997989
 51
180.0
  0
LINE
  5
4A2
330
2
100
AcDbEntity
  8
AM_VIS
100
AcDbLine
 10
2.788394804305426
 20
4.789971876225804
 30
0.0
 11
2.864495390984735
 21
4.86607246290511
 31
0.0
  0
LINE
  5
4A3
330
2
100
AcDbEntity
  8
AM_VIS
100
AcDbLine
 10
2.709455496758412
 20
4.776052746466822
 30
0.0
 11
2.788394804305426
 21
4.789971876225804
 31
0.0
  0
ARC
  5
4A4
330
2
100
AcDbEntity
  8
AM_VIS
100
AcDbCircle
 10
2.720427890984741
 20
4.713825206573361
 30
0.0
 40
0.0631875000000025
100
AcDbArc
 50
99.99999999999912
 51
179.9999999999984
  0
LINE
  5
4A5
330
2
100
AcDbEntity
  8
AM_VIS
100
AcDbLine
 10
3.953858298019735
 20
4.876182462905111
 30
0.0
 11
3.986705390984734
 21
4.876182462905111
 31
0.0
  0
ARC
  5
4A6
330
2
100
AcDbEntity
  8
AM_VIS
100
AcDbCircle
 10
3.953858298019735
 20
4.86608246290511
 30
0.0
 40
0.0101000000000013
100
AcDbArc
 50
90.00000000000003
 51
180.0
  0
LINE
  5
4A7
330
2
100
AcDbEntity
  8
AM_VIS
100
AcDbLine
 10
3.943758298019734
 20
4.803390462905108
 30
0.0
 11
3.943758298019734
 21
4.86608246290511
 31
0.0
  0
LINE
  5
4A8
330
2
100
AcDbEntity
  8
AM_VIS
100
AcDbLine
 10
3.652458790984731
 20
4.803390462905108
 30
0.0
 11
3.943758298019737
 21
4.803390462905108
 31
0.0
  0
ARC
  5
4A9
330
2
100
AcDbEntity
  8
AM_VIS
100
AcDbCircle
 10
3.652458790984731
 20
4.793290462905106
 30
0.0
 40
0.0100999999999996
100
AcDbArc
 50
90.00000000000003
 51
180.0
  0
LINE
  5
4AA
330
2
100
AcDbEntity
  8
AM_VIS
100
AcDbLine
 10
3.642358790984733
 20
4.586025462905109
 30
0.0
 11
3.642358790984733
 21
4.793290462905106
 31
0.0
  0
ARC
  5
4AB
330
2
100
AcDbEntity
  8
AM_VIS
100
AcDbCircle
 10
3.986705390984734
 20
4.866072462905112
 30
0.0
 40
0.0101099999999999
100
AcDbArc
 50
359.99999999999
 51
90.00000000000003
  0
LINE
  5
4AC
330
2
100
AcDbEntity
  8
AM_VIS
100
AcDbLine
 10
3.996815390984735
 20
4.866072462905109
 30
0.0
 11
4.072915977664045
 21
4.789971876225799
 31
0.0
  0
LINE
  5
4AD
330
2
100
AcDbEntity
  8
AM_VIS
100
AcDbLine
 10
4.072915977664045
 20
4.789971876225799
 30
0.0
 11
4.151855285211059
 21
4.776052746466818
 31
0.0
  0
ARC
  5
4AE
330
2
100
AcDbEntity
  8
AM_VIS
100
AcDbCircle
 10
4.140882890984727
 20
4.713825206573359
 30
0.0
 40
0.0631875000000006
100
AcDbArc
 50
359.9999999999998
 51
79.99999999999733
  0
ARC
  5
4AF
330
2
100
AcDbEntity
  8
AM_VIS
100
AcDbCircle
 10
4.229345390984729
 20
4.286769462905111
 30
0.0
 40
0.0252750000000006
100
AcDbArc
 50
180.0
 51
270.0
  0
LINE
  5
4B0
330
2
100
AcDbEntity
  8
AM_VIS
100
AcDbLine
 10
4.229345390984729
 20
4.26149446290511
 30
0.0
 11
4.239455390984733
 21
4.26149446290511
 31
0.0
  0
ARC
  5
4B1
330
2
100
AcDbEntity
  8
AM_VIS
100
AcDbCircle
 10
4.239455390984733
 20
4.286769462905111
 30
0.0
 40
0.0252750000000006
100
AcDbArc
 50
270.0
 51
359.9999999999999
  0
LINE
  5
4B2
330
2
100
AcDbEntity
  8
AM_VIS
100
AcDbLine
 10
4.26473039098473
 20
4.286769462905111
 30
0.0
 11
4.26473039098473
 21
4.352484462905112
 31
0.0
  0
ARC
  5
4B3
330
2
100
AcDbEntity
  8
AM_VIS
100
AcDbCircle
 10
4.274840390984728
 20
4.352484462905106
 30
0.0
 40
0.0101099999999992
100
AcDbArc
 50
90.00000000000003
 51
179.9999999999698
  0
LINE
  5
4B4
330
2
100
AcDbEntity
  8
AM_VIS
100
AcDbLine
 10
4.274840390984728
 20
4.362594462905105
 30
0.0
 11
4.315280390984732
 21
4.362594462905105
 31
0.0
  0
ARC
  5
4B5
330
2
100
AcDbEntity
  8
AM_VIS
100
AcDbCircle
 10
4.315280390984732
 20
4.352484462905108
 30
0.0
 40
0.0101099999999983
100
AcDbArc
 50
0.000000000020152
 51
90.00000000000003
  0
LINE
  5
4B6
330
2
100
AcDbEntity
  8
AM_VIS
100
AcDbLine
 10
4.325390390984733
 20
4.352484462905112
 30
0.0
 11
4.325390390984733
 21
4.062686701842027
 31
0.0
  0
ARC
  5
4B7
330
2
100
AcDbEntity
  8
AM_VIS
100
AcDbCircle
 10
4.262190390984731
 20
4.062686701842027
 30
0.0
 40
0.0632000000000002
100
AcDbArc
 50
270.0
 51
0.0
  0
LINE
  5
4B8
330
2
100
AcDbEntity
  8
AM_VIS
100
AcDbLine
 10
4.262190390984731
 20
3.999486701842025
 30
0.0
 11
4.173026635189017
 21
3.999486701842025
 31
0.0
  0
LINE
  5
4B9
330
2
100
AcDbEntity
  8
AM_VIS
100
AcDbLine
 10
4.173026635189017
 20
3.999486701842026
 30
0.0
 11
4.051240740361002
 21
4.210426059329391
 31
0.0
  0
ARC
  5
4BA
330
2
100
AcDbEntity
  8
AM_VIS
100
AcDbCircle
 10
4.059996257193262
 20
4.215481059329389
 30
0.0
 40
0.0101099999999984
100
AcDbArc
 50
95.00000000000927
 51
209.9999999999972
  0
LINE
  5
4BB
330
2
100
AcDbEntity
  8
AM_VIS
100
AcDbLine
 10
4.059115112634081
 20
4.225552587727094
 30
0.0
 11
4.123190390984731
 21
4.231158448195048
 31
0.0
  0
LINE
  5
4BC
330
2
100
AcDbEntity
  8
AM_VIS
100
AcDbLine
 10
4.123190390984735
 20
4.231158448195049
 30
0.0
 11
4.123190390984735
 21
4.656795462905114
 31
0.0
  0
ARC
  5
4BD
330
2
100
AcDbEntity
  8
AM_VIS
100
AcDbCircle
 10
4.092860390984736
 20
4.656795462905114
 30
0.0
 40
0.0303300000000002
100
AcDbArc
 50
359.9999999999997
 51
180.0000000000006
  0
LINE
  5
4BE
330
2
100
AcDbEntity
  8
AM_VIS
100
AcDbLine
 10
4.062530390984736
 20
4.656795462905114
 30
0.0
 11
4.062530390984736
 21
4.572310462905107
 31
0.0
  0
LINE
  5
4BF
330
2
100
AcDbEntity
  8
AM_VIS
100
AcDbLine
 10
4.062530390984736
 20
4.572310462905107
 30
0.0
 11
4.032530390984735
 21
4.572310462905107
 31
0.0
  0
ARC
  5
4C0
330
2
100
AcDbEntity
  8
AM_VIS
100
AcDbCircle
 10
4.032530390984732
 20
4.478560462905107
 30
0.0
 40
0.09375
100
AcDbArc
 50
89.99999999999786
 51
270.0
  0
LINE
  5
4C1
330
2
100
AcDbEntity
  8
AM_VIS
100
AcDbLine
 10
4.032530390984732
 20
4.384810462905107
 30
0.0
 11
4.062530390984733
 21
4.384810462905107
 31
0.0
  0
LINE
  5
4C2
330
2
100
AcDbEntity
  8
AM_VIS
100
AcDbLine
 10
4.062530390984733
 20
4.384810462905107
 30
0.0
 11
4.062530390984733
 21
4.300325462905108
 31
0.0
  0
ARC
  5
4C3
330
2
100
AcDbEntity
  8
AM_VIS
100
AcDbCircle
 10
4.030930390984735
 20
4.300325462905108
 30
0.0
 40
0.031600000000001
100
AcDbArc
 50
270.0
 51
0.0
  0
LINE
  5
4C4
330
2
100
AcDbEntity
  8
AM_VIS
100
AcDbLine
 10
4.030930390984735
 20
4.268725462905107
 30
0.0
 11
3.907095390984736
 21
4.268725462905107
 31
0.0
  0
ARC
  5
4C5
330
2
100
AcDbEntity
  8
AM_VIS
100
AcDbCircle
 10
3.907095390984736
 20
4.300325462905107
 30
0.0
 40
0.0315999999999996
100
AcDbArc
 50
180.0
 51
270.0
  0
LINE
  5
4C6
330
2
100
AcDbEntity
  8
AM_VIS
100
AcDbLine
 10
3.875495390984735
 20
4.300325462905107
 30
0.0
 11
3.875495390984735
 21
4.465145462905111
 31
0.0
  0
ARC
  5
4C7
330
2
100
AcDbEntity
  8
AM_VIS
100
AcDbCircle
 10
3.835495390984736
 20
4.465145462905111
 30
0.0
 40
0.0399999999999992
100
AcDbArc
 50
359.9999999999999
 51
90.00000000000003
  0
LINE
  5
4C8
330
2
100
AcDbEntity
  8
AM_VIS
100
AcDbLine
 10
3.835495390984736
 20
4.50514546290511
 30
0.0
 11
3.025815390984735
 21
4.50514546290511
 31
0.0
  0
ARC
  5
4C9
330
2
100
AcDbEntity
  8
AM_VIS
100
AcDbCircle
 10
3.025815390984735
 20
4.465145462905111
 30
0.0
 40
0.0399999999999996
100
AcDbArc
 50
89.99999999999493
 51
179.9999999999998
  0
LINE
  5
4CA
330
2
100
AcDbEntity
  8
AM_VIS
100
AcDbLine
 10
2.985815390984736
 20
4.465145462905111
 30
0.0
 11
2.985815390984736
 21
4.300325462905107
 31
0.0
  0
ARC
  5
4CB
330
2
100
AcDbEntity
  8
AM_VIS
100
AcDbCircle
 10
2.954215390984735
 20
4.300325462905107
 30
0.0
 40
0.0315999999999992
100
AcDbArc
 50
270.0
 51
0.000000000000229
  0
LINE
  5
4CC
330
2
100
AcDbEntity
  8
AM_VIS
100
AcDbLine
 10
2.954215390984735
 20
4.268725462905107
 30
0.0
 11
2.830380390984739
 21
4.268725462905107
 31
0.0
  0
ARC
  5
4CD
330
2
100
AcDbEntity
  8
AM_VIS
100
AcDbCircle
 10
2.830380390984739
 20
4.300325462905107
 30
0.0
 40
0.0315999999999996
100
AcDbArc
 50
180.0
 51
270.0
  0
LINE
  5
4CE
330
2
100
AcDbEntity
  8
AM_VIS
100
AcDbLine
 10
2.798780390984738
 20
4.300325462905107
 30
0.0
 11
2.798780390984738
 21
4.384810462905107
 31
0.0
  0
LINE
  5
4CF
330
2
100
AcDbEntity
  8
AM_VIS
100
AcDbLine
 10
2.798780390984738
 20
4.384810462905107
 30
0.0
 11
2.828780390984732
 21
4.384810462905107
 31
0.0
  0
ARC
  5
4D0
330
2
100
AcDbEntity
  8
AM_VIS
100
AcDbCircle
 10
2.828780390984732
 20
4.478560462905107
 30
0.0
 40
0.09375
100
AcDbArc
 50
270.0
 51
90.00000000000003
  0
LINE
  5
4D1
330
2
100
AcDbEntity
  8
AM_VIS
100
AcDbLine
 10
2.828780390984739
 20
4.572310462905107
 30
0.0
 11
2.798780390984745
 21
4.572310462905107
 31
0.0
  0
LINE
  5
4D2
330
2
100
AcDbEntity
  8
AM_VIS
100
AcDbLine
 10
2.798780390984742
 20
4.572310462905107
 30
0.0
 11
2.798780390984742
 21
4.656795462905112
 31
0.0
  0
ARC
  5
4D3
330
2
100
AcDbEntity
  8
AM_VIS
100
AcDbCircle
 10
2.768450390984739
 20
4.656795462905108
 30
0.0
 40
0.0303299999999993
100
AcDbArc
 50
0.0000000000067428
 51
180.0000000000006
  0
LINE
  5
4D4
330
2
100
AcDbEntity
  8
AM_VIS
100
AcDbLine
 10
2.738120390984736
 20
4.656795462905108
 30
0.0
 11
2.738120390984736
 21
4.231158448195049
 31
0.0
  0
LINE
  5
4D5
330
2
100
AcDbEntity
  8
AM_VIS
100
AcDbLine
 10
2.738120390984736
 20
4.231158448195048
 30
0.0
 11
2.802195669335382
 21
4.225552587727094
 31
0.0
  0
ARC
  5
4D6
330
2
100
AcDbEntity
  8
AM_VIS
100
AcDbCircle
 10
2.801314524776202
 20
4.215481059329389
 30
0.0
 40
0.0101099999999991
100
AcDbArc
 50
330.0000000000049
 51
84.99999999999117
  0
LINE
  5
4D7
330
2
100
AcDbEntity
  8
AM_VIS
100
AcDbLine
 10
2.810070041608465
 20
4.210426059329391
 30
0.0
 11
2.688284146780443
 21
3.999486701842024
 31
0.0
  0
LINE
  5
4D8
330
2
100
AcDbEntity
  8
AM_VIS
100
AcDbLine
 10
2.688284146780443
 20
3.999486701842025
 30
0.0
 11
2.59912039098474
 21
3.999486701842025
 31
0.0
  0
ARC
  5
4D9
330
2
100
AcDbEntity
  8
AM_VIS
100
AcDbCircle
 10
2.59912039098474
 20
4.062686701842027
 30
0.0
 40
0.0632000000000006
100
AcDbArc
 50
179.9999999999998
 51
270.0
  0
LINE
  5
4DA
330
2
100
AcDbEntity
  8
AM_VIS
100
AcDbLine
 10
2.535920390984738
 20
4.062686701842027
 30
0.0
 11
2.535920390984738
 21
4.35248446290511
 31
0.0
  0
ARC
  5
4DB
330
2
100
AcDbEntity
  8
AM_VIS
100
AcDbCircle
 10
2.546030390984736
 20
4.352484462905108
 30
0.0
 40
0.0101099999999974
100
AcDbArc
 50
90.00000000000003
 51
179.9999999999899
  0
LINE
  5
4DC
330
2
100
AcDbEntity
  8
AM_VIS
100
AcDbLine
 10
2.546030390984732
 20
4.362594462905105
 30
0.0
 11
2.586470390984736
 21
4.362594462905105
 31
0.0
  0
ARC
  5
4DD
330
2
100
AcDbEntity
  8
AM_VIS
100
AcDbCircle
 10
2.586470390984739
 20
4.352484462905112
 30
0.0
 40
0.0101100000000001
100
AcDbArc
 50
0.0000000000001781
 51
90.00000000000003
  0
LINE
  5
4DE
330
2
100
AcDbEntity
  8
AM_VIS
100
AcDbLine
 10
2.596580390984737
 20
4.352484462905112
 30
0.0
 11
2.596580390984737
 21
4.286769462905109
 31
0.0
  0
ARC
  5
4DF
330
2
100
AcDbEntity
  8
AM_VIS
100
AcDbCircle
 10
2.621855390984737
 20
4.286769462905109
 30
0.0
 40
0.0252750000000006
100
AcDbArc
 50
179.9999999999998
 51
270.0
  0
LINE
  5
4E0
330
2
100
AcDbEntity
  8
AM_VIS
100
AcDbLine
 10
2.621855390984737
 20
4.26149446290511
 30
0.0
 11
2.631965390984738
 21
4.26149446290511
 31
0.0
  0
ARC
  5
4E1
330
2
100
AcDbEntity
  8
AM_VIS
100
AcDbCircle
 10
2.631965390984738
 20
4.286769462905107
 30
0.0
 40
0.0252749999999997
100
AcDbArc
 50
270.000000000008
 51
359.9999999999959
  0
LINE
  5
4E2
330
2
100
AcDbEntity
  8
AM_VIS
100
AcDbLine
 10
2.657240390984735
 20
4.286769462905105
 30
0.0
 11
2.657240390984735
 21
4.713825206573362
 31
0.0
  0
LINE
  5
4E3
330
2
100
AcDbEntity
  8
AM_VIS
100
AcDbLine
 10
2.874605390984736
 20
4.876182462905111
 30
0.0
 11
2.907442483949736
 21
4.876182462905111
 31
0.0
  0
ARC
  5
4E4
330
2
100
AcDbEntity
  8
AM_VIS
100
AcDbCircle
 10
2.907442483949733
 20
4.866072462905112
 30
0.0
 40
0.0101100000000001
100
AcDbArc
 50
0.0000000000000254
 51
89.99999999997989
  0
LINE
  5
4E5
330
2
100
AcDbEntity
  8
AM_VIS
100
AcDbLine
 10
2.917552483949734
 20
4.866072462905112
 30
0.0
 11
2.917552483949734
 21
4.803390462905106
 31
0.0
  0
LINE
  5
4E6
330
2
100
AcDbEntity
  8
AM_VIS
100
AcDbLine
 10
2.917552483949734
 20
4.803390462905108
 30
0.0
 11
3.208851990984733
 21
4.803390462905108
 31
0.0
  0
ARC
  5
4E7
330
2
100
AcDbEntity
  8
AM_VIS
100
AcDbCircle
 10
3.208851990984733
 20
4.793290462905106
 30
0.0
 40
0.0101
100
AcDbArc
 50
359.9999999999993
 51
90.00000000000003
  0
LINE
  5
4E8
330
2
100
AcDbEntity
  8
AM_VIS
100
AcDbLine
 10
3.501425390984735
 20
4.586025462905109
 30
0.0
 11
3.642358790984733
 21
4.586025462905109
 31
0.0
  0
ARC
  5
4E9
330
2
100
AcDbEntity
  8
AM_HID
100
AcDbCircle
 10
2.915552483949731
 20
4.932033462905106
 30
0.0
 40
0.005
100
AcDbArc
 50
90.00000000000225
 51
179.9999999999992
  0
LINE
  5
4EA
330
2
100
AcDbEntity
  8
AM_HID
100
AcDbLine
 10
2.967543632905542
 20
4.937033462905106
 30
0.0
 11
2.915552483949731
 21
4.937033462905106
 31
0.0
  0
LINE
  5
4EB
330
2
100
AcDbEntity
  8
AM_HID
100
AcDbLine
 10
2.967543632905542
 20
4.937033462905106
 30
0.0
 11
2.970312899360287
 21
4.937033462905106
 31
0.0
  0
ARC
  5
4EC
330
2
100
AcDbEntity
  8
AM_HID
100
AcDbCircle
 10
3.214552483949731
 20
4.932033462905106
 30
0.0
 40
0.005
100
AcDbArc
 50
359.9999999999992
 51
90.00000000000321
  0
LINE
  5
4ED
330
2
100
AcDbEntity
  8
AM_VIS
100
AcDbLine
 10
3.219552483949733
 20
4.937433462905106
 30
0.0
 11
3.219552483949733
 21
4.908033462905106
 31
0.0
  0
LINE
  5
4EE
330
2
100
AcDbEntity
  8
AM_VIS
100
AcDbLine
 10
3.219552483949733
 20
4.892033462905106
 30
0.0
 11
3.219552483949733
 21
4.908033462905106
 31
0.0
  0
ELLIPSE
  5
4EF
330
2
100
AcDbEntity
  8
AM_VIS
100
AcDbEllipse
 10
3.011875792220408
 20
4.932033462905106
 30
0.0
 11
0.0
 21
0.005
 31
0.0
210
0.0
220
0.0
230
1.0
 40
0.8646616541353596
 41
-0.000000000000117
 42
1.57079632679491
  0
ELLIPSE
  5
4F0
330
2
100
AcDbEntity
  8
AM_VIS
100
AcDbEllipse
 10
3.118229175679058
 20
4.932033462905106
 30
0.0
 11
0.0
 21
-0.005
 31
0.0
210
0.0
220
0.0
230
1.0
 40
0.8646616541353454
 41
1.57079632679491
 42
3.141592653589853
  0
LINE
  5
4F1
330
2
100
AcDbEntity
  8
AM_VIS
100
AcDbLine
 10
3.118229175679058
 20
4.937033462905106
 30
0.0
 11
3.011875792220408
 21
4.937033462905106
 31
0.0
  0
LINE
  5
4F2
330
2
100
AcDbEntity
  8
AM_VIS
100
AcDbLine
 10
3.122552483949732
 20
4.932033462905106
 30
0.0
 11
3.122552483949732
 21
4.937433462905106
 31
0.0
  0
LINE
  5
4F3
330
2
100
AcDbEntity
  8
AM_VIS
100
AcDbLine
 10
3.00755248394973
 20
4.937433462905106
 30
0.0
 11
3.00755248394973
 21
4.932033462905106
 31
0.0
  0
LINE
  5
4F4
330
2
100
AcDbEntity
  8
AM_VIS
100
AcDbLine
 10
2.910552483949732
 20
4.908033462905106
 30
0.0
 11
2.910552483949732
 21
4.937433462905106
 31
0.0
  0
LINE
  5
4F5
330
2
100
AcDbEntity
  8
AM_VIS
100
AcDbLine
 10
3.00755248394973
 20
4.892033462905107
 30
0.0
 11
3.00755248394973
 21
4.908033462905107
 31
0.0
  0
LINE
  5
4F6
330
2
100
AcDbEntity
  8
AM_VIS
100
AcDbLine
 10
3.122552483949732
 20
4.908033462905107
 30
0.0
 11
3.122552483949732
 21
4.892033462905107
 31
0.0
  0
ELLIPSE
  5
4F7
330
2
100
AcDbEntity
  8
AM_VIS
100
AcDbEllipse
 10
3.011875792220404
 20
4.892033462905107
 30
0.0
 11
0.0
 21
-0.005
 31
0.0
210
0.0
220
0.0
230
1.0
 40
0.8646616541353596
 41
4.712388980384692
 42
6.283185307179455
  0
LINE
  5
4F8
330
2
100
AcDbEntity
  8
AM_VIS
100
AcDbLine
 10
3.011875792220404
 20
4.887033462905106
 30
0.0
 11
3.118229175679058
 21
4.887033462905106
 31
0.0
  0
ELLIPSE
  5
4F9
330
2
100
AcDbEntity
  8
AM_VIS
100
AcDbEllipse
 10
3.118229175679058
 20
4.892033462905107
 30
0.0
 11
0.0
 21
0.005
 31
0.0
210
0.0
220
0.0
230
1.0
 40
0.8646616541353457
 41
3.141592653589827
 42
4.712388980384685
  0
ELLIPSE
  5
4FA
330
2
100
AcDbEntity
  8
AM_HID
100
AcDbEllipse
 10
3.011875792220404
 20
4.908033462905107
 30
0.0
 11
0.0
 21
-0.005
 31
0.0
210
0.0
220
0.0
230
1.0
 40
0.8646616541353596
 41
4.712388980384675
 42
6.28318530717944
  0
LINE
  5
4FB
330
2
100
AcDbEntity
  8
AM_HID
100
AcDbLine
 10
3.059158117571563
 20
4.903033462905106
 30
0.0
 11
3.011875792220408
 21
4.903033462905106
 31
0.0
  0
SPLINE
  5
4FC
330
2
100
AcDbEntity
  8
AM_HID
100
AcDbSpline
210
0.0
220
0.0
230
1.0
 70
     8
 71
     3
 72
    14
 73
    10
 74
     0
 42
0.0000000001
 43
0.0000000001
 40
0.0083220153421731
 40
0.0083220153421731
 40
0.0083220153421731
 40
0.0083220153421731
 40
0.0108383486000981
 40
0.0108383486000981
 40
0.0131131555432174
 40
0.0131131555432174
 40
0.0150716653566343
 40
0.0150716653566343
 40
0.0167760747934346
 40
0.0167760747934346
 40
0.0167760747934346
 40
0.0167760747934346
 10
3.059158117571563
 20
4.903033462905106
 30
0.0
 10
3.059706731894785
 20
4.903033462905106
 30
0.0
 10
3.060355933596742
 20
4.903200561537087
 30
0.0
 10
3.061339560201684
 20
4.903738089288878
 30
0.0
 10
3.061860266768785
 20
4.904178735515167
 30
0.0
 10
3.062561963796586
 20
4.905095393998914
 30
0.0
 10
3.062885387660251
 20
4.905703018684886
 30
0.0
 10
3.063232411973299
 20
4.906802688939191
 30
0.0
 10
3.063337293750379
 20
4.907465326426173
 30
0.0
 10
3.063337293750379
 20
4.908033462905107
 30
0.0
  0
LINE
  5
4FD
330
2
100
AcDbEntity
  8
AM_HID
100
AcDbLine
 10
3.063337293750379
 20
4.887033462905106
 30
0.0
 11
3.063337293750379
 21
4.908033462905106
 31
0.0
  0
ARC
  5
4FE
330
2
100
AcDbEntity
  8
AM_VIS
100
AcDbCircle
 10
2.915552483949731
 20
4.892033462905106
 30
0.0
 40
0.005
100
AcDbArc
 50
180.0000000000004
 51
269.9999999999985
  0
LINE
  5
4FF
330
2
100
AcDbEntity
  8
AM_VIS
100
AcDbLine
 10
2.915552483949728
 20
4.887033462905106
 30
0.0
 11
2.975068829197436
 21
4.887033462905106
 31
0.0
  0
LINE
  5
500
330
2
100
AcDbEntity
  8
AM_VIS
100
AcDbLine
 10
2.975068829197439
 20
4.887033462905106
 30
0.0
 11
2.975068829197439
 21
4.903033462905106
 31
0.0
  0
LINE
  5
501
330
2
100
AcDbEntity
  8
AM_HID
100
AcDbLine
 10
2.975068829197439
 20
4.903033462905106
 30
0.0
 11
2.975068829197439
 21
4.908033462905106
 31
0.0
  0
ARC
  5
502
330
2
100
AcDbEntity
  8
AM_HID
100
AcDbCircle
 10
2.970120234483001
 20
4.907975203554771
 30
0.0
 40
0.004945969779684
100
AcDbArc
 50
271.3364194572974
 51
0.6745067800076577
  0
LINE
  5
503
330
2
100
AcDbEntity
  8
AM_VIS
100
AcDbLine
 10
2.910552483949732
 20
4.908033462905106
 30
0.0
 11
2.910552483949732
 21
4.892033462905106
 31
0.0
  0
ARC
  5
504
330
2
100
AcDbEntity
  8
AM_VIS
100
AcDbCircle
 10
3.214552483949731
 20
4.892033462905106
 30
0.0
 40
0.005
100
AcDbArc
 50
269.9999999999934
 51
0.0000000000007194
  0
ARC
  5
505
330
2
100
AcDbEntity
  8
AM_HID
100
AcDbCircle
 10
3.159984733416475
 20
4.907975203554786
 30
0.0
 40
0.0049459697796996
100
AcDbArc
 50
179.3254932201532
 51
268.6635805425462
  0
LINE
  5
506
330
2
100
AcDbEntity
  8
AM_HID
100
AcDbLine
 10
3.155036138702026
 20
4.908033462905107
 30
0.0
 11
3.155036138702026
 21
4.903033462905107
 31
0.0
  0
LINE
  5
507
330
2
100
AcDbEntity
  8
AM_VIS
100
AcDbLine
 10
3.155036138702026
 20
4.903033462905106
 30
0.0
 11
3.155036138702026
 21
4.887033462905106
 31
0.0
  0
LINE
  5
508
330
2
100
AcDbEntity
  8
AM_VIS
100
AcDbLine
 10
3.155036138702026
 20
4.887033462905106
 30
0.0
 11
3.214552483949731
 21
4.887033462905106
 31
0.0
  0
SPLINE
  5
509
330
2
100
AcDbEntity
  8
AM_HID
100
AcDbSpline
210
0.0
220
0.0
230
1.0
 70
     8
 71
     3
 72
    14
 73
    10
 74
     0
 42
0.0000000001
 43
0.0000000001
 40
0.0167760747934347
 40
0.0167760747934347
 40
0.0167760747934347
 40
0.0167760747934347
 40
0.0184804842302351
 40
0.0184804842302351
 40
0.0204389940436519
 40
0.0204389940436519
 40
0.0227138009867712
 40
0.0227138009867712
 40
0.0252301342446963
 40
0.0252301342446963
 40
0.0252301342446963
 40
0.0252301342446963
 10
3.066767674149083
 20
4.908033462905106
 30
0.0
 10
3.066767674149083
 20
4.907465326426173
 30
0.0
 10
3.066872555926163
 20
4.906802688939191
 30
0.0
 10
3.067219580239211
 20
4.905703018684886
 30
0.0
 10
3.067543004102876
 20
4.905095393998914
 30
0.0
 10
3.06824470113068
 20
4.904178735515167
 30
0.0
 10
3.068765407697782
 20
4.903738089288878
 30
0.0
 10
3.069749034302724
 20
4.903200561537087
 30
0.0
 10
3.070398236004681
 20
4.903033462905106
 30
0.0
 10
3.070946850327903
 20
4.903033462905106
 30
0.0
  0
LINE
  5
50A
330
2
100
AcDbEntity
  8
AM_HID
100
AcDbLine
 10
3.066767674149083
 20
4.908033462905107
 30
0.0
 11
3.066767674149083
 21
4.887033462905107
 31
0.0
  0
LINE
  5
50B
330
2
100
AcDbEntity
  8
AM_VIS
100
AcDbLine
 10
2.915552483949731
 20
4.903033462905106
 30
0.0
 11
3.007552483949726
 21
4.903033462905106
 31
0.0
  0
LINE
  5
50C
330
2
100
AcDbEntity
  8
AM_HID
100
AcDbLine
 10
3.007552483949726
 20
4.903033462905106
 30
0.0
 11
3.011875792220404
 21
4.903033462905106
 31
0.0
  0
ARC
  5
50D
330
2
100
AcDbEntity
  8
AM_VIS
100
AcDbCircle
 10
2.915552483949731
 20
4.908033462905106
 30
0.0
 40
0.005
100
AcDbArc
 50
180.0
 51
270.0000000000005
  0
ARC
  5
50E
330
2
100
AcDbEntity
  8
AM_VIS
100
AcDbCircle
 10
3.214552483949731
 20
4.908033462905107
 30
0.0
 40
0.005
100
AcDbArc
 50
269.9999999999944
 51
0.0
  0
ELLIPSE
  5
50F
330
2
100
AcDbEntity
  8
AM_HID
100
AcDbEllipse
 10
3.118229175679058
 20
4.908033462905107
 30
0.0
 11
0.0
 21
0.005
 31
0.0
210
0.0
220
0.0
230
1.0
 40
0.8646616541353459
 41
3.141592653589817
 42
4.712388980384675
  0
LINE
  5
510
330
2
100
AcDbEntity
  8
AM_HID
100
AcDbLine
 10
3.118229175679058
 20
4.903033462905106
 30
0.0
 11
3.122552483949732
 21
4.903033462905106
 31
0.0
  0
LINE
  5
511
330
2
100
AcDbEntity
  8
AM_VIS
100
AcDbLine
 10
3.122552483949732
 20
4.903033462905106
 30
0.0
 11
3.214552483949731
 21
4.903033462905106
 31
0.0
  0
LINE
  5
512
330
2
100
AcDbEntity
  8
AM_HID
100
AcDbLine
 10
3.118229175679058
 20
4.903033462905106
 30
0.0
 11
3.070946850327903
 21
4.903033462905106
 31
0.0
  0
ARC
  5
513
330
2
100
AcDbEntity
  8
AM_HID
100
AcDbCircle
 10
3.159955535475763
 20
4.93138079202793
 30
0.0
 40
0.0056602629334789
100
AcDbArc
 50
91.65644811244012
 51
173.3808951925344
  0
ARC
  5
514
330
2
100
AcDbEntity
  8
AM_HID
100
AcDbCircle
 10
2.970149432423699
 20
4.931380792027926
 30
0.0
 40
0.0056602629334827
100
AcDbArc
 50
6.619104807502696
 51
88.34355188761101
  0
SPLINE
  5
515
330
2
100
AcDbEntity
  8
AM_HID
100
AcDbSpline
210
0.0
220
0.0
230
1.0
 70
     8
 71
     3
 72
    16
 73
    12
 74
     0
 42
0.0000000001
 43
0.0000000001
 40
-0.000139338623496
 40
-0.000139338623496
 40
-0.000139338623496
 40
-0.000139338623496
 40
0.0
 40
0.0
 40
0.0038174347223641
 40
0.0038174347223641
 40
0.0067211688618493
 40
0.0067211688618493
 40
0.0088861195468412
 40
0.0088861195468412
 40
0.0105570185460685
 40
0.0105570185460685
 40
0.0105570185460685
 40
0.0105570185460685
 10
3.076424822357683
 20
4.932033462905106
 30
0.0
 10
3.076392686451228
 20
4.932066746191318
 30
0.0
 10
3.076360589394038
 20
4.932100030444816
 30
0.0
 10
3.075450367880392
 20
4.933045075504719
 30
0.0
 10
3.074619851733867
 20
4.933937461030402
 30
0.0
 10
3.07339343602608
 20
4.935297231347639
 30
0.0
 10
3.072954832119236
 20
4.935800020694515
 30
0.0
 10
3.072397560328731
 20
4.93647425677637
 30
0.0
 10
3.072216565446542
 20
4.936708761860757
 30
0.0
 10
3.072052796069023
 20
4.936973112008903
 30
0.0
 10
3.07203680638479
 20
4.937033468087075
 30
0.0
 10
3.072081787743062
 20
4.937033462905106
 30
0.0
  0
SPLINE
  5
516
330
2
100
AcDbEntity
  8
AM_HID
100
AcDbSpline
210
0.0
220
0.0
230
1.0
 70
     8
 71
     3
 72
    16
 73
    12
 74
     0
 42
0.0000000001
 43
0.0000000001
 40
0.0095538235517473
 40
0.0095538235517473
 40
0.0095538235517473
 40
0.0095538235517473
 40
0.0109173236296868
 40
0.0109173236296868
 40
0.0126839836307329
 40
0.0126839836307329
 40
0.0150535114881011
 40
0.0150535114881011
 40
0.0181686444458304
 40
0.0181686444458304
 40
0.0182823486398525
 40
0.0182823486398525
 40
0.0182823486398525
 40
0.0182823486398525
 10
3.058023180156403
 20
4.937033462905106
 30
0.0
 10
3.058068161514668
 20
4.937033468087075
 30
0.0
 10
3.058052171830443
 20
4.936973112008903
 30
0.0
 10
3.057888402452924
 20
4.936708761860757
 30
0.0
 10
3.057707407570735
 20
4.936474256776371
 30
0.0
 10
3.057150135780229
 20
4.935800020694514
 30
0.0
 10
3.056711531873386
 20
4.935297231347638
 30
0.0
 10
3.055485116165598
 20
4.9339374610304
 30
0.0
 10
3.054654600019077
 20
4.933045075504714
 30
0.0
 10
3.053744378505427
 20
4.932100030444817
 30
0.0
 10
3.053712281448238
 20
4.932066746191318
 30
0.0
 10
3.053680145541783
 20
4.932033462905106
 30
0.0
  0
LINE
  5
517
330
2
100
AcDbEntity
  8
AM_VIS
100
AcDbLine
 10
3.012205787823841
 20
4.953033462905106
 30
0.0
 11
3.000418266683404
 21
4.953033462905106
 31
0.0
  0
ELLIPSE
  5
518
330
2
100
AcDbEntity
  8
AM_VIS
100
AcDbEllipse
 10
3.000418266683404
 20
4.937433462905106
 30
0.0
 11
0.0
 21
-0.0156
 31
0.0
210
0.0
220
0.0
230
1.0
 40
0.4573216196363233
 41
1.570796326794902
 42
3.14159265358976
  0
LINE
  5
519
330
2
100
AcDbEntity
  8
AM_VIS
100
AcDbLine
 10
3.000418266683404
 20
4.953033462905106
 30
0.0
 11
2.926152483949731
 21
4.953033462905106
 31
0.0
  0
LINE
  5
51A
330
2
100
AcDbEntity
  8
AM_HID
100
AcDbLine
 10
3.159792068539179
 20
4.937033462905106
 30
0.0
 11
3.162561334993924
 21
4.937033462905106
 31
0.0
  0
ELLIPSE
  5
51B
330
2
100
AcDbEntity
  8
AM_VIS
100
AcDbEllipse
 10
3.129686701216058
 20
4.937433462905106
 30
0.0
 11
0.0
 21
-0.0156
 31
0.0
210
0.0
220
0.0
230
1.0
 40
0.4573216196363283
 41
3.141592653589706
 42
4.712388980384683
  0
LINE
  5
51C
330
2
100
AcDbEntity
  8
AM_VIS
100
AcDbLine
 10
3.129686701216062
 20
4.953033462905106
 30
0.0
 11
3.117899180075628
 21
4.953033462905106
 31
0.0
  0
ARC
  5
51D
330
2
100
AcDbEntity
  8
AM_VIS
100
AcDbCircle
 10
3.203952483949731
 20
4.937433462905106
 30
0.0
 40
0.0156
100
AcDbArc
 50
0.0000000000002544
 51
90.00000000000254
  0
LINE
  5
51E
330
2
100
AcDbEntity
  8
AM_VIS
100
AcDbLine
 10
3.203952483949731
 20
4.953033462905106
 30
0.0
 11
3.129686701216062
 21
4.953033462905106
 31
0.0
  0
ARC
  5
51F
330
2
100
AcDbEntity
  8
AM_VIS
100
AcDbCircle
 10
2.926152483949731
 20
4.937433462905106
 30
0.0
 40
0.0156
100
AcDbArc
 50
90.00000000000074
 51
179.9999999999997
  0
LINE
  5
520
330
2
100
AcDbEntity
  8
AM_HID
100
AcDbLine
 10
3.214552483949731
 20
4.937033462905106
 30
0.0
 11
3.162561334993924
 21
4.937033462905106
 31
0.0
  0
LINE
  5
521
330
2
100
AcDbEntity
  8
AM_HID
100
AcDbLine
 10
3.155052483949731
 20
4.932033462905106
 30
0.0
 11
3.155052483949731
 21
4.887033462905106
 31
0.0
  0
LINE
  5
522
330
2
100
AcDbEntity
  8
AM_HID
100
AcDbLine
 10
2.975052483949731
 20
4.932033462905106
 30
0.0
 11
2.975052483949731
 21
4.887033462905106
 31
0.0
  0
ARC
  5
523
330
2
100
AcDbEntity
  8
AM_HID
100
AcDbCircle
 10
3.16005248394973
 20
4.932033462905106
 30
0.0
 40
0.005
100
AcDbArc
 50
90.00000000000003
 51
180.0
  0
ARC
  5
524
330
2
100
AcDbEntity
  8
AM_HID
100
AcDbCircle
 10
2.970052483949732
 20
4.932033462905106
 30
0.0
 40
0.005
100
AcDbArc
 50
0.0000000000000254
 51
90.00000000000003
  0
SPLINE
  5
525
330
2
100
AcDbEntity
  8
AM_VIS
100
AcDbSpline
210
0.0
220
0.0
230
1.0
 70
     8
 71
     1
 72
    11
 73
     9
 74
     0
 42
0.0000000001
 43
0.0000000001
 40
0.0
 40
0.0
 40
0.0039286627065792
 40
0.007100093358258
 40
0.0102715240099369
 40
0.0134502256403121
 40
0.0166289272706872
 40
0.0197698758248763
 40
0.022626851988167
 40
0.0256098792183955
 40
0.0256098792183955
 10
3.041043456683667
 20
4.953033462905106
 30
0.0
 10
3.04488987113854
 20
4.952607509488844
 30
0.0
 10
3.047891412818529
 20
4.951655959286583
 30
0.0
 10
3.050691738303392
 20
4.950193802581788
 30
0.0
 10
3.053198372709054
 20
4.948237856484404
 30
0.0
 10
3.055296426804048
 20
4.945842990245923
 30
0.0
 10
3.056847428038786
 20
4.943115675618633
 30
0.0
 10
3.057729184746854
 20
4.940399249462329
 30
0.0
 10
3.058048348963563
 20
4.937433462905106
 30
0.0
  0
LINE
  5
526
330
2
100
AcDbEntity
  8
AM_HID
100
AcDbLine
 10
3.058048348963563
 20
4.93700824491816
 30
0.0
 11
3.058048348963563
 21
4.937033462905107
 31
0.0
  0
LINE
  5
527
330
2
100
AcDbEntity
  8
AM_VIS
100
AcDbLine
 10
3.058048348963563
 20
4.937033462905106
 30
0.0
 11
3.058048348963563
 21
4.937433462905106
 31
0.0
  0
SPLINE
  5
528
330
2
100
AcDbEntity
  8
AM_VIS
100
AcDbSpline
210
0.0
220
0.0
230
1.0
 70
     8
 71
     1
 72
    11
 73
     9
 74
     0
 42
0.0000000001
 43
0.0000000001
 40
0.0
 40
0.0
 40
0.0039444772641989
 40
0.0070873093268861
 40
0.0102758501077306
 40
0.0134643908885752
 40
0.0166389130497513
 40
0.0198134352109275
 40
0.0226993907476805
 40
0.0255853462844335
 40
0.0255853462844335
 10
3.072056618935903
 20
4.937433462905106
 30
0.0
 10
3.072613519287482
 20
4.941338152791937
 30
0.0
 10
3.07380872774145
 20
4.944242882148838
 30
0.0
 10
3.07561813139225
 20
4.946879388770409
 30
0.0
 10
3.077905789205303
 20
4.949109901950058
 30
0.0
 10
3.080546030721915
 20
4.950860705347647
 30
0.0
 10
3.083444466920244
 20
4.952117142483814
 30
0.0
 10
3.086220930328931
 20
4.952800520424301
 30
0.0
 10
3.089061511215795
 20
4.953033462905106
 30
0.0
  0
LINE
  5
529
330
2
100
AcDbEntity
  8
AM_VIS
100
AcDbLine
 10
3.072056618935903
 20
4.937433462905106
 30
0.0
 11
3.072056618935903
 21
4.937033462905106
 31
0.0
  0
LINE
  5
52A
330
2
100
AcDbEntity
  8
AM_HID
100
AcDbLine
 10
3.072056618935903
 20
4.937033462905106
 30
0.0
 11
3.072056618935903
 21
4.93700824491816
 31
0.0
  0
ARC
  5
52B
330
2
100
AcDbEntity
  8
AM_HID
100
AcDbCircle
 10
3.640552483949733
 20
4.932033462905106
 30
0.0
 40
0.005
100
AcDbArc
 50
90.00000000000225
 51
179.9999999999979
  0
LINE
  5
52C
330
2
100
AcDbEntity
  8
AM_HID
100
AcDbLine
 10
3.692543632905543
 20
4.937033462905107
 30
0.0
 11
3.640552483949733
 21
4.937033462905107
 31
0.0
  0
LINE
  5
52D
330
2
100
AcDbEntity
  8
AM_HID
100
AcDbLine
 10
3.692543632905543
 20
4.937033462905107
 30
0.0
 11
3.695312899360288
 21
4.937033462905107
 31
0.0
  0
ARC
  5
52E
330
2
100
AcDbEntity
  8
AM_HID
100
AcDbCircle
 10
3.939552483949732
 20
4.932033462905106
 30
0.0
 40
0.005
100
AcDbArc
 50
359.9999999999992
 51
90.00000000000321
  0
LINE
  5
52F
330
2
100
AcDbEntity
  8
AM_VIS
100
AcDbLine
 10
3.944552483949735
 20
4.937433462905107
 30
0.0
 11
3.944552483949735
 21
4.908033462905107
 31
0.0
  0
LINE
  5
530
330
2
100
AcDbEntity
  8
AM_VIS
100
AcDbLine
 10
3.944552483949735
 20
4.892033462905107
 30
0.0
 11
3.944552483949735
 21
4.908033462905107
 31
0.0
  0
ELLIPSE
  5
531
330
2
100
AcDbEntity
  8
AM_VIS
100
AcDbEllipse
 10
3.736875792220409
 20
4.932033462905106
 30
0.0
 11
0.0
 21
0.005
 31
0.0
210
0.0
220
0.0
230
1.0
 40
0.8646616541353596
 41
-0.000000000000117
 42
1.57079632679491
  0
ELLIPSE
  5
532
330
2
100
AcDbEntity
  8
AM_VIS
100
AcDbEllipse
 10
3.843229175679059
 20
4.932033462905106
 30
0.0
 11
0.0
 21
-0.005
 31
0.0
210
0.0
220
0.0
230
1.0
 40
0.8646616541353454
 41
1.57079632679491
 42
3.141592653589853
  0
LINE
  5
533
330
2
100
AcDbEntity
  8
AM_VIS
100
AcDbLine
 10
3.843229175679059
 20
4.937033462905107
 30
0.0
 11
3.736875792220409
 21
4.937033462905107
 31
0.0
  0
LINE
  5
534
330
2
100
AcDbEntity
  8
AM_VIS
100
AcDbLine
 10
3.847552483949733
 20
4.932033462905106
 30
0.0
 11
3.847552483949733
 21
4.937433462905106
 31
0.0
  0
LINE
  5
535
330
2
100
AcDbEntity
  8
AM_VIS
100
AcDbLine
 10
3.732552483949731
 20
4.937433462905107
 30
0.0
 11
3.732552483949731
 21
4.932033462905107
 31
0.0
  0
LINE
  5
536
330
2
100
AcDbEntity
  8
AM_VIS
100
AcDbLine
 10
3.635552483949734
 20
4.908033462905107
 30
0.0
 11
3.635552483949734
 21
4.937433462905107
 31
0.0
  0
LINE
  5
537
330
2
100
AcDbEntity
  8
AM_VIS
100
AcDbLine
 10
3.732552483949731
 20
4.892033462905107
 30
0.0
 11
3.732552483949731
 21
4.908033462905107
 31
0.0
  0
LINE
  5
538
330
2
100
AcDbEntity
  8
AM_VIS
100
AcDbLine
 10
3.847552483949733
 20
4.908033462905107
 30
0.0
 11
3.847552483949733
 21
4.892033462905107
 31
0.0
  0
ELLIPSE
  5
539
330
2
100
AcDbEntity
  8
AM_VIS
100
AcDbEllipse
 10
3.736875792220406
 20
4.892033462905107
 30
0.0
 11
0.0
 21
-0.005
 31
0.0
210
0.0
220
0.0
230
1.0
 40
0.8646616541353596
 41
4.712388980384692
 42
6.283185307179455
  0
LINE
  5
53A
330
2
100
AcDbEntity
  8
AM_VIS
100
AcDbLine
 10
3.736875792220406
 20
4.887033462905106
 30
0.0
 11
3.843229175679059
 21
4.887033462905106
 31
0.0
  0
ELLIPSE
  5
53B
330
2
100
AcDbEntity
  8
AM_VIS
100
AcDbEllipse
 10
3.843229175679059
 20
4.892033462905107
 30
0.0
 11
0.0
 21
0.005
 31
0.0
210
0.0
220
0.0
230
1.0
 40
0.8646616541353457
 41
3.141592653589827
 42
4.712388980384685
  0
ELLIPSE
  5
53C
330
2
100
AcDbEntity
  8
AM_HID
100
AcDbEllipse
 10
3.736875792220406
 20
4.908033462905107
 30
0.0
 11
0.0
 21
-0.005
 31
0.0
210
0.0
220
0.0
230
1.0
 40
0.8646616541353596
 41
4.712388980384675
 42
6.28318530717944
  0
LINE
  5
53D
330
2
100
AcDbEntity
  8
AM_HID
100
AcDbLine
 10
3.784158117571564
 20
4.903033462905107
 30
0.0
 11
3.736875792220409
 21
4.903033462905107
 31
0.0
  0
SPLINE
  5
53E
330
2
100
AcDbEntity
  8
AM_HID
100
AcDbSpline
210
0.0
220
0.0
230
1.0
 70
     8
 71
     3
 72
    14
 73
    10
 74
     0
 42
0.0000000001
 43
0.0000000001
 40
0.0083220153421731
 40
0.0083220153421731
 40
0.0083220153421731
 40
0.0083220153421731
 40
0.0108383486000981
 40
0.0108383486000981
 40
0.0131131555432174
 40
0.0131131555432174
 40
0.0150716653566343
 40
0.0150716653566343
 40
0.0167760747934346
 40
0.0167760747934346
 40
0.0167760747934346
 40
0.0167760747934346
 10
3.784158117571564
 20
4.903033462905107
 30
0.0
 10
3.784706731894786
 20
4.903033462905107
 30
0.0
 10
3.785355933596743
 20
4.903200561537087
 30
0.0
 10
3.786339560201685
 20
4.903738089288878
 30
0.0
 10
3.786860266768787
 20
4.904178735515167
 30
0.0
 10
3.787561963796587
 20
4.905095393998914
 30
0.0
 10
3.787885387660253
 20
4.905703018684886
 30
0.0
 10
3.7882324119733
 20
4.906802688939192
 30
0.0
 10
3.78833729375038
 20
4.907465326426174
 30
0.0
 10
3.78833729375038
 20
4.908033462905107
 30
0.0
  0
LINE
  5
53F
330
2
100
AcDbEntity
  8
AM_HID
100
AcDbLine
 10
3.78833729375038
 20
4.887033462905107
 30
0.0
 11
3.78833729375038
 21
4.908033462905107
 31
0.0
  0
ARC
  5
540
330
2
100
AcDbEntity
  8
AM_VIS
100
AcDbCircle
 10
3.640552483949733
 20
4.892033462905106
 30
0.0
 40
0.005
100
AcDbArc
 50
179.9999999999991
 51
269.9999999999985
  0
LINE
  5
541
330
2
100
AcDbEntity
  8
AM_VIS
100
AcDbLine
 10
3.640552483949729
 20
4.887033462905106
 30
0.0
 11
3.700068829197437
 21
4.887033462905106
 31
0.0
  0
LINE
  5
542
330
2
100
AcDbEntity
  8
AM_VIS
100
AcDbLine
 10
3.700068829197441
 20
4.887033462905106
 30
0.0
 11
3.700068829197441
 21
4.903033462905106
 31
0.0
  0
LINE
  5
543
330
2
100
AcDbEntity
  8
AM_HID
100
AcDbLine
 10
3.700068829197441
 20
4.903033462905106
 30
0.0
 11
3.700068829197441
 21
4.908033462905106
 31
0.0
  0
ARC
  5
544
330
2
100
AcDbEntity
  8
AM_HID
100
AcDbCircle
 10
3.695120234483002
 20
4.907975203554771
 30
0.0
 40
0.004945969779684
100
AcDbArc
 50
271.3364194572974
 51
0.6745067800076577
  0
LINE
  5
545
330
2
100
AcDbEntity
  8
AM_VIS
100
AcDbLine
 10
3.635552483949734
 20
4.908033462905107
 30
0.0
 11
3.635552483949734
 21
4.892033462905107
 31
0.0
  0
ARC
  5
546
330
2
100
AcDbEntity
  8
AM_VIS
100
AcDbCircle
 10
3.939552483949732
 20
4.892033462905107
 30
0.0
 40
0.005
100
AcDbArc
 50
269.9999999999934
 51
0.0000000000007194
  0
ARC
  5
547
330
2
100
AcDbEntity
  8
AM_HID
100
AcDbCircle
 10
3.884984733416477
 20
4.907975203554786
 30
0.0
 40
0.0049459697796996
100
AcDbArc
 50
179.3254932201532
 51
268.6635805425462
  0
LINE
  5
548
330
2
100
AcDbEntity
  8
AM_HID
100
AcDbLine
 10
3.880036138702028
 20
4.908033462905107
 30
0.0
 11
3.880036138702028
 21
4.903033462905107
 31
0.0
  0
LINE
  5
549
330
2
100
AcDbEntity
  8
AM_VIS
100
AcDbLine
 10
3.880036138702028
 20
4.903033462905107
 30
0.0
 11
3.880036138702028
 21
4.887033462905107
 31
0.0
  0
LINE
  5
54A
330
2
100
AcDbEntity
  8
AM_VIS
100
AcDbLine
 10
3.880036138702028
 20
4.887033462905106
 30
0.0
 11
3.939552483949732
 21
4.887033462905106
 31
0.0
  0
SPLINE
  5
54B
330
2
100
AcDbEntity
  8
AM_HID
100
AcDbSpline
210
0.0
220
0.0
230
1.0
 70
     8
 71
     3
 72
    14
 73
    10
 74
     0
 42
0.0000000001
 43
0.0000000001
 40
0.0167760747934347
 40
0.0167760747934347
 40
0.0167760747934347
 40
0.0167760747934347
 40
0.0184804842302351
 40
0.0184804842302351
 40
0.0204389940436519
 40
0.0204389940436519
 40
0.0227138009867712
 40
0.0227138009867712
 40
0.0252301342446963
 40
0.0252301342446963
 40
0.0252301342446963
 40
0.0252301342446963
 10
3.791767674149085
 20
4.908033462905107
 30
0.0
 10
3.791767674149085
 20
4.907465326426174
 30
0.0
 10
3.791872555926165
 20
4.906802688939192
 30
0.0
 10
3.792219580239212
 20
4.905703018684886
 30
0.0
 10
3.792543004102878
 20
4.905095393998914
 30
0.0
 10
3.793244701130682
 20
4.904178735515167
 30
0.0
 10
3.793765407697783
 20
4.903738089288878
 30
0.0
 10
3.794749034302725
 20
4.903200561537087
 30
0.0
 10
3.795398236004682
 20
4.903033462905107
 30
0.0
 10
3.795946850327904
 20
4.903033462905107
 30
0.0
  0
LINE
  5
54C
330
2
100
AcDbEntity
  8
AM_HID
100
AcDbLine
 10
3.791767674149085
 20
4.908033462905107
 30
0.0
 11
3.791767674149085
 21
4.887033462905107
 31
0.0
  0
LINE
  5
54D
330
2
100
AcDbEntity
  8
AM_VIS
100
AcDbLine
 10
3.640552483949733
 20
4.903033462905106
 30
0.0
 11
3.732552483949731
 21
4.903033462905106
 31
0.0
  0
LINE
  5
54E
330
2
100
AcDbEntity
  8
AM_HID
100
AcDbLine
 10
3.732552483949731
 20
4.903033462905106
 30
0.0
 11
3.736875792220406
 21
4.903033462905106
 31
0.0
  0
ARC
  5
54F
330
2
100
AcDbEntity
  8
AM_VIS
100
AcDbCircle
 10
3.640552483949733
 20
4.908033462905107
 30
0.0
 40
0.005
100
AcDbArc
 50
179.9999999999987
 51
270.0000000000005
  0
ARC
  5
550
330
2
100
AcDbEntity
  8
AM_VIS
100
AcDbCircle
 10
3.939552483949732
 20
4.908033462905107
 30
0.0
 40
0.005
100
AcDbArc
 50
269.9999999999944
 51
0.0
  0
ELLIPSE
  5
551
330
2
100
AcDbEntity
  8
AM_HID
100
AcDbEllipse
 10
3.843229175679059
 20
4.908033462905107
 30
0.0
 11
0.0
 21
0.005
 31
0.0
210
0.0
220
0.0
230
1.0
 40
0.8646616541353459
 41
3.141592653589817
 42
4.712388980384675
  0
LINE
  5
552
330
2
100
AcDbEntity
  8
AM_HID
100
AcDbLine
 10
3.843229175679059
 20
4.903033462905107
 30
0.0
 11
3.847552483949737
 21
4.903033462905107
 31
0.0
  0
LINE
  5
553
330
2
100
AcDbEntity
  8
AM_VIS
100
AcDbLine
 10
3.847552483949737
 20
4.903033462905107
 30
0.0
 11
3.939552483949732
 21
4.903033462905107
 31
0.0
  0
LINE
  5
554
330
2
100
AcDbEntity
  8
AM_HID
100
AcDbLine
 10
3.843229175679059
 20
4.903033462905107
 30
0.0
 11
3.795946850327904
 21
4.903033462905107
 31
0.0
  0
ARC
  5
555
330
2
100
AcDbEntity
  8
AM_HID
100
AcDbCircle
 10
3.884955535475764
 20
4.931380792027928
 30
0.0
 40
0.0056602629334812
100
AcDbArc
 50
91.65644811243934
 51
173.3808951925032
  0
ARC
  5
556
330
2
100
AcDbEntity
  8
AM_HID
100
AcDbCircle
 10
3.695149432423701
 20
4.931380792027926
 30
0.0
 40
0.0056602629334827
100
AcDbArc
 50
6.619104807502696
 51
88.34355188761101
  0
SPLINE
  5
557
330
2
100
AcDbEntity
  8
AM_HID
100
AcDbSpline
210
0.0
220
0.0
230
1.0
 70
     8
 71
     3
 72
    16
 73
    12
 74
     0
 42
0.0000000001
 43
0.0000000001
 40
-0.000139338623496
 40
-0.000139338623496
 40
-0.000139338623496
 40
-0.000139338623496
 40
0.0
 40
0.0
 40
0.0038174347223641
 40
0.0038174347223641
 40
0.0067211688618493
 40
0.0067211688618493
 40
0.0088861195468412
 40
0.0088861195468412
 40
0.0105570185460685
 40
0.0105570185460685
 40
0.0105570185460685
 40
0.0105570185460685
 10
3.801424822357684
 20
4.932033462905106
 30
0.0
 10
3.801392686451229
 20
4.932066746191318
 30
0.0
 10
3.80136058939404
 20
4.932100030444816
 30
0.0
 10
3.800450367880394
 20
4.93304507550472
 30
0.0
 10
3.799619851733869
 20
4.933937461030402
 30
0.0
 10
3.798393436026081
 20
4.935297231347639
 30
0.0
 10
3.797954832119238
 20
4.935800020694515
 30
0.0
 10
3.797397560328732
 20
4.93647425677637
 30
0.0
 10
3.797216565446543
 20
4.936708761860757
 30
0.0
 10
3.797052796069024
 20
4.936973112008903
 30
0.0
 10
3.797036806384795
 20
4.937033468087075
 30
0.0
 10
3.797081787743064
 20
4.937033462905107
 30
0.0
  0
SPLINE
  5
558
330
2
100
AcDbEntity
  8
AM_HID
100
AcDbSpline
210
0.0
220
0.0
230
1.0
 70
     8
 71
     3
 72
    16
 73
    12
 74
     0
 42
0.0000000001
 43
0.0000000001
 40
0.0095538235517473
 40
0.0095538235517473
 40
0.0095538235517473
 40
0.0095538235517473
 40
0.0109173236296868
 40
0.0109173236296868
 40
0.0126839836307329
 40
0.0126839836307329
 40
0.0150535114881011
 40
0.0150535114881011
 40
0.0181686444458304
 40
0.0181686444458304
 40
0.0182823486398525
 40
0.0182823486398525
 40
0.0182823486398525
 40
0.0182823486398525
 10
3.783023180156405
 20
4.937033462905107
 30
0.0
 10
3.78306816151467
 20
4.937033468087075
 30
0.0
 10
3.783052171830441
 20
4.936973112008903
 30
0.0
 10
3.782888402452925
 20
4.936708761860757
 30
0.0
 10
3.782707407570736
 20
4.936474256776371
 30
0.0
 10
3.782150135780231
 20
4.935800020694515
 30
0.0
 10
3.781711531873387
 20
4.935297231347639
 30
0.0
 10
3.7804851161656
 20
4.933937461030401
 30
0.0
 10
3.779654600019078
 20
4.933045075504714
 30
0.0
 10
3.778744378505429
 20
4.932100030444817
 30
0.0
 10
3.778712281448239
 20
4.932066746191318
 30
0.0
 10
3.778680145541784
 20
4.932033462905106
 30
0.0
  0
LINE
  5
559
330
2
100
AcDbEntity
  8
AM_VIS
100
AcDbLine
 10
3.737205787823842
 20
4.953033462905107
 30
0.0
 11
3.725418266683405
 21
4.953033462905107
 31
0.0
  0
ELLIPSE
  5
55A
330
2
100
AcDbEntity
  8
AM_VIS
100
AcDbEllipse
 10
3.725418266683405
 20
4.937433462905107
 30
0.0
 11
0.0
 21
-0.0156
 31
0.0
210
0.0
220
0.0
230
1.0
 40
0.4573216196363233
 41
1.570796326794902
 42
3.14159265358976
  0
LINE
  5
55B
330
2
100
AcDbEntity
  8
AM_VIS
100
AcDbLine
 10
3.725418266683405
 20
4.953033462905107
 30
0.0
 11
3.651152483949733
 21
4.953033462905107
 31
0.0
  0
LINE
  5
55C
330
2
100
AcDbEntity
  8
AM_HID
100
AcDbLine
 10
3.88479206853918
 20
4.937033462905107
 30
0.0
 11
3.887561334993925
 21
4.937033462905107
 31
0.0
  0
ELLIPSE
  5
55D
330
2
100
AcDbEntity
  8
AM_VIS
100
AcDbEllipse
 10
3.85468670121606
 20
4.937433462905107
 30
0.0
 11
0.0
 21
-0.0156
 31
0.0
210
0.0
220
0.0
230
1.0
 40
0.4573216196363283
 41
3.141592653589706
 42
4.712388980384683
  0
LINE
  5
55E
330
2
100
AcDbEntity
  8
AM_VIS
100
AcDbLine
 10
3.854686701216063
 20
4.953033462905107
 30
0.0
 11
3.84289918007563
 21
4.953033462905107
 31
0.0
  0
ARC
  5
55F
330
2
100
AcDbEntity
  8
AM_VIS
100
AcDbCircle
 10
3.928952483949732
 20
4.937433462905107
 30
0.0
 40
0.0156
100
AcDbArc
 50
0.0000000000002544
 51
90.00000000000254
  0
LINE
  5
560
330
2
100
AcDbEntity
  8
AM_VIS
100
AcDbLine
 10
3.928952483949732
 20
4.953033462905107
 30
0.0
 11
3.854686701216063
 21
4.953033462905107
 31
0.0
  0
ARC
  5
561
330
2
100
AcDbEntity
  8
AM_VIS
100
AcDbCircle
 10
3.651152483949733
 20
4.937433462905107
 30
0.0
 40
0.0156
100
AcDbArc
 50
90.00000000000074
 51
179.9999999999993
  0
LINE
  5
562
330
2
100
AcDbEntity
  8
AM_HID
100
AcDbLine
 10
3.939552483949732
 20
4.937033462905107
 30
0.0
 11
3.887561334993925
 21
4.937033462905107
 31
0.0
  0
LINE
  5
563
330
2
100
AcDbEntity
  8
AM_HID
100
AcDbLine
 10
3.880052483949732
 20
4.932033462905106
 30
0.0
 11
3.880052483949732
 21
4.887033462905106
 31
0.0
  0
LINE
  5
564
330
2
100
AcDbEntity
  8
AM_HID
100
AcDbLine
 10
3.700052483949733
 20
4.932033462905106
 30
0.0
 11
3.700052483949733
 21
4.887033462905106
 31
0.0
  0
ARC
  5
565
330
2
100
AcDbEntity
  8
AM_HID
100
AcDbCircle
 10
3.885052483949731
 20
4.932033462905106
 30
0.0
 40
0.005
100
AcDbArc
 50
90.00000000000003
 51
180.0
  0
ARC
  5
566
330
2
100
AcDbEntity
  8
AM_HID
100
AcDbCircle
 10
3.695052483949734
 20
4.932033462905106
 30
0.0
 40
0.005
100
AcDbArc
 50
0.0000000000000254
 51
90.00000000000003
  0
SPLINE
  5
567
330
2
100
AcDbEntity
  8
AM_VIS
100
AcDbSpline
210
0.0
220
0.0
230
1.0
 70
     8
 71
     1
 72
    11
 73
     9
 74
     0
 42
0.0000000001
 43
0.0000000001
 40
0.0
 40
0.0
 40
0.0039286627065792
 40
0.007100093358258
 40
0.0102715240099369
 40
0.0134502256403121
 40
0.0166289272706872
 40
0.0197698758248763
 40
0.022626851988167
 40
0.0256098792183955
 40
0.0256098792183955
 10
3.766043456683668
 20
4.953033462905107
 30
0.0
 10
3.769889871138538
 20
4.952607509488845
 30
0.0
 10
3.772891412818527
 20
4.951655959286583
 30
0.0
 10
3.775691738303393
 20
4.950193802581788
 30
0.0
 10
3.778198372709056
 20
4.948237856484404
 30
0.0
 10
3.780296426804049
 20
4.945842990245923
 30
0.0
 10
3.781847428038783
 20
4.943115675618633
 30
0.0
 10
3.782729184746855
 20
4.940399249462329
 30
0.0
 10
3.783048348963568
 20
4.937433462905107
 30
0.0
  0
LINE
  5
568
330
2
100
AcDbEntity
  8
AM_HID
100
AcDbLine
 10
3.783048348963564
 20
4.93700824491816
 30
0.0
 11
3.783048348963564
 21
4.937033462905107
 31
0.0
  0
LINE
  5
569
330
2
100
AcDbEntity
  8
AM_VIS
100
AcDbLine
 10
3.783048348963564
 20
4.937033462905107
 30
0.0
 11
3.783048348963564
 21
4.937433462905107
 31
0.0
  0
SPLINE
  5
56A
330
2
100
AcDbEntity
  8
AM_VIS
100
AcDbSpline
210
0.0
220
0.0
230
1.0
 70
     8
 71
     1
 72
    11
 73
     9
 74
     0
 42
0.0000000001
 43
0.0000000001
 40
0.0
 40
0.0
 40
0.0039444772641989
 40
0.0070873093268861
 40
0.0102758501077306
 40
0.0134643908885752
 40
0.0166389130497513
 40
0.0198134352109275
 40
0.0226993907476805
 40
0.0255853462844335
 40
0.0255853462844335
 10
3.797056618935904
 20
4.937433462905107
 30
0.0
 10
3.797613519287484
 20
4.941338152791937
 30
0.0
 10
3.798808727741452
 20
4.944242882148838
 30
0.0
 10
3.800618131392255
 20
4.946879388770409
 30
0.0
 10
3.802905789205304
 20
4.949109901950059
 30
0.0
 10
3.805546030721913
 20
4.950860705347647
 30
0.0
 10
3.808444466920246
 20
4.952117142483814
 30
0.0
 10
3.811220930328932
 20
4.952800520424302
 30
0.0
 10
3.8140615112158
 20
4.953033462905107
 30
0.0
  0
LINE
  5
56B
330
2
100
AcDbEntity
  8
AM_VIS
100
AcDbLine
 10
3.797056618935904
 20
4.937433462905107
 30
0.0
 11
3.797056618935904
 21
4.937033462905107
 31
0.0
  0
LINE
  5
56C
330
2
100
AcDbEntity
  8
AM_HID
100
AcDbLine
 10
3.797056618935904
 20
4.937033462905107
 30
0.0
 11
3.797056618935904
 21
4.93700824491816
 31
0.0
  0
LINE
  5
56D
330
2
100
AcDbEntity
  8
AM_VIS
100
AcDbLine
 10
3.081819483949736
 20
5.031993963582227
 30
0.0
 11
3.081819483949736
 21
5.048718255370427
 31
0.0
  0
LINE
  5
56E
330
2
100
AcDbEntity
  8
AM_VIS
100
AcDbLine
 10
3.048285483949737
 20
5.048718255370427
 30
0.0
 11
3.048285483949737
 21
5.031993963582227
 31
0.0
  0
LINE
  5
56F
330
2
100
AcDbEntity
  8
AM_HID
100
AcDbLine
 10
3.150910611759513
 20
5.031993963582227
 30
0.0
 11
3.081819483949736
 21
5.031993963582227
 31
0.0
  0
LINE
  5
570
330
2
100
AcDbEntity
  8
AM_VIS
100
AcDbLine
 10
3.150910611759513
 20
5.031993963582227
 30
0.0
 11
3.152532483949734
 21
5.031993963582227
 31
0.0
  0
LINE
  5
571
330
2
100
AcDbEntity
  8
AM_VIS
100
AcDbLine
 10
2.977572483949735
 20
5.031993963582227
 30
0.0
 11
2.979194356139956
 21
5.031993963582227
 31
0.0
  0
LINE
  5
572
330
2
100
AcDbEntity
  8
AM_HID
100
AcDbLine
 10
3.048285483949737
 20
5.031993963582227
 30
0.0
 11
2.979194356139956
 21
5.031993963582227
 31
0.0
  0
LINE
  5
573
330
2
100
AcDbEntity
  8
AM_VIS
100
AcDbLine
 10
3.048285483949737
 20
5.031993963582227
 30
0.0
 11
3.081819483949736
 21
5.031993963582227
 31
0.0
  0
ARC
  5
574
330
2
100
AcDbEntity
  8
AM_VIS
100
AcDbCircle
 10
3.065052483949735
 20
4.828374462905107
 30
0.0
 40
0.2209808117620166
100
AcDbArc
 50
94.35152041459556
 51
112.86319005972
  0
ARC
  5
575
330
2
100
AcDbEntity
  8
AM_VIS
100
AcDbCircle
 10
3.065052483949735
 20
4.828374462905107
 30
0.0
 40
0.2209808117620166
100
AcDbArc
 50
67.13680994027997
 51
85.64847958540358
  0
LINE
  5
576
330
2
100
AcDbEntity
  8
AM_HID
100
AcDbLine
 10
3.134307483949733
 20
4.665590462905106
 30
0.0
 11
2.995797483949736
 21
4.665590462905106
 31
0.0
  0
LINE
  5
577
330
2
100
AcDbEntity
  8
AM_VIS
100
AcDbLine
 10
3.117899180075632
 20
4.953033462905106
 30
0.0
 11
3.012205787823841
 21
4.953033462905106
 31
0.0
  0
LINE
  5
578
330
2
100
AcDbEntity
  8
AM_HID
100
AcDbLine
 10
3.118707483949734
 20
4.649990462905106
 30
0.0
 11
3.011397483949735
 21
4.649990462905106
 31
0.0
  0
LINE
  5
579
330
2
100
AcDbEntity
  8
AM_HID
100
AcDbLine
 10
2.995797483949736
 20
4.665590462905106
 30
0.0
 11
2.995797483949736
 21
4.871390462905106
 31
0.0
  0
LINE
  5
57A
330
2
100
AcDbEntity
  8
AM_VIS
100
AcDbLine
 10
2.995797483949736
 20
4.871390462905106
 30
0.0
 11
2.995797483949736
 21
4.903033462905106
 31
0.0
  0
LINE
  5
57B
330
2
100
AcDbEntity
  8
AM_HID
100
AcDbLine
 10
2.995797483949736
 20
4.903033462905106
 30
0.0
 11
2.995797483949736
 21
4.953033462905106
 31
0.0
  0
LINE
  5
57C
330
2
100
AcDbEntity
  8
AM_HID
100
AcDbLine
 10
3.134307483949733
 20
4.665590462905106
 30
0.0
 11
3.134307483949733
 21
4.871390462905106
 31
0.0
  0
LINE
  5
57D
330
2
100
AcDbEntity
  8
AM_VIS
100
AcDbLine
 10
3.134307483949733
 20
4.871390462905106
 30
0.0
 11
3.134307483949733
 21
4.903033462905106
 31
0.0
  0
LINE
  5
57E
330
2
100
AcDbEntity
  8
AM_HID
100
AcDbLine
 10
3.134307483949733
 20
4.903033462905106
 30
0.0
 11
3.134307483949733
 21
4.953033462905106
 31
0.0
  0
LINE
  5
57F
330
2
100
AcDbEntity
  8
AM_VIS
100
AcDbLine
 10
2.929093983949734
 20
4.953033462905106
 30
0.0
 11
2.929093983949734
 21
4.996097940789837
 31
0.0
  0
LINE
  5
580
330
2
100
AcDbEntity
  8
AM_VIS
100
AcDbLine
 10
3.201010983949736
 20
4.953033462905106
 30
0.0
 11
3.201010983949736
 21
4.996097940789837
 31
0.0
  0
ARC
  5
581
330
2
100
AcDbEntity
  8
AM_VIS
100
AcDbCircle
 10
3.186430983949733
 20
4.996097940789837
 30
0.0
 40
0.0145800000000007
100
AcDbArc
 50
0.0000000000000254
 51
54.10740889712236
  0
ARC
  5
582
330
2
100
AcDbEntity
  8
AM_VIS
100
AcDbCircle
 10
2.943673983949736
 20
4.996097940789837
 30
0.0
 40
0.0145800000000007
100
AcDbArc
 50
125.8925911028776
 51
180.0
  0
ARC
  5
583
330
2
100
AcDbEntity
  8
AM_VIS
100
AcDbCircle
 10
3.065052483949735
 20
4.828374462905107
 30
0.0
 40
0.2216159999999996
100
AcDbArc
 50
113.2495625905866
 51
125.8925911028816
  0
ARC
  5
584
330
2
100
AcDbEntity
  8
AM_VIS
100
AcDbCircle
 10
3.065052483949735
 20
4.828374462905107
 30
0.0
 40
0.2216159999999996
100
AcDbArc
 50
54.10740889711765
 51
66.75043740941347
  0
LINE
  5
585
330
2
100
AcDbEntity
  8
AM_HID
100
AcDbLine
 10
3.011397483949735
 20
4.649990462905106
 30
0.0
 11
2.995797483949736
 21
4.665590462905105
 31
0.0
  0
LINE
  5
586
330
2
100
AcDbEntity
  8
AM_HID
100
AcDbLine
 10
3.118707483949734
 20
4.649990462905106
 30
0.0
 11
3.134307483949733
 21
4.665590462905106
 31
0.0
  0
LINE
  5
587
330
2
100
AcDbEntity
  8
AM_VIS
100
AcDbLine
 10
3.806819483949738
 20
5.031993963582228
 30
0.0
 11
3.806819483949738
 21
5.048718255370427
 31
0.0
  0
LINE
  5
588
330
2
100
AcDbEntity
  8
AM_VIS
100
AcDbLine
 10
3.773285483949738
 20
5.048718255370427
 30
0.0
 11
3.773285483949738
 21
5.031993963582228
 31
0.0
  0
LINE
  5
589
330
2
100
AcDbEntity
  8
AM_HID
100
AcDbLine
 10
3.875910611759515
 20
5.031993963582228
 30
0.0
 11
3.806819483949738
 21
5.031993963582228
 31
0.0
  0
LINE
  5
58A
330
2
100
AcDbEntity
  8
AM_VIS
100
AcDbLine
 10
3.875910611759515
 20
5.031993963582228
 30
0.0
 11
3.877532483949735
 21
5.031993963582228
 31
0.0
  0
LINE
  5
58B
330
2
100
AcDbEntity
  8
AM_VIS
100
AcDbLine
 10
3.702572483949737
 20
5.031993963582227
 30
0.0
 11
3.704194356139957
 21
5.031993963582227
 31
0.0
  0
LINE
  5
58C
330
2
100
AcDbEntity
  8
AM_HID
100
AcDbLine
 10
3.773285483949738
 20
5.031993963582228
 30
0.0
 11
3.704194356139957
 21
5.031993963582228
 31
0.0
  0
LINE
  5
58D
330
2
100
AcDbEntity
  8
AM_VIS
100
AcDbLine
 10
3.773285483949738
 20
5.031993963582228
 30
0.0
 11
3.806819483949738
 21
5.031993963582228
 31
0.0
  0
ARC
  5
58E
330
2
100
AcDbEntity
  8
AM_VIS
100
AcDbCircle
 10
3.790052483949736
 20
4.828374462905108
 30
0.0
 40
0.2209808117620166
100
AcDbArc
 50
94.35152041459556
 51
112.86319005972
  0
ARC
  5
58F
330
2
100
AcDbEntity
  8
AM_VIS
100
AcDbCircle
 10
3.790052483949736
 20
4.828374462905108
 30
0.0
 40
0.2209808117620166
100
AcDbArc
 50
67.13680994027997
 51
85.64847958540358
  0
LINE
  5
590
330
2
100
AcDbEntity
  8
AM_HID
100
AcDbLine
 10
3.859307483949734
 20
4.665590462905107
 30
0.0
 11
3.720797483949738
 21
4.665590462905107
 31
0.0
  0
LINE
  5
591
330
2
100
AcDbEntity
  8
AM_VIS
100
AcDbLine
 10
3.842899180075633
 20
4.953033462905107
 30
0.0
 11
3.737205787823842
 21
4.953033462905107
 31
0.0
  0
LINE
  5
592
330
2
100
AcDbEntity
  8
AM_HID
100
AcDbLine
 10
3.843707483949735
 20
4.649990462905106
 30
0.0
 11
3.736397483949737
 21
4.649990462905106
 31
0.0
  0
LINE
  5
593
330
2
100
AcDbEntity
  8
AM_HID
100
AcDbLine
 10
3.720797483949738
 20
4.665590462905106
 30
0.0
 11
3.720797483949738
 21
4.871390462905106
 31
0.0
  0
LINE
  5
594
330
2
100
AcDbEntity
  8
AM_VIS
100
AcDbLine
 10
3.720797483949738
 20
4.871390462905106
 30
0.0
 11
3.720797483949738
 21
4.903033462905106
 31
0.0
  0
LINE
  5
595
330
2
100
AcDbEntity
  8
AM_HID
100
AcDbLine
 10
3.720797483949738
 20
4.903033462905106
 30
0.0
 11
3.720797483949738
 21
4.953033462905106
 31
0.0
  0
LINE
  5
596
330
2
100
AcDbEntity
  8
AM_HID
100
AcDbLine
 10
3.859307483949734
 20
4.665590462905107
 30
0.0
 11
3.859307483949734
 21
4.871390462905107
 31
0.0
  0
LINE
  5
597
330
2
100
AcDbEntity
  8
AM_VIS
100
AcDbLine
 10
3.859307483949734
 20
4.871390462905107
 30
0.0
 11
3.859307483949734
 21
4.903033462905107
 31
0.0
  0
LINE
  5
598
330
2
100
AcDbEntity
  8
AM_HID
100
AcDbLine
 10
3.859307483949734
 20
4.903033462905107
 30
0.0
 11
3.859307483949734
 21
4.953033462905107
 31
0.0
  0
LINE
  5
599
330
2
100
AcDbEntity
  8
AM_VIS
100
AcDbLine
 10
3.654093983949735
 20
4.953033462905107
 30
0.0
 11
3.654093983949735
 21
4.996097940789838
 31
0.0
  0
LINE
  5
59A
330
2
100
AcDbEntity
  8
AM_VIS
100
AcDbLine
 10
3.926010983949737
 20
4.953033462905107
 30
0.0
 11
3.926010983949737
 21
4.996097940789838
 31
0.0
  0
ARC
  5
59B
330
2
100
AcDbEntity
  8
AM_VIS
100
AcDbCircle
 10
3.911430983949735
 20
4.996097940789838
 30
0.0
 40
0.0145800000000007
100
AcDbArc
 50
0.0000000000000254
 51
54.10740889712236
  0
ARC
  5
59C
330
2
100
AcDbEntity
  8
AM_VIS
100
AcDbCircle
 10
3.668673983949737
 20
4.996097940789837
 30
0.0
 40
0.0145800000000007
100
AcDbArc
 50
125.8925911028776
 51
180.0
  0
ARC
  5
59D
330
2
100
AcDbEntity
  8
AM_VIS
100
AcDbCircle
 10
3.790052483949736
 20
4.828374462905108
 30
0.0
 40
0.2216159999999996
100
AcDbArc
 50
113.2495625905866
 51
125.8925911028816
  0
ARC
  5
59E
330
2
100
AcDbEntity
  8
AM_VIS
100
AcDbCircle
 10
3.790052483949736
 20
4.828374462905108
 30
0.0
 40
0.2216159999999996
100
AcDbArc
 50
54.10740889711765
 51
66.75043740941347
  0
LINE
  5
59F
330
2
100
AcDbEntity
  8
AM_HID
100
AcDbLine
 10
3.736397483949737
 20
4.649990462905106
 30
0.0
 11
3.720797483949738
 21
4.665590462905106
 31
0.0
  0
LINE
  5
5A0
330
2
100
AcDbEntity
  8
AM_HID
100
AcDbLine
 10
3.843707483949735
 20
4.649990462905106
 30
0.0
 11
3.859307483949734
 21
4.665590462905107
 31
0.0
  0
LINE
  5
5A1
330
2
100
AcDbEntity
  8
AM_VIS
100
AcDbLine
 10
3.937552483949733
 20
4.803390462905106
 30
0.0
 11
3.937552483949733
 21
4.871390462905106
 31
0.0
  0
LINE
  5
5A2
330
2
100
AcDbEntity
  8
AM_VIS
100
AcDbLine
 10
3.937552483949733
 20
4.871390462905107
 30
0.0
 11
2.917552483949734
 21
4.871390462905107
 31
0.0
  0
LINE
  5
5A3
330
2
100
AcDbEntity
  8
AM_VIS
100
AcDbLine
 10
2.917552483949734
 20
4.866072462905112
 30
0.0
 11
2.917552483949734
 21
4.871390462905106
 31
0.0
  0
LINE
  5
5A4
330
2
100
AcDbEntity
  8
AM_VIS
100
AcDbLine
 10
3.652458790984731
 20
4.803390462905106
 30
0.0
 11
3.208851990984733
 21
4.803390462905106
 31
0.0
  0
LINE
  5
5A5
330
2
100
AcDbEntity
  8
AM_HID
100
AcDbLine
 10
3.736552483949736
 20
4.803390462905106
 30
0.0
 11
3.736552483949736
 21
4.871390462905106
 31
0.0
  0
LINE
  5
5A6
330
2
100
AcDbEntity
  8
AM_HID
100
AcDbLine
 10
3.843552483949736
 20
4.803390462905106
 30
0.0
 11
3.843552483949736
 21
4.871390462905106
 31
0.0
  0
LINE
  5
5A7
330
2
100
AcDbEntity
  8
AM_HID
100
AcDbLine
 10
3.011552483949735
 20
4.803390462905106
 30
0.0
 11
3.011552483949735
 21
4.871390462905106
 31
0.0
  0
LINE
  5
5A8
330
2
100
AcDbEntity
  8
AM_HID
100
AcDbLine
 10
3.118552483949734
 20
4.803390462905106
 30
0.0
 11
3.118552483949734
 21
4.871390462905106
 31
0.0
  0
LINE
  5
5A9
330
2
100
AcDbEntity
  8
AM_HID
100
AcDbLine
 10
7.64148494261362
 20
4.713825206573366
 30
0.0
 11
7.64148494261362
 21
4.586025462905109
 31
0.0
  0
LINE
  5
5AA
330
2
100
AcDbEntity
  8
AM_VIS
100
AcDbLine
 10
7.64148494261362
 20
5.503126562905065
 30
0.0
 11
7.64148494261362
 21
4.713825206573366
 31
0.0
  0
LINE
  5
5AB
330
2
100
AcDbEntity
  8
AM_VIS
100
AcDbLine
 10
7.64148494261362
 20
5.503126562905065
 30
0.0
 11
7.64148494261362
 21
5.597126562905065
 31
0.0
  0
LINE
  5
5AC
330
2
100
AcDbEntity
  8
AM_VIS
100
AcDbLine
 10
7.64148494261362
 20
5.597126562905065
 30
0.0
 11
7.32248494261362
 21
5.597126562905065
 31
0.0
  0
LINE
  5
5AD
330
2
100
AcDbEntity
  8
AM_VIS
100
AcDbLine
 10
7.69748494261362
 20
5.597126562905065
 30
0.0
 11
7.64148494261362
 21
5.597126562905065
 31
0.0
  0
LINE
  5
5AE
330
2
100
AcDbEntity
  8
AM_VIS
100
AcDbLine
 10
7.69748494261362
 20
5.597126562905065
 30
0.0
 11
7.69748494261362
 21
5.503126562905065
 31
0.0
  0
LINE
  5
5AF
330
2
100
AcDbEntity
  8
AM_VIS
100
AcDbLine
 10
7.32248494261362
 20
4.713825206573359
 30
0.0
 11
7.32248494261362
 21
4.362594462905105
 31
0.0
  0
LINE
  5
5B0
330
2
100
AcDbEntity
  8
AM_VIS
100
AcDbLine
 10
7.69748494261362
 20
5.503126562905065
 30
0.0
 11
7.69748494261362
 21
4.362594462905105
 31
0.0
  0
LINE
  5
5B1
330
2
100
AcDbEntity
  8
AM_HID
100
AcDbLine
 10
7.64148494261362
 20
5.496714592544849
 30
0.0
 11
7.32248494261362
 21
5.496714592544849
 31
0.0
  0
LINE
  5
5B2
330
2
100
AcDbEntity
  8
AM_VIS
100
AcDbLine
 10
7.64148494261362
 20
4.878236936225107
 30
0.0
 11
7.55123994261362
 21
4.878236936225107
 31
0.0
  0
LINE
  5
5B3
330
2
100
AcDbEntity
  8
AM_HID
100
AcDbLine
 10
7.55123994261362
 20
4.878236936225107
 30
0.0
 11
7.412729942613621
 21
4.878236936225107
 31
0.0
  0
LINE
  5
5B4
330
2
100
AcDbEntity
  8
AM_VIS
100
AcDbLine
 10
7.412729942613621
 20
4.878236936225107
 30
0.0
 11
7.32248494261362
 21
4.878236936225107
 31
0.0
  0
LINE
  5
5B5
330
2
100
AcDbEntity
  8
AM_VIS
100
AcDbLine
 10
7.32248494261362
 20
4.878236936225111
 30
0.0
 11
7.32248494261362
 21
4.88523693622511
 31
0.0
  0
LINE
  5
5B6
330
2
100
AcDbEntity
  8
AM_VIS
100
AcDbLine
 10
7.32248494261362
 20
5.370765801225912
 30
0.0
 11
7.32248494261362
 21
4.88523693622511
 31
0.0
  0
LINE
  5
5B7
330
2
100
AcDbEntity
  8
AM_VIS
100
AcDbLine
 10
7.32248494261362
 20
5.393393218223881
 30
0.0
 11
7.32248494261362
 21
5.370765801225912
 31
0.0
  0
LINE
  5
5B8
330
2
100
AcDbEntity
  8
AM_VIS
100
AcDbLine
 10
7.64148494261362
 20
5.409626562905065
 30
0.0
 11
7.32248494261362
 21
5.409626562905065
 31
0.0
  0
LINE
  5
5B9
330
2
100
AcDbEntity
  8
AM_VIS
100
AcDbLine
 10
7.32248494261362
 20
5.409626562905066
 30
0.0
 11
7.32248494261362
 21
5.393393218223882
 31
0.0
  0
LINE
  5
5BA
330
2
100
AcDbEntity
  8
AM_VIS
100
AcDbLine
 10
7.64148494261362
 20
5.49602656290507
 30
0.0
 11
7.32248494261362
 21
5.49602656290507
 31
0.0
  0
LINE
  5
5BB
330
2
100
AcDbEntity
  8
AM_VIS
100
AcDbLine
 10
7.32248494261362
 20
5.49602656290507
 30
0.0
 11
7.32248494261362
 21
5.409626562905065
 31
0.0
  0
LINE
  5
5BC
330
2
100
AcDbEntity
  8
AM_VIS
100
AcDbLine
 10
7.32248494261362
 20
5.546576562905064
 30
0.0
 11
7.32248494261362
 21
5.496026562905074
 31
0.0
  0
LINE
  5
5BD
330
2
100
AcDbEntity
  8
AM_VIS
100
AcDbLine
 10
7.64148494261362
 20
5.546576562905064
 30
0.0
 11
7.32248494261362
 21
5.546576562905064
 31
0.0
  0
LINE
  5
5BE
330
2
100
AcDbEntity
  8
AM_VIS
100
AcDbLine
 10
7.32248494261362
 20
5.597126562905065
 30
0.0
 11
7.32248494261362
 21
5.546576562905064
 31
0.0
  0
ENDSEC
  0
SECTION
  2
OBJECTS
  0
DICTIONARY
  5
8
330
0
100
AcDbDictionary
281
     1
  3
ACAD_GROUP
350
21
  3
ACAD_LAYOUT
350
C
  3
ACAD_MLINESTYLE
350
22
  3
ACAD_PLOTSETTINGS
350
23
  3
ACAD_PLOTSTYLENAME
350
7
  3
AcDbVariableDictionary
350
5C1
  3
DWGPROPS
350
5BF
  0
DICTIONARY
  5
3
330
2
100
AcDbDictionary
280
     1
281
     1
  0
DICTIONARY
  5
21
102
{ACAD_REACTORS
330
8
102
}
330
8
100
AcDbDictionary
281
     1
  0
DICTIONARY
  5
C
102
{ACAD_REACTORS
330
8
102
}
330
8
100
AcDbDictionary
281
     1
  3
Layout1
350
10
  3
Model
350
B
  0
DICTIONARY
  5
22
102
{ACAD_REACTORS
330
8
102
}
330
8
100
AcDbDictionary
281
     1
  3
STANDARD
350
25
  0
DICTIONARY
  5
23
102
{ACAD_REACTORS
330
8
102
}
330
8
100
AcDbDictionary
281
     1
  0
ACDBDICTIONARYWDFLT
  5
7
102
{ACAD_REACTORS
330
8
102
}
330
8
100
AcDbDictionary
281
     1
  3
Normal
350
6
100
AcDbDictionaryWithDefault
340
6
  0
DICTIONARY
  5
5C1
102
{ACAD_REACTORS
330
8
102
}
330
8
100
AcDbDictionary
281
     1
  3
DIMASSOC
350
5C3
  3
HIDETEXT
350
5C2
  0
XRECORD
  5
5BF
102
{ACAD_REACTORS
330
8
102
}
330
8
100
AcDbXrecord
280
     1
  1
DWGPROPS COOKIE
  2

  3

  4

  6

  7

  8

  9

300
=
301
=
302
=
303
=
304
=
305
=
306
=
307
=
308
=
309
=
 40
0.3342460416666666
 41
2447762.56942662
 42
2452255.437436157
  1

 90
        0
  0
LAYOUT
  5
10
102
{ACAD_REACTORS
330
C
102
}
330
C
100
AcDbPlotSettings
  1

  2
\\NTSERVER_40\HP DesignJet 750C (D/A1) by HP
  4
User1287
  6

 40
4.995333194732666
 41
16.9333209991455
 42
4.995330810546875
 43
16.93331909179687
 44
431.71533203125
 45
279.2306518554687
 46
0.0
 47
0.0
 48
0.0
 49
0.0
140
0.0
141
0.0
142
1.0
143
1.0
 70
   688
 72
     0
 73
     0
 74
     5
  7

 75
     0
147
1.0
148
0.0
149
0.0
100
AcDbLayout
  1
Layout1
 70
     0
 71
     1
 10
-0.1966666612099475
 20
-0.6666661810687208
 11
16.79999995419359
 21
10.32666656914658
 12
0.0
 22
0.0
 32
0.0
 14
-0.1919959462855516
 24
-0.6619643669675206
 34
-0.4608153720162918
 15
16.80926223727263
 25
10.33854144970671
 35
0.0000000349246037
146
0.0
 13
0.0
 23
0.0
 33
0.0
 16
1.0
 26
0.0
 36
0.0
 17
0.0
 27
1.0
 37
0.0
 76
     0
330
D
  0
LAYOUT
  5
B
102
{ACAD_REACTORS
330
C
102
}
330
C
100
AcDbPlotSettings
  1

  2
HP-Plotter
  4

  6

 40
0.0
 41
0.0
 42
0.0
 43
0.0
 44
0.0
 45
0.0
 46
0.0
 47
0.0
 48
0.0
 49
0.0
140
0.0
141
0.0
142
1.0
143
1.0
 70
  1712
 72
     0
 73
     0
 74
     0
  7

 75
     0
147
1.0
148
0.0
149
0.0
100
AcDbLayout
  1
Model
 70
     1
 71
     0
 10
0.0
 20
0.0
 11
12.0
 21
9.0
 12
0.0
 22
0.0
 32
0.0
 14
0.0
 24
0.0
 34
0.0
 15
0.0
 25
0.0
 35
0.0
146
0.0
 13
0.0
 23
0.0
 33
0.0
 16
1.0
 26
0.0
 36
0.0
 17
0.0
 27
1.0
 37
0.0
 76
     0
330
2
  0
MLINESTYLE
  5
25
102
{ACAD_REACTORS
330
22
102
}
330
22
100
AcDbMlineStyle
  2
STANDARD
 70
     0
  3

 62
   256
 51
90.0
 52
90.0
 71
     2
 49
0.5
 62
   256
  6
BYLAYER
 49
-0.5
 62
   256
  6
BYLAYER
  0
ACDBPLACEHOLDER
  5
6
102
{ACAD_REACTORS
330
7
102
}
330
7
  0
DICTIONARYVAR
  5
5C3
102
{ACAD_REACTORS
330
5C1
102
}
330
5C1
100
DictionaryVariables
280
     0
  1
1
  0
DICTIONARYVAR
  5
5C2
102
{ACAD_REACTORS
330
5C1
102
}
330
5C1
100
DictionaryVariables
280
     0
  1
1
  0
ENDSEC
  0
EOF
