  0
SECTION
  2
HEADER
  9
$ACADVER
  1
AC1015
  9
$ACADMAINTVER
 70
    14
  9
$DWGCODEPAGE
  3
ANSI_1252
  9
$INSBASE
 10
0.0
 20
0.0
 30
0.0
  9
$EXTMIN
 10
1.000000000000000E+20
 20
1.000000000000000E+20
 30
1.000000000000000E+20
  9
$EXTMAX
 10
-1.000000000000000E+20
 20
-1.000000000000000E+20
 30
-1.000000000000000E+20
  9
$LIMMIN
 10
0.0
 20
0.0
  9
$LIMMAX
 10
12.0
 20
9.0
  9
$ORTHOMODE
 70
     1
  9
$REGENMODE
 70
     1
  9
$FILLMODE
 70
     1
  9
$QTEXTMODE
 70
     0
  9
$MIRRTEXT
 70
     1
  9
$LTSCALE
 40
0.35
  9
$ATTMODE
 70
     1
  9
$TEXTSIZE
 40
0.08
  9
$TRACEWID
 40
0.05
  9
$TEXTSTYLE
  7
STANDARD
  9
$CLAYER
  8
DIMENSION
  9
$CELTYPE
  6
ByLayer
  9
$CECOLOR
 62
   256
  9
$CELTSCALE
 40
1.0
  9
$DISPSILH
 70
     0
  9
$DIMSCALE
 40
1.0
  9
$DIMASZ
 40
0.125
  9
$DIMEXO
 40
0.0625
  9
$DIMDLI
 40
0.38
  9
$DIMRND
 40
0.0
  9
$DIMDLE
 40
0.0
  9
$DIMEXE
 40
0.0625
  9
$DIMTP
 40
0.0
  9
$DIMTM
 40
0.0
  9
$DIMTXT
 40
0.125
  9
$DIMCEN
 40
0.09
  9
$DIMTSZ
 40
0.0
  9
$DIMTOL
 70
     0
  9
$DIMLIM
 70
     0
  9
$DIMTIH
 70
     1
  9
$DIMTOH
 70
     1
  9
$DIMSE1
 70
     0
  9
$DIMSE2
 70
     0
  9
$DIMTAD
 70
     0
  9
$DIMZIN
 70
     0
  9
$DIMBLK
  1

  9
$DIMASO
 70
     1
  9
$DIMSHO
 70
     0
  9
$DIMPOST
  1

  9
$DIMAPOST
  1

  9
$DIMALT
 70
     0
  9
$DIMALTD
 70
     2
  9
$DIMALTF
 40
25.4
  9
$DIMLFAC
 40
1.0
  9
$DIMTOFL
 70
     0
  9
$DIMTVP
 40
0.0
  9
$DIMTIX
 70
     0
  9
$DIMSOXD
 70
     0
  9
$DIMSAH
 70
     0
  9
$DIMBLK1
  1

  9
$DIMBLK2
  1

  9
$DIMSTYLE
  2
Standard
  9
$DIMCLRD
 70
     0
  9
$DIMCLRE
 70
     0
  9
$DIMCLRT
 70
     0
  9
$DIMTFAC
 40
1.0
  9
$DIMGAP
 40
0.09
  9
$DIMJUST
 70
     0
  9
$DIMSD1
 70
     0
  9
$DIMSD2
 70
     0
  9
$DIMTOLJ
 70
     1
  9
$DIMTZIN
 70
     0
  9
$DIMALTZ
 70
     0
  9
$DIMALTTZ
 70
     0
  9
$DIMUPT
 70
     1
  9
$DIMDEC
 70
     3
  9
$DIMTDEC
 70
     3
  9
$DIMALTU
 70
     2
  9
$DIMALTTD
 70
     2
  9
$DIMTXSTY
  7
STANDARD
  9
$DIMAUNIT
 70
     0
  9
$DIMADEC
 70
     0
  9
$DIMALTRND
 40
0.0
  9
$DIMAZIN
 70
     0
  9
$DIMDSEP
 70
    46
  9
$DIMATFIT
 70
     3
  9
$DIMFRAC
 70
     0
  9
$DIMLDRBLK
  1

  9
$DIMLUNIT
 70
     5
  9
$DIMLWD
 70
    -2
  9
$DIMLWE
 70
    -2
  9
$DIMTMOVE
 70
     0
  9
$LUNITS
 70
     2
  9
$LUPREC
 70
     4
  9
$SKETCHINC
 40
0.1
  9
$FILLETRAD
 40
0.0
  9
$AUNITS
 70
     0
  9
$AUPREC
 70
     0
  9
$MENU
  1
ACAD
  9
$ELEVATION
 40
0.0
  9
$PELEVATION
 40
0.0
  9
$THICKNESS
 40
0.0
  9
$LIMCHECK
 70
     0
  9
$CHAMFERA
 40
0.0
  9
$CHAMFERB
 40
0.0
  9
$CHAMFERC
 40
0.0
  9
$CHAMFERD
 40
0.0
  9
$SKPOLY
 70
     0
  9
$TDCREATE
 40
2450221.431180902
  9
$TDUCREATE
 40
2450221.597847569
  9
$TDUPDATE
 40
2452558.636209305
  9
$TDUUPDATE
 40
2452558.802875972
  9
$TDINDWG
 40
1.0362682060
  9
$TDUSRTIMER
 40
1.0362682060
  9
$USRTIMER
 70
     1
  9
$ANGBASE
 50
0.0
  9
$ANGDIR
 70
     0
  9
$PDMODE
 70
    35
  9
$PDSIZE
 40
-0.6
  9
$PLINEWID
 40
0.0
  9
$SPLFRAME
 70
     0
  9
$SPLINETYPE
 70
     6
  9
$SPLINESEGS
 70
     8
  9
$HANDSEED
  5
47D
  9
$SURFTAB1
 70
     6
  9
$SURFTAB2
 70
     6
  9
$SURFTYPE
 70
     6
  9
$SURFU
 70
     6
  9
$SURFV
 70
     6
  9
$UCSBASE
  2

  9
$UCSNAME
  2

  9
$UCSORG
 10
0.0
 20
0.0
 30
0.0
  9
$UCSXDIR
 10
1.0
 20
0.0
 30
0.0
  9
$UCSYDIR
 10
0.0
 20
1.0
 30
0.0
  9
$UCSORTHOREF
  2

  9
$UCSORTHOVIEW
 70
     0
  9
$UCSORGTOP
 10
0.0
 20
0.0
 30
0.0
  9
$UCSORGBOTTOM
 10
0.0
 20
0.0
 30
0.0
  9
$UCSORGLEFT
 10
0.0
 20
0.0
 30
0.0
  9
$UCSORGRIGHT
 10
0.0
 20
0.0
 30
0.0
  9
$UCSORGFRONT
 10
0.0
 20
0.0
 30
0.0
  9
$UCSORGBACK
 10
0.0
 20
0.0
 30
0.0
  9
$PUCSBASE
  2

  9
$PUCSNAME
  2

  9
$PUCSORG
 10
0.0
 20
0.0
 30
0.0
  9
$PUCSXDIR
 10
1.0
 20
0.0
 30
0.0
  9
$PUCSYDIR
 10
0.0
 20
1.0
 30
0.0
  9
$PUCSORTHOREF
  2

  9
$PUCSORTHOVIEW
 70
     0
  9
$PUCSORGTOP
 10
0.0
 20
0.0
 30
0.0
  9
$PUCSORGBOTTOM
 10
0.0
 20
0.0
 30
0.0
  9
$PUCSORGLEFT
 10
0.0
 20
0.0
 30
0.0
  9
$PUCSORGRIGHT
 10
0.0
 20
0.0
 30
0.0
  9
$PUCSORGFRONT
 10
0.0
 20
0.0
 30
0.0
  9
$PUCSORGBACK
 10
0.0
 20
0.0
 30
0.0
  9
$USERI1
 70
     0
  9
$USERI2
 70
     0
  9
$USERI3
 70
     0
  9
$USERI4
 70
     0
  9
$USERI5
 70
     0
  9
$USERR1
 40
0.0
  9
$USERR2
 40
0.0
  9
$USERR3
 40
0.0
  9
$USERR4
 40
0.0
  9
$USERR5
 40
0.0
  9
$WORLDVIEW
 70
     1
  9
$SHADEDGE
 70
     3
  9
$SHADEDIF
 70
    70
  9
$TILEMODE
 70
     0
  9
$MAXACTVP
 70
    64
  9
$PINSBASE
 10
0.0
 20
0.0
 30
0.0
  9
$PLIMCHECK
 70
     0
  9
$PEXTMIN
 10
-0.1906976617264604
 20
-0.6611240451110838
 30
-0.0000280784209992
  9
$PEXTMAX
 10
16.81045718772282
 20
10.33912523663181
 30
0.0000070205425242
  9
$PLIMMIN
 10
-0.1966666612099475
 20
-0.6666661810687208
  9
$PLIMMAX
 10
16.79999995419359
 20
10.32666656914658
  9
$UNITMODE
 70
     0
  9
$VISRETAIN
 70
     1
  9
$PLINEGEN
 70
     0
  9
$PSLTSCALE
 70
     0
  9
$TREEDEPTH
 70
  3020
  9
$CMLSTYLE
  2
Standard
  9
$CMLJUST
 70
     0
  9
$CMLSCALE
 40
1.0
  9
$PROXYGRAPHICS
 70
     1
  9
$MEASUREMENT
 70
     0
  9
$CELWEIGHT
370
    -1
  9
$ENDCAPS
280
     0
  9
$JOINSTYLE
280
     0
  9
$LWDISPLAY
290
     0
  9
$INSUNITS
 70
     0
  9
$HYPERLINKBASE
  1

  9
$STYLESHEET
  1

  9
$XEDIT
290
     1
  9
$CEPSNTYPE
380
     0
  9
$PSTYLEMODE
290
     1
  9
$FINGERPRINTGUID
  2
{3BDFE3C9-696C-11D4-9FC8-005004B2D6C8}
  9
$VERSIONGUID
  2
{A789D5DE-DC72-11D6-A0E2-005004B2D6C8}
  9
$EXTNAMES
290
     1
  9
$PSVPSCALE
 40
0.0
  9
$OLESTARTUP
290
     0
  0
ENDSEC
  0
SECTION
  2
CLASSES
  0
CLASS
  1
ACDBDICTIONARYWDFLT
  2
AcDbDictionaryWithDefault
  3
AutoCAD 2000
 90
        0
280
     0
281
     0
  0
CLASS
  1
ACDBPLACEHOLDER
  2
AcDbPlaceHolder
  3
AutoCAD 2000
 90
        0
280
     0
281
     0
  0
CLASS
  1
LAYOUT
  2
AcDbLayout
  3
AutoCAD 2000
 90
        0
280
     0
281
     0
  0
CLASS
  1
ACME_DOCUMENT
  2
AcMeDbDoc
  3
AcMeServices
 90
        0
280
     0
281
     0
  0
CLASS
  1
ACMESCOPE
  2
AcMeScope
  3
AcMeServices
 90
        0
280
     0
281
     0
  0
CLASS
  1
ACMECOMMANDHISTORY
  2
AcMeCommandHistory
  3
AcMeServices
 90
        0
280
     0
281
     0
  0
CLASS
  1
DICTIONARYVAR
  2
AcDbDictionaryVar
  3
AutoCAD 2000
 90
        0
280
     0
281
     0
  0
CLASS
  1
ACIMSYSVARMAN
  2
AcImSysVarManager
  3
AcMeServices
 90
        0
280
     0
281
     0
  0
CLASS
  1
ACIMREALSYSVAR
  2
AcImRealSysVar
  3
AcMeServices
 90
        0
280
     0
281
     0
  0
CLASS
  1
ACIMINTSYSVAR
  2
AcImIntSysVar
  3
AcMeServices
 90
        0
280
     0
281
     0
  0
CLASS
  1
ACMEDRAWINGMAN
  2
AcMeDrawingMan
  3
AcMeServices
 90
        0
280
     0
281
     0
  0
CLASS
  1
ACMEVIEW
  2
AcMeView
  3
AcMeServices
 90
        0
280
     0
281
     0
  0
CLASS
  1
ACDBENTITYCACHE
  2
AcMeEntityCache
  3
AcMeServices
 90
        0
280
     0
281
     0
  0
CLASS
  1
GSMANAGER
  2
AcMeGSManager
  3
AcMeServices
 90
        0
280
     0
281
     0
  0
CLASS
  1
AMDTINTERNALREACTOR
  2
AmdtInternalReactor
  3
AcMeServices
 90
        0
280
     0
281
     0
  0
CLASS
  1
ACMESTATEMGR
  2
AcMeStateMgr
  3
AcMeServices
 90
        0
280
     0
281
     0
  0
CLASS
  1
ACGREFMASTER
  2
AcGrefMaster
  3
AcAttribServices
 90
        0
280
     0
281
     0
  0
CLASS
  1
AM_DRAWING_MGR
  2
AcDmDwgMgr
  3
AcMechDwgViewMgmt
 90
        0
280
     0
281
     0
  0
CLASS
  1
AM_DWG_DOCUMENT
  2
AcDmDwgDocument
  3
AcMechDwgViewMgmt
 90
        0
280
     0
281
     0
  0
CLASS
  1
AM_DWG_SHEET
  2
AcDmSheet
  3
AcMechDwgViewMgmt
 90
        0
280
     0
281
     0
  0
CLASS
  1
AM_VIEWDIMPARMAP
  2
AcDmViewDimParMap
  3
AcMechDwgViewMgmt
 90
        0
280
     0
281
     0
  0
CLASS
  1
AM_DWGMGR_NAME
  2
AcDmDwgMgrName
  3
AcMechDwgViewMgmt
 90
        0
280
     0
281
     0
  0
CLASS
  1
ACME_DATABASE
  2
AcMeDbDatabase
  3
AcMeServices
 90
        0
280
     0
281
     0
  0
CLASS
  1
ACRFINSADJUSTERMGR
  2
AcRfInsAdjusterMgr
  3
AcMeServices
 90
        0
280
     0
281
     0
  0
CLASS
  1
ACGREFACADMASTER
  2
AcGrefacadMaster
  3
AcGrefServices
 90
        0
280
     0
281
     0
  0
CLASS
  1
AMDTMENUSTATEMGR
  2
AmdtMenuStateMgr
  3
McadcomServices
 90
        0
280
     0
281
     0
  0
CLASS
  1
AMDTMCOMMENUSTATE
  2
AmdtMcomMenuState
  3
McadcomServices
 90
        0
280
     0
281
     0
  0
CLASS
  1
ASAPP
  2
AcAsAppObject
  3
AutoSurfServices
 90
        0
280
     0
281
     0
  0
CLASS
  1
IM_STATIC_MAN
  2
AcImStaticVarManager
  3
AcMeServices
 90
        0
280
     0
281
     0
  0
CLASS
  1
ACIMSTRSYSVAR
  2
AcImStrSysVar
  3
AcMeServices
 90
        0
280
     0
281
     0
  0
CLASS
  1
ACIMDBLSTATICVAR
  2
AcImDblStaticVar
  3
AcMeServices
 90
        0
280
     0
281
     0
  0
CLASS
  1
ACIMSTRSTATICVAR
  2
AcImStrStaticVar
  3
AcMeServices
 90
        0
280
     0
281
     0
  0
CLASS
  1
ACIMINTSTATICVAR
  2
AcImIntStaticVar
  3
AcMeServices
 90
        0
280
     0
281
     0
  0
CLASS
  1
ACADGREFMODULE
  2
AcAdGrefModule
  3
AdGrefServices
 90
        0
280
     0
281
     0
  0
CLASS
  1
AMIMASTER
  2
AmiMaster
  3
AmiServices
 90
        0
280
     0
281
     0
  0
CLASS
  1
ACASGREFMASTER
  2
AcAsGrefMaster
  3
AutoSurfResolverServices
 90
        0
280
     0
281
     0
  0
CLASS
  1
MAPIAMMOUDLE
  2
MApiAmModule
  3
MApiAmServices
 90
        0
280
     0
281
     0
  0
CLASS
  1
AMDTDMMENUSTATE
  2
AmdtDmMenuState
  3
AcMechDwgViewMgmt
 90
        0
280
     0
281
     0
  0
CLASS
  1
AMDTADMENUSTATE
  2
AmdtAdMenuState
  3
DesignerServices
 90
        0
280
     0
281
     0
  0
CLASS
  1
ADAPPL
  2
AcAdAppl
  3
DesignerServices
 90
        0
280
     0
281
     0
  0
CLASS
  1
DEPMGR
  2
AcAdDepMgr
  3
DesignerServices
 90
        0
280
     0
281
     0
  0
CLASS
  1
PARAMMGR
  2
AcAdParamMgr
  3
DesignerServices
 90
        0
280
     0
281
     0
  0
CLASS
  1
PARAMSCOPE
  2
AcAdParamScope
  3
DesignerServices
 90
        0
280
     0
281
     0
  0
CLASS
  1
NAMEDAPPL
  2
AcAdNamedAppl
  3
DesignerServices
 90
        0
280
     0
281
     0
  0
CLASS
  1
ADHNTMPLT
  2
AdHoleNoteTemplateMgr
  3
DesignerServices
 90
    32768
280
     0
281
     0
  0
CLASS
  1
AM_HNTEMPLATE_MGR_NAME
  2
AdHoleNoteTemplateMgrName
  3
DesignerServices
 90
    32768
280
     0
281
     0
  0
CLASS
  1
AMDTAMMENUSTATE
  2
AmdtAmMenuState
  3
DesignerAssemblies
 90
        0
280
     0
281
     0
  0
CLASS
  1
ACAMPROJECT
  2
AcAmProject
  3
DesignerAssemblies
 90
        0
280
     0
281
     0
  0
CLASS
  1
ACAMGRCOMPDEF
  2
AcAmGrCompDef
  3
DesignerAssemblies
 90
        0
280
     0
281
     0
  0
CLASS
  1
ACCMCONTEXT
  2
AcCmContext
  3
DesignerAssemblies
 90
        0
280
     0
281
     0
  0
CLASS
  1
ACAMCOMPDEF
  2
AcAmCompDef
  3
DesignerAssemblies
 90
        0
280
     0
281
     0
  0
CLASS
  1
ACAMCOMPDEFMGR
  2
AcAmCompDefMgr
  3
DesignerAssemblies
 90
        0
280
     0
281
     0
  0
CLASS
  1
AMCONTEXTMGR
  2
AcAmContextMgr
  3
DesignerAssemblies
 90
        0
280
     0
281
     0
  0
CLASS
  1
ACAMCONTEXTMODELER
  2
AcAmContextModeler
  3
DesignerAssemblies
 90
        0
280
     0
281
     0
  0
CLASS
  1
MAPIADMODULE
  2
MApiAdModule
  3
MApiAdServices
 90
        0
280
     0
281
     0
  0
CLASS
  1
ACMDATADICTIONARY
  2
AcmDataDictionary
  3
"AcmSymBB|Product Description: AutoCAD Mechanical 2000|Company: Autodesk"
 90
        0
280
     0
281
     0
  0
CLASS
  1
ACMDATAENTRYBLOCK
  2
AcmDataEntryBlock
  3
"AcmSymBB|Product Description: AutoCAD Mechanical 2000|Company: Autodesk"
 90
        0
280
     0
281
     0
  0
CLASS
  1
AMDTBROWSERDBTAB
  2
AmdtBrowserDbTab
  3
McadcomServices
 90
        0
280
     0
281
     0
  0
CLASS
  1
CBROWSERAPPOBJECT
  2
CBrowserAppObject
  3
McadcomServices
 90
        0
280
     0
281
     0
  0
CLASS
  1
DM_PLACEHOLDER
  2
AcDmSelsetPlaceholder
  3
AcMechDwgViewMgmt
 90
        0
280
     0
281
     0
  0
CLASS
  1
CATALOGSTATE
  2
AcAmCatalogState
  3
DesignerAssemblies
 90
        0
280
     0
281
     0
  0
CLASS
  1
ACAMGRCOMPDEFSET
  2
AcAmGrCompDefSet
  3
DesignerAssemblies
 90
        0
280
     0
281
     0
  0
CLASS
  1
AMGOBJPROPCFG
  2
AmgObjPropCfg
  3
"AmgLay|Product Description: AutoCAD Mechanical 2000|Company: Autodesk"
 90
        1
280
     0
281
     0
  0
CLASS
  1
LAYER_INDEX
  2
AcDbLayerIndex
  3
AutoCAD 2000
 90
        0
280
     0
281
     0
  0
CLASS
  1
IDBUFFER
  2
AcDbIdBuffer
  3
AutoCAD 2000
 90
        0
280
     0
281
     0
  0
CLASS
  1
ACRFATTGENMGR
  2
AcRfAttGeneralMgr
  3
AcAttribServices
 90
    32768
280
     0
281
     0
  0
CLASS
  1
ADPART
  2
AcAdPart
  3
DesignerServices
 90
    32768
280
     0
281
     1
  0
CLASS
  1
ADBASE
  2
AcAdBase
  3
DesignerServices
 90
    32768
280
     0
281
     0
  0
CLASS
  1
BODYID
  2
AcAdBodyId
  3
DesignerServices
 90
    32768
280
     0
281
     0
  0
CLASS
  1
WORKPLANEDISPLAYMGR
  2
AcAdDisplayMgr
  3
DesignerServices
 90
    32768
280
     0
281
     0
  0
CLASS
  1
ACCMBODY
  2
AcCmBody
  3
DesignerAssemblies
 90
    32768
280
     0
281
     0
  0
CLASS
  1
ACAMCOMPENT
  2
AcAmCompEnt
  3
DesignerAssemblies
 90
    32768
280
     0
281
     1
  0
CLASS
  1
ACAMCOMPFEEDBACK
  2
AcAmCompFeedback
  3
DesignerAssemblies
 90
    32768
280
     0
281
     0
  0
CLASS
  1
ACAMCOMP
  2
AcAmComp
  3
DesignerAssemblies
 90
    32768
280
     0
281
     0
  0
CLASS
  1
ACAMCOMPENTCLONE
  2
AcAmCompEntClone
  3
DesignerAssemblies
 90
    32768
280
     0
281
     1
  0
CLASS
  1
ACAMCLONEREACTOR
  2
AcAmGrCompCloneReactor
  3
DesignerAssemblies
 90
    32768
280
     0
281
     0
  0
CLASS
  1
ADDATUMPLANEABS
  2
AcAdDatumPlaneAbs
  3
DesignerServices
 90
    32768
280
     0
281
     0
  0
CLASS
  1
ADDATUMAXISABS
  2
AcAdDatumAxisAbs
  3
DesignerServices
 90
    32768
280
     0
281
     0
  0
CLASS
  1
ADDATUMORIENTEDPLANE
  2
AcAdDatumOrientedPlane
  3
DesignerServices
 90
    32768
280
     0
281
     0
  0
CLASS
  1
ACAD_LINE
  2
AcAdLine
  3
DesignerServices
 90
    32768
280
     0
281
     1
  0
CLASS
  1
ACADLINEACAD
  2
AcAdVirtualBoundedLineAcad
  3
DesignerServices
 90
    32768
280
     0
281
     0
  0
CLASS
  1
ACAD_ARC
  2
AcAdArc
  3
DesignerServices
 90
    32768
280
     0
281
     1
  0
CLASS
  1
ACADARCACAD
  2
AcAdVirtualArcAcad
  3
DesignerServices
 90
    32768
280
     0
281
     0
  0
CLASS
  1
ACADREFLINEACAD
  2
AcAdVirtualReferenceLine
  3
DesignerServices
 90
    32768
280
     0
281
     0
  0
CLASS
  1
ACADCONSLINE
  2
AcAdConstrainedLine
  3
DesignerServices
 90
    32768
280
     0
281
     0
  0
CLASS
  1
ACADCONSGROUP
  2
AcAdConstraintGroup
  3
DesignerServices
 90
    32768
280
     0
281
     0
  0
CLASS
  1
ACADCONSCIRCLE
  2
AcAdConstrainedCircle
  3
DesignerServices
 90
    32768
280
     0
281
     0
  0
CLASS
  1
ACADIMPPTACAD
  2
AcAdVirtualImplicitPoint
  3
DesignerServices
 90
    32768
280
     0
281
     0
  0
CLASS
  1
ACADCONSPOINT
  2
AcAdConstrainedPoint
  3
DesignerServices
 90
    32768
280
     0
281
     0
  0
CLASS
  1
ADPCURCNS
  2
AcAdPointCurveConstr
  3
DesignerServices
 90
    32768
280
     0
281
     0
  0
CLASS
  1
ADCTRPTCNS
  2
AcAdCenterPointConstr
  3
DesignerServices
 90
    32768
280
     0
281
     0
  0
CLASS
  1
ADVERCNS
  2
AcAdVerticalConstr
  3
DesignerServices
 90
    32768
280
     0
281
     0
  0
CLASS
  1
ADHORCNS
  2
AcAdHorizontalConstr
  3
DesignerServices
 90
    32768
280
     0
281
     0
  0
CLASS
  1
ADCOLNCNS
  2
AcAdColinearConstr
  3
DesignerServices
 90
    32768
280
     0
281
     0
  0
CLASS
  1
ADTANCNS
  2
AcAdTangentConstr
  3
DesignerServices
 90
    32768
280
     0
281
     0
  0
CLASS
  1
ADPARCNS
  2
AcAdParallelConstr
  3
DesignerServices
 90
    32768
280
     0
281
     0
  0
CLASS
  1
ADEQRADCNS
  2
AcAdEqualRadiusConstr
  3
DesignerServices
 90
    32768
280
     0
281
     0
  0
CLASS
  1
ADCLPROF2D
  2
AcAdClosedProfile2d
  3
DesignerServices
 90
    32768
280
     0
281
     0
  0
CLASS
  1
ACAD_FIXCONSTRAINT
  2
AcAdFixedConstraint
  3
DesignerServices
 90
    32768
280
     0
281
     0
  0
CLASS
  1
ACMELINEARARROW
  2
AcImLinearArrowDisplay
  3
AcMeServices
 90
    32768
280
     0
281
     1
  0
CLASS
  1
PARAM
  2
AcAdParam
  3
DesignerServices
 90
    32768
280
     0
281
     0
  0
CLASS
  1
ACADVOLFEATWITHTRIM
  2
AcAdVolFeatWithTrim
  3
DesignerServices
 90
    32768
280
     0
281
     0
  0
CLASS
  1
DEPEDGEFEATUREORDERING
  2
AcAdDepEdgeFeatureOrdering
  3
DesignerServices
 90
    32768
280
     0
281
     0
  0
CLASS
  1
ADPLANEID
  2
AcAdPlaneId
  3
DesignerServices
 90
    32768
280
     0
281
     0
  0
CLASS
  1
ADDATUMPLANEFACE
  2
AcAdDatumPlaneFace
  3
DesignerServices
 90
    32768
280
     0
281
     0
  0
CLASS
  1
ACMEPLINE
  2
AcImPlineDisplay
  3
AcMeServices
 90
    32768
280
     0
281
     1
  0
CLASS
  1
ACAD_CIRCLE
  2
AcAdCircle
  3
DesignerServices
 90
    32768
280
     0
281
     1
  0
CLASS
  1
ACADCIRCLEACAD
  2
AcAdVirtualCircleAcad
  3
DesignerServices
 90
    32768
280
     0
281
     0
  0
CLASS
  1
FEEDBACK
  2
AcAmFeedback
  3
DesignerAssemblies
 90
    32768
280
     0
281
     1
  0
CLASS
  1
ACAMTRIAXISSYMBOL
  2
AcAmTriAxisSymbol
  3
DesignerAssemblies
 90
    32768
280
     0
281
     0
  0
CLASS
  1
ACAMTEXTCIRCLESYMBOL
  2
AcAmTextCircleSymbol
  3
DesignerAssemblies
 90
    32768
280
     0
281
     0
  0
CLASS
  1
ACAMEXTERNALCOMPDEF
  2
AcAmExternalCompDef
  3
DesignerAssemblies
 90
    32768
280
     0
281
     0
  0
CLASS
  1
ACMEROTATIONARROW
  2
AcImRotationArrowDisplay
  3
AcMeServices
 90
    32768
280
     0
281
     1
  0
CLASS
  1
AM_VIEW_SELECT_FILTER
  2
AcDmSelectViewEntFilter
  3
AcMechDwgViewMgmt
 90
    32768
280
     0
281
     0
  0
CLASS
  1
FACEID
  2
AcAdFaceId
  3
DesignerServices
 90
    32768
280
     0
281
     0
  0
CLASS
  1
ACADPARTPLANARFACERES
  2
AcAdPartPlanarFaceRes
  3
AdGrefServices
 90
    32768
280
     0
281
     0
  0
CLASS
  1
ACRFINSADJ
  2
AcRfInsAdjuster
  3
AcMeServices
 90
    32768
280
     0
281
     0
  0
CLASS
  1
AM_GREF_PLANE
  2
AcDmGrefPlnDef
  3
AcMechDwgViewMgmt
 90
    32768
280
     0
281
     0
  0
CLASS
  1
EDGEID
  2
AcAdEdgeId
  3
DesignerServices
 90
    32768
280
     0
281
     0
  0
CLASS
  1
ACADPARTLINEDGRES
  2
AcAdPartLinEdgRes
  3
AdGrefServices
 90
    32768
280
     0
281
     0
  0
CLASS
  1
AM_GREF_AXIS
  2
AcDmGrefAxisDef
  3
AcMechDwgViewMgmt
 90
    32768
280
     0
281
     0
  0
CLASS
  1
AM_BASE_VIEW_ORIENT
  2
AcDmBaseViewOr
  3
AcMechDwgViewMgmt
 90
    32768
280
     0
281
     0
  0
CLASS
  1
AM_DWG_VIEWPORT
  2
AcDmViewport
  3
AcMechDwgViewMgmt
 90
    32768
280
     0
281
     0
  0
CLASS
  1
AM_VIEW_DISPLAY
  2
AcDmDwgViewDisplay
  3
AcMechDwgViewMgmt
 90
    32768
280
     0
281
     0
  0
CLASS
  1
AM_CLDFLTS
  2
AcDmClDflts
  3
AcMechDwgViewMgmt
 90
    32768
280
     0
281
     0
  0
CLASS
  1
AM_BASE_VIEW
  2
AcDmBaseView
  3
AcMechDwgViewMgmt
 90
    32768
280
     0
281
     0
  0
CLASS
  1
AM_ORTHO_VIEW_ORIENT
  2
AcDmOrthoViewOr
  3
AcMechDwgViewMgmt
 90
    32768
280
     0
281
     0
  0
CLASS
  1
AM_ORTHO_VIEW
  2
AcDmOrthoView
  3
AcMechDwgViewMgmt
 90
    32768
280
     0
281
     0
  0
CLASS
  1
AM_ISO_VIEW_ORIENT
  2
AcDmIsoViewOr
  3
AcMechDwgViewMgmt
 90
    32768
280
     0
281
     0
  0
CLASS
  1
AM_ISO_VIEW
  2
AcDmIsoView
  3
AcMechDwgViewMgmt
 90
    32768
280
     0
281
     0
  0
CLASS
  1
ACDMVWEDCIRC
  2
AcDmViewEdgeCircle
  3
AcMechDwgViewMgmt
 90
    32768
280
     0
281
     1
  0
CLASS
  1
ACDMVWEDARC
  2
AcDmViewEdgeArc
  3
AcMechDwgViewMgmt
 90
    32768
280
     0
281
     1
  0
CLASS
  1
ACDMVWEDLINE
  2
AcDmViewEdgeLine
  3
AcMechDwgViewMgmt
 90
    32768
280
     0
281
     1
  0
CLASS
  1
AM_ADLINCTRLINE
  2
AcAdLineCl
  3
DesignerServices
 90
    32768
280
     0
281
     0
  0
CLASS
  1
AM_ADCIRCTRLINE
  2
AcAdBullsEyeCl
  3
DesignerServices
 90
    32768
280
     0
281
     0
  0
CLASS
  1
ACMBOM
  2
AcmBom
  3
"AcmSymBB|Product Description: AutoCAD Mechanical 2000|Company: Autodesk"
 90
    32768
280
     0
281
     0
  0
CLASS
  1
ACMBOMROW
  2
AcmBomRow
  3
"AcmSymBB|Product Description: AutoCAD Mechanical 2000|Company: Autodesk"
 90
    32768
280
     0
281
     0
  0
CLASS
  1
ACMSTANDARDANSI
  2
AcmStandardANSI
  3
"Amdt_StdImp|Product Description: AutoCAD Mechanical 2000|Company: Autodesk"
 90
        0
280
     0
281
     0
  0
CLASS
  1
ACMSURFSTANDARDANSI
  2
AcmSurfTextStdANSI
  3
"Amdt_StdImp|Product Description: AutoCAD Mechanical 2000|Company: Autodesk"
 90
        0
280
     0
281
     0
  0
CLASS
  1
ACMFCFSTANDARDANSI
  2
AcmFCFStdANSI
  3
"Amdt_StdImp|Product Description: AutoCAD Mechanical 2000|Company: Autodesk"
 90
        0
280
     0
281
     0
  0
CLASS
  1
ACMWELDSTANDARDANSI
  2
AcmWeldingStdANSI
  3
"Amdt_StdImp|Product Description: AutoCAD Mechanical 2000|Company: Autodesk"
 90
        0
280
     0
281
     0
  0
CLASS
  1
ACMIDSTANDARDANSI
  2
AcmIdStdANSI
  3
"Amdt_StdImp|Product Description: AutoCAD Mechanical 2000|Company: Autodesk"
 90
        0
280
     0
281
     0
  0
CLASS
  1
ACMDATUMSTANDARDANSI
  2
AcmDatumStdANSI
  3
"Amdt_StdImp|Product Description: AutoCAD Mechanical 2000|Company: Autodesk"
 90
        0
280
     0
281
     0
  0
CLASS
  1
ACMBOMSTANDARDANSI
  2
AcmBOMStdANSI
  3
"Amdt_StdImp|Product Description: AutoCAD Mechanical 2000|Company: Autodesk"
 90
        0
280
     0
281
     0
  0
CLASS
  1
ACMPICKOBJ
  2
AcmPickEnt
  3
"AcmSymBB|Product Description: AutoCAD Mechanical 2000|Company: Autodesk"
 90
    32768
280
     0
281
     1
  0
CLASS
  1
ACMBALLOON
  2
AcmBalloon
  3
"AcmSymBB|Product Description: AutoCAD Mechanical 2000|Company: Autodesk"
 90
    33791
280
     0
281
     1
  0
CLASS
  1
AM_VWNOTEADAPTER
  2
AcDmViewAnnotAdapter
  3
AcMechDwgViewMgmt
 90
    32768
280
     0
281
     0
  0
CLASS
  1
ACDMVIEWGEOM
  2
AcDmViewGeometry
  3
AcMechDwgViewMgmt
 90
    32768
280
     0
281
     1
  0
CLASS
  1
AMGSETTINGSOBJ
  2
AmgSettingsObj
  3
"AcadM|Product Description: AutoCAD Mechanical 2000|Company: Autodesk"
 90
        0
280
     0
281
     0
  0
CLASS
  1
AMDTMAPISURFMOUDULE
  2
AmdtMApiSurfModule
  3
MApiSurfServices
 90
        0
280
     0
281
     0
  0
CLASS
  1
ACDMPARTVIEWDATA
  2
AcDmPartViewData
  3
AcMechDwgViewMgmt
 90
    32768
280
     0
281
     0
  0
CLASS
  1
ACDMDISPLAYATTRIBS
  2
AcDmDisplayAttribs
  3
AcMechDwgViewMgmt
 90
    32768
280
     0
281
     0
  0
CLASS
  1
ACDMBODYINSTANCEDATA
  2
AcDmBodyInstanceData
  3
AcMechDwgViewMgmt
 90
    32768
280
     0
281
     0
  0
CLASS
  1
AMDTFORMULAUPDATEDISPATCHER
  2
AmdtFormulaUpdateDispatcher
  3
AcMeServices
 90
    32768
280
     0
281
     0
  0
CLASS
  1
ACAMGTITLESTD
  2
AcAmgTitleStd
  3
"TITLEAPP"
 90
        0
280
     0
281
     0
  0
CLASS
  1
ACMDETAILSTANDARDANSI
  2
AmdtDetailSymStdANSI
  3
"Amdt_StdImp|Product Description: AutoCAD Mechanical 2000|Company: Autodesk"
 90
        0
280
     0
281
     0
  0
CLASS
  1
ACMSECTIONSTANDARDANSI
  2
AmdtSectionSymStdANSI
  3
"Amdt_StdImp|Product Description: AutoCAD Mechanical 2000|Company: Autodesk"
 90
        0
280
     0
281
     0
  0
CLASS
  1
ACMCENTERLINESTANDARDANSI
  2
AmdtCenterLineStdANSI
  3
"Amdt_StdImp|Product Description: AutoCAD Mechanical 2000|Company: Autodesk"
 90
        0
280
     0
281
     0
  0
CLASS
  1
ACMTHREADLINESTANDARDANSI
  2
AmdtThreadLineStdANSI
  3
"Amdt_StdImp|Product Description: AutoCAD Mechanical 2000|Company: Autodesk"
 90
        0
280
     0
281
     0
  0
CLASS
  1
ACMNOTESTANDARDANSI
  2
AmdtNoteStdANSI
  3
"Amdt_StdImp|Product Description: AutoCAD Mechanical 2000|Company: Autodesk"
 90
        0
280
     0
281
     0
  0
CLASS
  1
ACAMGLAYSTD
  2
AcAmgLayStd
  3
"AcAmgLayStd|Product Description: AutoCAD Mechanical 2000|Company: Autodesk"
 90
        0
280
     0
281
     0
  0
CLASS
  1
ACAMGDIMSTD
  2
AcAmgDimStd
  3
"AcAmgDimStd|Product Description: AutoCAD Mechanical 2000|Company: Autodesk"
 90
        0
280
     0
281
     0
  0
CLASS
  1
ACAMGFILTERDAT
  2
AcAmgFilterDat
  3
"AcadM|Product Description: AutoCAD Mechanical 2000|Company: Autodesk"
 90
        0
280
     0
281
     0
  0
CLASS
  1
ACAMGHOLECHARTSTDANSI
  2
AcAmgHoleChartStdANSI
  3
ACMSYMBB_MODULE_NAME
 90
        0
280
     0
281
     0
  0
ENDSEC
  0
SECTION
  2
TABLES
  0
TABLE
  2
VPORT
  5
1A
330
0
100
AcDbSymbolTable
 70
     1
  0
VPORT
  5
1B
330
1A
100
AcDbSymbolTableRecord
100
AcDbViewportTableRecord
  2
*Active
 70
     0
 10
0.0
 20
0.0
 11
1.0
 21
1.0
 12
0.0
 22
0.0
 13
0.0
 23
0.0
 14
1.0
 24
1.0
 15
0.0
 25
0.0
 16
0.0
 26
0.0
 36
1.0
 17
0.0
 27
0.0
 37
0.0
 40
2.000000000000000E+20
 41
1.0
 42
50.0
 43
0.0
 44
0.0
 50
0.0
 51
0.0
 71
     0
 72
   100
 73
     1
 74
     1
 75
     0
 76
     0
 77
     0
 78
     0
281
     0
 65
     0
110
0.0
120
0.0
130
0.0
111
1.0
121
0.0
131
0.0
112
0.0
122
1.0
132
0.0
 79
     0
146
0.0
  0
ENDTAB
  0
TABLE
  2
LTYPE
  5
15
330
0
100
AcDbSymbolTable
 70
    19
  0
LTYPE
  5
16
330
15
100
AcDbSymbolTableRecord
100
AcDbLinetypeTableRecord
  2
ByBlock
 70
     0
  3

 72
    65
 73
     0
 40
0.0
  0
LTYPE
  5
17
330
15
100
AcDbSymbolTableRecord
100
AcDbLinetypeTableRecord
  2
ByLayer
 70
     0
  3

 72
    65
 73
     0
 40
0.0
  0
LTYPE
  5
9
330
15
100
AcDbSymbolTableRecord
100
AcDbLinetypeTableRecord
  2
CONTINUOUS
 70
     0
  3
Solid line
 72
    65
 73
     0
 40
0.0
  0
LTYPE
  5
1AE
330
15
100
AcDbSymbolTableRecord
100
AcDbLinetypeTableRecord
  2
HIDDEN
 70
     0
  3
_ _ _ _ _ _ _ _ _ _ _ _ _ _ _ _ _ _ _ _ _ _ _
 72
    65
 73
     2
 40
0.375
 49
0.25
 74
     0
 49
-0.125
 74
     0
  0
LTYPE
  5
51
330
15
100
AcDbSymbolTableRecord
100
AcDbLinetypeTableRecord
  2
PHANTOM
 70
     0
  3
Phantom ______  __  __  ______  __  __  ______
 72
    65
 73
     6
 40
2.5
 49
1.25
 74
     0
 49
-0.25
 74
     0
 49
0.25
 74
     0
 49
-0.25
 74
     0
 49
0.25
 74
     0
 49
-0.25
 74
     0
  0
LTYPE
  5
399
330
15
100
AcDbSymbolTableRecord
100
AcDbLinetypeTableRecord
  2
PHANTOM2
 70
     0
  3
Phantom (.5x) ___ _ _ ___ _ _ ___ _ _ ___ _ _
 72
    65
 73
     6
 40
1.25
 49
0.625
 74
     0
 49
-0.125
 74
     0
 49
0.125
 74
     0
 49
-0.125
 74
     0
 49
0.125
 74
     0
 49
-0.125
 74
     0
  0
LTYPE
  5
39A
330
15
100
AcDbSymbolTableRecord
100
AcDbLinetypeTableRecord
  2
CENTER
 70
     0
  3
Center ____ _ ____ _ ____ _ ____ _ ____ _ ____
 72
    65
 73
     4
 40
2.0
 49
1.25
 74
     0
 49
-0.25
 74
     0
 49
0.25
 74
     0
 49
-0.25
 74
     0
  0
LTYPE
  5
3FC
330
15
100
AcDbSymbolTableRecord
100
AcDbLinetypeTableRecord
  2
ASULTYPE
 70
     0
  3
Solid line
 72
    65
 73
     2
 40
3.0
 49
2.5
 74
     0
 49
0.5
 74
     0
  0
LTYPE
  5
3FD
330
15
100
AcDbSymbolTableRecord
100
AcDbLinetypeTableRecord
  2
ASVLTYPE
 70
     0
  3
__ __ __ __ __ __ __ __ __ __ __ __ __ __ __ __ __ __ __ __ __
 72
    65
 73
     2
 40
0.75
 49
0.5
 74
     0
 49
-0.25
 74
     0
  0
LTYPE
  5
441
330
15
100
AcDbSymbolTableRecord
100
AcDbLinetypeTableRecord
  2
AM_ISO02W050
 70
     0
  3
__ __ __ __ __ __ __ __ __ __ __ __ __ __ __
 72
    65
 73
     2
 40
7.5
 49
6.0
 74
     0
 49
-1.5
 74
     0
  0
LTYPE
  5
442
330
15
100
AcDbSymbolTableRecord
100
AcDbLinetypeTableRecord
  2
AM_ISO08W050
 70
     0
  3
____ . ____ . ____ . ____ . ____ . ____ . ____
 72
    65
 73
     4
 40
18.0
 49
12.0
 74
     0
 49
-1.5
 74
     0
 49
3.0
 74
     0
 49
-1.5
 74
     0
  0
LTYPE
  5
443
330
15
100
AcDbSymbolTableRecord
100
AcDbLinetypeTableRecord
  2
AM_ISO09W050
 70
     0
  3
_____ . . _____ . . _____ . . ____ .. ____
 72
    65
 73
     6
 40
22.5
 49
12.0
 74
     0
 49
-1.5
 74
     0
 49
3.0
 74
     0
 49
-1.5
 74
     0
 49
3.0
 74
     0
 49
-1.5
 74
     0
  0
LTYPE
  5
444
330
15
100
AcDbSymbolTableRecord
100
AcDbLinetypeTableRecord
  2
Amconstr
 70
     0
  3
_______________________
 72
    65
 73
     2
 40
9999.0
 49
9999.0
 74
     0
 49
0.0
 74
     0
  0
LTYPE
  5
445
330
15
100
AcDbSymbolTableRecord
100
AcDbLinetypeTableRecord
  2
AM_ISO08W050x2
 70
     0
  3
__ . __ . __ . __ . __ . __
 72
    65
 73
     4
 40
9.0
 49
6.0
 74
     0
 49
-0.75
 74
     0
 49
1.5
 74
     0
 49
-0.75
 74
     0
  0
LTYPE
  5
446
330
15
100
AcDbSymbolTableRecord
100
AcDbLinetypeTableRecord
  2
AM_ISO02W050x2
 70
     0
  3
 _ _ _ _ _ _ _ _ _ _ _ _
 72
    65
 73
     2
 40
3.75
 49
3.0
 74
     0
 49
-0.75
 74
     0
  0
LTYPE
  5
449
330
15
100
AcDbSymbolTableRecord
100
AcDbLinetypeTableRecord
  2
Amzigzag
 70
     0
  3
/\/-/\/-/\/-/\/-/\/-/\/
 72
    65
 73
     2
 40
11.00009999999999
 49
0.0001
 74
     4
 75
   135
340
448
 46
0.04
 50
0.0
 44
0.0
 45
0.0
 49
-11.0
 74
     0
  0
LTYPE
  5
44A
330
15
100
AcDbSymbolTableRecord
100
AcDbLinetypeTableRecord
  2
CENTER2
 70
     0
  3
Center (.5x) ___ _ ___ _ ___ _ ___ _ ___ _ ___
 72
    65
 73
     4
 40
1.125
 49
0.75
 74
     0
 49
-0.125
 74
     0
 49
0.125
 74
     0
 49
-0.125
 74
     0
  0
LTYPE
  5
44B
330
15
100
AcDbSymbolTableRecord
100
AcDbLinetypeTableRecord
  2
HIDDEN2
 70
     0
  3
Hidden (.5x) _ _ _ _ _ _ _ _ _ _ _ _ _ _ _ _ _
 72
    65
 73
     2
 40
0.1875
 49
0.125
 74
     0
 49
-0.0625
 74
     0
  0
LTYPE
  5
44C
330
15
100
AcDbSymbolTableRecord
100
AcDbLinetypeTableRecord
  2
Amzigzag2
 70
     0
  3
/\/-/\/-/\/-/\/-/\/-/\/
 72
    65
 73
     2
 40
0.4401
 49
0.0001
 74
     4
 75
   135
340
448
 46
0.0016
 50
0.0
 44
0.0
 45
0.0
 49
-0.4400000000000001
 74
     0
  0
LTYPE
  5
45A
330
15
100
AcDbSymbolTableRecord
100
AcDbLinetypeTableRecord
  2
ACANSTGB
 70
     0
  3
__ . . __ . .
 72
    65
 73
     6
 40
0.35433070866
 49
0.15748031496
 74
     0
 49
-0.03937007874
 74
     0
 49
0.03937007874
 74
     0
 49
-0.03937007874
 74
     0
 49
0.03937007874
 74
     0
 49
-0.03937007874
 74
     0
  0
LTYPE
  5
45B
330
15
100
AcDbSymbolTableRecord
100
AcDbLinetypeTableRecord
  2
ACANSTGL
 70
     0
  3
_ _ _ _ _
 72
    65
 73
     2
 40
0.11811023622
 49
0.07874015748
 74
     0
 49
-0.03937007874
 74
     0
  0
ENDTAB
  0
TABLE
  2
LAYER
  5
11
330
0
100
AcDbSymbolTable
 70
     8
  0
LAYER
  5
5
330
11
100
AcDbSymbolTableRecord
100
AcDbLayerTableRecord
  2
0
 70
     0
 62
     7
  6
CONTINUOUS
370
    -3
390
6
  0
LAYER
  5
117
330
11
100
AcDbSymbolTableRecord
100
AcDbLayerTableRecord
  2
DEFPOINTS
 70
     0
 62
     7
  6
CONTINUOUS
290
     0
370
    -3
390
6
  0
LAYER
  5
155
330
11
100
AcDbSymbolTableRecord
100
AcDbLayerTableRecord
  2
AM_VIS
 70
     0
 62
     7
  6
CONTINUOUS
370
    30
390
6
  0
LAYER
  5
1AD
330
11
100
AcDbSymbolTableRecord
100
AcDbLayerTableRecord
  2
AM_HID
 70
     0
 62
    -7
  6
HIDDEN
370
    15
390
6
  0
LAYER
  5
53
330
11
100
AcDbSymbolTableRecord
100
AcDbLayerTableRecord
  2
CENTER
 70
     0
 62
     5
  6
CONTINUOUS
370
    -3
390
6
  0
LAYER
  5
50
330
11
100
AcDbSymbolTableRecord
100
AcDbLayerTableRecord
  2
PHANTOM
 70
     0
 62
     2
  6
PHANTOM
370
    -3
390
6
  0
LAYER
  5
58
330
11
100
AcDbSymbolTableRecord
100
AcDbLayerTableRecord
  2
10
 70
     0
 62
     7
  6
CONTINUOUS
370
    -3
390
6
  0
LAYER
  5
24
330
11
100
AcDbSymbolTableRecord
100
AcDbLayerTableRecord
  2
DIMENSION
 70
     0
 62
     1
  6
CONTINUOUS
370
    -3
390
6
  0
ENDTAB
  0
TABLE
  2
STYLE
  5
12
330
0
100
AcDbSymbolTable
 70
     4
  0
STYLE
  5
13
330
12
100
AcDbSymbolTableRecord
100
AcDbTextStyleTableRecord
  2
STANDARD
 70
     0
 40
0.0
 41
1.0
 50
0.0
 71
     0
 42
0.08
  3
simplex.shx
  4

  0
STYLE
  5
448
330
12
100
AcDbSymbolTableRecord
100
AcDbTextStyleTableRecord
  2

 70
     1
 40
0.0
 41
1.0
 50
0.0
 71
     0
 42
0.08
  3
ltypeshp.shx
  4

  0
STYLE
  5
44D
330
12
100
AcDbSymbolTableRecord
100
AcDbTextStyleTableRecord
  2
ACANSTS
 70
     0
 40
1.0
 41
1.0
 50
0.0
 71
     0
 42
0.08
  3
romans.shx
  4

  0
STYLE
  5
459
330
12
100
AcDbSymbolTableRecord
100
AcDbTextStyleTableRecord
  2
ACANSGDT
 70
     0
 40
0.0
 41
1.0
 50
0.0
 71
     0
 42
0.08
  3
amgdtans.shx
  4

  0
ENDTAB
  0
TABLE
  2
VIEW
  5
18
330
0
100
AcDbSymbolTable
 70
     0
  0
ENDTAB
  0
TABLE
  2
UCS
  5
19
330
0
100
AcDbSymbolTable
 70
     0
  0
ENDTAB
  0
TABLE
  2
APPID
  5
1C
330
0
100
AcDbSymbolTable
 70
    13
  0
APPID
  5
1D
330
1C
100
AcDbSymbolTableRecord
100
AcDbRegAppTableRecord
  2
ACAD
 70
     0
  0
APPID
  5
377
330
1C
100
AcDbSymbolTableRecord
100
AcDbRegAppTableRecord
  2
GENIUS_GENDIM_13
 70
     0
  0
APPID
  5
378
330
1C
100
AcDbSymbolTableRecord
100
AcDbRegAppTableRecord
  2
GENIUS_GENDTOL_13
 70
     0
  0
APPID
  5
379
330
1C
100
AcDbSymbolTableRecord
100
AcDbRegAppTableRecord
  2
GENIUS_GE3DTOL_13
 70
     0
  0
APPID
  5
37C
330
1C
100
AcDbSymbolTableRecord
100
AcDbRegAppTableRecord
  2
MCAD_NO_VIS
 70
     0
  0
APPID
  5
37D
330
1C
100
AcDbSymbolTableRecord
100
AcDbRegAppTableRecord
  2
ACAD_TEMP_GRAPHIC
 70
     0
  0
APPID
  5
3AF
330
1C
100
AcDbSymbolTableRecord
100
AcDbRegAppTableRecord
  2
AD_DRAW
 70
     0
  0
APPID
  5
3B2
330
1C
100
AcDbSymbolTableRecord
100
AcDbRegAppTableRecord
  2
ACATTRIBSERVICES
 70
     0
  0
APPID
  5
3FE
330
1C
100
AcDbSymbolTableRecord
100
AcDbRegAppTableRecord
  2
ASURF_PCURVE_APPNAME
 70
     0
  0
APPID
  5
403
330
1C
100
AcDbSymbolTableRecord
100
AcDbRegAppTableRecord
  2
AMG_3D2D_5.0
 70
     0
  0
APPID
  5
42E
330
1C
100
AcDbSymbolTableRecord
100
AcDbRegAppTableRecord
  2
DESIGNERASSEMBLIES
 70
     0
  0
APPID
  5
436
330
1C
100
AcDbSymbolTableRecord
100
AcDbRegAppTableRecord
  2
ACADM_DIM_EDIT
 70
     0
  0
APPID
  5
437
330
1C
100
AcDbSymbolTableRecord
100
AcDbRegAppTableRecord
  2
AMDT_DM_ADJ
 70
     0
  0
ENDTAB
  0
TABLE
  2
DIMSTYLE
  5
1E
330
0
100
AcDbSymbolTable
 70
     7
100
AcDbDimStyleTable
 71
     1
340
1F
  0
DIMSTYLE
105
1F
102
{ACAD_REACTORS
330
10D
330
11C
330
12A
102
}
330
1E
100
AcDbSymbolTableRecord
100
AcDbDimStyleTableRecord
  2
Standard
 70
     0
 41
0.125
 44
0.0625
140
0.125
271
     3
272
     3
277
     5
288
     1
340
13
  0
DIMSTYLE
105
45F
330
1E
100
AcDbSymbolTableRecord
100
AcDbDimStyleTableRecord
  2
AM_ANSI
 70
     0
  4
mm
 41
0.1
 42
0.05
 43
0.5
 44
0.1
 47
0.1
 48
0.1
 78
     7
 79
     2
140
0.12
141
0.0
146
0.71
147
0.06
176
   256
177
   256
178
     2
274
     4
284
     7
340
13
371
    -1
372
    -1
  0
DIMSTYLE
105
460
330
1E
100
AcDbSymbolTableRecord
100
AcDbDimStyleTableRecord
  2
AM_ANSI$3
 70
     0
  4
mm
 41
0.1
 42
0.05
 43
0.5
 44
0.1
 47
0.1
 48
0.1
 78
     7
 79
     2
140
0.12
141
0.0
146
0.71
147
0.06
176
   256
177
   256
178
     2
274
     4
284
     7
288
     1
289
     0
340
13
371
    -1
372
    -1
  0
DIMSTYLE
105
461
330
1E
100
AcDbSymbolTableRecord
100
AcDbDimStyleTableRecord
  2
AM_ANSI$4
 70
     0
  4
mm
 41
0.1
 42
0.05
 43
0.5
 44
0.1
 47
0.1
 48
0.1
 78
     7
 79
     2
140
0.12
141
0.0
146
0.71
147
0.06
176
   256
177
   256
178
     2
274
     4
284
     7
288
     1
289
     0
340
13
371
    -1
372
    -1
  0
DIMSTYLE
105
462
330
1E
100
AcDbSymbolTableRecord
100
AcDbDimStyleTableRecord
  2
AM_ANSI$7
 70
     0
  4
mm
 41
0.1
 42
0.05
 43
0.5
 44
0.1
 47
0.1
 48
0.1
 78
     7
 79
     2
140
0.24
141
0.0
146
0.71
147
0.06
176
   256
177
   256
178
     2
274
     4
284
     7
340
13
371
    -1
372
    -1
  0
DIMSTYLE
105
463
330
1E
100
AcDbSymbolTableRecord
100
AcDbDimStyleTableRecord
  2
AM_ANSI$SF
 70
     0
  4
mm
 41
0.1
 42
0.05
 43
0.5
 44
0.1
 47
0.1
 48
0.1
 75
     1
 76
     1
 78
     7
 79
     2
140
0.12
141
0.0
146
0.71
147
0.06
176
   256
177
   256
178
     2
274
     4
284
     7
340
13
371
    -1
372
    -1
  0
DIMSTYLE
105
468
330
1E
100
AcDbSymbolTableRecord
100
AcDbDimStyleTableRecord
  2
AM_ANSI$SH
 70
     0
  4
mm
 41
0.1
 42
0.05
 43
0.5
 44
0.1
 47
0.1
 48
0.1
 75
     1
 76
     1
 78
     7
 79
     2
140
0.12
141
0.0
146
0.71
147
0.06
173
     1
176
   256
177
   256
178
     2
274
     4
284
     7
340
13
343
464
371
    -1
372
    -1
  0
ENDTAB
  0
TABLE
  2
BLOCK_RECORD
  5
1
330
0
100
AcDbSymbolTable
 70
    16
  0
BLOCK_RECORD
  5
2
102
{ACAD_XDICTIONARY
360
3
102
}
330
1
100
AcDbSymbolTableRecord
100
AcDbBlockTableRecord
  2
*Model_Space
340
B
  0
BLOCK_RECORD
  5
D
330
1
100
AcDbSymbolTableRecord
100
AcDbBlockTableRecord
  2
*Paper_Space
340
10
  0
BLOCK_RECORD
  5
28
330
1
100
AcDbSymbolTableRecord
100
AcDbBlockTableRecord
  2
*U0
340
0
102
{BLKREFS
331
27
102
}
  0
BLOCK_RECORD
  5
2D
330
1
100
AcDbSymbolTableRecord
100
AcDbBlockTableRecord
  2
*U1
340
0
102
{BLKREFS
331
2C
102
}
  0
BLOCK_RECORD
  5
32
330
1
100
AcDbSymbolTableRecord
100
AcDbBlockTableRecord
  2
*U2
340
0
102
{BLKREFS
331
31
102
}
  0
BLOCK_RECORD
  5
37
330
1
100
AcDbSymbolTableRecord
100
AcDbBlockTableRecord
  2
*U3
340
0
102
{BLKREFS
331
36
102
}
  0
BLOCK_RECORD
  5
61
330
1
100
AcDbSymbolTableRecord
100
AcDbBlockTableRecord
  2
A$C708B5813
340
0
102
{BLKREFS
331
D1
331
60
102
}
  0
BLOCK_RECORD
  5
3C
330
1
100
AcDbSymbolTableRecord
100
AcDbBlockTableRecord
  2
*U5
340
0
102
{BLKREFS
331
3B
102
}
  0
BLOCK_RECORD
  5
41
330
1
100
AcDbSymbolTableRecord
100
AcDbBlockTableRecord
  2
*U6
340
0
102
{BLKREFS
331
40
102
}
  0
BLOCK_RECORD
  5
46
330
1
100
AcDbSymbolTableRecord
100
AcDbBlockTableRecord
  2
*U7
340
0
102
{BLKREFS
331
45
102
}
  0
BLOCK_RECORD
  5
4B
330
1
100
AcDbSymbolTableRecord
100
AcDbBlockTableRecord
  2
*U8
340
0
102
{BLKREFS
331
4A
102
}
  0
BLOCK_RECORD
  5
D0
330
1
100
AcDbSymbolTableRecord
100
AcDbBlockTableRecord
  2
A$C2BF30918
340
0
102
{BLKREFS
331
CF
102
}
  0
BLOCK_RECORD
  5
139
330
1
100
AcDbSymbolTableRecord
100
AcDbBlockTableRecord
  2
A$C05117BD1
340
0
102
{BLKREFS
331
138
102
}
  0
BLOCK_RECORD
  5
10E
330
1
100
AcDbSymbolTableRecord
100
AcDbBlockTableRecord
  2
*D11
340
0
  0
BLOCK_RECORD
  5
11D
330
1
100
AcDbSymbolTableRecord
100
AcDbBlockTableRecord
  2
*D12
340
0
  0
BLOCK_RECORD
  5
12B
330
1
100
AcDbSymbolTableRecord
100
AcDbBlockTableRecord
  2
*D13
340
0
  0
BLOCK_RECORD
  5
425
330
1
100
AcDbSymbolTableRecord
100
AcDbBlockTableRecord
  2
*U14
340
0
  0
BLOCK_RECORD
  5
464
330
1
100
AcDbSymbolTableRecord
100
AcDbBlockTableRecord
  2
GENAXEH
340
0
  0
ENDTAB
  0
ENDSEC
  0
SECTION
  2
BLOCKS
  0
BLOCK
  5
4
330
2
100
AcDbEntity
  8
0
100
AcDbBlockBegin
  2
*Model_Space
 70
     0
 10
0.0
 20
0.0
 30
0.0
  3
*Model_Space
  1

  0
ENDBLK
  5
A
330
2
100
AcDbEntity
  8
0
100
AcDbBlockEnd
  0
BLOCK
  5
E
330
D
100
AcDbEntity
 67
     1
  8
0
100
AcDbBlockBegin
  2
*Paper_Space
 70
     0
 10
0.0
 20
0.0
 30
0.0
  3
*Paper_Space
  1

  0
ENDBLK
  5
F
330
D
100
AcDbEntity
 67
     1
  8
0
100
AcDbBlockEnd
  0
BLOCK
  5
2A
330
28
100
AcDbEntity
  8
0
  6
ByBlock
 62
     2
100
AcDbBlockBegin
  2
*U0
 70
     1
 10
0.0
 20
0.0
 30
0.0
  3
*U0
  1

  0
TEXT
  5
29
330
28
100
AcDbEntity
  8
0
  6
ByBlock
 62
     2
100
AcDbText
 10
15.253
 20
1.7495
 30
0.0
 40
0.094
  1
 
 41
0.8842105263157964
 72
     5
 11
15.3282
 21
1.7495
 31
0.0
100
AcDbText
  0
ENDBLK
  5
2B
330
28
100
AcDbEntity
  8
0
100
AcDbBlockEnd
  0
BLOCK
  5
2F
330
2D
100
AcDbEntity
  8
0
  6
ByBlock
 62
     2
100
AcDbBlockBegin
  2
*U1
 70
     1
 10
0.0
 20
0.0
 30
0.0
  3
*U1
  1

  0
TEXT
  5
2E
330
2D
100
AcDbEntity
  8
0
  6
ByBlock
 62
     2
100
AcDbText
 10
15.253
 20
1.436999999999999
 30
0.0
 40
0.094
  1
 
 41
0.8842105263157964
 72
     5
 11
15.3282
 21
1.436999999999999
 31
0.0
100
AcDbText
  0
ENDBLK
  5
30
330
2D
100
AcDbEntity
  8
0
100
AcDbBlockEnd
  0
BLOCK
  5
34
330
32
100
AcDbEntity
  8
0
  6
ByBlock
 62
     2
100
AcDbBlockBegin
  2
*U2
 70
     1
 10
0.0
 20
0.0
 30
0.0
  3
*U2
  1

  0
TEXT
  5
33
330
32
100
AcDbEntity
  8
0
  6
ByBlock
 62
     2
100
AcDbText
 10
15.253
 20
1.1245
 30
0.0
 40
0.094
  1
 
 41
0.8842105263157964
 72
     5
 11
15.3282
 21
1.1245
 31
0.0
100
AcDbText
  0
ENDBLK
  5
35
330
32
100
AcDbEntity
  8
0
100
AcDbBlockEnd
  0
BLOCK
  5
39
330
37
100
AcDbEntity
  8
0
  6
ByBlock
 62
     2
100
AcDbBlockBegin
  2
*U3
 70
     1
 10
0.0
 20
0.0
 30
0.0
  3
*U3
  1

  0
TEXT
  5
38
330
37
100
AcDbEntity
  8
0
  6
ByBlock
 62
     2
100
AcDbText
 10
15.253
 20
0.812
 30
0.0
 40
0.094
  1
 
 41
0.8842105263157964
 72
     5
 11
15.3282
 21
0.812
 31
0.0
100
AcDbText
  0
ENDBLK
  5
3A
330
37
100
AcDbEntity
  8
0
100
AcDbBlockEnd
  0
BLOCK
  5
A2
330
61
100
AcDbEntity
  8
0
100
AcDbBlockBegin
  2
A$C708B5813
 70
     0
 10
0.0
 20
0.0
 30
0.0
  3
A$C708B5813
  1

  0
LINE
  5
62
330
61
100
AcDbEntity
  8
10
100
AcDbLine
 10
0.2399999692803618
 20
0.2640315084226485
 30
0.0
 11
0.2436013672279564
 21
0.2661107764971518
 31
0.0
  0
CIRCLE
  5
63
330
61
100
AcDbEntity
  8
10
100
AcDbCircle
 10
0.2399999692803618
 20
0.2640315084226485
 30
0.0
 40
0.0041585361490064
  0
ARC
  5
64
330
61
100
AcDbEntity
  8
10
100
AcDbCircle
 10
0.2399999692803512
 20
0.2871255191902322
 30
0.0
 40
0.01
100
AcDbArc
 50
239.9999999999999
 51
300.0000000000007
  0
ARC
  5
65
330
61
100
AcDbEntity
  8
10
100
AcDbCircle
 10
0.2399999692803618
 20
0.529612632249878
 30
0.0
 40
0.01
100
AcDbArc
 50
60.00000000000078
 51
119.9999999999996
  0
ARC
  5
66
330
61
100
AcDbEntity
  8
10
100
AcDbCircle
 10
0.2399999692511088
 20
0.3949160812035983
 30
0.0
 40
0.01
100
AcDbArc
 50
239.9999999674644
 51
300.0000000465846
  0
ARC
  5
67
330
61
100
AcDbEntity
  8
10
100
AcDbCircle
 10
0.2393667475655192
 20
0.4214564796978131
 30
0.0
 40
0.01
100
AcDbArc
 50
60.0
 51
119.9999999818938
  0
LINE
  5
68
330
61
100
AcDbEntity
  8
10
100
AcDbLine
 10
0.0249999692803549
 20
0.3997088216822098
 30
0.0
 11
0.2349999692803522
 21
0.2784652651523878
 31
0.0
  0
LINE
  5
69
330
61
100
AcDbEntity
  8
10
100
AcDbLine
 10
-0.0000000307196402
 20
0.3737280595686747
 30
0.0
 11
-0.0000000307196366
 21
0.1312409465090325
 31
0.0
  0
LINE
  5
6A
330
61
100
AcDbEntity
  8
10
100
AcDbLine
 10
0.0149999692803604
 20
0.3823883136065191
 30
0.0
 11
0.2249999692803613
 21
0.2611447570767011
 31
0.0
  0
LINE
  5
6B
330
61
100
AcDbEntity
  8
10
100
AcDbLine
 10
0.2399999692803618
 20
0.2640315084226485
 30
0.0
 11
0.2399999692803618
 21
0.2598729722736421
 31
0.0
  0
LINE
  5
6C
330
61
100
AcDbEntity
  8
10
100
AcDbLine
 10
0.2363985713327672
 20
0.2661107764971531
 30
0.0
 11
0.2399999692803618
 21
0.2640315084226485
 31
0.0
  0
LINE
  5
6D
330
61
100
AcDbEntity
  8
10
100
AcDbLine
 10
0.2299999692803709
 20
0.1139204384333419
 30
0.0
 11
0.1356921705519909
 21
0.168369071415853
 31
0.0
  0
LINE
  5
6E
330
61
100
AcDbEntity
  8
10
100
AcDbLine
 10
0.2299999692803674
 20
0.1370144492009269
 30
0.0
 11
0.1366506043749744
 21
0.1909097301577374
 31
0.0
  0
LINE
  5
6F
330
61
100
AcDbEntity
  8
10
100
AcDbLine
 10
0.2299999692803709
 20
0.113920438433345
 30
0.0
 11
0.2299999692803674
 21
0.0099973899792092
 31
0.0
  0
LINE
  5
70
330
61
100
AcDbEntity
  8
10
100
AcDbLine
 10
0.2299999692803638
 20
0.2524845030388567
 30
0.0
 11
0.2299999692803674
 21
0.1370144492009304
 31
0.0
  0
ARC
  5
71
330
61
100
AcDbEntity
  8
10
100
AcDbCircle
 10
0.1266506043749622
 20
0.1726410827766105
 30
0.0
 40
0.01
100
AcDbArc
 50
239.9999999999995
 51
334.709932108123
  0
LINE
  5
72
330
61
100
AcDbEntity
  8
10
100
AcDbLine
 10
0.1366506043749744
 20
0.1909097301577414
 30
0.0
 11
0.1366506043749673
 21
0.1985892220820524
 31
0.0
  0
LINE
  5
73
330
61
100
AcDbEntity
  8
10
100
AcDbLine
 10
0.1216506043749632
 20
0.1639808287387661
 30
0.0
 11
0.0983493341857553
 21
0.177433823354967
 31
0.0
  0
ARC
  5
74
330
61
100
AcDbEntity
  8
10
100
AcDbCircle
 10
0.1266506043749658
 20
0.1985892220820524
 30
0.0
 40
0.01
100
AcDbArc
 50
0.0
 51
59.99999999999917
  0
LINE
  5
75
330
61
100
AcDbEntity
  8
10
100
AcDbLine
 10
0.1316506043749648
 20
0.2072494761198969
 30
0.0
 11
0.1083493341857533
 21
0.2207024707360996
 31
0.0
  0
ARC
  5
76
330
61
100
AcDbEntity
  8
10
100
AcDbCircle
 10
0.1033493341857543
 20
0.1860940773928115
 30
0.0
 40
0.01
100
AcDbArc
 50
180.0
 51
239.9999999999999
  0
LINE
  5
77
330
61
100
AcDbEntity
  8
10
100
AcDbLine
 10
0.0933493341857528
 20
0.1860940773928115
 30
0.0
 11
0.0933493341857528
 21
0.2120422166982552
 31
0.0
  0
ARC
  5
78
330
61
100
AcDbEntity
  8
10
100
AcDbCircle
 10
0.1033493341857543
 20
0.2120422166982552
 30
0.0
 40
0.01
100
AcDbArc
 50
60.0
 51
180.0
  0
ARC
  5
79
330
61
100
AcDbEntity
  8
10
100
AcDbCircle
 10
0.009999969280365
 20
0.1312409465090325
 30
0.0
 40
0.01
100
AcDbArc
 50
180.0000000000006
 51
240.0000000000003
  0
LINE
  5
7A
330
61
100
AcDbEntity
  8
10
100
AcDbLine
 10
0.0049999692803659
 20
0.1225806924711881
 30
0.0
 11
0.2149999692803668
 21
0.0013371359413648
 31
0.0
  0
ARC
  5
7B
330
61
100
AcDbEntity
  8
10
100
AcDbCircle
 10
0.2199999692803658
 20
0.0099973899792092
 30
0.0
 40
0.01
100
AcDbArc
 50
239.9999999999999
 51
0.0
  0
ARC
  5
7C
330
61
100
AcDbEntity
  8
10
100
AcDbCircle
 10
0.2199999692803622
 20
0.2524845030388567
 30
0.0
 40
0.01
100
AcDbArc
 50
0.0000000000007124
 51
60.00000000000078
  0
LINE
  5
7D
330
61
100
AcDbEntity
  8
10
100
AcDbLine
 10
0.0249999692803549
 20
0.4170293297578988
 30
0.0
 11
0.2349999692803628
 21
0.5382728862877224
 31
0.0
  0
ARC
  5
7E
330
61
100
AcDbEntity
  8
10
100
AcDbCircle
 10
0.0299999692803539
 20
0.4083690757200542
 30
0.0
 40
0.01
100
AcDbArc
 50
119.9999999999997
 51
240.0000000000002
  0
LINE
  5
7F
330
61
100
AcDbEntity
  8
10
100
AcDbLine
 10
0.2349999692461928
 20
0.3862558271685934
 30
0.0
 11
0.2116986990911549
 21
0.3997088217818918
 31
0.0
  0
LINE
  5
80
330
61
100
AcDbEntity
  8
10
100
AcDbLine
 10
0.2116986990911549
 20
0.4170293298575807
 30
0.0
 11
0.2343667475682558
 21
0.4301167337372376
 31
0.0
  0
ARC
  5
81
330
61
100
AcDbEntity
  8
10
100
AcDbCircle
 10
0.2166986990911539
 20
0.4083690758197364
 30
0.0
 40
0.01
100
AcDbArc
 50
119.9999999999999
 51
239.9999999999999
  0
ARC
  5
82
330
61
100
AcDbEntity
  8
10
100
AcDbCircle
 10
0.0099999692803614
 20
0.3737280595686747
 30
0.0
 40
0.01
100
AcDbArc
 50
60.00000000000071
 51
180.0
  0
LINE
  5
83
330
61
100
AcDbEntity
  8
10
100
AcDbLine
 10
0.2449999692803502
 20
0.2784652651523878
 30
0.0
 11
0.4549999692803617
 21
0.399708821682216
 31
0.0
  0
LINE
  5
84
330
61
100
AcDbEntity
  8
10
100
AcDbLine
 10
0.2599999692803685
 20
0.2640315084226534
 30
0.0
 11
0.4499999692803557
 21
0.3737280595686805
 31
0.0
  0
ARC
  5
85
330
61
100
AcDbEntity
  8
10
100
AcDbCircle
 10
0.4599999692803573
 20
0.3564075514929916
 30
0.0
 40
0.02
100
AcDbArc
 50
0.0000000000006997
 51
119.9999999999999
  0
LINE
  5
86
330
61
100
AcDbEntity
  8
10
100
AcDbLine
 10
0.3853226110081884
 20
0.1920490020623578
 30
0.0
 11
0.4799999692803604
 21
0.2467110003469632
 31
0.0
  0
LINE
  5
87
330
61
100
AcDbEntity
  8
10
100
AcDbLine
 10
0.3860173827363553
 20
0.2155441394742277
 30
0.0
 11
0.4799999692803567
 21
0.269805011114542
 31
0.0
  0
ARC
  5
88
330
61
100
AcDbEntity
  8
10
100
AcDbCircle
 10
0.3766506043749799
 20
0.2120422166982596
 30
0.0
 40
0.01
100
AcDbArc
 50
20.49907611913283
 51
120.000000000006
  0
LINE
  5
89
330
61
100
AcDbEntity
  8
10
100
AcDbLine
 10
0.3853226110081849
 20
0.192049002062356
 30
0.0
 11
0.3853226110081813
 21
0.1857245431213443
 31
0.0
  0
LINE
  5
8A
330
61
100
AcDbEntity
  8
10
100
AcDbLine
 10
0.4799999692803604
 20
0.2467110003469597
 30
0.0
 11
0.4799999692803639
 21
0.1370144492009322
 31
0.0
  0
LINE
  5
8B
330
61
100
AcDbEntity
  8
10
100
AcDbLine
 10
0.4799999692803567
 20
0.3564075514929921
 30
0.0
 11
0.4799999692803567
 21
0.2698050111145451
 31
0.0
  0
ARC
  5
8C
330
61
100
AcDbEntity
  8
10
100
AcDbCircle
 10
0.3533493341857579
 20
0.1722355030579732
 30
0.0
 40
0.01
100
AcDbArc
 50
180.0
 51
301.5450923819967
  0
LINE
  5
8D
330
61
100
AcDbEntity
  8
10
100
AcDbLine
 10
0.3805543054044094
 20
0.1772022562366846
 30
0.0
 11
0.358581028581991
 21
0.1637132161733139
 31
0.0
  0
LINE
  5
8E
330
61
100
AcDbEntity
  8
10
100
AcDbLine
 10
0.3433493341857599
 20
0.1793627247739491
 30
0.0
 11
0.3433493341857563
 21
0.1722355030579732
 31
0.0
  0
ARC
  5
8F
330
61
100
AcDbEntity
  8
10
100
AcDbCircle
 10
0.3753226110081798
 20
0.1857245431213443
 30
0.0
 40
0.01
100
AcDbArc
 50
301.5450923819923
 51
0.0
  0
LINE
  5
90
330
61
100
AcDbEntity
  8
10
100
AcDbLine
 10
0.3483493341857553
 20
0.2072494761198902
 30
0.0
 11
0.3716506043749774
 21
0.2207024707361036
 31
0.0
  0
ARC
  5
91
330
61
100
AcDbEntity
  8
10
100
AcDbCircle
 10
0.3533493341857579
 20
0.1985892220820467
 30
0.0
 40
0.01
100
AcDbArc
 50
120.000000000009
 51
180.0
  0
LINE
  5
92
330
61
100
AcDbEntity
  8
10
100
AcDbLine
 10
0.3433493341857599
 20
0.1793627247739509
 30
0.0
 11
0.3433493341857563
 21
0.1985892220820467
 31
0.0
  0
ARC
  5
93
330
61
100
AcDbEntity
  8
10
100
AcDbCircle
 10
0.2699999692803701
 20
0.2467110003469646
 30
0.0
 40
0.02
100
AcDbArc
 50
120.0000000000001
 51
180.0000000000026
  0
LINE
  5
94
330
61
100
AcDbEntity
  8
10
100
AcDbLine
 10
0.2499999692803705
 20
0.2467110003469637
 30
0.0
 11
0.2499999692803705
 21
0.0273178980548985
 31
0.0
  0
ARC
  5
95
330
61
100
AcDbEntity
  8
10
100
AcDbCircle
 10
0.2699999692803701
 20
0.0273178980548989
 30
0.0
 40
0.02
100
AcDbArc
 50
180.0000000000014
 51
300.0000000000003
  0
LINE
  5
96
330
61
100
AcDbEntity
  8
10
100
AcDbLine
 10
0.2799999692803716
 20
0.0099973899792101
 30
0.0
 11
0.4699999692803658
 21
0.1196939411252429
 31
0.0
  0
ARC
  5
97
330
61
100
AcDbEntity
  8
10
100
AcDbCircle
 10
0.4599999692803644
 20
0.1370144492009317
 30
0.0
 40
0.02
100
AcDbArc
 50
300.0000000000003
 51
0.0000000000017175
  0
ARC
  5
98
330
61
100
AcDbEntity
  8
10
100
AcDbCircle
 10
0.2699999692803594
 20
0.2467110003469637
 30
0.0
 40
0.02
100
AcDbArc
 50
120.0000000000008
 51
180.0000000000006
  0
ARC
  5
99
330
61
100
AcDbEntity
  8
10
100
AcDbCircle
 10
0.4499999692803627
 20
0.4083690757200606
 30
0.0
 40
0.01
100
AcDbArc
 50
300.0000000000008
 51
60.00000000000074
  0
LINE
  5
9A
330
61
100
AcDbEntity
  8
10
100
AcDbLine
 10
0.3599999691803148
 20
0.4718776053886781
 30
0.0
 11
0.4549999692803617
 21
0.417029329757905
 31
0.0
  0
LINE
  5
9B
330
61
100
AcDbEntity
  8
10
100
AcDbLine
 10
0.2449999692803608
 20
0.5382728862877224
 30
0.0
 11
0.3399999691803188
 21
0.4834246107724695
 31
0.0
  0
LINE
  5
9C
330
61
100
AcDbEntity
  8
10
100
AcDbLine
 10
0.2660173827513717
 20
0.4176167338147875
 30
0.0
 11
0.3599999691803148
 21
0.4718776053886781
 31
0.0
  0
LINE
  5
9D
330
61
100
AcDbEntity
  8
10
100
AcDbLine
 10
0.2460173826459275
 20
0.429163739137699
 30
0.0
 11
0.3399999691803188
 21
0.4834246107724695
 31
0.0
  0
LINE
  5
9E
330
61
100
AcDbEntity
  8
10
100
AcDbLine
 10
0.2460173826459311
 20
0.4291637391376977
 30
0.0
 11
0.2443667475655182
 21
0.4301167337356575
 31
0.0
  0
LINE
  5
9F
330
61
100
AcDbEntity
  8
10
100
AcDbLine
 10
0.267668017831781
 20
0.4166637392168293
 30
0.0
 11
0.2660173827513788
 21
0.417616733814787
 31
0.0
  0
LINE
  5
A0
330
61
100
AcDbEntity
  8
10
100
AcDbLine
 10
0.2449999692581493
 20
0.3862558271698191
 30
0.0
 11
0.2676680178317312
 21
0.3993432311411684
 31
0.0
  0
ARC
  5
A1
330
61
100
AcDbEntity
  8
10
100
AcDbCircle
 10
0.2626680178317322
 20
0.408003485179013
 30
0.0
 40
0.01
100
AcDbArc
 50
299.9999999999999
 51
59.99999999968121
  0
ENDBLK
  5
A3
330
61
100
AcDbEntity
  8
0
100
AcDbBlockEnd
  0
BLOCK
  5
3E
330
3C
100
AcDbEntity
  8
0
  6
ByBlock
 62
     2
100
AcDbBlockBegin
  2
*U5
 70
     1
 10
0.0
 20
0.0
 30
0.0
  3
*U5
  1

  0
TEXT
  5
3D
330
3C
100
AcDbEntity
  8
0
  6
ByBlock
 62
     2
100
AcDbText
 10
15.253
 20
1.7495
 30
0.0
 40
0.094
  1
 
 41
0.8842105263157964
 72
     5
 11
15.3282
 21
1.7495
 31
0.0
100
AcDbText
  0
ENDBLK
  5
3F
330
3C
100
AcDbEntity
  8
0
100
AcDbBlockEnd
  0
BLOCK
  5
43
330
41
100
AcDbEntity
  8
0
  6
ByBlock
 62
     2
100
AcDbBlockBegin
  2
*U6
 70
     1
 10
0.0
 20
0.0
 30
0.0
  3
*U6
  1

  0
TEXT
  5
42
330
41
100
AcDbEntity
  8
0
  6
ByBlock
 62
     2
100
AcDbText
 10
15.253
 20
1.436999999999999
 30
0.0
 40
0.094
  1
 
 41
0.8842105263157964
 72
     5
 11
15.3282
 21
1.436999999999999
 31
0.0
100
AcDbText
  0
ENDBLK
  5
44
330
41
100
AcDbEntity
  8
0
100
AcDbBlockEnd
  0
BLOCK
  5
48
330
46
100
AcDbEntity
  8
0
  6
ByBlock
 62
     2
100
AcDbBlockBegin
  2
*U7
 70
     1
 10
0.0
 20
0.0
 30
0.0
  3
*U7
  1

  0
TEXT
  5
47
330
46
100
AcDbEntity
  8
0
  6
ByBlock
 62
     2
100
AcDbText
 10
15.253
 20
1.1245
 30
0.0
 40
0.094
  1
 
 41
0.8842105263157964
 72
     5
 11
15.3282
 21
1.1245
 31
0.0
100
AcDbText
  0
ENDBLK
  5
49
330
46
100
AcDbEntity
  8
0
100
AcDbBlockEnd
  0
BLOCK
  5
4D
330
4B
100
AcDbEntity
  8
0
  6
ByBlock
 62
     2
100
AcDbBlockBegin
  2
*U8
 70
     1
 10
0.0
 20
0.0
 30
0.0
  3
*U8
  1

  0
TEXT
  5
4C
330
4B
100
AcDbEntity
  8
0
  6
ByBlock
 62
     2
100
AcDbText
 10
15.253
 20
0.812
 30
0.0
 40
0.094
  1
 
 41
0.8842105263157966
 72
     5
 11
15.3282
 21
0.812
 31
0.0
100
AcDbText
  0
ENDBLK
  5
4E
330
4B
100
AcDbEntity
  8
0
100
AcDbBlockEnd
  0
BLOCK
  5
D2
330
D0
100
AcDbEntity
  8
0
100
AcDbBlockBegin
  2
A$C2BF30918
 70
     0
 10
0.0
 20
0.0
 30
0.0
  3
A$C2BF30918
  1

  0
INSERT
  5
D1
330
D0
100
AcDbEntity
  8
10
100
AcDbBlockReference
  2
A$C708B5813
 10
0.0000000098500248
 20
-0.0001119937962062
 30
0.0
 41
0.75
 42
0.75
 43
0.75
  0
ENDBLK
  5
D3
330
D0
100
AcDbEntity
  8
0
100
AcDbBlockEnd
  0
BLOCK
  5
14E
330
139
100
AcDbEntity
  8
0
100
AcDbBlockBegin
  2
A$C05117BD1
 70
     0
 10
0.0
 20
0.0
 30
0.0
  3
A$C05117BD1
  1

  0
LINE
  5
13A
330
139
100
AcDbEntity
  8
DIMENSION
100
AcDbLine
 10
1.147710002852221
 20
0.0393699849492122
 30
0.0
 11
0.2301900028522241
 21
0.0393699849492117
 31
0.0
  0
LINE
  5
13B
330
139
100
AcDbEntity
  8
DIMENSION
100
AcDbLine
 10
1.147710002852221
 20
-0.0000000150507877
 30
0.0
 11
0.2301900028522241
 21
-0.0000000150507877
 31
0.0
  0
ARC
  5
13C
330
139
100
AcDbEntity
  8
DIMENSION
100
AcDbCircle
 10
0.2301900028522241
 20
0.0787399849492121
 30
0.0
 40
0.0393699999999999
100
AcDbArc
 50
180.0
 51
270.0
  0
ARC
  5
13D
330
139
100
AcDbEntity
  8
DIMENSION
100
AcDbCircle
 10
0.2301900028522241
 20
0.0787399849492121
 30
0.0
 40
0.0787399999999986
100
AcDbArc
 50
180.0
 51
270.0
  0
LINE
  5
13E
330
139
100
AcDbEntity
  8
DIMENSION
100
AcDbLine
 10
0.1908200028522233
 20
0.2559299849492116
 30
0.0
 11
0.1908200028522233
 21
0.0787399849492121
 31
0.0
  0
LINE
  5
13F
330
139
100
AcDbEntity
  8
DIMENSION
100
AcDbLine
 10
0.1514500028522234
 20
0.2559299849492116
 30
0.0
 11
0.151450002852223
 21
0.0787399849492121
 31
0.0
  0
ARC
  5
140
330
139
100
AcDbEntity
  8
DIMENSION
100
AcDbCircle
 10
0.1120800028522235
 20
0.2559299849492116
 30
0.0
 40
0.0393699999999999
100
AcDbArc
 50
0.0
 51
89.99999999999998
  0
ARC
  5
141
330
139
100
AcDbEntity
  8
DIMENSION
100
AcDbCircle
 10
0.1120800028522235
 20
0.2559299849492116
 30
0.0
 40
0.0787399999999998
100
AcDbArc
 50
0.0
 51
89.99999999999998
  0
LINE
  5
142
330
139
100
AcDbEntity
  8
DIMENSION
100
AcDbLine
 10
0.0000000028522247
 20
0.2952999849492133
 30
0.0
 11
0.1120800028522235
 21
0.2952999849492133
 31
0.0
  0
LINE
  5
143
330
139
100
AcDbEntity
  8
DIMENSION
100
AcDbLine
 10
0.0000000028522247
 20
0.3346699849492132
 30
0.0
 11
0.1120800028522235
 21
0.3346699849492132
 31
0.0
  0
LINE
  5
144
330
139
100
AcDbEntity
  8
DIMENSION
100
AcDbLine
 10
0.0000000028522247
 20
0.3346699849492132
 30
0.0
 11
0.0000000028522247
 21
0.2952999849492133
 31
0.0
  0
LINE
  5
145
330
139
100
AcDbEntity
  8
DIMENSION
100
AcDbLine
 10
1.226450002852221
 20
0.0787399849492121
 30
0.0
 11
1.226450002852227
 21
0.2559299849492129
 31
0.0
  0
LINE
  5
146
330
139
100
AcDbEntity
  8
DIMENSION
100
AcDbLine
 10
1.187080002852221
 20
0.0787399849492121
 30
0.0
 11
1.187080002852221
 21
0.2559299849492116
 31
0.0
  0
ARC
  5
147
330
139
100
AcDbEntity
  8
DIMENSION
100
AcDbCircle
 10
1.147710002852221
 20
0.0787399849492121
 30
0.0
 40
0.0787399999999986
100
AcDbArc
 50
270.0
 51
359.9999999999983
  0
ARC
  5
148
330
139
100
AcDbEntity
  8
DIMENSION
100
AcDbCircle
 10
1.147710002852221
 20
0.0787399849492121
 30
0.0
 40
0.0393699999999999
100
AcDbArc
 50
270.0
 51
0.0
  0
ARC
  5
149
330
139
100
AcDbEntity
  8
DIMENSION
100
AcDbCircle
 10
1.265820002852221
 20
0.2559299849492116
 30
0.0
 40
0.0393699999999999
100
AcDbArc
 50
89.99999999999998
 51
179.9999999999986
  0
ARC
  5
14A
330
139
100
AcDbEntity
  8
DIMENSION
100
AcDbCircle
 10
1.265820002852221
 20
0.2559299849492116
 30
0.0
 40
0.0787399999999986
100
AcDbArc
 50
89.99999999999998
 51
180.0
  0
LINE
  5
14B
330
139
100
AcDbEntity
  8
DIMENSION
100
AcDbLine
 10
1.377900002852225
 20
0.3346699849492114
 30
0.0
 11
1.377900002852224
 21
0.2952999849492133
 31
0.0
  0
LINE
  5
14C
330
139
100
AcDbEntity
  8
DIMENSION
100
AcDbLine
 10
1.377900002852225
 20
0.2952999849492133
 30
0.0
 11
1.265820002852221
 21
0.2952999849492137
 31
0.0
  0
LINE
  5
14D
330
139
100
AcDbEntity
  8
DIMENSION
100
AcDbLine
 10
1.377900002852224
 20
0.3346699849492114
 30
0.0
 11
1.265820002852222
 21
0.3346699849492118
 31
0.0
  0
ENDBLK
  5
14F
330
139
100
AcDbEntity
  8
0
100
AcDbBlockEnd
  0
BLOCK
  5
11A
330
10E
100
AcDbEntity
  8
0
100
AcDbBlockBegin
  2
*D11
 70
     1
 10
0.0
 20
0.0
 30
0.0
  3
*D11
  1

  0
LINE
  5
10F
330
10E
100
AcDbEntity
  8
DIMENSION
 62
     0
370
    -2
100
AcDbLine
 10
2.643361996403324
 20
5.407092006138636
 30
0.0
 11
1.64104339313257
 21
5.407092006138636
 31
0.0
  0
LINE
  5
110
330
10E
100
AcDbEntity
  8
DIMENSION
 62
     0
370
    -2
100
AcDbLine
 10
2.536086280758883
 20
3.819452145075551
 30
0.0
 11
1.64104339313257
 21
3.819452145075551
 31
0.0
  0
LINE
  5
111
330
10E
100
AcDbEntity
  8
DIMENSION
 62
     0
370
    -2
100
AcDbLine
 10
1.70354339313257
 20
5.282092006138636
 30
0.0
 11
1.70354339313257
 21
4.898074871635956
 31
0.0
  0
LINE
  5
112
330
10E
100
AcDbEntity
  8
DIMENSION
 62
     0
370
    -2
100
AcDbLine
 10
1.70354339313257
 20
3.944452145075551
 30
0.0
 11
1.70354339313257
 21
4.426408204969288
 31
0.0
  0
SOLID
  5
113
330
10E
100
AcDbEntity
  8
DIMENSION
 62
     0
100
AcDbTrace
 10
1.682710059799237
 20
5.282092006138636
 30
0.0
 11
1.724376726465903
 21
5.282092006138636
 31
0.0
 12
1.70354339313257
 22
5.407092006138636
 32
0.0
 13
1.70354339313257
 23
5.407092006138636
 33
0.0
  0
SOLID
  5
114
330
10E
100
AcDbEntity
  8
DIMENSION
 62
     0
100
AcDbTrace
 10
1.682710059799237
 20
3.944452145075551
 30
0.0
 11
1.724376726465903
 21
3.944452145075551
 31
0.0
 12
1.70354339313257
 22
3.819452145075551
 32
0.0
 13
1.70354339313257
 23
3.819452145075551
 33
0.0
  0
MTEXT
  5
115
330
10E
100
AcDbEntity
  8
DIMENSION
 62
     0
100
AcDbMText
 10
1.703543393132569
 20
4.662241538302622
 30
0.0
 40
0.125
 41
0.0
 71
     5
 72
     1
  1
\A1;1{\H1.000000x;\S5/8;}
 73
     1
 44
1.0
  0
POINT
  5
116
330
10E
100
AcDbEntity
  8
DEFPOINTS
 62
     0
100
AcDbPoint
 10
2.705861996403323
 20
5.407092006138636
 30
0.0
  0
POINT
  5
118
330
10E
100
AcDbEntity
  8
DEFPOINTS
 62
     0
100
AcDbPoint
 10
2.598586280758883
 20
3.819452145075551
 30
0.0
  0
POINT
  5
119
330
10E
100
AcDbEntity
  8
DEFPOINTS
 62
     0
100
AcDbPoint
 10
1.70354339313257
 20
3.819452145075551
 30
0.0
  0
ENDBLK
  5
11B
330
10E
100
AcDbEntity
  8
0
100
AcDbBlockEnd
  0
BLOCK
  5
128
330
11D
100
AcDbEntity
  8
0
100
AcDbBlockBegin
  2
*D12
 70
     1
 10
0.0
 20
0.0
 30
0.0
  3
*D12
  1

  0
LINE
  5
11E
330
11D
100
AcDbEntity
  8
DIMENSION
 62
     0
370
    -2
100
AcDbLine
 10
7.715830499171565
 20
3.756952145075548
 30
0.0
 11
7.715830499171565
 21
3.261183831351373
 31
0.0
  0
LINE
  5
11F
330
11D
100
AcDbEntity
  8
DIMENSION
 62
     0
370
    -2
100
AcDbLine
 10
8.090830499171566
 20
3.756952145075548
 30
0.0
 11
8.090830499171566
 21
3.261183831351373
 31
0.0
  0
LINE
  5
120
330
11D
100
AcDbEntity
  8
DIMENSION
 62
     0
370
    -2
100
AcDbLine
 10
7.590830499171565
 20
3.323683831351373
 30
0.0
 11
7.465830499171565
 21
3.323683831351373
 31
0.0
  0
LINE
  5
121
330
11D
100
AcDbEntity
  8
DIMENSION
 62
     0
370
    -2
100
AcDbLine
 10
8.215830499171566
 20
3.323683831351373
 30
0.0
 11
8.340830499171566
 21
3.323683831351373
 31
0.0
  0
SOLID
  5
122
330
11D
100
AcDbEntity
  8
DIMENSION
 62
     0
100
AcDbTrace
 10
7.590830499171565
 20
3.344517164684706
 30
0.0
 11
7.590830499171565
 21
3.302850498018039
 31
0.0
 12
7.715830499171565
 22
3.323683831351373
 32
0.0
 13
7.715830499171565
 23
3.323683831351373
 33
0.0
  0
SOLID
  5
123
330
11D
100
AcDbEntity
  8
DIMENSION
 62
     0
100
AcDbTrace
 10
8.215830499171566
 20
3.344517164684706
 30
0.0
 11
8.215830499171566
 21
3.302850498018039
 31
0.0
 12
8.090830499171566
 22
3.323683831351373
 32
0.0
 13
8.090830499171566
 23
3.323683831351373
 33
0.0
  0
MTEXT
  5
124
330
11D
100
AcDbEntity
  8
DIMENSION
 62
     0
100
AcDbMText
 10
7.903330499171566
 20
3.323683831351373
 30
0.0
 40
0.125
 41
0.0
 71
     5
 72
     1
  1
\A1;{\H1.000000x;\S3/8;}
 73
     1
 44
1.0
  0
POINT
  5
125
330
11D
100
AcDbEntity
  8
DEFPOINTS
 62
     0
100
AcDbPoint
 10
7.715830499171565
 20
3.819452145075548
 30
0.0
  0
POINT
  5
126
330
11D
100
AcDbEntity
  8
DEFPOINTS
 62
     0
100
AcDbPoint
 10
8.090830499171566
 20
3.819452145075548
 30
0.0
  0
POINT
  5
127
330
11D
100
AcDbEntity
  8
DEFPOINTS
 62
     0
100
AcDbPoint
 10
8.090830499171566
 20
3.323683831351373
 30
0.0
  0
ENDBLK
  5
129
330
11D
100
AcDbEntity
  8
0
100
AcDbBlockEnd
  0
BLOCK
  5
136
330
12B
100
AcDbEntity
  8
0
100
AcDbBlockBegin
  2
*D13
 70
     1
 10
0.0
 20
0.0
 30
0.0
  3
*D13
  1

  0
LINE
  5
12C
330
12B
100
AcDbEntity
  8
DIMENSION
 62
     0
370
    -2
100
AcDbLine
 10
4.29498899640331
 20
4.28342936902062
 30
0.0
 11
4.29498899640331
 21
5.93400757127884
 31
0.0
  0
LINE
  5
12D
330
12B
100
AcDbEntity
  8
DIMENSION
 62
     0
370
    -2
100
AcDbLine
 10
2.490518996403315
 20
4.283429369020627
 30
0.0
 11
2.490518996403315
 21
5.93400757127884
 31
0.0
  0
LINE
  5
12E
330
12B
100
AcDbEntity
  8
DIMENSION
 62
     0
370
    -2
100
AcDbLine
 10
4.16998899640331
 20
5.87150757127884
 30
0.0
 11
3.432831325520556
 21
5.87150757127884
 31
0.0
  0
LINE
  5
12F
330
12B
100
AcDbEntity
  8
DIMENSION
 62
     0
370
    -2
100
AcDbLine
 10
2.615518996403315
 20
5.87150757127884
 30
0.0
 11
3.068307515996745
 21
5.87150757127884
 31
0.0
  0
SOLID
  5
130
330
12B
100
AcDbEntity
  8
DIMENSION
 62
     0
100
AcDbTrace
 10
4.16998899640331
 20
5.892340904612172
 30
0.0
 11
4.16998899640331
 21
5.850674237945507
 31
0.0
 12
4.29498899640331
 22
5.87150757127884
 32
0.0
 13
4.29498899640331
 23
5.87150757127884
 33
0.0
  0
SOLID
  5
131
330
12B
100
AcDbEntity
  8
DIMENSION
 62
     0
100
AcDbTrace
 10
2.615518996403315
 20
5.892340904612172
 30
0.0
 11
2.615518996403315
 21
5.850674237945507
 31
0.0
 12
2.490518996403315
 22
5.87150757127884
 32
0.0
 13
2.490518996403315
 23
5.87150757127884
 33
0.0
  0
MTEXT
  5
132
330
12B
100
AcDbEntity
  8
DIMENSION
 62
     0
100
AcDbMText
 10
3.250569420758651
 20
5.87150757127884
 30
0.0
 40
0.125
 41
0.0
 71
     5
 72
     1
  1
\A1;1{\H1.000000x;\S3/4;}
 73
     1
 44
1.0
  0
POINT
  5
133
330
12B
100
AcDbEntity
  8
DEFPOINTS
 62
     0
100
AcDbPoint
 10
4.29498899640331
 20
4.22092936902062
 30
0.0
  0
POINT
  5
134
330
12B
100
AcDbEntity
  8
DEFPOINTS
 62
     0
100
AcDbPoint
 10
2.490518996403315
 20
4.220929369020627
 30
0.0
  0
POINT
  5
135
330
12B
100
AcDbEntity
  8
DEFPOINTS
 62
     0
100
AcDbPoint
 10
2.490518996403315
 20
5.87150757127884
 30
0.0
  0
ENDBLK
  5
137
330
12B
100
AcDbEntity
  8
0
100
AcDbBlockEnd
  0
BLOCK
  5
426
330
425
100
AcDbEntity
  8
0
100
AcDbBlockBegin
  2
*U14
 70
     1
 10
0.0
 20
0.0
 30
0.0
  3
*U14
  1

  0
ENDBLK
  5
427
330
425
100
AcDbEntity
  8
0
100
AcDbBlockEnd
  0
BLOCK
  5
466
330
464
100
AcDbEntity
  8
0
100
AcDbBlockBegin
  2
GENAXEH
 70
     0
 10
0.0
 20
0.0
 30
0.0
  3
GENAXEH
  1

  0
LINE
  5
465
330
464
100
AcDbEntity
  8
0
100
AcDbLine
 10
-1.0
 20
0.0
 30
0.0
 11
1.0
 21
0.0
 31
0.0
  0
ENDBLK
  5
467
330
464
100
AcDbEntity
  8
0
100
AcDbBlockEnd
  0
ENDSEC
  0
SECTION
  2
ENTITIES
  0
INSERT
  5
27
330
D
100
AcDbEntity
 67
     1
  8
0
 62
     2
100
AcDbBlockReference
  2
*U0
 10
-0.102302403546112
 20
-0.411042752228923
 30
0.0
  0
INSERT
  5
2C
330
D
100
AcDbEntity
 67
     1
  8
0
 62
     2
100
AcDbBlockReference
  2
*U1
 10
-0.102302403546112
 20
-0.411042752228923
 30
0.0
  0
INSERT
  5
31
330
D
100
AcDbEntity
 67
     1
  8
0
 62
     2
100
AcDbBlockReference
  2
*U2
 10
-0.102302403546112
 20
-0.411042752228923
 30
0.0
  0
INSERT
  5
36
330
D
100
AcDbEntity
 67
     1
  8
0
 62
     2
100
AcDbBlockReference
  2
*U3
 10
-0.102302403546112
 20
-0.411042752228923
 30
0.0
  0
INSERT
  5
3B
330
D
100
AcDbEntity
 67
     1
  8
0
 62
     2
100
AcDbBlockReference
  2
*U5
 10
-0.4827648934961958
 20
13.70391969906343
 30
0.0
  0
INSERT
  5
40
330
D
100
AcDbEntity
 67
     1
  8
0
 62
     2
100
AcDbBlockReference
  2
*U6
 10
-0.4827648934961958
 20
13.70391969906343
 30
0.0
  0
INSERT
  5
45
330
D
100
AcDbEntity
 67
     1
  8
0
 62
     2
100
AcDbBlockReference
  2
*U7
 10
-0.4827648934961958
 20
13.70391969906343
 30
0.0
  0
INSERT
  5
4A
330
D
100
AcDbEntity
 67
     1
  8
0
 62
     2
100
AcDbBlockReference
  2
*U8
 10
-0.4827648934961958
 20
13.70391969906343
 30
0.0
  0
MTEXT
  5
4F
330
D
100
AcDbEntity
 67
     1
  8
PHANTOM
 62
     7
100
AcDbMText
 10
23.22138140679187
 20
15.49205158053867
 30
0.0
 40
0.18
 41
0.0
 71
     4
 72
     5
  1

 73
     1
 44
1.0
  0
MTEXT
  5
52
330
D
100
AcDbEntity
 67
     1
  8
CENTER
 62
     7
100
AcDbMText
 10
14.55827901314384
 20
4.809298319778704
 30
0.0
 40
0.18
 41
0.0
 71
     4
 72
     5
  1

 73
     1
 44
1.0
  0
MTEXT
  5
54
330
D
100
AcDbEntity
 67
     1
  8
PHANTOM
 62
     7
100
AcDbMText
 10
31.382329954944
 20
12.11873803709553
 30
0.0
 40
0.18
 41
0.0
 71
     6
 72
     5
  1

 73
     1
 44
1.0
  0
MTEXT
  5
55
330
D
100
AcDbEntity
 67
     1
  8
PHANTOM
 62
     7
100
AcDbMText
 10
33.60117166173576
 20
17.42644230306077
 30
0.0
 40
0.18
 41
0.0
 71
     4
 72
     5
  1

 73
     1
 44
1.0
  0
MTEXT
  5
56
330
D
100
AcDbEntity
 67
     1
  8
PHANTOM
 62
     7
100
AcDbMText
 10
34.01687770298972
 20
17.03626778201439
 30
0.0
 40
0.18
 41
0.0
 71
     4
 72
     5
  1

 73
     1
 44
1.0
  0
LINE
  5
57
330
D
100
AcDbEntity
 67
     1
  8
10
100
AcDbLine
 10
16.81019759645389
 20
10.33895724777107
 30
0.0
 11
16.81019759645388
 21
10.08895724777107
 31
0.0
  0
LINE
  5
59
330
D
100
AcDbEntity
 67
     1
  8
10
100
AcDbLine
 10
-0.1898024035461084
 20
-0.661042752228923
 30
0.0
 11
0.0601975964538916
 21
-0.6610427522289233
 31
0.0
  0
LINE
  5
5A
330
D
100
AcDbEntity
 67
     1
  8
10
100
AcDbLine
 10
-0.1898024035461084
 20
10.33895724777107
 30
0.0
 11
0.0601975964538916
 21
10.33895724777107
 31
0.0
  0
LINE
  5
5B
330
D
100
AcDbEntity
 67
     1
  8
10
100
AcDbLine
 10
-0.1898024035461084
 20
10.33895724777107
 30
0.0
 11
-0.1898024035461049
 21
10.08895724777107
 31
0.0
  0
LINE
  5
5C
330
D
100
AcDbEntity
 67
     1
  8
10
100
AcDbLine
 10
16.81019759645388
 20
-0.4110427522289212
 30
0.0
 11
16.81019759645389
 21
-0.6610427522289207
 31
0.0
  0
LINE
  5
5D
330
D
100
AcDbEntity
 67
     1
  8
10
100
AcDbLine
 10
16.56019759645388
 20
-0.6610427522289207
 30
0.0
 11
16.81019759645389
 21
-0.6610427522289207
 31
0.0
  0
LINE
  5
5E
330
D
100
AcDbEntity
 67
     1
  8
10
100
AcDbLine
 10
16.56019759645388
 20
10.33895724777107
 30
0.0
 11
16.8101975964539
 21
10.33895724777107
 31
0.0
  0
LINE
  5
5F
330
D
100
AcDbEntity
 67
     1
  8
10
100
AcDbLine
 10
-0.1898024035461049
 20
-0.411042752228923
 30
0.0
 11
-0.1898024035461084
 21
-0.661042752228923
 31
0.0
  0
INSERT
  5
60
330
D
100
AcDbEntity
 67
     1
  8
10
100
AcDbBlockReference
  2
A$C708B5813
 10
6.594352478861797
 20
-0.366258240904656
 30
0.0000000075
 41
0.75
 42
0.75
 43
0.7500000000000001
  0
MTEXT
  5
A4
330
D
100
AcDbEntity
 67
     1
  8
10
 62
     7
100
AcDbMText
 10
11.48650217872846
 20
0.0598654309256286
 30
0.0
 40
0.1
 41
6.799999999999999
 71
     1
 72
     5
  1
P.O. BOX 496\P664 STATE STREET\PBEAVER, PA 15009
 73
     1
 44
1.0
  0
MTEXT
  5
A5
330
D
100
AcDbEntity
 67
     1
  8
10
 62
     7
100
AcDbMText
 10
14.97433424329665
 20
0.0048982403642142
 30
0.0
 40
0.09
 41
4.5
 71
     1
 72
     5
  1
\LDRAWING NO.
 73
     1
 44
1.0
  0
MTEXT
  5
A6
330
D
100
AcDbEntity
 67
     1
  8
10
 62
     7
100
AcDbMText
 10
15.13605889189117
 20
-0.1670285420409656
 30
0.0
 40
0.125
 41
1.8464
 71
     1
 72
     5
  1
WC100106
 73
     1
 44
1.0
  0
LINE
  5
A7
330
D
100
AcDbEntity
 67
     1
  8
10
100
AcDbLine
 10
14.91628799395439
 20
-0.4034704111228377
 30
0.0
 11
14.91628799395439
 21
0.0965295888771625
 31
0.0
  0
MTEXT
  5
A8
330
D
100
AcDbEntity
 67
     1
  8
10
 62
     7
100
AcDbMText
 10
13.67201361316242
 20
1.41807754023202
 30
0.0
 40
0.1125
 41
2.799999999999998
 71
     1
 72
     5
  1
TERMINAL BLOCK PRODUCT LINE\PDIN RAIL MOUNTED \PEND BARRIER\PDATA SHEET
 73
     1
 44
1.0
  0
LINE
  5
A9
330
D
100
AcDbEntity
 67
     1
  8
10
100
AcDbLine
 10
8.814103830789017
 20
0.5455006514457283
 30
0.0
 11
13.560197580789
 21
0.5455006514457283
 31
0.0
  0
TEXT
  5
AA
330
D
100
AcDbEntity
 67
     1
  8
10
 62
     7
100
AcDbText
 10
8.937041163970674
 20
0.1565568575292922
 30
0.0
 40
0.094921875
  1
REV
100
AcDbText
  0
TEXT
  5
AB
330
D
100
AcDbEntity
 67
     1
  8
10
 62
     7
100
AcDbText
 10
10.42553047202538
 20
0.1613942608230321
 30
0.0
 40
0.094921875
  1
DESCRIPTION
100
AcDbText
  0
TEXT
  5
AC
330
D
100
AcDbEntity
 67
     1
  8
10
 62
     7
100
AcDbText
 10
12.54806520659771
 20
0.1584677170054309
 30
0.0
 40
0.094921875
  1
DATE
100
AcDbText
  0
TEXT
  5
AD
330
D
100
AcDbEntity
 67
     1
  8
10
 62
     7
100
AcDbText
 10
13.26213140433964
 20
0.1633052591841455
 30
0.0
 40
0.094921875
  1
BY
100
AcDbText
  0
LINE
  5
AE
330
D
100
AcDbEntity
 67
     1
  8
10
100
AcDbLine
 10
8.814103830789017
 20
0.3477467451957281
 30
0.0
 11
13.560197580789
 21
0.3477467451957281
 31
0.0
  0
LINE
  5
AF
330
D
100
AcDbEntity
 67
     1
  8
10
100
AcDbLine
 10
9.288713205789012
 20
0.5455006514457283
 30
0.0
 11
9.28871320578898
 21
0.0889572477710787
 31
0.0
  0
LINE
  5
B0
330
D
100
AcDbEntity
 67
     1
  8
10
100
AcDbLine
 10
13.08558820578901
 20
0.5455006514457283
 30
0.0
 11
13.08558820578901
 21
0.0889572477710789
 31
0.0
  0
LINE
  5
B1
330
D
100
AcDbEntity
 67
     1
  8
10
100
AcDbLine
 10
12.37367414328902
 20
0.5455006514457283
 30
0.0
 11
12.37367414328905
 21
0.0889572477710789
 31
0.0
  0
MTEXT
  5
B2
330
D
100
AcDbEntity
 67
     1
  8
10
 62
     7
100
AcDbMText
 10
13.60839868982453
 20
-0.0040465941653012
 30
0.0
 40
0.09
 41
4.5
 71
     1
 72
     5
  1
\LSCALE:
 73
     1
 44
1.0
  0
TEXT
  5
B3
330
D
100
AcDbEntity
 67
     1
  8
10
 62
     7
100
AcDbText
 10
8.930588355050492
 20
0.3865659567483135
 30
0.0
 40
0.094921875
  1
XXX
100
AcDbText
  0
TEXT
  5
B4
330
D
100
AcDbEntity
 67
     1
  8
10
 62
     7
100
AcDbText
 10
10.41907766310519
 20
0.3914033600420552
 30
0.0
 40
0.094921875
  1
XXXXXXXXXXX
100
AcDbText
  0
TEXT
  5
B5
330
D
100
AcDbEntity
 67
     1
  8
10
 62
     7
100
AcDbText
 10
12.54161239767753
 20
0.3884768162244541
 30
0.0
 40
0.094921875
  1
XXXX
100
AcDbText
  0
TEXT
  5
B6
330
D
100
AcDbEntity
 67
     1
  8
10
 62
     7
100
AcDbText
 10
13.20559851446207
 20
0.3933143584031668
 30
0.0
 40
0.094921875
  1
XXX
100
AcDbText
  0
LINE
  5
B7
330
D
100
AcDbEntity
 67
     1
  8
10
100
AcDbLine
 10
0.0601975964538916
 20
-0.4110427522289224
 30
0.0
 11
16.56019759645388
 21
-0.4110427522289326
 31
0.0
  0
LINE
  5
B8
330
D
100
AcDbEntity
 67
     1
  8
10
100
AcDbLine
 10
8.814103830789001
 20
0.5455006514457283
 30
0.0
 11
8.814103830788983
 21
0.0889572477710787
 31
0.0
  0
LINE
  5
B9
330
D
100
AcDbEntity
 67
     1
  8
10
100
AcDbLine
 10
13.56019759282861
 20
1.565519747771078
 30
0.0
 11
13.56019755676681
 21
0.0889572477710883
 31
0.0
  0
LINE
  5
BA
330
D
100
AcDbEntity
 67
     1
  8
10
100
AcDbLine
 10
16.56019759645388
 20
10.08895724777107
 30
0.0
 11
16.56019759645388
 21
-0.4110427522289326
 31
0.0
  0
CIRCLE
  5
BB
330
D
100
AcDbEntity
 67
     1
  8
10
 62
     1
100
AcDbCircle
 10
0.060197596453888
 20
-0.411042752228923
 30
0.00000001
 40
0.1415883773737505
  0
LINE
  5
BC
330
D
100
AcDbEntity
 67
     1
  8
10
100
AcDbLine
 10
0.0601975964538987
 20
10.08895724777107
 30
0.0
 11
16.56019759645388
 21
10.08895724777107
 31
0.0
  0
LINE
  5
BD
330
D
100
AcDbEntity
 67
     1
  8
10
100
AcDbLine
 10
0.0601975964538987
 20
10.08895724777107
 30
0.0
 11
0.0601975964538916
 21
-0.4110427522289221
 31
0.0
  0
LINE
  5
BE
330
D
100
AcDbEntity
 67
     1
  8
10
100
AcDbLine
 10
13.63019759645387
 20
1.524894831992493
 30
0.0
 11
16.49019759645386
 21
1.524894831992493
 31
0.0
  0
LINE
  5
BF
330
D
100
AcDbEntity
 67
     1
  8
10
100
AcDbLine
 10
16.51019759645388
 20
1.504894831992493
 30
0.0
 11
16.51019759645388
 21
0.608957247771079
 31
0.0
  0
LINE
  5
C0
330
D
100
AcDbEntity
 67
     1
  8
10
100
AcDbLine
 10
13.61019759645389
 20
1.504894831992493
 30
0.0
 11
13.61019759645388
 21
0.608957247771079
 31
0.0
  0
LINE
  5
C1
330
D
100
AcDbEntity
 67
     1
  8
10
100
AcDbLine
 10
13.63019759645388
 20
0.588957247771079
 30
0.0
 11
16.49019759645388
 21
0.588957247771079
 31
0.0
  0
LINE
  5
C2
330
D
100
AcDbEntity
 67
     1
  8
10
100
AcDbLine
 10
13.56019756775707
 20
0.5455005981493664
 30
0.0
 11
16.56019759645388
 21
0.5455005981493664
 31
0.0
  0
MTEXT
  5
C3
330
D
100
AcDbEntity
 67
     1
  8
10
 62
     7
100
AcDbMText
 10
13.8536119253106
 20
-0.1799797027232461
 30
0.0
 40
0.125
 41
1.8464
 71
     1
 72
     5
  1
1:1
 73
     1
 44
1.0
  0
MTEXT
  5
C4
330
D
100
AcDbEntity
 67
     1
  8
10
 62
     7
100
AcDbMText
 10
13.6240163979022
 20
0.4591716765222015
 30
0.0
 40
0.09
 41
4.5
 71
     1
 72
     5
  1
\LDRAWN BY:
 73
     1
 44
1.0
  0
MTEXT
  5
C5
330
D
100
AcDbEntity
 67
     1
  8
10
 62
     7
100
AcDbMText
 10
14.0495784585482
 20
0.2832385679642559
 30
0.0
 40
0.125
 41
1.8464
 71
     1
 72
     5
  1
RCG
 73
     1
 44
1.0
  0
MTEXT
  5
C6
330
D
100
AcDbEntity
 67
     1
  8
10
 62
     7
100
AcDbMText
 10
14.98796541243223
 20
0.4747857900821179
 30
0.0
 40
0.09
 41
4.5
 71
     1
 72
     5
  1
\LDATE:
 73
     1
 44
1.0
  0
MTEXT
  5
C7
330
D
100
AcDbEntity
 67
     1
  8
10
 62
     7
100
AcDbMText
 10
15.32091589382051
 20
0.2988526815241723
 30
0.0
 40
0.125
 41
1.8464
 71
     1
 72
     5
  1
12-11-01
 73
     1
 44
1.0
  0
LINE
  5
C8
330
D
100
AcDbEntity
 67
     1
  8
10
100
AcDbLine
 10
14.91628799395439
 20
0.088957247771079
 30
0.0
 11
14.91628799395439
 21
0.5389572477710792
 31
0.0000000000000001
  0
LINE
  5
C9
330
D
100
AcDbEntity
 67
     1
  8
10
100
AcDbLine
 10
13.63019759645387
 20
1.524894831992493
 30
0.0
 11
13.61019759645388
 21
1.504894831992493
 31
0.0
  0
LINE
  5
CA
330
D
100
AcDbEntity
 67
     1
  8
10
100
AcDbLine
 10
16.49019759645386
 20
1.524894831992493
 30
0.0
 11
16.51019759645387
 21
1.504894831992493
 31
0.0
  0
LINE
  5
CB
330
D
100
AcDbEntity
 67
     1
  8
10
100
AcDbLine
 10
16.51019759645388
 20
0.608957247771079
 30
0.0
 11
16.49019759645388
 21
0.588957247771079
 31
0.0
  0
LINE
  5
CC
330
D
100
AcDbEntity
 67
     1
  8
10
100
AcDbLine
 10
13.63019759645388
 20
0.588957247771079
 30
0.0
 11
13.61019759645388
 21
0.608957247771079
 31
0.0
  0
LINE
  5
CD
330
D
100
AcDbEntity
 67
     1
  8
10
100
AcDbLine
 10
13.56019755676681
 20
0.088957247771079
 30
0.0
 11
13.56019755676681
 21
-0.411042752228931
 31
0.0
  0
MTEXT
  5
CE
330
D
100
AcDbEntity
 67
     1
  8
10
 62
     7
100
AcDbMText
 10
7.111342533508612
 20
-0.0636120839570795
 30
0.0
 40
0.2
 41
4.7621
 71
     1
 72
     5
  1
CONTROL CONCEPTS CORP.
 73
     1
 44
1.0
  0
INSERT
  5
CF
330
D
100
AcDbEntity
 67
     1
  8
DIMENSION
100
AcDbBlockReference
  2
A$C2BF30918
 10
13.08896706605402
 20
-0.3661462471084498
 30
0.0000000075
  0
LINE
  5
D4
330
D
100
AcDbEntity
 67
     1
  8
10
100
AcDbLine
 10
6.560197547220047
 20
0.0889572477710803
 30
0.0
 11
6.560197547220047
 21
-0.4110427522289264
 31
0.0
  0
LINE
  5
D5
330
D
100
AcDbEntity
 67
     1
  8
10
100
AcDbLine
 10
6.560197547220047
 20
-0.1610427522289228
 30
0.0
 11
0.0601975964538918
 21
-0.1610427522289184
 31
0.0
  0
LINE
  5
D6
330
D
100
AcDbEntity
 67
     1
  8
10
100
AcDbLine
 10
5.260197547220046
 20
0.0889572477710803
 30
0.0
 11
5.260197547220046
 21
-0.4110427522289264
 31
0.0
  0
LINE
  5
D7
330
D
100
AcDbEntity
 67
     1
  8
10
100
AcDbLine
 10
3.960197547220047
 20
0.0889572477710803
 30
0.0
 11
3.960197547220047
 21
-0.4110427522289264
 31
0.0
  0
LINE
  5
D8
330
D
100
AcDbEntity
 67
     1
  8
10
100
AcDbLine
 10
2.660197547220048
 20
0.0889572477710803
 30
0.0
 11
2.660197547220048
 21
-0.4110427522289264
 31
0.0
  0
LINE
  5
D9
330
D
100
AcDbEntity
 67
     1
  8
10
100
AcDbLine
 10
1.360197547220047
 20
0.0889572477710803
 30
0.0
 11
1.360197547220047
 21
-0.4110427522289264
 31
0.0
  0
LINE
  5
DA
330
D
100
AcDbEntity
 67
     1
  8
10
100
AcDbLine
 10
8.814103817757068
 20
1.336516009963915
 30
0.0
 11
13.56019756775705
 21
1.336516009963915
 31
0.0
  0
TEXT
  5
DB
330
D
100
AcDbEntity
 67
     1
  8
10
 62
     7
100
AcDbText
 10
8.930588342018545
 20
1.375335221516502
 30
0.0
 40
0.094921875
  1
XXX
100
AcDbText
  0
LINE
  5
DC
330
D
100
AcDbEntity
 67
     1
  8
10
100
AcDbLine
 10
8.814103817757056
 20
1.565519747771078
 30
0.0
 11
8.814103817757045
 21
1.336516009963915
 31
0.0
  0
LINE
  5
DD
330
D
100
AcDbEntity
 67
     1
  8
10
100
AcDbLine
 10
9.288713192757066
 20
1.565519747771078
 30
0.0
 11
9.288713192757052
 21
1.336516009963915
 31
0.0
  0
TEXT
  5
DE
330
D
100
AcDbEntity
 67
     1
  8
10
 62
     7
100
AcDbText
 10
10.41907765007326
 20
1.380172624810245
 30
0.0
 40
0.094921875
  1
XXXXXXXXXXX
100
AcDbText
  0
LINE
  5
DF
330
D
100
AcDbEntity
 67
     1
  8
10
100
AcDbLine
 10
12.37367413025707
 20
1.565519747771079
 30
0.0
 11
12.37367413025709
 21
1.336516009963915
 31
0.0
  0
LINE
  5
E0
330
D
100
AcDbEntity
 67
     1
  8
10
100
AcDbLine
 10
13.08558819275706
 20
1.565519747771079
 30
0.0
 11
13.08558819275706
 21
1.336516009963915
 31
0.0
  0
TEXT
  5
E1
330
D
100
AcDbEntity
 67
     1
  8
10
 62
     7
100
AcDbText
 10
12.54161238464558
 20
1.377246080992643
 30
0.0
 40
0.094921875
  1
XXXX
100
AcDbText
  0
TEXT
  5
E2
330
D
100
AcDbEntity
 67
     1
  8
10
 62
     7
100
AcDbText
 10
13.20559850143012
 20
1.382083623171356
 30
0.0
 40
0.094921875
  1
XXX
100
AcDbText
  0
LINE
  5
E3
330
D
100
AcDbEntity
 67
     1
  8
10
100
AcDbLine
 10
8.814103817757068
 20
1.138762157010277
 30
0.0
 11
13.56019756775705
 21
1.138762157010277
 31
0.0
  0
LINE
  5
E4
330
D
100
AcDbEntity
 67
     1
  8
10
100
AcDbLine
 10
8.814103817757068
 20
1.336516063260277
 30
0.0
 11
13.56019756775705
 21
1.336516063260277
 31
0.0
  0
TEXT
  5
E5
330
D
100
AcDbEntity
 67
     1
  8
10
 62
     7
100
AcDbText
 10
8.930588342018545
 20
1.177581368562863
 30
0.0
 40
0.094921875
  1
XXX
100
AcDbText
  0
LINE
  5
E6
330
D
100
AcDbEntity
 67
     1
  8
10
100
AcDbLine
 10
8.814103817757056
 20
1.336516063260277
 30
0.0
 11
8.814103817757045
 21
1.138762157010277
 31
0.0
  0
LINE
  5
E7
330
D
100
AcDbEntity
 67
     1
  8
10
100
AcDbLine
 10
9.288713192757064
 20
1.336516063260277
 30
0.0
 11
9.288713192757052
 21
1.138762157010277
 31
0.0
  0
TEXT
  5
E8
330
D
100
AcDbEntity
 67
     1
  8
10
 62
     7
100
AcDbText
 10
10.41907765007326
 20
1.182418771856605
 30
0.0
 40
0.094921875
  1
XXXXXXXXXXX
100
AcDbText
  0
LINE
  5
E9
330
D
100
AcDbEntity
 67
     1
  8
10
100
AcDbLine
 10
12.37367413025707
 20
1.336516063260277
 30
0.0
 11
12.37367413025709
 21
1.138762157010277
 31
0.0
  0
LINE
  5
EA
330
D
100
AcDbEntity
 67
     1
  8
10
100
AcDbLine
 10
13.08558819275706
 20
1.336516063260277
 30
0.0
 11
13.08558819275706
 21
1.138762157010277
 31
0.0
  0
TEXT
  5
EB
330
D
100
AcDbEntity
 67
     1
  8
10
 62
     7
100
AcDbText
 10
12.54161238464558
 20
1.179492228039004
 30
0.0
 40
0.094921875
  1
XXXX
100
AcDbText
  0
TEXT
  5
EC
330
D
100
AcDbEntity
 67
     1
  8
10
 62
     7
100
AcDbText
 10
13.20559850143012
 20
1.184329770217716
 30
0.0
 40
0.094921875
  1
XXX
100
AcDbText
  0
LINE
  5
ED
330
D
100
AcDbEntity
 67
     1
  8
10
100
AcDbLine
 10
8.814103824273038
 20
0.7432544511030055
 30
0.0
 11
13.56019757427302
 21
0.7432544511030055
 31
0.0
  0
LINE
  5
EE
330
D
100
AcDbEntity
 67
     1
  8
10
100
AcDbLine
 10
8.814103824273038
 20
0.9410083573530055
 30
0.0
 11
13.56019757427302
 21
0.9410083573530055
 31
0.0
  0
TEXT
  5
EF
330
D
100
AcDbEntity
 67
     1
  8
10
 62
     7
100
AcDbText
 10
8.930588348534515
 20
0.7820736626555918
 30
0.0
 40
0.094921875
  1
XXX
100
AcDbText
  0
LINE
  5
F0
330
D
100
AcDbEntity
 67
     1
  8
10
100
AcDbLine
 10
8.814103824273029
 20
0.9410083573530048
 30
0.0
 11
8.814103824273017
 21
0.7432544511030055
 31
0.0
  0
LINE
  5
F1
330
D
100
AcDbEntity
 67
     1
  8
10
100
AcDbLine
 10
9.288713199273036
 20
0.9410083573530048
 30
0.0
 11
9.288713199273024
 21
0.7432544511030055
 31
0.0
  0
TEXT
  5
F2
330
D
100
AcDbEntity
 67
     1
  8
10
 62
     7
100
AcDbText
 10
10.41907765658923
 20
0.7869110659493339
 30
0.0
 40
0.094921875
  1
XXXXXXXXXXX
100
AcDbText
  0
LINE
  5
F3
330
D
100
AcDbEntity
 67
     1
  8
10
100
AcDbLine
 10
12.37367413677304
 20
0.9410083573530055
 30
0.0
 11
12.37367413677306
 21
0.7432544511030055
 31
0.0
  0
LINE
  5
F4
330
D
100
AcDbEntity
 67
     1
  8
10
100
AcDbLine
 10
13.08558819927302
 20
0.9410083573530055
 30
0.0
 11
13.08558819927302
 21
0.7432544511030055
 31
0.0
  0
TEXT
  5
F5
330
D
100
AcDbEntity
 67
     1
  8
10
 62
     7
100
AcDbText
 10
12.54161239116155
 20
0.7839845221317319
 30
0.0
 40
0.094921875
  1
XXXX
100
AcDbText
  0
TEXT
  5
F6
330
D
100
AcDbEntity
 67
     1
  8
10
 62
     7
100
AcDbText
 10
13.20559850794609
 20
0.7888220643104449
 30
0.0
 40
0.094921875
  1
XXX
100
AcDbText
  0
LINE
  5
F7
330
D
100
AcDbEntity
 67
     1
  8
10
100
AcDbLine
 10
8.814103824273038
 20
0.9410083040566426
 30
0.0
 11
13.56019757427302
 21
0.9410083040566426
 31
0.0
  0
LINE
  5
F8
330
D
100
AcDbEntity
 67
     1
  8
10
100
AcDbLine
 10
8.814103824273038
 20
1.138762210306642
 30
0.0
 11
13.56019757427302
 21
1.138762210306642
 31
0.0
  0
TEXT
  5
F9
330
D
100
AcDbEntity
 67
     1
  8
10
 62
     7
100
AcDbText
 10
8.930588348534515
 20
0.9798275156092287
 30
0.0
 40
0.094921875
  1
XXX
100
AcDbText
  0
LINE
  5
FA
330
D
100
AcDbEntity
 67
     1
  8
10
100
AcDbLine
 10
8.814103824273029
 20
1.138762210306642
 30
0.0
 11
8.814103824273017
 21
0.9410083040566426
 31
0.0
  0
LINE
  5
FB
330
D
100
AcDbEntity
 67
     1
  8
10
100
AcDbLine
 10
9.288713199273036
 20
1.138762210306642
 30
0.0
 11
9.288713199273024
 21
0.9410083040566426
 31
0.0
  0
TEXT
  5
FC
330
D
100
AcDbEntity
 67
     1
  8
10
 62
     7
100
AcDbText
 10
10.41907765658923
 20
0.984664918902971
 30
0.0
 40
0.094921875
  1
XXXXXXXXXXX
100
AcDbText
  0
LINE
  5
FD
330
D
100
AcDbEntity
 67
     1
  8
10
100
AcDbLine
 10
12.37367413677304
 20
1.138762210306642
 30
0.0
 11
12.37367413677306
 21
0.9410083040566426
 31
0.0
  0
LINE
  5
FE
330
D
100
AcDbEntity
 67
     1
  8
10
100
AcDbLine
 10
13.08558819927302
 20
1.138762210306642
 30
0.0
 11
13.08558819927302
 21
0.9410083040566426
 31
0.0
  0
TEXT
  5
FF
330
D
100
AcDbEntity
 67
     1
  8
10
 62
     7
100
AcDbText
 10
12.54161239116155
 20
0.9817383750853688
 30
0.0
 40
0.094921875
  1
XXXX
100
AcDbText
  0
TEXT
  5
100
330
D
100
AcDbEntity
 67
     1
  8
10
 62
     7
100
AcDbText
 10
13.20559850794609
 20
0.9865759172640819
 30
0.0
 40
0.094921875
  1
XXX
100
AcDbText
  0
LINE
  5
101
330
D
100
AcDbEntity
 67
     1
  8
10
100
AcDbLine
 10
8.814103824273038
 20
0.5455005981493664
 30
0.0
 11
13.56019757427302
 21
0.5455005981493665
 31
0.0
  0
LINE
  5
102
330
D
100
AcDbEntity
 67
     1
  8
10
100
AcDbLine
 10
8.814103824273038
 20
0.7432545043993666
 30
0.0
 11
13.56019757427302
 21
0.7432545043993666
 31
0.0
  0
TEXT
  5
103
330
D
100
AcDbEntity
 67
     1
  8
10
 62
     7
100
AcDbText
 10
8.930588348534515
 20
0.5843198097019529
 30
0.0
 40
0.094921875
  1
XXX
100
AcDbText
  0
LINE
  5
104
330
D
100
AcDbEntity
 67
     1
  8
10
100
AcDbLine
 10
8.814103824273029
 20
0.7432545043993663
 30
0.0
 11
8.814103824273017
 21
0.5455005981493664
 31
0.0
  0
LINE
  5
105
330
D
100
AcDbEntity
 67
     1
  8
10
100
AcDbLine
 10
9.288713199273036
 20
0.7432545043993663
 30
0.0
 11
9.288713199273024
 21
0.5455005981493664
 31
0.0
  0
TEXT
  5
106
330
D
100
AcDbEntity
 67
     1
  8
10
 62
     7
100
AcDbText
 10
10.41907765658923
 20
0.589157212995695
 30
0.0
 40
0.094921875
  1
XXXXXXXXXXX
100
AcDbText
  0
LINE
  5
107
330
D
100
AcDbEntity
 67
     1
  8
10
100
AcDbLine
 10
12.37367413677304
 20
0.7432545043993666
 30
0.0
 11
12.37367413677306
 21
0.5455005981493664
 31
0.0
  0
LINE
  5
108
330
D
100
AcDbEntity
 67
     1
  8
10
100
AcDbLine
 10
13.08558819927302
 20
0.7432545043993666
 30
0.0
 11
13.08558819927302
 21
0.5455005981493665
 31
0.0
  0
TEXT
  5
109
330
D
100
AcDbEntity
 67
     1
  8
10
 62
     7
100
AcDbText
 10
12.54161239116155
 20
0.5862306691780929
 30
0.0
 40
0.094921875
  1
XXXX
100
AcDbText
  0
TEXT
  5
10A
330
D
100
AcDbEntity
 67
     1
  8
10
 62
     7
100
AcDbText
 10
13.20559850794609
 20
0.5910682113568062
 30
0.0
 40
0.094921875
  1
XXX
100
AcDbText
  0
LINE
  5
10B
330
D
100
AcDbEntity
 67
     1
  8
10
100
AcDbLine
 10
8.814103817757056
 20
1.565519747771079
 30
0.0
 11
16.56019759645388
 21
1.565519747771078
 31
0.0
  0
LINE
  5
10C
330
D
100
AcDbEntity
 67
     1
  8
10
100
AcDbLine
 10
0.0601975964538912
 20
0.0889572477710772
 30
0.0
 11
16.56019759645388
 21
0.0889572477710772
 31
0.0
  0
DIMENSION
  5
10D
330
D
100
AcDbEntity
 67
     1
  8
DIMENSION
100
AcDbDimension
  2
*D11
 10
1.70354339313257
 20
3.819452145075551
 30
0.0
 11
1.703543393132569
 21
4.662241538302622
 31
0.0
 70
   128
  1
<>
 71
     5
 42
1.587639861063084
  3
Standard
100
AcDbAlignedDimension
 13
2.705861996403323
 23
5.407092006138636
 33
0.0
 14
2.598586280758883
 24
3.819452145075551
 34
0.0
 50
90.0
100
AcDbRotatedDimension
  0
DIMENSION
  5
11C
330
D
100
AcDbEntity
 67
     1
  8
DIMENSION
100
AcDbDimension
  2
*D12
 10
8.090830499171566
 20
3.323683831351373
 30
0.0
 11
7.903330499171566
 21
3.323683831351373
 31
0.0
 70
   128
 71
     5
 42
0.3750000000000009
  3
Standard
100
AcDbAlignedDimension
 13
7.715830499171565
 23
3.819452145075548
 33
0.0
 14
8.090830499171566
 24
3.819452145075548
 34
0.0
100
AcDbRotatedDimension
  0
DIMENSION
  5
12A
330
D
100
AcDbEntity
 67
     1
  8
DIMENSION
100
AcDbDimension
  2
*D13
 10
2.490518996403315
 20
5.87150757127884
 30
0.0
 11
3.250569420758651
 21
5.87150757127884
 31
0.0
 70
   128
 71
     5
 42
1.804469999999994
  3
Standard
100
AcDbAlignedDimension
 13
4.29498899640331
 23
4.22092936902062
 33
0.0
 14
2.490518996403315
 24
4.220929369020627
 34
0.0
100
AcDbRotatedDimension
  0
INSERT
  5
138
330
D
100
AcDbEntity
 67
     1
  8
DIMENSION
100
AcDbBlockReference
  2
A$C05117BD1
 10
2.70380399355109
 20
3.749502537768812
 30
0.0
  0
LEADER
  5
150
330
D
100
AcDbEntity
 67
     1
  8
DIMENSION
100
AcDbLeader
  3
Standard
 73
     0
 40
0.125
 41
0.7916666666666669
 76
     3
 10
3.406227425544378
 20
3.670090375908678
 30
0.0
 10
3.406227425544378
 20
2.545154088843296
 30
0.0
 10
4.414239989007697
 20
2.545154088843296
 30
0.0
340
151
  0
MTEXT
  5
151
102
{ACAD_REACTORS
330
150
102
}
330
D
100
AcDbEntity
 67
     1
  8
DIMENSION
100
AcDbMText
 10
4.504239989007697
 20
2.545154088843296
 30
0.0
 40
0.125
 41
0.0
 71
     4
 72
     1
  1
DIN RAIL
 73
     1
 44
1.0
  0
LEADER
  5
152
330
D
100
AcDbEntity
 67
     1
  8
DIMENSION
100
AcDbLeader
  3
Standard
 72
     1
 73
     0
 74
     0
 40
0.3333333333333333
 41
2.047619047619047
 76
     4
 10
4.028476969790736
 20
4.903213907303231
 30
0.0
 10
4.749461445218031
 20
5.939503971836415
 30
0.0
 10
4.875633714564378
 20
5.660156211285539
 30
0.0
 10
5.109953682931673
 20
5.660156211285539
 30
0.0
340
153
  0
MTEXT
  5
153
102
{ACAD_REACTORS
330
152
102
}
330
D
100
AcDbEntity
 67
     1
  8
DIMENSION
100
AcDbMText
 10
5.199953682931673
 20
5.660156211285539
 30
0.0
 40
0.125
 41
0.0
 71
     4
 72
     1
  1
SCREWS PINCH END\PBARRIER TO DIN RAIL
 73
     1
 44
1.0
  0
LINE
  5
154
330
D
100
AcDbEntity
 67
     1
  8
AM_VIS
100
AcDbLine
 10
4.173668996403308
 20
5.313069006138633
 30
0.0
 11
4.173668996403308
 21
4.838993684546228
 31
0.0
  0
ARC
  5
156
330
D
100
AcDbEntity
 67
     1
  8
AM_VIS
100
AcDbCircle
 10
4.079645996403305
 20
5.313069006138633
 30
0.0
 40
0.094023
100
AcDbArc
 50
359.9999999999997
 51
89.99999999999998
  0
LINE
  5
157
330
D
100
AcDbEntity
 67
     1
  8
AM_VIS
100
AcDbLine
 10
2.705861996403319
 20
5.407092006138632
 30
0.0
 11
4.079645996403304
 21
5.407092006138632
 31
0.0
  0
ARC
  5
158
330
D
100
AcDbEntity
 67
     1
  8
AM_VIS
100
AcDbCircle
 10
2.705861996403319
 20
5.313069006138633
 30
0.0
 40
0.094023
100
AcDbArc
 50
89.99999999999998
 51
180.0000000000002
  0
LINE
  5
159
330
D
100
AcDbEntity
 67
     1
  8
AM_VIS
100
AcDbLine
 10
2.611838996403319
 20
4.838993684546228
 30
0.0
 11
2.611838996403319
 21
5.313069006138633
 31
0.0
  0
LINE
  5
15A
330
D
100
AcDbEntity
 67
     1
  8
AM_VIS
100
AcDbLine
 10
3.075990086537143
 20
4.695580065748009
 30
0.0
 11
3.177950920794535
 21
4.813034948348436
 31
0.0
  0
ARC
  5
15B
330
D
100
AcDbEntity
 67
     1
  8
AM_VIS
100
AcDbCircle
 10
3.060886912557755
 20
4.708690906138627
 30
0.0
 40
0.02
100
AcDbArc
 50
270.0000000000001
 51
319.0392384676888
  0
LINE
  5
15C
330
D
100
AcDbEntity
 67
     1
  8
AM_VIS
100
AcDbLine
 10
4.173668996403308
 20
4.838993684546228
 30
0.0
 11
4.173668996403308
 21
4.155214369020622
 31
0.0
  0
LINE
  5
15D
330
D
100
AcDbEntity
 67
     1
  8
AM_VIS
100
AcDbLine
 10
4.120668996403305
 20
4.838993684546228
 30
0.0
 11
4.173668996403307
 21
4.838993684546228
 31
0.0
  0
LINE
  5
15E
330
D
100
AcDbEntity
 67
     1
  8
AM_VIS
100
AcDbLine
 10
4.120668996403306
 20
4.688690906138628
 30
0.0
 11
4.120668996403306
 21
4.838993684546228
 31
0.0
  0
ARC
  5
15F
330
D
100
AcDbEntity
 67
     1
  8
AM_VIS
100
AcDbCircle
 10
4.198943996403308
 20
4.155214369020622
 30
0.0
 40
0.025275
100
AcDbArc
 50
180.0000000000002
 51
270.0000000000001
  0
LINE
  5
160
330
D
100
AcDbEntity
 67
     1
  8
AM_VIS
100
AcDbLine
 10
4.198943996403308
 20
4.129939369020623
 30
0.0
 11
4.20905399640331
 21
4.129939369020623
 31
0.0
  0
ARC
  5
161
330
D
100
AcDbEntity
 67
     1
  8
AM_VIS
100
AcDbCircle
 10
4.20905399640331
 20
4.155214369020622
 30
0.0
 40
0.025275
100
AcDbArc
 50
269.9999999999992
 51
359.9999999999997
  0
LINE
  5
162
330
D
100
AcDbEntity
 67
     1
  8
AM_VIS
100
AcDbLine
 10
4.23432899640331
 20
4.155214369020622
 30
0.0
 11
4.23432899640331
 21
4.220929369020622
 31
0.0
  0
ARC
  5
163
330
D
100
AcDbEntity
 67
     1
  8
AM_VIS
100
AcDbCircle
 10
4.244438996403308
 20
4.220929369020622
 30
0.0
 40
0.01011
100
AcDbArc
 50
90.00000000000026
 51
180.0000000000002
  0
LINE
  5
164
330
D
100
AcDbEntity
 67
     1
  8
AM_VIS
100
AcDbLine
 10
4.244438996403308
 20
4.231039369020622
 30
0.0
 11
4.28487899640331
 21
4.231039369020622
 31
0.0
  0
ARC
  5
165
330
D
100
AcDbEntity
 67
     1
  8
AM_VIS
100
AcDbCircle
 10
4.28487899640331
 20
4.220929369020622
 30
0.0
 40
0.01011
100
AcDbArc
 50
0.0000000000002672
 51
90.00000000000026
  0
LINE
  5
166
330
D
100
AcDbEntity
 67
     1
  8
AM_VIS
100
AcDbLine
 10
4.294988996403308
 20
4.220929369020622
 30
0.0
 11
4.294988996403308
 21
3.881952145075548
 31
0.0
  0
ARC
  5
167
330
D
100
AcDbEntity
 67
     1
  8
AM_VIS
100
AcDbCircle
 10
4.23248899640331
 20
3.881952145075548
 30
0.0
 40
0.0625
100
AcDbArc
 50
269.9999999999996
 51
359.9999999999997
  0
LINE
  5
168
330
D
100
AcDbEntity
 67
     1
  8
AM_VIS
100
AcDbLine
 10
4.23248899640331
 20
3.819452145075548
 30
0.0
 11
4.141354427692171
 21
3.819452145075548
 31
0.0
  0
ARC
  5
169
330
D
100
AcDbEntity
 67
     1
  8
AM_VIS
100
AcDbCircle
 10
4.141354427692171
 20
3.826452145075547
 30
0.0
 40
0.007
100
AcDbArc
 50
208.0000000000034
 51
270.0000000000001
  0
LINE
  5
16A
330
D
100
AcDbEntity
 67
     1
  8
AM_VIS
100
AcDbLine
 10
4.135173794542158
 20
3.823165844136044
 30
0.0
 11
4.040510525456762
 21
4.0089529705285
 31
0.0
  0
ARC
  5
16B
330
D
100
AcDbEntity
 67
     1
  8
AM_VIS
100
AcDbCircle
 10
4.05833065594053
 20
4.018032780523292
 30
0.0
 40
0.02
100
AcDbArc
 50
95.00000000000472
 51
207.0000000000004
  0
LINE
  5
16C
330
D
100
AcDbEntity
 67
     1
  8
AM_VIS
100
AcDbLine
 10
4.056587541085576
 20
4.037956674485126
 30
0.0
 11
4.086444567106694
 21
4.040568825788575
 31
0.0
  0
LINE
  5
16D
330
D
100
AcDbEntity
 67
     1
  8
AM_VIS
100
AcDbLine
 10
4.086444567106694
 20
4.040568825788575
 30
0.0
 11
4.090839248935004
 21
4.036174143960265
 31
0.0
  0
ARC
  5
16E
330
D
100
AcDbEntity
 67
     1
  8
AM_VIS
100
AcDbCircle
 10
4.09578899640331
 20
4.041123891428571
 30
0.0
 40
0.007
100
AcDbArc
 50
225.0000000000002
 51
0.0000000000011704
  0
LINE
  5
16F
330
D
100
AcDbEntity
 67
     1
  8
AM_VIS
100
AcDbLine
 10
4.10278899640331
 20
4.041123891428571
 30
0.0
 11
4.10278899640331
 21
4.111791411202018
 31
0.0
  0
ARC
  5
170
330
D
100
AcDbEntity
 67
     1
  8
AM_VIS
100
AcDbCircle
 10
4.09578899640331
 20
4.111791411202018
 30
0.0
 40
0.007
100
AcDbArc
 50
0.0000000000002672
 51
134.9999999999975
  0
LINE
  5
171
330
D
100
AcDbEntity
 67
     1
  8
AM_VIS
100
AcDbLine
 10
4.090839248935004
 20
4.116741158670323
 30
0.0
 11
4.082788996403309
 21
4.10869090613863
 31
0.0
  0
LINE
  5
172
330
D
100
AcDbEntity
 67
     1
  8
AM_VIS
100
AcDbLine
 10
4.082788996403309
 20
4.10869090613863
 30
0.0
 11
3.833593996403313
 21
4.10869090613863
 31
0.0
  0
ARC
  5
173
330
D
100
AcDbEntity
 67
     1
  8
AM_VIS
100
AcDbCircle
 10
3.833593996403313
 20
4.138690906138631
 30
0.0
 40
0.03
100
AcDbArc
 50
180.0000000000002
 51
270.0000000000001
  0
LINE
  5
174
330
D
100
AcDbEntity
 67
     1
  8
AM_VIS
100
AcDbLine
 10
3.803593996403313
 20
4.138690906138631
 30
0.0
 11
3.803593996403313
 21
4.376690906138629
 31
0.0
  0
ARC
  5
175
330
D
100
AcDbEntity
 67
     1
  8
AM_VIS
100
AcDbCircle
 10
3.810593996403314
 20
4.376690906138629
 30
0.0
 40
0.007
100
AcDbArc
 50
90.00000000000389
 51
180.0000000000002
  0
LINE
  5
176
330
D
100
AcDbEntity
 67
     1
  8
AM_VIS
100
AcDbLine
 10
3.810593996403314
 20
4.383690906138629
 30
0.0
 11
3.863593996403315
 21
4.383690906138629
 31
0.0
  0
ARC
  5
177
330
D
100
AcDbEntity
 67
     1
  8
AM_VIS
100
AcDbCircle
 10
3.863593996403315
 20
4.376690906138633
 30
0.0
 40
0.007
100
AcDbArc
 50
359.9999999999997
 51
90.00000000000206
  0
LINE
  5
178
330
D
100
AcDbEntity
 67
     1
  8
AM_VIS
100
AcDbLine
 10
3.870593996403314
 20
4.376690906138633
 30
0.0
 11
3.870593996403314
 21
4.365690906138631
 31
0.0
  0
ARC
  5
179
330
D
100
AcDbEntity
 67
     1
  8
AM_VIS
100
AcDbCircle
 10
3.877593996403314
 20
4.365690906138631
 30
0.0
 40
0.007
100
AcDbArc
 50
179.9999999999998
 51
269.9999999999984
  0
LINE
  5
17A
330
D
100
AcDbEntity
 67
     1
  8
AM_VIS
100
AcDbLine
 10
3.877593996403314
 20
4.35869090613863
 30
0.0
 11
4.063668996403308
 21
4.35869090613863
 31
0.0
  0
ARC
  5
17B
330
D
100
AcDbEntity
 67
     1
  8
AM_VIS
100
AcDbCircle
 10
4.063668996403308
 20
4.398690906138631
 30
0.0
 40
0.04
100
AcDbArc
 50
269.9999999999989
 51
90.00000000000026
  0
LINE
  5
17C
330
D
100
AcDbEntity
 67
     1
  8
AM_VIS
100
AcDbLine
 10
4.063668996403308
 20
4.43869090613863
 30
0.0
 11
3.610586116161484
 21
4.43869090613863
 31
0.0
  0
ARC
  5
17D
330
D
100
AcDbEntity
 67
     1
  8
AM_VIS
100
AcDbCircle
 10
3.610586116161484
 20
4.458690906138628
 30
0.0
 40
0.02
100
AcDbArc
 50
220.9607615323126
 51
270.0000000000001
  0
LINE
  5
17E
330
D
100
AcDbEntity
 67
     1
  8
AM_VIS
100
AcDbLine
 10
3.595482942182095
 20
4.445580065748011
 30
0.0
 11
3.493522107924706
 21
4.563034948348436
 31
0.0
  0
ARC
  5
17F
330
D
100
AcDbEntity
 67
     1
  8
AM_VIS
100
AcDbCircle
 10
3.478418933945316
 20
4.549924107957815
 30
0.0
 40
0.02
100
AcDbArc
 50
40.96076153230959
 51
90.00000000000154
  0
LINE
  5
180
330
D
100
AcDbEntity
 67
     1
  8
AM_VIS
100
AcDbLine
 10
3.478418933945314
 20
4.569924107957816
 30
0.0
 11
3.307089058861309
 21
4.569924107957816
 31
0.0
  0
ARC
  5
181
330
D
100
AcDbEntity
 67
     1
  8
AM_VIS
100
AcDbCircle
 10
3.307089058861309
 20
4.549924107957815
 30
0.0
 40
0.02
100
AcDbArc
 50
90.00000000000154
 51
139.0392384676887
  0
LINE
  5
182
330
D
100
AcDbEntity
 67
     1
  8
AM_VIS
100
AcDbLine
 10
3.291985884881921
 20
4.563034948348436
 30
0.0
 11
3.190025050624533
 21
4.445580065748011
 31
0.0
  0
ARC
  5
183
330
D
100
AcDbEntity
 67
     1
  8
AM_VIS
100
AcDbCircle
 10
3.174921876645141
 20
4.458690906138628
 30
0.0
 40
0.02
100
AcDbArc
 50
270.0000000000001
 51
319.0392384676911
  0
LINE
  5
184
330
D
100
AcDbEntity
 67
     1
  8
AM_VIS
100
AcDbLine
 10
3.174921876645141
 20
4.438690906138631
 30
0.0
 11
2.721838996403321
 21
4.438690906138631
 31
0.0
  0
ARC
  5
185
330
D
100
AcDbEntity
 67
     1
  8
AM_VIS
100
AcDbCircle
 10
2.721838996403321
 20
4.398690906138631
 30
0.0
 40
0.04
100
AcDbArc
 50
90.00000000000026
 51
269.9999999999996
  0
LINE
  5
186
330
D
100
AcDbEntity
 67
     1
  8
AM_VIS
100
AcDbLine
 10
2.721838996403321
 20
4.35869090613863
 30
0.0
 11
2.907913996403312
 21
4.35869090613863
 31
0.0
  0
ARC
  5
187
330
D
100
AcDbEntity
 67
     1
  8
AM_VIS
100
AcDbCircle
 10
2.907913996403313
 20
4.365690906138629
 30
0.0
 40
0.007
100
AcDbArc
 50
269.9999999999965
 51
359.9999999999993
  0
LINE
  5
188
330
D
100
AcDbEntity
 67
     1
  8
AM_VIS
100
AcDbLine
 10
2.914913996403313
 20
4.365690906138629
 30
0.0
 11
2.914913996403313
 21
4.376690906138633
 31
0.0
  0
ARC
  5
189
330
D
100
AcDbEntity
 67
     1
  8
AM_VIS
100
AcDbCircle
 10
2.921913996403312
 20
4.376690906138633
 30
0.0
 40
0.007
100
AcDbArc
 50
90.00000000000389
 51
180.0000000000002
  0
LINE
  5
18A
330
D
100
AcDbEntity
 67
     1
  8
AM_VIS
100
AcDbLine
 10
2.921913996403312
 20
4.383690906138633
 30
0.0
 11
2.974913996403314
 21
4.383690906138633
 31
0.0
  0
ARC
  5
18B
330
D
100
AcDbEntity
 67
     1
  8
AM_VIS
100
AcDbCircle
 10
2.974913996403314
 20
4.376690906138633
 30
0.0
 40
0.007
100
AcDbArc
 50
359.9999999999997
 51
90.00000000000389
  0
LINE
  5
18C
330
D
100
AcDbEntity
 67
     1
  8
AM_VIS
100
AcDbLine
 10
2.981913996403315
 20
4.376690906138633
 30
0.0
 11
2.981913996403315
 21
4.138690906138632
 31
0.0
  0
ARC
  5
18D
330
D
100
AcDbEntity
 67
     1
  8
AM_VIS
100
AcDbCircle
 10
2.951913996403313
 20
4.138690906138631
 30
0.0
 40
0.03
100
AcDbArc
 50
270.0000000000001
 51
0.0000000000025826
  0
LINE
  5
18E
330
D
100
AcDbEntity
 67
     1
  8
AM_VIS
100
AcDbLine
 10
2.951913996403313
 20
4.10869090613863
 30
0.0
 11
2.702718996403316
 21
4.10869090613863
 31
0.0
  0
LINE
  5
18F
330
D
100
AcDbEntity
 67
     1
  8
AM_VIS
100
AcDbLine
 10
2.702718996403318
 20
4.10869090613863
 30
0.0
 11
2.694668743871623
 21
4.116741158670323
 31
0.0
  0
ARC
  5
190
330
D
100
AcDbEntity
 67
     1
  8
AM_VIS
100
AcDbCircle
 10
2.689718996403318
 20
4.111791411202018
 30
0.0
 40
0.007
100
AcDbArc
 50
45.0000000000054
 51
180.0000000000002
  0
LINE
  5
191
330
D
100
AcDbEntity
 67
     1
  8
AM_VIS
100
AcDbLine
 10
2.682718996403316
 20
4.111791411202018
 30
0.0
 11
2.682718996403318
 21
4.041123891428571
 31
0.0
  0
ARC
  5
192
330
D
100
AcDbEntity
 67
     1
  8
AM_VIS
100
AcDbCircle
 10
2.689718996403316
 20
4.041123891428571
 30
0.0
 40
0.007
100
AcDbArc
 50
180.0000000000002
 51
315.0000000000041
  0
LINE
  5
193
330
D
100
AcDbEntity
 67
     1
  8
AM_VIS
100
AcDbLine
 10
2.694668743871623
 20
4.036174143960265
 30
0.0
 11
2.699063425699935
 21
4.040568825788576
 31
0.0
  0
LINE
  5
194
330
D
100
AcDbEntity
 67
     1
  8
AM_VIS
100
AcDbLine
 10
2.699063425699935
 20
4.040568825788576
 30
0.0
 11
2.728920451721054
 21
4.037956674485131
 31
0.0
  0
ARC
  5
195
330
D
100
AcDbEntity
 67
     1
  8
AM_VIS
100
AcDbCircle
 10
2.727177336866099
 20
4.018032780523296
 30
0.0
 40
0.02
100
AcDbArc
 50
333.0000000000048
 51
84.99999999999966
  0
LINE
  5
196
330
D
100
AcDbEntity
 67
     1
  8
AM_VIS
100
AcDbLine
 10
2.744997467349858
 20
4.008952970528511
 30
0.0
 11
2.650334198264479
 21
3.82316584413604
 31
0.0
  0
ARC
  5
197
330
D
100
AcDbEntity
 67
     1
  8
AM_VIS
100
AcDbCircle
 10
2.644153565114457
 20
3.826452145075547
 30
0.0
 40
0.007
100
AcDbArc
 50
270.0000000000001
 51
331.9999999999971
  0
LINE
  5
198
330
D
100
AcDbEntity
 67
     1
  8
AM_VIS
100
AcDbLine
 10
2.644153565114457
 20
3.819452145075548
 30
0.0
 11
2.553018996403316
 21
3.819452145075548
 31
0.0
  0
ARC
  5
199
330
D
100
AcDbEntity
 67
     1
  8
AM_VIS
100
AcDbCircle
 10
2.553018996403316
 20
3.881952145075548
 30
0.0
 40
0.0625
100
AcDbArc
 50
180.0000000000001
 51
270.0000000000001
  0
LINE
  5
19A
330
D
100
AcDbEntity
 67
     1
  8
AM_VIS
100
AcDbLine
 10
2.490518996403318
 20
3.881952145075548
 30
0.0
 11
2.490518996403318
 21
4.220929369020622
 31
0.0
  0
ARC
  5
19B
330
D
100
AcDbEntity
 67
     1
  8
AM_VIS
100
AcDbCircle
 10
2.500628996403317
 20
4.220929369020622
 30
0.0
 40
0.01011
100
AcDbArc
 50
90.00000000000026
 51
180.0000000000002
  0
LINE
  5
19C
330
D
100
AcDbEntity
 67
     1
  8
AM_VIS
100
AcDbLine
 10
2.500628996403317
 20
4.231039369020622
 30
0.0
 11
2.54106899640332
 21
4.231039369020622
 31
0.0
  0
ARC
  5
19D
330
D
100
AcDbEntity
 67
     1
  8
AM_VIS
100
AcDbCircle
 10
2.54106899640332
 20
4.220929369020622
 30
0.0
 40
0.01011
100
AcDbArc
 50
0.0000000000002672
 51
90.00000000000026
  0
LINE
  5
19E
330
D
100
AcDbEntity
 67
     1
  8
AM_VIS
100
AcDbLine
 10
2.551178996403318
 20
4.220929369020622
 30
0.0
 11
2.551178996403318
 21
4.155214369020622
 31
0.0
  0
ARC
  5
19F
330
D
100
AcDbEntity
 67
     1
  8
AM_VIS
100
AcDbCircle
 10
2.576453996403318
 20
4.155214369020622
 30
0.0
 40
0.025275
100
AcDbArc
 50
180.0000000000002
 51
270.0000000000001
  0
LINE
  5
1A0
330
D
100
AcDbEntity
 67
     1
  8
AM_VIS
100
AcDbLine
 10
2.576453996403318
 20
4.129939369020623
 30
0.0
 11
2.586563996403319
 21
4.129939369020623
 31
0.0
  0
ARC
  5
1A1
330
D
100
AcDbEntity
 67
     1
  8
AM_VIS
100
AcDbCircle
 10
2.586563996403318
 20
4.155214369020622
 30
0.0
 40
0.025275
100
AcDbArc
 50
270.0000000000001
 51
359.9999999999988
  0
LINE
  5
1A2
330
D
100
AcDbEntity
 67
     1
  8
AM_VIS
100
AcDbLine
 10
2.611838996403318
 20
4.155214369020622
 30
0.0
 11
2.611838996403319
 21
4.838993684546228
 31
0.0
  0
LINE
  5
1A3
330
D
100
AcDbEntity
 67
     1
  8
AM_VIS
100
AcDbLine
 10
2.611838996403318
 20
4.838993684546228
 30
0.0
 11
2.66483899640332
 21
4.838993684546228
 31
0.0
  0
LINE
  5
1A4
330
D
100
AcDbEntity
 67
     1
  8
AM_VIS
100
AcDbLine
 10
2.66483899640332
 20
4.838993684546228
 30
0.0
 11
2.66483899640332
 21
4.688690906138628
 31
0.0
  0
LINE
  5
1A5
330
D
100
AcDbEntity
 67
     1
  8
AM_VIS
100
AcDbLine
 10
2.66483899640332
 20
4.688690906138628
 30
0.0
 11
3.060886912557755
 21
4.688690906138628
 31
0.0
  0
ARC
  5
1A6
330
D
100
AcDbEntity
 67
     1
  8
AM_VIS
100
AcDbCircle
 10
3.193054094773924
 20
4.799924107957818
 30
0.0
 40
0.02
100
AcDbArc
 50
90.00000000000026
 51
139.0392384676873
  0
LINE
  5
1A7
330
D
100
AcDbEntity
 67
     1
  8
AM_VIS
100
AcDbLine
 10
3.193054094773923
 20
4.819924107957818
 30
0.0
 11
3.592453898032701
 21
4.819924107957818
 31
0.0
  0
ARC
  5
1A8
330
D
100
AcDbEntity
 67
     1
  8
AM_VIS
100
AcDbCircle
 10
3.592453898032701
 20
4.799924107957818
 30
0.0
 40
0.02
100
AcDbArc
 50
40.96076153231138
 51
90.00000000000026
  0
LINE
  5
1A9
330
D
100
AcDbEntity
 67
     1
  8
AM_VIS
100
AcDbLine
 10
3.607557072012091
 20
4.813034948348436
 30
0.0
 11
3.709517906269481
 21
4.695580065748009
 31
0.0
  0
ARC
  5
1AA
330
D
100
AcDbEntity
 67
     1
  8
AM_VIS
100
AcDbCircle
 10
3.724621080248871
 20
4.708690906138627
 30
0.0
 40
0.02
100
AcDbArc
 50
220.9607615323109
 51
270.0000000000001
  0
LINE
  5
1AB
330
D
100
AcDbEntity
 67
     1
  8
AM_VIS
100
AcDbLine
 10
3.724621080248871
 20
4.688690906138628
 30
0.0
 11
4.120668996403305
 21
4.688690906138628
 31
0.0
  0
LINE
  5
1AC
330
D
100
AcDbEntity
 67
     1
  8
AM_HID
100
AcDbLine
 10
2.912824568720101
 20
4.688690906138628
 30
0.0
 11
2.912824568720101
 21
4.438690906138631
 31
0.0
  0
LINE
  5
1AF
330
D
100
AcDbEntity
 67
     1
  8
AM_HID
100
AcDbLine
 10
2.756824568720099
 20
4.688690906138628
 30
0.0
 11
2.756824568720099
 21
4.438690906138628
 31
0.0
  0
LINE
  5
1B0
330
D
100
AcDbEntity
 67
     1
  8
AM_HID
100
AcDbLine
 10
2.889824568720101
 20
4.35869090613863
 30
0.0
 11
2.889824568720101
 21
4.10869090613863
 31
0.0
  0
LINE
  5
1B1
330
D
100
AcDbEntity
 67
     1
  8
AM_HID
100
AcDbLine
 10
2.779824568720099
 20
4.35869090613863
 30
0.0
 11
2.779824568720099
 21
4.10869090613863
 31
0.0
  0
LINE
  5
1B2
330
D
100
AcDbEntity
 67
     1
  8
AM_HID
100
AcDbLine
 10
4.028683424086525
 20
4.688690906138628
 30
0.0
 11
4.028683424086525
 21
4.438690906138631
 31
0.0
  0
LINE
  5
1B3
330
D
100
AcDbEntity
 67
     1
  8
AM_HID
100
AcDbLine
 10
3.872683424086524
 20
4.688690906138628
 30
0.0
 11
3.872683424086524
 21
4.438690906138628
 31
0.0
  0
LINE
  5
1B4
330
D
100
AcDbEntity
 67
     1
  8
AM_HID
100
AcDbLine
 10
4.005683424086524
 20
4.35869090613863
 30
0.0
 11
4.005683424086524
 21
4.10869090613863
 31
0.0
  0
LINE
  5
1B5
330
D
100
AcDbEntity
 67
     1
  8
AM_HID
100
AcDbLine
 10
3.895683424086525
 20
4.35869090613863
 30
0.0
 11
3.895683424086525
 21
4.10869090613863
 31
0.0
  0
LINE
  5
1B6
330
D
100
AcDbEntity
 67
     1
  8
AM_VIS
100
AcDbLine
 10
4.001933424086523
 20
4.819437024551991
 30
0.0
 11
4.001933424086523
 21
4.818388792482525
 31
0.0
  0
LINE
  5
1B7
330
D
100
AcDbEntity
 67
     1
  8
AM_HID
100
AcDbLine
 10
4.001933424086523
 20
4.787690906138611
 30
0.0
 11
4.001933424086523
 21
4.818388792482526
 31
0.0
  0
ARC
  5
1B8
330
D
100
AcDbEntity
 67
     1
  8
AM_VIS
100
AcDbCircle
 10
3.950683424086526
 20
4.681061754932847
 30
0.0
 40
0.1465785719065731
100
AcDbArc
 50
96.66008123698565
 51
110.4654093578454
  0
LINE
  5
1B9
330
D
100
AcDbEntity
 67
     1
  8
AM_HID
100
AcDbLine
 10
3.933683424086523
 20
4.787690906138611
 30
0.0
 11
3.899433424086526
 21
4.787690906138611
 31
0.0
  0
LINE
  5
1BA
330
D
100
AcDbEntity
 67
     1
  8
AM_HID
100
AcDbLine
 10
3.899433424086526
 20
4.787690906138611
 30
0.0
 11
3.899433424086526
 21
4.818388792482525
 31
0.0
  0
LINE
  5
1BB
330
D
100
AcDbEntity
 67
     1
  8
AM_VIS
100
AcDbLine
 10
3.899433424086526
 20
4.818388792482525
 30
0.0
 11
3.899433424086526
 21
4.819437024551991
 31
0.0
  0
ARC
  5
1BC
330
D
100
AcDbEntity
 67
     1
  8
AM_VIS
100
AcDbCircle
 10
3.950683424086526
 20
4.681061754932847
 30
0.0
 40
0.1465785719065731
100
AcDbArc
 50
69.53459064215525
 51
83.33991876301505
  0
LINE
  5
1BD
330
D
100
AcDbEntity
 67
     1
  8
AM_HID
100
AcDbLine
 10
4.001933424086523
 20
4.787690906138611
 30
0.0
 11
3.967683424086524
 21
4.787690906138611
 31
0.0
  0
LINE
  5
1BE
330
D
100
AcDbEntity
 67
     1
  8
AM_VIS
100
AcDbLine
 10
3.810683424086528
 20
4.727690906138628
 30
0.0
 11
4.090683424086519
 21
4.727690906138628
 31
0.0
  0
LINE
  5
1BF
330
D
100
AcDbEntity
 67
     1
  8
AM_VIS
100
AcDbLine
 10
3.967683424086524
 20
4.826651169871469
 30
0.0
 11
3.967683424086524
 21
4.812440131167943
 31
0.0
  0
ARC
  5
1C0
330
D
100
AcDbEntity
 67
     1
  8
AM_VIS
100
AcDbCircle
 10
3.950683424086526
 20
4.681061754932847
 30
0.0
 40
0.1324736869803602
100
AcDbArc
 50
82.62705182821958
 51
97.37294817178112
  0
LINE
  5
1C1
330
D
100
AcDbEntity
 67
     1
  8
AM_VIS
100
AcDbLine
 10
3.933683424086523
 20
4.812440131167943
 30
0.0
 11
3.933683424086523
 21
4.826651169871469
 31
0.0
  0
LINE
  5
1C2
330
D
100
AcDbEntity
 67
     1
  8
AM_HID
100
AcDbLine
 10
3.933683424086523
 20
4.812440131167943
 30
0.0
 11
3.933683424086523
 21
4.787690906138611
 31
0.0
  0
LINE
  5
1C3
330
D
100
AcDbEntity
 67
     1
  8
AM_HID
100
AcDbLine
 10
3.967683424086524
 20
4.787690906138611
 30
0.0
 11
3.967683424086524
 21
4.812440131167943
 31
0.0
  0
LINE
  5
1C4
330
D
100
AcDbEntity
 67
     1
  8
AM_HID
100
AcDbLine
 10
3.933683424086523
 20
4.787690906138611
 30
0.0
 11
3.967683424086524
 21
4.787690906138611
 31
0.0
  0
LINE
  5
1C5
330
D
100
AcDbEntity
 67
     1
  8
AM_VIS
100
AcDbLine
 10
3.916183424086523
 20
4.082976828137721
 30
0.0
 11
3.985183424086523
 21
4.082976828137721
 31
0.0
  0
LINE
  5
1C6
330
D
100
AcDbEntity
 67
     1
  8
AM_HID
100
AcDbLine
 10
3.881683424086523
 20
4.174833867138167
 30
0.0
 11
4.019683424086523
 21
4.174833867138167
 31
0.0
  0
ARC
  5
1C7
330
D
100
AcDbEntity
 67
     1
  8
AM_VIS
100
AcDbCircle
 10
3.950683424086524
 20
4.681061754932847
 30
0.0
 40
0.1475610983361483
100
AcDbArc
 50
110.3231004696346
 51
161.5788703578643
  0
ARC
  5
1C8
330
D
100
AcDbEntity
 67
     1
  8
AM_VIS
100
AcDbCircle
 10
3.950683424086524
 20
4.681061754932847
 30
0.0
 40
0.1475610983361484
100
AcDbArc
 50
18.42112964213598
 51
69.67689953036627
  0
LINE
  5
1C9
330
D
100
AcDbEntity
 67
     1
  8
AM_VIS
100
AcDbLine
 10
3.916183424086524
 20
4.082976828137721
 30
0.0
 11
3.906525637370504
 21
4.10869090613863
 31
0.0
  0
LINE
  5
1CA
330
D
100
AcDbEntity
 67
     1
  8
AM_HID
100
AcDbLine
 10
3.906525637370504
 20
4.10869090613863
 30
0.0
 11
3.881683424086523
 21
4.174833867138167
 31
0.0
  0
LINE
  5
1CB
330
D
100
AcDbEntity
 67
     1
  8
AM_VIS
100
AcDbLine
 10
3.985183424086523
 20
4.082976828137721
 30
0.0
 11
3.994841210802544
 21
4.10869090613863
 31
0.0
  0
LINE
  5
1CC
330
D
100
AcDbEntity
 67
     1
  8
AM_HID
100
AcDbLine
 10
3.994841210802544
 20
4.10869090613863
 30
0.0
 11
4.019683424086524
 21
4.174833867138167
 31
0.0
  0
LINE
  5
1CD
330
D
100
AcDbEntity
 67
     1
  8
AM_VIS
100
AcDbLine
 10
4.019683424086524
 20
4.727690906138612
 30
0.0
 11
4.019683424086524
 21
4.688690906138628
 31
0.0
  0
LINE
  5
1CE
330
D
100
AcDbEntity
 67
     1
  8
AM_HID
100
AcDbLine
 10
4.019683424086523
 20
4.688690906138628
 30
0.0
 11
4.019683424086523
 21
4.43869090613863
 31
0.0
  0
LINE
  5
1CF
330
D
100
AcDbEntity
 67
     1
  8
AM_VIS
100
AcDbLine
 10
4.019683424086524
 20
4.438690906138631
 30
0.0
 11
4.019683424086524
 21
4.35869090613863
 31
0.0
  0
LINE
  5
1D0
330
D
100
AcDbEntity
 67
     1
  8
AM_HID
100
AcDbLine
 10
4.019683424086523
 20
4.35869090613863
 30
0.0
 11
4.019683424086523
 21
4.174833867138167
 31
0.0
  0
LINE
  5
1D1
330
D
100
AcDbEntity
 67
     1
  8
AM_VIS
100
AcDbLine
 10
3.881683424086523
 20
4.727690906138612
 30
0.0
 11
3.881683424086523
 21
4.688690906138628
 31
0.0
  0
LINE
  5
1D2
330
D
100
AcDbEntity
 67
     1
  8
AM_HID
100
AcDbLine
 10
3.881683424086523
 20
4.688690906138628
 30
0.0
 11
3.881683424086523
 21
4.43869090613863
 31
0.0
  0
LINE
  5
1D3
330
D
100
AcDbEntity
 67
     1
  8
AM_VIS
100
AcDbLine
 10
3.881683424086523
 20
4.43869090613863
 30
0.0
 11
3.881683424086523
 21
4.35869090613863
 31
0.0
  0
LINE
  5
1D4
330
D
100
AcDbEntity
 67
     1
  8
AM_HID
100
AcDbLine
 10
3.881683424086523
 20
4.35869090613863
 30
0.0
 11
3.881683424086523
 21
4.174833867138167
 31
0.0
  0
LINE
  5
1D5
330
D
100
AcDbEntity
 67
     1
  8
AM_VIS
100
AcDbLine
 10
2.783574568720101
 20
4.819437024551991
 30
0.0
 11
2.783574568720101
 21
4.818388792482525
 31
0.0
  0
LINE
  5
1D6
330
D
100
AcDbEntity
 67
     1
  8
AM_HID
100
AcDbLine
 10
2.783574568720101
 20
4.787690906138611
 30
0.0
 11
2.783574568720101
 21
4.818388792482526
 31
0.0
  0
ARC
  5
1D7
330
D
100
AcDbEntity
 67
     1
  8
AM_VIS
100
AcDbCircle
 10
2.834824568720098
 20
4.681061754932846
 30
0.0
 40
0.1465785719065731
100
AcDbArc
 50
69.5345906421546
 51
83.33991876301444
  0
LINE
  5
1D8
330
D
100
AcDbEntity
 67
     1
  8
AM_HID
100
AcDbLine
 10
2.886074568720097
 20
4.787690906138611
 30
0.0
 11
2.886074568720098
 21
4.818388792482523
 31
0.0
  0
LINE
  5
1D9
330
D
100
AcDbEntity
 67
     1
  8
AM_HID
100
AcDbLine
 10
2.8518245687201
 20
4.787690906138611
 30
0.0
 11
2.886074568720098
 21
4.787690906138611
 31
0.0
  0
LINE
  5
1DA
330
D
100
AcDbEntity
 67
     1
  8
AM_VIS
100
AcDbLine
 10
2.886074568720097
 20
4.818388792482525
 30
0.0
 11
2.886074568720097
 21
4.819437024551991
 31
0.0
  0
ARC
  5
1DB
330
D
100
AcDbEntity
 67
     1
  8
AM_VIS
100
AcDbCircle
 10
2.834824568720098
 20
4.681061754932846
 30
0.0
 40
0.1465785719065731
100
AcDbArc
 50
96.66008123698507
 51
110.4654093578447
  0
LINE
  5
1DC
330
D
100
AcDbEntity
 67
     1
  8
AM_HID
100
AcDbLine
 10
2.783574568720101
 20
4.787690906138611
 30
0.0
 11
2.817824568720099
 21
4.787690906138611
 31
0.0
  0
LINE
  5
1DD
330
D
100
AcDbEntity
 67
     1
  8
AM_VIS
100
AcDbLine
 10
2.974824568720096
 20
4.727690906138628
 30
0.0
 11
2.694824568720104
 21
4.727690906138628
 31
0.0
  0
LINE
  5
1DE
330
D
100
AcDbEntity
 67
     1
  8
AM_VIS
100
AcDbLine
 10
2.851824568720098
 20
4.812440131167943
 30
0.0
 11
2.851824568720098
 21
4.826651169871469
 31
0.0
  0
ARC
  5
1DF
330
D
100
AcDbEntity
 67
     1
  8
AM_VIS
100
AcDbCircle
 10
2.834824568720098
 20
4.681061754932846
 30
0.0
 40
0.1324736869803602
100
AcDbArc
 50
82.62705182821894
 51
97.37294817178046
  0
LINE
  5
1E0
330
D
100
AcDbEntity
 67
     1
  8
AM_VIS
100
AcDbLine
 10
2.817824568720098
 20
4.826651169871469
 30
0.0
 11
2.817824568720098
 21
4.812440131167943
 31
0.0
  0
LINE
  5
1E1
330
D
100
AcDbEntity
 67
     1
  8
AM_HID
100
AcDbLine
 10
2.8518245687201
 20
4.812440131167943
 30
0.0
 11
2.851824568720098
 21
4.787690906138611
 31
0.0
  0
LINE
  5
1E2
330
D
100
AcDbEntity
 67
     1
  8
AM_HID
100
AcDbLine
 10
2.8518245687201
 20
4.787690906138611
 30
0.0
 11
2.817824568720098
 21
4.787690906138611
 31
0.0
  0
LINE
  5
1E3
330
D
100
AcDbEntity
 67
     1
  8
AM_HID
100
AcDbLine
 10
2.817824568720098
 20
4.787690906138611
 30
0.0
 11
2.817824568720098
 21
4.812440131167943
 31
0.0
  0
LINE
  5
1E4
330
D
100
AcDbEntity
 67
     1
  8
AM_VIS
100
AcDbLine
 10
2.8693245687201
 20
4.082976828137721
 30
0.0
 11
2.800324568720099
 21
4.082976828137721
 31
0.0
  0
LINE
  5
1E5
330
D
100
AcDbEntity
 67
     1
  8
AM_HID
100
AcDbLine
 10
2.9038245687201
 20
4.174833867138167
 30
0.0
 11
2.765824568720099
 21
4.174833867138167
 31
0.0
  0
ARC
  5
1E6
330
D
100
AcDbEntity
 67
     1
  8
AM_VIS
100
AcDbCircle
 10
2.834824568720098
 20
4.681061754932846
 30
0.0
 40
0.1475610983361484
100
AcDbArc
 50
18.42112964213566
 51
69.67689953036532
  0
ARC
  5
1E7
330
D
100
AcDbEntity
 67
     1
  8
AM_VIS
100
AcDbCircle
 10
2.834824568720098
 20
4.681061754932846
 30
0.0
 40
0.1475610983361483
100
AcDbArc
 50
110.3231004696336
 51
161.5788703578639
  0
LINE
  5
1E8
330
D
100
AcDbEntity
 67
     1
  8
AM_VIS
100
AcDbLine
 10
2.800324568720099
 20
4.082976828137723
 30
0.0
 11
2.79066678200408
 21
4.10869090613863
 31
0.0
  0
LINE
  5
1E9
330
D
100
AcDbEntity
 67
     1
  8
AM_HID
100
AcDbLine
 10
2.79066678200408
 20
4.10869090613863
 30
0.0
 11
2.765824568720099
 21
4.174833867138167
 31
0.0
  0
LINE
  5
1EA
330
D
100
AcDbEntity
 67
     1
  8
AM_VIS
100
AcDbLine
 10
2.8693245687201
 20
4.082976828137721
 30
0.0
 11
2.878982355436118
 21
4.10869090613863
 31
0.0
  0
LINE
  5
1EB
330
D
100
AcDbEntity
 67
     1
  8
AM_HID
100
AcDbLine
 10
2.878982355436118
 20
4.10869090613863
 30
0.0
 11
2.9038245687201
 21
4.174833867138167
 31
0.0
  0
LINE
  5
1EC
330
D
100
AcDbEntity
 67
     1
  8
AM_HID
100
AcDbLine
 10
2.765824568720099
 20
4.174833867138167
 30
0.0
 11
2.765824568720099
 21
4.35869090613863
 31
0.0
  0
LINE
  5
1ED
330
D
100
AcDbEntity
 67
     1
  8
AM_VIS
100
AcDbLine
 10
2.765824568720099
 20
4.35869090613863
 30
0.0
 11
2.765824568720099
 21
4.43869090613863
 31
0.0
  0
LINE
  5
1EE
330
D
100
AcDbEntity
 67
     1
  8
AM_HID
100
AcDbLine
 10
2.765824568720099
 20
4.438690906138631
 30
0.0
 11
2.765824568720099
 21
4.688690906138628
 31
0.0
  0
LINE
  5
1EF
330
D
100
AcDbEntity
 67
     1
  8
AM_VIS
100
AcDbLine
 10
2.765824568720099
 20
4.688690906138628
 30
0.0
 11
2.765824568720099
 21
4.727690906138612
 31
0.0
  0
LINE
  5
1F0
330
D
100
AcDbEntity
 67
     1
  8
AM_HID
100
AcDbLine
 10
2.9038245687201
 20
4.174833867138167
 30
0.0
 11
2.9038245687201
 21
4.35869090613863
 31
0.0
  0
LINE
  5
1F1
330
D
100
AcDbEntity
 67
     1
  8
AM_VIS
100
AcDbLine
 10
2.9038245687201
 20
4.35869090613863
 30
0.0
 11
2.9038245687201
 21
4.438690906138631
 31
0.0
  0
LINE
  5
1F2
330
D
100
AcDbEntity
 67
     1
  8
AM_HID
100
AcDbLine
 10
2.9038245687201
 20
4.438690906138631
 30
0.0
 11
2.9038245687201
 21
4.688690906138628
 31
0.0
  0
LINE
  5
1F3
330
D
100
AcDbEntity
 67
     1
  8
AM_VIS
100
AcDbLine
 10
2.9038245687201
 20
4.688690906138628
 30
0.0
 11
2.9038245687201
 21
4.727690906138612
 31
0.0
  0
CIRCLE
  5
1F4
330
D
100
AcDbEntity
 67
     1
  8
AM_HID
100
AcDbCircle
 10
2.834824568720101
 20
7.819926244555832
 30
0.0
 40
0.0780000000000003
  0
CIRCLE
  5
1F5
330
D
100
AcDbEntity
 67
     1
  8
AM_HID
100
AcDbCircle
 10
2.834824568720101
 20
7.819926244555832
 30
0.0
 40
0.055
  0
CIRCLE
  5
1F6
330
D
100
AcDbEntity
 67
     1
  8
AM_HID
100
AcDbCircle
 10
3.950683424086524
 20
7.819926244555832
 30
0.0
 40
0.0779999999999999
  0
CIRCLE
  5
1F7
330
D
100
AcDbEntity
 67
     1
  8
AM_HID
100
AcDbCircle
 10
3.950683424086524
 20
7.819926244555832
 30
0.0
 40
0.055
  0
LINE
  5
1F8
330
D
100
AcDbEntity
 67
     1
  8
AM_VIS
100
AcDbLine
 10
4.173668996403305
 20
7.979426244555834
 30
0.0
 11
4.079645996403305
 21
7.979426244555834
 31
0.0
  0
LINE
  5
1F9
330
D
100
AcDbEntity
 67
     1
  8
AM_VIS
100
AcDbLine
 10
2.70586199640332
 20
7.979426244555834
 30
0.0
 11
4.079645996403306
 21
7.979426244555834
 31
0.0
  0
LINE
  5
1FA
330
D
100
AcDbEntity
 67
     1
  8
AM_VIS
100
AcDbLine
 10
2.70586199640332
 20
7.979426244555834
 30
0.0
 11
2.61183899640332
 21
7.979426244555834
 31
0.0
  0
LINE
  5
1FB
330
D
100
AcDbEntity
 67
     1
  8
AM_VIS
100
AcDbLine
 10
2.705861996403319
 20
8.035426244555834
 30
0.0
 11
2.611838996403319
 21
8.035426244555834
 31
0.0
  0
LINE
  5
1FC
330
D
100
AcDbEntity
 67
     1
  8
AM_VIS
100
AcDbLine
 10
2.611838996403319
 20
8.035426244555834
 30
0.0
 11
2.611838996403319
 21
7.979426244555834
 31
0.0
  0
LINE
  5
1FD
330
D
100
AcDbEntity
 67
     1
  8
AM_VIS
100
AcDbLine
 10
2.705861996403319
 20
8.035426244555834
 30
0.0
 11
4.079645996403305
 21
8.035426244555834
 31
0.0
  0
LINE
  5
1FE
330
D
100
AcDbEntity
 67
     1
  8
AM_VIS
100
AcDbLine
 10
4.173668996403304
 20
8.035426244555834
 30
0.0
 11
4.173668996403304
 21
7.979426244555834
 31
0.0
  0
LINE
  5
1FF
330
D
100
AcDbEntity
 67
     1
  8
AM_VIS
100
AcDbLine
 10
4.173668996403304
 20
8.035426244555834
 30
0.0
 11
4.079645996403304
 21
8.035426244555834
 31
0.0
  0
LINE
  5
200
330
D
100
AcDbEntity
 67
     1
  8
AM_VIS
100
AcDbLine
 10
3.075990086537143
 20
7.660426244555834
 30
0.0
 11
3.177950920794535
 21
7.660426244555834
 31
0.0
  0
LINE
  5
201
330
D
100
AcDbEntity
 67
     1
  8
AM_VIS
100
AcDbLine
 10
3.060886912557755
 20
7.660426244555834
 30
0.0
 11
3.075990086537144
 21
7.660426244555834
 31
0.0
  0
LINE
  5
202
330
D
100
AcDbEntity
 67
     1
  8
AM_VIS
100
AcDbLine
 10
4.173668996403308
 20
7.979426244555834
 30
0.0
 11
4.173668996403308
 21
7.660426244555834
 31
0.0
  0
LINE
  5
203
330
D
100
AcDbEntity
 67
     1
  8
AM_VIS
100
AcDbLine
 10
4.120668996403305
 20
7.979426244555834
 30
0.0
 11
4.120668996403305
 21
7.660426244555834
 31
0.0
  0
LINE
  5
204
330
D
100
AcDbEntity
 67
     1
  8
AM_VIS
100
AcDbLine
 10
4.120668996403305
 20
7.660426244555834
 30
0.0
 11
4.173668996403307
 21
7.660426244555834
 31
0.0
  0
LINE
  5
205
330
D
100
AcDbEntity
 67
     1
  8
AM_VIS
100
AcDbLine
 10
4.173668996403308
 20
8.035426244555834
 30
0.0
 11
4.198943996403308
 21
8.035426244555834
 31
0.0
  0
LINE
  5
206
330
D
100
AcDbEntity
 67
     1
  8
AM_VIS
100
AcDbLine
 10
4.198943996403308
 20
8.035426244555834
 30
0.0
 11
4.209053996403308
 21
8.035426244555834
 31
0.0
  0
LINE
  5
207
330
D
100
AcDbEntity
 67
     1
  8
AM_VIS
100
AcDbLine
 10
4.209053996403308
 20
8.035426244555834
 30
0.0
 11
4.234328996403308
 21
8.035426244555834
 31
0.0
  0
LINE
  5
208
330
D
100
AcDbEntity
 67
     1
  8
AM_VIS
100
AcDbLine
 10
4.244438996403307
 20
8.035426244555834
 30
0.0
 11
4.234328996403307
 21
8.035426244555834
 31
0.0
  0
LINE
  5
209
330
D
100
AcDbEntity
 67
     1
  8
AM_VIS
100
AcDbLine
 10
4.244438996403307
 20
8.035426244555834
 30
0.0
 11
4.28487899640331
 21
8.035426244555834
 31
0.0
  0
LINE
  5
20A
330
D
100
AcDbEntity
 67
     1
  8
AM_VIS
100
AcDbLine
 10
4.29498899640331
 20
8.035426244555834
 30
0.0
 11
4.28487899640331
 21
8.035426244555834
 31
0.0
  0
LINE
  5
20B
330
D
100
AcDbEntity
 67
     1
  8
AM_VIS
100
AcDbLine
 10
2.500628996403317
 20
8.035426244555834
 30
0.0
 11
2.490518996403316
 21
8.035426244555834
 31
0.0
  0
LINE
  5
20C
330
D
100
AcDbEntity
 67
     1
  8
AM_VIS
100
AcDbLine
 10
2.500628996403317
 20
8.035426244555834
 30
0.0
 11
2.54106899640332
 21
8.035426244555834
 31
0.0
  0
LINE
  5
20D
330
D
100
AcDbEntity
 67
     1
  8
AM_VIS
100
AcDbLine
 10
2.55117899640332
 20
8.035426244555834
 30
0.0
 11
2.54106899640332
 21
8.035426244555834
 31
0.0
  0
LINE
  5
20E
330
D
100
AcDbEntity
 67
     1
  8
AM_VIS
100
AcDbLine
 10
2.551178996403319
 20
8.035426244555834
 30
0.0
 11
2.576453996403318
 21
8.035426244555834
 31
0.0
  0
LINE
  5
20F
330
D
100
AcDbEntity
 67
     1
  8
AM_VIS
100
AcDbLine
 10
2.576453996403318
 20
8.035426244555834
 30
0.0
 11
2.586563996403319
 21
8.035426244555834
 31
0.0
  0
LINE
  5
210
330
D
100
AcDbEntity
 67
     1
  8
AM_VIS
100
AcDbLine
 10
2.586563996403319
 20
8.035426244555834
 30
0.0
 11
2.611838996403319
 21
8.035426244555834
 31
0.0
  0
LINE
  5
211
330
D
100
AcDbEntity
 67
     1
  8
AM_VIS
100
AcDbLine
 10
4.173668996403308
 20
7.660426244555834
 30
0.0
 11
4.198943996403308
 21
7.660426244555834
 31
0.0
  0
LINE
  5
212
330
D
100
AcDbEntity
 67
     1
  8
AM_VIS
100
AcDbLine
 10
4.198943996403308
 20
7.660426244555834
 30
0.0
 11
4.20905399640331
 21
7.660426244555834
 31
0.0
  0
LINE
  5
213
330
D
100
AcDbEntity
 67
     1
  8
AM_VIS
100
AcDbLine
 10
4.209053996403308
 20
7.660426244555834
 30
0.0
 11
4.234328996403308
 21
7.660426244555834
 31
0.0
  0
LINE
  5
214
330
D
100
AcDbEntity
 67
     1
  8
AM_VIS
100
AcDbLine
 10
4.234328996403307
 20
8.035426244555834
 30
0.0
 11
4.234328996403307
 21
7.660426244555834
 31
0.0
  0
LINE
  5
215
330
D
100
AcDbEntity
 67
     1
  8
AM_VIS
100
AcDbLine
 10
4.244438996403308
 20
7.660426244555834
 30
0.0
 11
4.234328996403307
 21
7.660426244555834
 31
0.0
  0
LINE
  5
216
330
D
100
AcDbEntity
 67
     1
  8
AM_VIS
100
AcDbLine
 10
4.244438996403308
 20
7.660426244555834
 30
0.0
 11
4.28487899640331
 21
7.660426244555834
 31
0.0
  0
LINE
  5
217
330
D
100
AcDbEntity
 67
     1
  8
AM_VIS
100
AcDbLine
 10
4.29498899640331
 20
7.660426244555834
 30
0.0
 11
4.28487899640331
 21
7.660426244555834
 31
0.0
  0
LINE
  5
218
330
D
100
AcDbEntity
 67
     1
  8
AM_VIS
100
AcDbLine
 10
4.294988996403308
 20
8.035426244555834
 30
0.0
 11
4.294988996403308
 21
7.660426244555834
 31
0.0
  0
LINE
  5
219
330
D
100
AcDbEntity
 67
     1
  8
AM_HID
100
AcDbLine
 10
4.135173794542158
 20
8.035426244555834
 30
0.0
 11
4.135173794542158
 21
7.660426244555834
 31
0.0
  0
LINE
  5
21A
330
D
100
AcDbEntity
 67
     1
  8
AM_HID
100
AcDbLine
 10
4.086444567106694
 20
8.035426244555834
 30
0.0
 11
4.086444567106694
 21
7.660426244555834
 31
0.0
  0
LINE
  5
21B
330
D
100
AcDbEntity
 67
     1
  8
AM_HID
100
AcDbLine
 10
4.10278899640331
 20
8.035426244555834
 30
0.0
 11
4.10278899640331
 21
7.660426244555834
 31
0.0
  0
LINE
  5
21C
330
D
100
AcDbEntity
 67
     1
  8
AM_HID
100
AcDbLine
 10
4.082788996403309
 20
8.035426244555834
 30
0.0
 11
4.082788996403309
 21
7.660426244555834
 31
0.0
  0
LINE
  5
21D
330
D
100
AcDbEntity
 67
     1
  8
AM_HID
100
AcDbLine
 10
3.803593996403313
 20
8.035426244555834
 30
0.0
 11
3.803593996403313
 21
7.660426244555834
 31
0.0
  0
LINE
  5
21E
330
D
100
AcDbEntity
 67
     1
  8
AM_HID
100
AcDbLine
 10
3.870593996403314
 20
8.035426244555834
 30
0.0
 11
3.870593996403314
 21
7.660426244555834
 31
0.0
  0
LINE
  5
21F
330
D
100
AcDbEntity
 67
     1
  8
AM_HID
100
AcDbLine
 10
2.914913996403313
 20
8.035426244555834
 30
0.0
 11
2.914913996403313
 21
7.660426244555834
 31
0.0
  0
LINE
  5
220
330
D
100
AcDbEntity
 67
     1
  8
AM_HID
100
AcDbLine
 10
2.981913996403316
 20
8.035426244555834
 30
0.0
 11
2.981913996403316
 21
7.660426244555834
 31
0.0
  0
LINE
  5
221
330
D
100
AcDbEntity
 67
     1
  8
AM_HID
100
AcDbLine
 10
2.702718996403316
 20
8.035426244555834
 30
0.0
 11
2.702718996403316
 21
7.660426244555834
 31
0.0
  0
LINE
  5
222
330
D
100
AcDbEntity
 67
     1
  8
AM_HID
100
AcDbLine
 10
2.682718996403316
 20
8.035426244555834
 30
0.0
 11
2.682718996403316
 21
7.660426244555834
 31
0.0
  0
LINE
  5
223
330
D
100
AcDbEntity
 67
     1
  8
AM_HID
100
AcDbLine
 10
2.699063425699935
 20
8.035426244555834
 30
0.0
 11
2.699063425699935
 21
7.660426244555834
 31
0.0
  0
LINE
  5
224
330
D
100
AcDbEntity
 67
     1
  8
AM_HID
100
AcDbLine
 10
2.65033419826447
 20
8.035426244555834
 30
0.0
 11
2.65033419826447
 21
7.660426244555834
 31
0.0
  0
LINE
  5
225
330
D
100
AcDbEntity
 67
     1
  8
AM_VIS
100
AcDbLine
 10
2.490518996403319
 20
8.035426244555834
 30
0.0
 11
2.490518996403319
 21
7.660426244555834
 31
0.0
  0
LINE
  5
226
330
D
100
AcDbEntity
 67
     1
  8
AM_VIS
100
AcDbLine
 10
2.500628996403317
 20
7.660426244555834
 30
0.0
 11
2.490518996403316
 21
7.660426244555834
 31
0.0
  0
LINE
  5
227
330
D
100
AcDbEntity
 67
     1
  8
AM_VIS
100
AcDbLine
 10
2.500628996403317
 20
7.660426244555834
 30
0.0
 11
2.54106899640332
 21
7.660426244555834
 31
0.0
  0
LINE
  5
228
330
D
100
AcDbEntity
 67
     1
  8
AM_VIS
100
AcDbLine
 10
2.55117899640332
 20
7.660426244555834
 30
0.0
 11
2.54106899640332
 21
7.660426244555834
 31
0.0
  0
LINE
  5
229
330
D
100
AcDbEntity
 67
     1
  8
AM_VIS
100
AcDbLine
 10
2.551178996403318
 20
8.035426244555834
 30
0.0
 11
2.551178996403318
 21
7.660426244555834
 31
0.0
  0
LINE
  5
22A
330
D
100
AcDbEntity
 67
     1
  8
AM_VIS
100
AcDbLine
 10
2.551178996403319
 20
7.660426244555834
 30
0.0
 11
2.576453996403318
 21
7.660426244555834
 31
0.0
  0
LINE
  5
22B
330
D
100
AcDbEntity
 67
     1
  8
AM_VIS
100
AcDbLine
 10
2.576453996403318
 20
7.660426244555834
 30
0.0
 11
2.586563996403319
 21
7.660426244555834
 31
0.0
  0
LINE
  5
22C
330
D
100
AcDbEntity
 67
     1
  8
AM_VIS
100
AcDbLine
 10
2.586563996403319
 20
7.660426244555834
 30
0.0
 11
2.611838996403319
 21
7.660426244555834
 31
0.0
  0
LINE
  5
22D
330
D
100
AcDbEntity
 67
     1
  8
AM_VIS
100
AcDbLine
 10
2.611838996403319
 20
7.979426244555834
 30
0.0
 11
2.611838996403319
 21
7.660426244555834
 31
0.0
  0
LINE
  5
22E
330
D
100
AcDbEntity
 67
     1
  8
AM_VIS
100
AcDbLine
 10
2.611838996403319
 20
7.660426244555834
 30
0.0
 11
2.66483899640332
 21
7.660426244555834
 31
0.0
  0
LINE
  5
22F
330
D
100
AcDbEntity
 67
     1
  8
AM_VIS
100
AcDbLine
 10
2.664838996403322
 20
7.979426244555834
 30
0.0
 11
2.664838996403322
 21
7.660426244555834
 31
0.0
  0
LINE
  5
230
330
D
100
AcDbEntity
 67
     1
  8
AM_VIS
100
AcDbLine
 10
2.66483899640332
 20
7.660426244555834
 30
0.0
 11
3.060886912557755
 21
7.660426244555834
 31
0.0
  0
LINE
  5
231
330
D
100
AcDbEntity
 67
     1
  8
AM_VIS
100
AcDbLine
 10
3.193054094773924
 20
7.660426244555834
 30
0.0
 11
3.177950920794535
 21
7.660426244555834
 31
0.0
  0
LINE
  5
232
330
D
100
AcDbEntity
 67
     1
  8
AM_VIS
100
AcDbLine
 10
3.193054094773924
 20
7.660426244555834
 30
0.0
 11
3.592453898032701
 21
7.660426244555834
 31
0.0
  0
LINE
  5
233
330
D
100
AcDbEntity
 67
     1
  8
AM_VIS
100
AcDbLine
 10
3.607557072012091
 20
7.660426244555834
 30
0.0
 11
3.592453898032701
 21
7.660426244555834
 31
0.0
  0
LINE
  5
234
330
D
100
AcDbEntity
 67
     1
  8
AM_VIS
100
AcDbLine
 10
3.607557072012091
 20
7.660426244555834
 30
0.0
 11
3.709517906269481
 21
7.660426244555834
 31
0.0
  0
LINE
  5
235
330
D
100
AcDbEntity
 67
     1
  8
AM_VIS
100
AcDbLine
 10
3.709517906269481
 20
7.660426244555834
 30
0.0
 11
3.724621080248871
 21
7.660426244555834
 31
0.0
  0
LINE
  5
236
330
D
100
AcDbEntity
 67
     1
  8
AM_VIS
100
AcDbLine
 10
3.724621080248871
 20
7.660426244555834
 30
0.0
 11
4.120668996403305
 21
7.660426244555834
 31
0.0
  0
LINE
  5
237
330
D
100
AcDbEntity
 67
     1
  8
AM_HID
100
AcDbLine
 10
4.038330655940529
 20
8.035426244555834
 30
0.0
 11
4.038330655940529
 21
7.660426244555834
 31
0.0
  0
LINE
  5
238
330
D
100
AcDbEntity
 67
     1
  8
AM_HID
100
AcDbLine
 10
4.103668996403308
 20
8.035426244555834
 30
0.0
 11
4.103668996403308
 21
7.660426244555834
 31
0.0
  0
LINE
  5
239
330
D
100
AcDbEntity
 67
     1
  8
AM_HID
100
AcDbLine
 10
2.681838996403322
 20
8.035426244555834
 30
0.0
 11
2.681838996403322
 21
7.660426244555834
 31
0.0
  0
LINE
  5
23A
330
D
100
AcDbEntity
 67
     1
  8
AM_HID
100
AcDbLine
 10
2.747177336866099
 20
8.035426244555834
 30
0.0
 11
2.747177336866099
 21
7.660426244555834
 31
0.0
  0
LINE
  5
23B
330
D
100
AcDbEntity
 67
     1
  8
AM_VIS
100
AcDbLine
 10
4.001933424086523
 20
7.836926244555834
 30
0.0
 11
4.001933424086523
 21
7.802926244555831
 31
0.0
  0
LINE
  5
23C
330
D
100
AcDbEntity
 67
     1
  8
AM_VIS
100
AcDbLine
 10
3.933683424086524
 20
7.802926244555831
 30
0.0
 11
3.899433424086526
 21
7.802926244555831
 31
0.0
  0
LINE
  5
23D
330
D
100
AcDbEntity
 67
     1
  8
AM_VIS
100
AcDbLine
 10
3.899433424086526
 20
7.836926244555834
 30
0.0
 11
3.933683424086523
 21
7.836926244555834
 31
0.0
  0
LINE
  5
23E
330
D
100
AcDbEntity
 67
     1
  8
AM_VIS
100
AcDbLine
 10
3.967683424086524
 20
7.836926244555834
 30
0.0
 11
4.001933424086523
 21
7.836926244555834
 31
0.0
  0
LINE
  5
23F
330
D
100
AcDbEntity
 67
     1
  8
AM_VIS
100
AcDbLine
 10
3.899433424086526
 20
7.802926244555831
 30
0.0
 11
3.899433424086526
 21
7.836926244555834
 31
0.0
  0
LINE
  5
240
330
D
100
AcDbEntity
 67
     1
  8
AM_VIS
100
AcDbLine
 10
4.001933424086523
 20
7.802926244555831
 30
0.0
 11
3.967683424086524
 21
7.802926244555831
 31
0.0
  0
CIRCLE
  5
241
330
D
100
AcDbEntity
 67
     1
  8
AM_VIS
100
AcDbCircle
 10
3.950683424086523
 20
7.819926244555832
 30
0.0
 40
0.1399999999999961
  0
LINE
  5
242
330
D
100
AcDbEntity
 67
     1
  8
AM_VIS
100
AcDbLine
 10
3.967683424086524
 20
7.802926244555831
 30
0.0
 11
3.967683424086524
 21
7.754926244555831
 31
0.0
  0
LINE
  5
243
330
D
100
AcDbEntity
 67
     1
  8
AM_VIS
100
AcDbLine
 10
3.967683424086524
 20
7.754926244555834
 30
0.0
 11
3.933683424086524
 21
7.754926244555834
 31
0.0
  0
LINE
  5
244
330
D
100
AcDbEntity
 67
     1
  8
AM_VIS
100
AcDbLine
 10
3.933683424086523
 20
7.754926244555834
 30
0.0
 11
3.933683424086523
 21
7.802926244555834
 31
0.0
  0
LINE
  5
245
330
D
100
AcDbEntity
 67
     1
  8
AM_VIS
100
AcDbLine
 10
3.933683424086523
 20
7.836926244555834
 30
0.0
 11
3.933683424086523
 21
7.884926244555832
 31
0.0
  0
LINE
  5
246
330
D
100
AcDbEntity
 67
     1
  8
AM_VIS
100
AcDbLine
 10
3.933683424086524
 20
7.884926244555834
 30
0.0
 11
3.967683424086524
 21
7.884926244555834
 31
0.0
  0
LINE
  5
247
330
D
100
AcDbEntity
 67
     1
  8
AM_VIS
100
AcDbLine
 10
3.967683424086524
 20
7.884926244555834
 30
0.0
 11
3.967683424086524
 21
7.836926244555834
 31
0.0
  0
CIRCLE
  5
248
330
D
100
AcDbEntity
 67
     1
  8
AM_HID
100
AcDbCircle
 10
3.950683424086523
 20
7.819926244555832
 30
0.0
 40
0.0345
  0
CIRCLE
  5
249
330
D
100
AcDbEntity
 67
     1
  8
AM_HID
100
AcDbCircle
 10
3.950683424086523
 20
7.819926244555832
 30
0.0
 40
0.0690000000000004
  0
LINE
  5
24A
330
D
100
AcDbEntity
 67
     1
  8
AM_VIS
100
AcDbLine
 10
2.783574568720101
 20
7.836926244555834
 30
0.0
 11
2.783574568720101
 21
7.802926244555834
 31
0.0
  0
LINE
  5
24B
330
D
100
AcDbEntity
 67
     1
  8
AM_VIS
100
AcDbLine
 10
2.8518245687201
 20
7.802926244555831
 30
0.0
 11
2.886074568720097
 21
7.802926244555831
 31
0.0
  0
LINE
  5
24C
330
D
100
AcDbEntity
 67
     1
  8
AM_VIS
100
AcDbLine
 10
2.886074568720097
 20
7.836926244555834
 30
0.0
 11
2.8518245687201
 21
7.836926244555834
 31
0.0
  0
LINE
  5
24D
330
D
100
AcDbEntity
 67
     1
  8
AM_VIS
100
AcDbLine
 10
2.817824568720098
 20
7.836926244555834
 30
0.0
 11
2.783574568720101
 21
7.836926244555834
 31
0.0
  0
LINE
  5
24E
330
D
100
AcDbEntity
 67
     1
  8
AM_VIS
100
AcDbLine
 10
2.886074568720097
 20
7.802926244555834
 30
0.0
 11
2.886074568720097
 21
7.836926244555834
 31
0.0
  0
LINE
  5
24F
330
D
100
AcDbEntity
 67
     1
  8
AM_VIS
100
AcDbLine
 10
2.783574568720101
 20
7.802926244555834
 30
0.0
 11
2.817824568720098
 21
7.802926244555834
 31
0.0
  0
CIRCLE
  5
250
330
D
100
AcDbEntity
 67
     1
  8
AM_VIS
100
AcDbCircle
 10
2.8348245687201
 20
7.819926244555832
 30
0.0
 40
0.1399999999999961
  0
LINE
  5
251
330
D
100
AcDbEntity
 67
     1
  8
AM_VIS
100
AcDbLine
 10
2.817824568720098
 20
7.884926244555834
 30
0.0
 11
2.817824568720098
 21
7.836926244555834
 31
0.0
  0
LINE
  5
252
330
D
100
AcDbEntity
 67
     1
  8
AM_VIS
100
AcDbLine
 10
2.8518245687201
 20
7.884926244555834
 30
0.0
 11
2.817824568720098
 21
7.884926244555834
 31
0.0
  0
LINE
  5
253
330
D
100
AcDbEntity
 67
     1
  8
AM_VIS
100
AcDbLine
 10
2.8518245687201
 20
7.836926244555834
 30
0.0
 11
2.851824568720098
 21
7.884926244555834
 31
0.0
  0
LINE
  5
254
330
D
100
AcDbEntity
 67
     1
  8
AM_VIS
100
AcDbLine
 10
2.8518245687201
 20
7.754926244555834
 30
0.0
 11
2.851824568720098
 21
7.802926244555834
 31
0.0
  0
LINE
  5
255
330
D
100
AcDbEntity
 67
     1
  8
AM_VIS
100
AcDbLine
 10
2.817824568720098
 20
7.754926244555834
 30
0.0
 11
2.8518245687201
 21
7.754926244555834
 31
0.0
  0
LINE
  5
256
330
D
100
AcDbEntity
 67
     1
  8
AM_VIS
100
AcDbLine
 10
2.817824568720098
 20
7.802926244555834
 30
0.0
 11
2.817824568720098
 21
7.754926244555834
 31
0.0
  0
CIRCLE
  5
257
330
D
100
AcDbEntity
 67
     1
  8
AM_HID
100
AcDbCircle
 10
2.8348245687201
 20
7.819926244555832
 30
0.0
 40
0.0345
  0
CIRCLE
  5
258
330
D
100
AcDbEntity
 67
     1
  8
AM_HID
100
AcDbCircle
 10
2.8348245687201
 20
7.819926244555832
 30
0.0
 40
0.0690000000000004
  0
LINE
  5
259
330
D
100
AcDbEntity
 67
     1
  8
AM_HID
100
AcDbLine
 10
8.034830499171565
 20
4.838993684546228
 30
0.0
 11
8.034830499171565
 21
4.688690906138628
 31
0.0
  0
LINE
  5
25A
330
D
100
AcDbEntity
 67
     1
  8
AM_VIS
100
AcDbLine
 10
8.034830499171565
 20
5.313069006138633
 30
0.0
 11
8.034830499171565
 21
4.838993684546228
 31
0.0
  0
LINE
  5
25B
330
D
100
AcDbEntity
 67
     1
  8
AM_VIS
100
AcDbLine
 10
8.034830499171565
 20
5.313069006138633
 30
0.0
 11
8.034830499171565
 21
5.407092006138632
 31
0.0
  0
LINE
  5
25C
330
D
100
AcDbEntity
 67
     1
  8
AM_VIS
100
AcDbLine
 10
8.090830499171566
 20
5.407092006138632
 30
0.0
 11
8.034830499171567
 21
5.407092006138632
 31
0.0
  0
LINE
  5
25D
330
D
100
AcDbEntity
 67
     1
  8
AM_VIS
100
AcDbLine
 10
8.090830499171566
 20
5.313069006138633
 30
0.0
 11
8.090830499171566
 21
5.407092006138632
 31
0.0
  0
LINE
  5
25E
330
D
100
AcDbEntity
 67
     1
  8
AM_VIS
100
AcDbLine
 10
8.090830499171566
 20
5.313069006138633
 30
0.0
 11
8.090830499171566
 21
4.231039369020622
 31
0.0
  0
LINE
  5
25F
330
D
100
AcDbEntity
 67
     1
  8
AM_VIS
100
AcDbLine
 10
8.034830499171565
 20
4.838993684546228
 30
0.0
 11
7.715830499171565
 21
4.838993684546228
 31
0.0
  0
LINE
  5
260
330
D
100
AcDbEntity
 67
     1
  8
AM_VIS
100
AcDbLine
 10
7.715830499171566
 20
4.838993684546228
 30
0.0
 11
7.715830499171566
 21
4.231039369020622
 31
0.0
  0
LINE
  5
261
330
D
100
AcDbEntity
 67
     1
  8
AM_VIS
100
AcDbLine
 10
8.090830499171566
 20
4.220929369020622
 30
0.0
 11
8.090830499171566
 21
4.231039369020622
 31
0.0
  0
LINE
  5
262
330
D
100
AcDbEntity
 67
     1
  8
AM_VIS
100
AcDbLine
 10
8.090830499171566
 20
4.220929369020622
 30
0.0
 11
8.090830499171566
 21
3.881952145075548
 31
0.0
  0
LINE
  5
263
330
D
100
AcDbEntity
 67
     1
  8
AM_VIS
100
AcDbLine
 10
8.090830499171566
 20
3.819452145075548
 30
0.0
 11
8.090830499171566
 21
3.881952145075548
 31
0.0
  0
LINE
  5
264
330
D
100
AcDbEntity
 67
     1
  8
AM_HID
100
AcDbLine
 10
8.034830499171565
 20
4.688690906138628
 30
0.0
 11
7.715830499171565
 21
4.688690906138628
 31
0.0
  0
LINE
  5
265
330
D
100
AcDbEntity
 67
     1
  8
AM_HID
100
AcDbLine
 10
8.090830499171566
 20
4.129939369020623
 30
0.0
 11
7.715830499171566
 21
4.129939369020623
 31
0.0
  0
LINE
  5
266
330
D
100
AcDbEntity
 67
     1
  8
AM_VIS
100
AcDbLine
 10
8.090830499171566
 20
4.231039369020622
 30
0.0
 11
7.715830499171566
 21
4.231039369020622
 31
0.0
  0
LINE
  5
267
330
D
100
AcDbEntity
 67
     1
  8
AM_VIS
100
AcDbLine
 10
7.715830499171566
 20
4.220929369020622
 30
0.0
 11
7.715830499171566
 21
4.231039369020622
 31
0.0
  0
LINE
  5
268
330
D
100
AcDbEntity
 67
     1
  8
AM_VIS
100
AcDbLine
 10
7.715830499171566
 20
4.220929369020622
 30
0.0
 11
7.715830499171566
 21
3.881952145075548
 31
0.0
  0
LINE
  5
269
330
D
100
AcDbEntity
 67
     1
  8
AM_VIS
100
AcDbLine
 10
7.715830499171566
 20
3.819452145075548
 30
0.0
 11
7.715830499171566
 21
3.881952145075548
 31
0.0
  0
LINE
  5
26A
330
D
100
AcDbEntity
 67
     1
  8
AM_VIS
100
AcDbLine
 10
8.090830499171566
 20
3.819452145075548
 30
0.0
 11
7.715830499171566
 21
3.819452145075548
 31
0.0
  0
LINE
  5
26B
330
D
100
AcDbEntity
 67
     1
  8
AM_HID
100
AcDbLine
 10
8.090830499171566
 20
3.823165844136044
 30
0.0
 11
7.715830499171566
 21
3.823165844136044
 31
0.0
  0
LINE
  5
26C
330
D
100
AcDbEntity
 67
     1
  8
AM_HID
100
AcDbLine
 10
8.090830499171566
 20
4.040568825788575
 30
0.0
 11
7.715830499171566
 21
4.040568825788575
 31
0.0
  0
LINE
  5
26D
330
D
100
AcDbEntity
 67
     1
  8
AM_HID
100
AcDbLine
 10
8.090830499171566
 20
4.10869090613863
 30
0.0
 11
7.715830499171566
 21
4.10869090613863
 31
0.0
  0
LINE
  5
26E
330
D
100
AcDbEntity
 67
     1
  8
AM_HID
100
AcDbLine
 10
8.090830499171566
 20
4.383690906138633
 30
0.0
 11
7.715830499171566
 21
4.383690906138633
 31
0.0
  0
LINE
  5
26F
330
D
100
AcDbEntity
 67
     1
  8
AM_HID
100
AcDbLine
 10
8.090830499171566
 20
4.35869090613863
 30
0.0
 11
7.715830499171566
 21
4.35869090613863
 31
0.0
  0
LINE
  5
270
330
D
100
AcDbEntity
 67
     1
  8
AM_HID
100
AcDbLine
 10
8.090830499171566
 20
4.438690906138631
 30
0.0
 11
7.715830499171566
 21
4.438690906138631
 31
0.0
  0
LINE
  5
271
330
D
100
AcDbEntity
 67
     1
  8
AM_HID
100
AcDbLine
 10
8.090830499171566
 20
4.569924107957816
 30
0.0
 11
7.715830499171566
 21
4.569924107957816
 31
0.0
  0
LINE
  5
272
330
D
100
AcDbEntity
 67
     1
  8
AM_HID
100
AcDbLine
 10
8.034830499171565
 20
4.819924107957818
 30
0.0
 11
7.715830499171565
 21
4.819924107957818
 31
0.0
  0
LINE
  5
273
330
D
100
AcDbEntity
 67
     1
  8
AM_HID
100
AcDbLine
 10
7.953330499171566
 20
4.688690906138628
 30
0.0
 11
7.953330499171566
 21
4.438690906138631
 31
0.0
  0
LINE
  5
274
330
D
100
AcDbEntity
 67
     1
  8
AM_HID
100
AcDbLine
 10
7.797330499171566
 20
4.688690906138628
 30
0.0
 11
7.797330499171566
 21
4.438690906138631
 31
0.0
  0
LINE
  5
275
330
D
100
AcDbEntity
 67
     1
  8
AM_HID
100
AcDbLine
 10
7.930330499171566
 20
4.35869090613863
 30
0.0
 11
7.930330499171566
 21
4.10869090613863
 31
0.0
  0
LINE
  5
276
330
D
100
AcDbEntity
 67
     1
  8
AM_HID
100
AcDbLine
 10
7.820330499171566
 20
4.35869090613863
 30
0.0
 11
7.820330499171566
 21
4.10869090613863
 31
0.0
  0
LINE
  5
277
330
D
100
AcDbEntity
 67
     1
  8
AM_HID
100
AcDbLine
 10
8.090830499171566
 20
4.034123891428571
 30
0.0
 11
7.715830499171566
 21
4.034123891428571
 31
0.0
  0
LINE
  5
278
330
D
100
AcDbEntity
 67
     1
  8
AM_HID
100
AcDbLine
 10
8.090830499171566
 20
4.118791411202018
 30
0.0
 11
7.715830499171566
 21
4.118791411202018
 31
0.0
  0
ARC
  5
279
330
D
100
AcDbEntity
 67
     1
  8
AM_HID
100
AcDbCircle
 10
7.875330499171567
 20
4.681061754932847
 30
0.0
 40
0.1383752696191434
100
AcDbArc
 50
82.94313756294389
 51
97.05686243705613
  0
LINE
  5
27A
330
D
100
AcDbEntity
 67
     1
  8
AM_HID
100
AcDbLine
 10
7.892330499171566
 20
4.787690906138611
 30
0.0
 11
7.892330499171566
 21
4.818388792482526
 31
0.0
  0
LINE
  5
27B
330
D
100
AcDbEntity
 67
     1
  8
AM_HID
100
AcDbLine
 10
7.892330499171566
 20
4.787690906138611
 30
0.0
 11
7.858330499171565
 21
4.787690906138611
 31
0.0
  0
LINE
  5
27C
330
D
100
AcDbEntity
 67
     1
  8
AM_HID
100
AcDbLine
 10
7.858330499171565
 20
4.787690906138611
 30
0.0
 11
7.858330499171565
 21
4.818388792482526
 31
0.0
  0
LINE
  5
27D
330
D
100
AcDbEntity
 67
     1
  8
AM_HID
100
AcDbLine
 10
7.892330499171566
 20
4.826651169871469
 30
0.0
 11
7.892330499171566
 21
4.818388792482526
 31
0.0
  0
LINE
  5
27E
330
D
100
AcDbEntity
 67
     1
  8
AM_HID
100
AcDbLine
 10
7.858330499171565
 20
4.818388792482525
 30
0.0
 11
7.858330499171565
 21
4.826651169871468
 31
0.0
  0
LINE
  5
27F
330
D
100
AcDbEntity
 67
     1
  8
AM_HID
100
AcDbLine
 10
7.73533049917157
 20
4.727690906138628
 30
0.0
 11
7.875330499171567
 21
4.727690906138628
 31
0.0
  0
LINE
  5
280
330
D
100
AcDbEntity
 67
     1
  8
AM_HID
100
AcDbLine
 10
7.875330499171563
 20
4.727690906138628
 30
0.0
 11
8.015330499171561
 21
4.727690906138628
 31
0.0
  0
ARC
  5
281
330
D
100
AcDbEntity
 67
     1
  8
AM_HID
100
AcDbCircle
 10
7.875330499171567
 20
4.681061754932847
 30
0.0
 40
0.1465785719065733
100
AcDbArc
 50
96.66008123698532
 51
116.3240960337459
  0
LINE
  5
282
330
D
100
AcDbEntity
 67
     1
  8
AM_HID
100
AcDbLine
 10
7.810330499171566
 20
4.812440131167943
 30
0.0
 11
7.810330499171566
 21
4.813535441913208
 31
0.0
  0
LINE
  5
283
330
D
100
AcDbEntity
 67
     1
  8
AM_HID
100
AcDbLine
 10
7.940330499171566
 20
4.813535441913208
 30
0.0
 11
7.940330499171566
 21
4.812440131167943
 31
0.0
  0
ARC
  5
284
330
D
100
AcDbEntity
 67
     1
  8
AM_HID
100
AcDbCircle
 10
7.875330499171567
 20
4.681061754932847
 30
0.0
 40
0.1465785719065733
100
AcDbArc
 50
63.675903966254
 51
83.33991876301473
  0
LINE
  5
285
330
D
100
AcDbEntity
 67
     1
  8
AM_HID
100
AcDbLine
 10
7.940330499171566
 20
4.812440131167943
 30
0.0
 11
7.940330499171566
 21
4.787690906138611
 31
0.0
  0
LINE
  5
286
330
D
100
AcDbEntity
 67
     1
  8
AM_HID
100
AcDbLine
 10
7.940330499171566
 20
4.787690906138611
 30
0.0
 11
7.892330499171566
 21
4.787690906138611
 31
0.0
  0
LINE
  5
287
330
D
100
AcDbEntity
 67
     1
  8
AM_HID
100
AcDbLine
 10
7.810330499171566
 20
4.787690906138611
 30
0.0
 11
7.810330499171566
 21
4.812440131167943
 31
0.0
  0
LINE
  5
288
330
D
100
AcDbEntity
 67
     1
  8
AM_HID
100
AcDbLine
 10
7.858330499171565
 20
4.787690906138611
 30
0.0
 11
7.810330499171565
 21
4.787690906138611
 31
0.0
  0
LINE
  5
289
330
D
100
AcDbEntity
 67
     1
  8
AM_HID
100
AcDbLine
 10
7.840830499171566
 20
4.082976828137721
 30
0.0
 11
7.875330499171567
 21
4.082976828137721
 31
0.0
  0
LINE
  5
28A
330
D
100
AcDbEntity
 67
     1
  8
AM_HID
100
AcDbLine
 10
7.875330499171567
 20
4.082976828137721
 30
0.0
 11
7.909830499171566
 21
4.082976828137721
 31
0.0
  0
LINE
  5
28B
330
D
100
AcDbEntity
 67
     1
  8
AM_HID
100
AcDbLine
 10
7.806330499171567
 20
4.174833867138167
 30
0.0
 11
7.875330499171567
 21
4.174833867138167
 31
0.0
  0
LINE
  5
28C
330
D
100
AcDbEntity
 67
     1
  8
AM_HID
100
AcDbLine
 10
7.875330499171565
 20
4.174833867138167
 30
0.0
 11
7.944330499171567
 21
4.174833867138167
 31
0.0
  0
ARC
  5
28D
330
D
100
AcDbEntity
 67
     1
  8
AM_HID
100
AcDbCircle
 10
7.875330499171567
 20
4.681061754932847
 30
0.0
 40
0.1475610983361484
100
AcDbArc
 50
116.1355003468967
 51
161.5788703578641
  0
ARC
  5
28E
330
D
100
AcDbEntity
 67
     1
  8
AM_HID
100
AcDbCircle
 10
7.875330499171567
 20
4.681061754932847
 30
0.0
 40
0.1475610983361484
100
AcDbArc
 50
18.42112964213592
 51
63.86449965310333
  0
LINE
  5
28F
330
D
100
AcDbEntity
 67
     1
  8
AM_HID
100
AcDbLine
 10
7.840830499171566
 20
4.082976828137723
 30
0.0
 11
7.806330499171565
 21
4.174833867138167
 31
0.0
  0
LINE
  5
290
330
D
100
AcDbEntity
 67
     1
  8
AM_HID
100
AcDbLine
 10
7.909830499171565
 20
4.082976828137723
 30
0.0
 11
7.944330499171567
 21
4.174833867138167
 31
0.0
  0
LINE
  5
291
330
D
100
AcDbEntity
 67
     1
  8
AM_HID
100
AcDbLine
 10
7.944330499171567
 20
4.727690906138612
 30
0.0
 11
7.944330499171567
 21
4.174833867138167
 31
0.0
  0
LINE
  5
292
330
D
100
AcDbEntity
 67
     1
  8
AM_HID
100
AcDbLine
 10
7.806330499171567
 20
4.727690906138612
 30
0.0
 11
7.806330499171567
 21
4.174833867138167
 31
0.0
  0
LINE
  5
293
330
D
100
AcDbEntity
 67
     1
  8
AM_VIS
100
AcDbLine
 10
12.06076655365122
 20
3.750598052460488
 30
0.0
 11
12.02328989424834
 21
3.772235211855072
 31
0.0
  0
LINE
  5
294
330
D
100
AcDbEntity
 67
     1
  8
AM_VIS
100
AcDbLine
 10
12.06076655365123
 20
3.634509956824453
 30
0.0
 11
12.06076655365123
 21
3.750598052460488
 31
0.0
  0
LINE
  5
295
330
D
100
AcDbEntity
 67
     1
  8
AM_VIS
100
AcDbLine
 10
12.33561728033476
 20
3.469191206749044
 30
0.0
 11
12.20379554260682
 21
3.545298522511313
 31
0.0
  0
ELLIPSE
  5
296
330
D
100
AcDbEntity
 67
     1
  8
AM_VIS
100
AcDbEllipse
 10
12.4342710316342
 20
3.503054965850756
 30
0.0
 11
-0.010000000000001
 21
0.0173205080756882
 31
0.0
210
0.0
220
0.0
230
1.0
 40
0.577350269189626
 41
5.49778714378196
 42
6.283185307179411
  0
LINE
  5
297
330
D
100
AcDbEntity
 67
     1
  8
AM_VIS
100
AcDbLine
 10
12.71668934092305
 20
3.356330610577312
 30
0.0
 11
12.4342710316342
 21
3.519384897469311
 31
0.0
  0
ELLIPSE
  5
298
330
D
100
AcDbEntity
 67
     1
  8
AM_VIS
100
AcDbEllipse
 10
12.71668934092305
 20
3.340000678958757
 30
0.0
 11
-0.010000000000001
 21
0.0173205080756882
 31
0.0
210
0.0
220
0.0
230
1.0
 40
0.577350269189626
 41
4.641890969850141
 42
5.497787143781969
  0
LINE
  5
299
330
D
100
AcDbEntity
 67
     1
  8
AM_VIS
100
AcDbLine
 10
12.79946609498016
 20
3.207012944016758
 30
0.0
 11
12.72736889766132
 21
3.344539790353123
 31
0.0
  0
ELLIPSE
  5
29A
330
D
100
AcDbEntity
 67
     1
  8
AM_VIS
100
AcDbEllipse
 10
12.81014565171842
 20
3.211552055411122
 30
0.0
 11
-0.01
 21
0.0173205080756888
 31
0.0
210
0.0
220
0.0
230
1.0
 40
0.5773502691896259
 41
1.500298316260488
 42
2.356194490192327
  0
LINE
  5
29B
330
D
100
AcDbEntity
 67
     1
  8
AM_VIS
100
AcDbLine
 10
12.83977592290348
 20
3.178115078747716
 30
0.0
 11
12.81014565171842
 21
3.195222123792568
 31
0.0
  0
LINE
  5
29C
330
D
100
AcDbEntity
 67
     1
  8
AM_VIS
100
AcDbLine
 10
13.12767047830892
 20
3.134620784359903
 30
0.0
 11
13.09019381890602
 21
3.156257943754488
 31
0.0
  0
LINE
  5
29D
330
D
100
AcDbEntity
 67
     1
  8
AM_VIS
100
AcDbLine
 10
13.12767047830892
 20
3.521701663542314
 30
0.0
 11
13.12767047830892
 21
3.134620784359903
 31
0.0
  0
ELLIPSE
  5
29E
330
D
100
AcDbEntity
 67
     1
  8
AM_VIS
100
AcDbEllipse
 10
13.06118617742141
 20
3.560086392556597
 30
0.0
 11
-0.0470115
 21
0.0814263065400243
 31
0.0
210
0.0
220
0.0
230
1.0
 40
0.5773502691896261
 41
3.926990816987238
 42
5.497787143782136
  0
LINE
  5
29F
330
D
100
AcDbEntity
 67
     1
  8
AM_VIS
100
AcDbLine
 10
12.08977419513583
 20
4.197700820051768
 30
0.0
 11
13.06118617742141
 21
3.636855850585166
 31
0.0
  0
ELLIPSE
  5
2A0
330
D
100
AcDbEntity
 67
     1
  8
AM_VIS
100
AcDbEllipse
 10
12.08977419513583
 20
4.1209313620232
 30
0.0
 11
-0.0470115
 21
0.0814263065400243
 31
0.0
210
0.0
220
0.0
230
1.0
 40
0.5773502691896261
 41
5.497787143782137
 42
7.068583470577038
  0
LINE
  5
2A1
330
D
100
AcDbEntity
 67
     1
  8
AM_VIS
100
AcDbLine
 10
12.02328989424834
 20
3.772235211855072
 30
0.0
 11
12.02328989424834
 21
4.159316091037482
 31
0.0
  0
LINE
  5
2A2
330
D
100
AcDbEntity
 67
     1
  8
AM_VIS
100
AcDbLine
 10
12.12937217488228
 20
4.220562724317743
 30
0.0
 11
12.08977419513583
 21
4.197700820051768
 31
0.0
  0
ELLIPSE
  5
2A3
330
D
100
AcDbEntity
 67
     1
  8
AM_VIS
100
AcDbEllipse
 10
12.12937217488228
 20
4.143793266289176
 30
0.0
 11
-0.0470115
 21
0.0814263065400243
 31
0.0
210
0.0
220
0.0
230
1.0
 40
0.5773502691896261
 41
5.497787143782137
 42
6.283185307179588
  0
LINE
  5
2A4
330
D
100
AcDbEntity
 67
     1
  8
AM_VIS
100
AcDbLine
 10
13.10078415716785
 20
3.659717754851143
 30
0.0
 11
13.06118617742141
 21
3.636855850585166
 31
0.0
  0
LINE
  5
2A5
330
D
100
AcDbEntity
 67
     1
  8
AM_VIS
100
AcDbLine
 10
12.12937217488228
 20
4.220562724317743
 30
0.0
 11
13.10078415716785
 21
3.659717754851143
 31
0.0
  0
LINE
  5
2A6
330
D
100
AcDbEntity
 67
     1
  8
AM_VIS
100
AcDbLine
 10
13.16726845805536
 20
3.54456356780829
 30
0.0
 11
13.12767047830891
 21
3.521701663542314
 31
0.0
  0
ELLIPSE
  5
2A7
330
D
100
AcDbEntity
 67
     1
  8
AM_VIS
100
AcDbEllipse
 10
13.10078415716785
 20
3.582948296822575
 30
0.0
 11
-0.0470115
 21
0.0814263065400243
 31
0.0
210
0.0
220
0.0
230
1.0
 40
0.5773502691896261
 41
3.926990816987238
 42
5.497787143782138
  0
LINE
  5
2A8
330
D
100
AcDbEntity
 67
     1
  8
AM_VIS
100
AcDbLine
 10
12.12592721437858
 20
3.335418388725811
 30
0.0
 11
12.19802441169743
 21
3.389694562502478
 31
0.0
  0
LINE
  5
2A9
330
D
100
AcDbEntity
 67
     1
  8
AM_VIS
100
AcDbLine
 10
12.1641488206175
 20
3.364192358025509
 30
0.0
 11
12.11524765764032
 21
3.335959258416949
 31
0.0
  0
ELLIPSE
  5
2AA
330
D
100
AcDbEntity
 67
     1
  8
AM_VIS
100
AcDbEllipse
 10
12.11524765764032
 20
3.352289190035504
 30
0.0
 11
-0.010000000000001
 21
0.0173205080756882
 31
0.0
210
0.0
220
0.0
230
1.0
 40
0.577350269189626
 41
2.356194490192165
 42
3.212090664123991
  0
LINE
  5
2AB
330
D
100
AcDbEntity
 67
     1
  8
AM_VIS
100
AcDbLine
 10
13.16726845805536
 20
3.54456356780829
 30
0.0
 11
13.16726845805536
 21
2.606725847616548
 31
0.0
  0
LINE
  5
2AC
330
D
100
AcDbEntity
 67
     1
  8
AM_VIS
100
AcDbLine
 10
13.12767047830892
 20
3.134620784359903
 30
0.0
 11
12.9021034151104
 21
3.004389579701931
 31
0.0
  0
LINE
  5
2AD
330
D
100
AcDbEntity
 67
     1
  8
AM_VIS
100
AcDbLine
 10
12.9021034151104
 20
3.00438957970193
 30
0.0
 11
12.9021034151104
 21
2.446086106466173
 31
0.0
  0
LINE
  5
2AE
330
D
100
AcDbEntity
 67
     1
  8
AM_VIS
100
AcDbLine
 10
12.94499651245718
 20
2.470850447765711
 30
0.0
 11
12.9021034151104
 21
2.446086106466173
 31
0.0
  0
LINE
  5
2AF
330
D
100
AcDbEntity
 67
     1
  8
AM_VIS
100
AcDbLine
 10
13.09019381890602
 20
3.156257943754488
 30
0.0
 11
12.86462675570752
 21
3.026026739096516
 31
0.0
  0
LINE
  5
2B0
330
D
100
AcDbEntity
 67
     1
  8
AM_VIS
100
AcDbLine
 10
12.86462675570752
 20
3.026026739096516
 30
0.0
 11
12.9021034151104
 21
3.004389579701931
 31
0.0
  0
ELLIPSE
  5
2B1
330
D
100
AcDbEntity
 67
     1
  8
AM_VIS
100
AcDbEllipse
 10
13.21731040495992
 20
2.623943556689661
 30
0.0
 11
-0.005055
 21
0.0087555168322607
 31
0.0
210
0.0
220
0.0
230
1.0
 40
0.5773502691896259
 41
5.49778714378217
 42
6.283185307179627
  0
LINE
  5
2B2
330
D
100
AcDbEntity
 67
     1
  8
AM_VIS
100
AcDbLine
 10
13.21731040495992
 20
2.63219833712284
 30
0.0
 11
13.24590580319111
 21
2.615688776256479
 31
0.0
  0
ELLIPSE
  5
2B3
330
D
100
AcDbEntity
 67
     1
  8
AM_VIS
100
AcDbEllipse
 10
13.24590580319111
 20
2.6074339958233
 30
0.0
 11
-0.005055
 21
0.0087555168322607
 31
0.0
210
0.0
220
0.0
230
1.0
 40
0.5773502691896259
 41
3.926990816987252
 42
5.49778714378217
  0
LINE
  5
2B4
330
D
100
AcDbEntity
 67
     1
  8
AM_VIS
100
AcDbLine
 10
13.25305465274891
 20
2.603306605606711
 30
0.0
 11
13.25305465274891
 21
2.326532861243185
 31
0.0
  0
ELLIPSE
  5
2B5
330
D
100
AcDbEntity
 67
     1
  8
AM_VIS
100
AcDbEllipse
 10
13.20886047892476
 20
2.352048379397175
 30
0.0
 11
-0.03125
 21
0.0541265877365274
 31
0.0
210
0.0
220
0.0
230
1.0
 40
0.577350269189626
 41
3.141592653589786
 42
3.926990816987233
  0
LINE
  5
2B6
330
D
100
AcDbEntity
 67
     1
  8
AM_VIS
100
AcDbLine
 10
12.32457041604239
 20
3.118134022863631
 30
0.0
 11
12.32457041604239
 21
3.072219805843648
 31
0.0
  0
ELLIPSE
  5
2B7
330
D
100
AcDbEntity
 67
     1
  8
AM_VIS
100
AcDbEllipse
 10
12.30335721260679
 20
3.084467254557564
 30
0.0
 11
-0.015
 21
0.0259807621135332
 31
0.0
210
0.0
220
0.0
230
1.0
 40
0.577350269189626
 41
3.141592653589792
 42
3.926990816987288
  0
LINE
  5
2B8
330
D
100
AcDbEntity
 67
     1
  8
AM_VIS
100
AcDbLine
 10
12.86462675570752
 20
2.903305034422773
 30
0.0
 11
12.86462675570752
 21
3.026026739096516
 31
0.0
  0
ELLIPSE
  5
2B9
330
D
100
AcDbEntity
 67
     1
  8
AM_VIS
100
AcDbEllipse
 10
12.9199755390049
 20
2.435767630924699
 30
0.0
 11
-0.0126375000000013
 21
0.0218887920806509
 31
0.0
210
0.0
220
0.0
230
1.0
 40
0.577350269189626
 41
0.7853981633972948
 42
2.356194490192191
  0
LINE
  5
2BA
330
D
100
AcDbEntity
 67
     1
  8
AM_VIS
100
AcDbLine
 10
12.94499651245718
 20
2.429576545599815
 30
0.0
 11
12.9199755390049
 21
2.415130679841752
 31
0.0
  0
LINE
  5
2BB
330
D
100
AcDbEntity
 67
     1
  8
AM_VIS
100
AcDbLine
 10
12.9199755390049
 20
2.415130679841752
 30
0.0
 11
12.92712438856268
 21
2.411003289625162
 31
0.0
  0
LINE
  5
2BC
330
D
100
AcDbEntity
 67
     1
  8
AM_VIS
100
AcDbLine
 10
12.94499651245718
 20
2.421321765166635
 30
0.0
 11
12.92712438856268
 21
2.411003289625162
 31
0.0
  0
ELLIPSE
  5
2BD
330
D
100
AcDbEntity
 67
     1
  8
AM_VIS
100
AcDbEllipse
 10
12.92712438856268
 20
2.431640240708108
 30
0.0
 11
-0.0126375000000013
 21
0.0218887920806509
 31
0.0
210
0.0
220
0.0
230
1.0
 40
0.577350269189626
 41
2.35619449019216
 42
3.926990816987065
  0
LINE
  5
2BE
330
D
100
AcDbEntity
 67
     1
  8
AM_VIS
100
AcDbLine
 10
12.94499651245718
 20
2.421321765166634
 30
0.0
 11
12.94499651245718
 21
2.4749778379823
 31
0.0
  0
ELLIPSE
  5
2BF
330
D
100
AcDbEntity
 67
     1
  8
AM_VIS
100
AcDbEllipse
 10
12.95214536201497
 20
2.470850447765712
 30
0.0
 11
-0.005055
 21
0.0087555168322607
 31
0.0
210
0.0
220
0.0
230
1.0
 40
0.5773502691896259
 41
5.497787143782148
 42
7.068583470577046
  0
LINE
  5
2C0
330
D
100
AcDbEntity
 67
     1
  8
AM_VIS
100
AcDbLine
 10
13.21731040495992
 20
2.63219833712284
 30
0.0
 11
12.95214536201497
 21
2.479105228198891
 31
0.0
  0
LINE
  5
2C1
330
D
100
AcDbEntity
 67
     1
  8
AM_VIS
100
AcDbLine
 10
12.95214536201497
 20
2.479105228198891
 30
0.0
 11
12.98074076024616
 21
2.46259566733253
 31
0.0
  0
LINE
  5
2C2
330
D
100
AcDbEntity
 67
     1
  8
AM_VIS
100
AcDbLine
 10
13.24590580319111
 20
2.615688776256479
 30
0.0
 11
12.98074076024616
 21
2.462595667332531
 31
0.0
  0
ELLIPSE
  5
2C3
330
D
100
AcDbEntity
 67
     1
  8
AM_VIS
100
AcDbEllipse
 10
12.98074076024616
 20
2.454340886899351
 30
0.0
 11
-0.005055
 21
0.0087555168322607
 31
0.0
210
0.0
220
0.0
230
1.0
 40
0.5773502691896259
 41
3.926990816987241
 42
5.497787143782136
  0
LINE
  5
2C4
330
D
100
AcDbEntity
 67
     1
  8
AM_VIS
100
AcDbLine
 10
13.25305465274891
 20
2.603306605606713
 30
0.0
 11
12.98788960980396
 21
2.450213496682764
 31
0.0
  0
LINE
  5
2C5
330
D
100
AcDbEntity
 67
     1
  8
AM_VIS
100
AcDbLine
 10
12.98788960980396
 20
2.450213496682764
 30
0.0
 11
12.98788960980396
 21
2.173439752319236
 31
0.0
  0
LINE
  5
2C6
330
D
100
AcDbEntity
 67
     1
  8
AM_VIS
100
AcDbLine
 10
13.25305465274891
 20
2.326532861243185
 30
0.0
 11
12.98788960980396
 21
2.173439752319236
 31
0.0
  0
ELLIPSE
  5
2C7
330
D
100
AcDbEntity
 67
     1
  8
AM_VIS
100
AcDbEllipse
 10
12.9436954359798
 20
2.198955270473228
 30
0.0
 11
-0.03125
 21
0.0541265877365274
 31
0.0
210
0.0
220
0.0
230
1.0
 40
0.577350269189626
 41
2.356194490192339
 42
3.926990816987238
  0
LINE
  5
2C8
330
D
100
AcDbEntity
 67
     1
  8
AM_VIS
100
AcDbLine
 10
12.9436954359798
 20
2.147924234165245
 30
0.0
 11
12.87925356444364
 21
2.185129766043728
 31
0.0
  0
ELLIPSE
  5
2C9
330
D
100
AcDbEntity
 67
     1
  8
AM_VIS
100
AcDbEllipse
 10
12.87925356444364
 20
2.190845242110223
 30
0.0
 11
-0.0035
 21
0.0060621778264911
 31
0.0
210
0.0
220
0.0
230
1.0
 40
0.577350269189626
 41
1.274090353955914
 42
2.356194490192344
  0
LINE
  5
2CA
330
D
100
AcDbEntity
 67
     1
  8
AM_VIS
100
AcDbLine
 10
12.87488319683124
 20
2.190685221546698
 30
0.0
 11
12.80794615733166
 21
2.381025892800356
 31
0.0
  0
ELLIPSE
  5
2CB
330
D
100
AcDbEntity
 67
     1
  8
AM_VIS
100
AcDbEllipse
 10
12.82054689243836
 20
2.381164488810735
 30
0.0
 11
-0.01
 21
0.0173205080756888
 31
0.0
210
0.0
220
0.0
230
1.0
 40
0.5773502691896259
 41
5.585053606381925
 42
7.539822368615499
  0
LINE
  5
2CC
330
D
100
AcDbEntity
 67
     1
  8
AM_VIS
100
AcDbLine
 10
12.85198368645991
 20
2.417005568919365
 30
0.0
 11
12.81931432410405
 21
2.398143903768958
 31
0.0
  0
LINE
  5
2CD
330
D
100
AcDbEntity
 67
     1
  8
AM_VIS
100
AcDbLine
 10
12.81931432410405
 20
2.398143903768958
 30
0.0
 11
12.84042642966964
 21
2.388087636545634
 31
0.0
  0
LINE
  5
2CE
330
D
100
AcDbEntity
 67
     1
  8
AM_VIS
100
AcDbLine
 10
12.85198368645991
 20
2.394760221864585
 30
0.0
 11
12.84042642966965
 21
2.388087636545634
 31
0.0
  0
LINE
  5
2CF
330
D
100
AcDbEntity
 67
     1
  8
AM_VIS
100
AcDbLine
 10
12.84042642966964
 20
2.388087636545634
 30
0.0
 11
12.8435339389916
 21
2.382705272515015
 31
0.0
  0
LINE
  5
2D0
330
D
100
AcDbEntity
 67
     1
  8
AM_VIS
100
AcDbLine
 10
12.85198368645991
 20
2.387583736490424
 30
0.0
 11
12.8435339389916
 21
2.382705272515014
 31
0.0
  0
ELLIPSE
  5
2D1
330
D
100
AcDbEntity
 67
     1
  8
AM_VIS
100
AcDbEllipse
 10
12.84703393899159
 20
2.384725998457178
 30
0.0
 11
-0.0035000000000004
 21
0.0060621778264909
 31
0.0
210
0.0
220
0.0
230
1.0
 40
0.5773502691896259
 41
1.570796326794724
 42
3.926990816987084
  0
LINE
  5
2D2
330
D
100
AcDbEntity
 67
     1
  8
AM_VIS
100
AcDbLine
 10
12.85198368645991
 20
2.381868260423931
 30
0.0
 11
12.85198368645991
 21
2.439568048701591
 31
0.0
  0
ELLIPSE
  5
2D3
330
D
100
AcDbEntity
 67
     1
  8
AM_VIS
100
AcDbEllipse
 10
12.84703393899159
 20
2.442425786734838
 30
0.0
 11
-0.0035000000000004
 21
0.0060621778264909
 31
0.0
210
0.0
220
0.0
230
1.0
 40
0.5773502691896259
 41
3.926990816987068
 42
6.283185307179368
  0
LINE
  5
2D4
330
D
100
AcDbEntity
 67
     1
  8
AM_VIS
100
AcDbLine
 10
12.8435339389916
 20
2.448487964561329
 30
0.0
 11
12.83784155083617
 21
2.445201462727464
 31
0.0
  0
LINE
  5
2D5
330
D
100
AcDbEntity
 67
     1
  8
AM_VIS
100
AcDbLine
 10
12.83784155083617
 20
2.445201462727464
 30
0.0
 11
12.66163407649839
 21
2.546934895469605
 31
0.0
  0
ELLIPSE
  5
2D6
330
D
100
AcDbEntity
 67
     1
  8
AM_VIS
100
AcDbEllipse
 10
12.66163407649839
 20
2.571429792897436
 30
0.0
 11
-0.015
 21
0.0259807621135332
 31
0.0
210
0.0
220
0.0
230
1.0
 40
0.577350269189626
 41
0.7853981633974592
 42
2.356194490192355
  0
LINE
  5
2D7
330
D
100
AcDbEntity
 67
     1
  8
AM_VIS
100
AcDbLine
 10
12.6404208730628
 20
2.583677241611352
 30
0.0
 11
12.6404208730628
 21
2.778003427872151
 31
0.0
  0
ELLIPSE
  5
2D8
330
D
100
AcDbEntity
 67
     1
  8
AM_VIS
100
AcDbEllipse
 10
12.6453706205311
 20
2.775145689838903
 30
0.0
 11
-0.0035
 21
0.0060621778264911
 31
0.0
210
0.0
220
0.0
230
1.0
 40
0.577350269189626
 41
5.497787143782216
 42
7.068583470577049
  0
LINE
  5
2D9
330
D
100
AcDbEntity
 67
     1
  8
AM_VIS
100
AcDbLine
 10
12.68426149349635
 20
2.80331482188091
 30
0.0
 11
12.6453706205311
 21
2.780861165905398
 31
0.0
  0
LINE
  5
2DA
330
D
100
AcDbEntity
 67
     1
  8
AM_VIS
100
AcDbLine
 10
12.6453706205311
 20
2.780861165905398
 30
0.0
 11
12.68284727993399
 21
2.759224006510813
 31
0.0
  0
LINE
  5
2DB
330
D
100
AcDbEntity
 67
     1
  8
AM_VIS
100
AcDbLine
 10
12.72173815289925
 20
2.781677662486325
 30
0.0
 11
12.68284727993399
 21
2.759224006510815
 31
0.0
  0
ELLIPSE
  5
2DC
330
D
100
AcDbEntity
 67
     1
  8
AM_VIS
100
AcDbEllipse
 10
12.68284727993399
 20
2.75350853044432
 30
0.0
 11
-0.0035
 21
0.0060621778264911
 31
0.0
210
0.0
220
0.0
230
1.0
 40
0.577350269189626
 41
3.926990816987233
 42
5.497787143782169
  0
LINE
  5
2DD
330
D
100
AcDbEntity
 67
     1
  8
AM_VIS
100
AcDbLine
 10
12.73163764783586
 20
2.775962186419832
 30
0.0
 11
12.6877970274023
 21
2.750650792411073
 31
0.0
  0
LINE
  5
2DE
330
D
100
AcDbEntity
 67
     1
  8
AM_VIS
100
AcDbLine
 10
12.6877970274023
 20
2.750650792411073
 30
0.0
 11
12.6877970274023
 21
2.741669330020866
 31
0.0
  0
LINE
  5
2DF
330
D
100
AcDbEntity
 67
     1
  8
AM_VIS
100
AcDbLine
 10
12.73941582242892
 20
2.771471455224729
 30
0.0
 11
12.6877970274023
 21
2.741669330020865
 31
0.0
  0
ELLIPSE
  5
2E0
330
D
100
AcDbEntity
 67
     1
  8
AM_VIS
100
AcDbEllipse
 10
12.6927467748706
 20
2.738811591987619
 30
0.0
 11
-0.0035000000000004
 21
0.0060621778264909
 31
0.0
210
0.0
220
0.0
230
1.0
 40
0.5773502691896259
 41
0.7853981633972681
 42
2.35619449019214
  0
LINE
  5
2E1
330
D
100
AcDbEntity
 67
     1
  8
AM_VIS
100
AcDbLine
 10
12.74931531736553
 20
2.765755979158234
 30
0.0
 11
12.6927467748706
 21
2.733096115921126
 31
0.0
  0
LINE
  5
2E2
330
D
100
AcDbEntity
 67
     1
  8
AM_VIS
100
AcDbLine
 10
12.6927467748706
 20
2.733096115921126
 30
0.0
 11
12.82432166917988
 21
2.657131315273066
 31
0.0
  0
LINE
  5
2E3
330
D
100
AcDbEntity
 67
     1
  8
AM_VIS
100
AcDbLine
 10
12.85260594042735
 20
2.67346124689162
 30
0.0
 11
12.82432166917988
 21
2.657131315273065
 31
0.0
  0
ELLIPSE
  5
2E4
330
D
100
AcDbEntity
 67
     1
  8
AM_VIS
100
AcDbEllipse
 10
12.82432166917988
 20
2.689791178510173
 30
0.0
 11
-0.0200000000000021
 21
0.0346410161513764
 31
0.0
210
0.0
220
0.0
230
1.0
 40
0.577350269189626
 41
2.356194490192154
 42
5.497787143781969
  0
LINE
  5
2E5
330
D
100
AcDbEntity
 67
     1
  8
AM_VIS
100
AcDbLine
 10
12.82432166917988
 20
2.722451041747281
 30
0.0
 11
12.50394369212136
 21
2.90742135304445
 31
0.0
  0
ELLIPSE
  5
2E6
330
D
100
AcDbEntity
 67
     1
  8
AM_VIS
100
AcDbEllipse
 10
12.50394369212136
 20
2.923751284663005
 30
0.0
 11
-0.01
 21
0.0173205080756888
 31
0.0
210
0.0
220
0.0
230
1.0
 40
0.5773502691896259
 41
1.500298316260531
 42
2.356194490192338
  0
LINE
  5
2E7
330
D
100
AcDbEntity
 67
     1
  8
AM_VIS
100
AcDbLine
 10
12.49326413538309
 20
2.919212173268638
 30
0.0
 11
12.42116693806426
 21
3.056739019605001
 31
0.0
  0
ELLIPSE
  5
2E8
330
D
100
AcDbEntity
 67
     1
  8
AM_VIS
100
AcDbEllipse
 10
12.41048738132599
 20
3.052199908210636
 30
0.0
 11
-0.010000000000001
 21
0.0173205080756882
 31
0.0
210
0.0
220
0.0
230
1.0
 40
0.577350269189626
 41
4.641890969850098
 42
5.497787143781981
  0
LINE
  5
2E9
330
D
100
AcDbEntity
 67
     1
  8
AM_VIS
100
AcDbLine
 10
12.41048738132599
 20
3.068529839829192
 30
0.0
 11
12.28933886483424
 21
3.138474968437623
 31
0.0
  0
ELLIPSE
  5
2EA
330
D
100
AcDbEntity
 67
     1
  8
AM_VIS
100
AcDbEllipse
 10
12.28933886483424
 20
3.12214503681907
 30
0.0
 11
-0.010000000000001
 21
0.0173205080756882
 31
0.0
210
0.0
220
0.0
230
1.0
 40
0.577350269189626
 41
5.497787143781981
 42
6.353683317713784
  0
LINE
  5
2EB
330
D
100
AcDbEntity
 67
     1
  8
AM_VIS
100
AcDbLine
 10
12.28006810068699
 20
3.139829204910414
 30
0.0
 11
12.27865930809598
 21
3.139015838128763
 31
0.0
  0
LINE
  5
2EC
330
D
100
AcDbEntity
 67
     1
  8
AM_VIS
100
AcDbLine
 10
12.27865930809598
 20
3.139015838128763
 30
0.0
 11
12.20656211077714
 21
3.084739664352096
 31
0.0
  0
LINE
  5
2ED
330
D
100
AcDbEntity
 67
     1
  8
AM_VIS
100
AcDbLine
 10
12.29448662622384
 20
3.135502907013616
 30
0.0
 11
12.20656211077714
 21
3.084739664352096
 31
0.0
  0
ELLIPSE
  5
2EE
330
D
100
AcDbEntity
 67
     1
  8
AM_VIS
100
AcDbEllipse
 10
12.19588255403886
 20
3.101610465661789
 30
0.0
 11
-0.01
 21
0.0173205080756888
 31
0.0
210
0.0
220
0.0
230
1.0
 40
0.5773502691896259
 41
2.356194490192339
 42
3.212090664124205
  0
LINE
  5
2EF
330
D
100
AcDbEntity
 67
     1
  8
AM_VIS
100
AcDbLine
 10
12.19588255403886
 20
3.085280534043236
 30
0.0
 11
11.87550457698035
 21
3.270250845340403
 31
0.0
  0
ELLIPSE
  5
2F0
330
D
100
AcDbEntity
 67
     1
  8
AM_VIS
100
AcDbEllipse
 10
11.87550457698035
 20
3.237590982103294
 30
0.0
 11
-0.0200000000000021
 21
0.0346410161513764
 31
0.0
210
0.0
220
0.0
230
1.0
 40
0.577350269189626
 41
5.497787143781971
 42
8.639379797371756
  0
LINE
  5
2F1
330
D
100
AcDbEntity
 67
     1
  8
AM_VIS
100
AcDbLine
 10
11.93207311947527
 20
3.237590982103294
 30
0.0
 11
11.87550457698035
 21
3.204931118866185
 31
0.0
  0
LINE
  5
2F2
330
D
100
AcDbEntity
 67
     1
  8
AM_VIS
100
AcDbLine
 10
11.87550457698035
 20
3.204931118866185
 30
0.0
 11
12.00707947128963
 21
3.128966318218125
 31
0.0
  0
LINE
  5
2F3
330
D
100
AcDbEntity
 67
     1
  8
AM_VIS
100
AcDbLine
 10
12.01202921875794
 20
3.131824056251371
 30
0.0
 11
12.00707947128963
 21
3.128966318218125
 31
0.0
  0
ELLIPSE
  5
2F4
330
D
100
AcDbEntity
 67
     1
  8
AM_VIS
100
AcDbEllipse
 10
12.00707947128963
 20
3.134681794284618
 30
0.0
 11
-0.0035000000000004
 21
0.0060621778264909
 31
0.0
210
0.0
220
0.0
230
1.0
 40
0.5773502691896259
 41
2.356194490192131
 42
3.926990816987076
  0
LINE
  5
2F5
330
D
100
AcDbEntity
 67
     1
  8
AM_VIS
100
AcDbLine
 10
12.01202921875794
 20
3.131824056251371
 30
0.0
 11
12.01202921875794
 21
3.140805518641578
 31
0.0
  0
ELLIPSE
  5
2F6
330
D
100
AcDbEntity
 67
     1
  8
AM_VIS
100
AcDbEllipse
 10
12.01697896622623
 20
3.137947780608332
 30
0.0
 11
-0.0035
 21
0.0060621778264911
 31
0.0
210
0.0
220
0.0
230
1.0
 40
0.577350269189626
 41
5.497787143782188
 42
7.068583470577022
  0
LINE
  5
2F7
330
D
100
AcDbEntity
 67
     1
  8
AM_VIS
100
AcDbLine
 10
12.0558698391915
 20
3.166116912650337
 30
0.0
 11
12.01697896622623
 21
3.143663256674825
 31
0.0
  0
LINE
  5
2F8
330
D
100
AcDbEntity
 67
     1
  8
AM_VIS
100
AcDbLine
 10
12.01697896622623
 20
3.143663256674825
 30
0.0
 11
12.05445562562913
 21
3.122026097280241
 31
0.0
  0
LINE
  5
2F9
330
D
100
AcDbEntity
 67
     1
  8
AM_VIS
100
AcDbLine
 10
12.09334649859439
 20
3.144479753255751
 30
0.0
 11
12.05445562562913
 21
3.12202609728024
 31
0.0
  0
ELLIPSE
  5
2FA
330
D
100
AcDbEntity
 67
     1
  8
AM_VIS
100
AcDbEllipse
 10
12.05445562562913
 20
3.116310621213747
 30
0.0
 11
-0.0035
 21
0.0060621778264911
 31
0.0
210
0.0
220
0.0
230
1.0
 40
0.577350269189626
 41
3.926990816987248
 42
5.497787143782216
  0
LINE
  5
2FB
330
D
100
AcDbEntity
 67
     1
  8
AM_VIS
100
AcDbLine
 10
12.103245993531
 20
3.138764277189258
 30
0.0
 11
12.05940537309744
 21
3.113452883180498
 31
0.0
  0
LINE
  5
2FC
330
D
100
AcDbEntity
 67
     1
  8
AM_VIS
100
AcDbLine
 10
12.05940537309744
 20
3.1134528831805
 30
0.0
 11
12.05940537309744
 21
2.9191266969197
 31
0.0
  0
LINE
  5
2FD
330
D
100
AcDbEntity
 67
     1
  8
AM_VIS
100
AcDbLine
 10
12.32457041604239
 20
3.072219805843648
 30
0.0
 11
12.05940537309744
 21
2.9191266969197
 31
0.0
  0
ELLIPSE
  5
2FE
330
D
100
AcDbEntity
 67
     1
  8
AM_VIS
100
AcDbEllipse
 10
12.03819216966183
 20
2.931374145633616
 30
0.0
 11
-0.015
 21
0.0259807621135332
 31
0.0
210
0.0
220
0.0
230
1.0
 40
0.577350269189626
 41
2.356194490192355
 42
3.926990816987292
  0
LINE
  5
2FF
330
D
100
AcDbEntity
 67
     1
  8
AM_VIS
100
AcDbLine
 10
12.03819216966183
 20
2.906879248205783
 30
0.0
 11
11.86198469532406
 21
3.008612680947924
 31
0.0
  0
LINE
  5
300
330
D
100
AcDbEntity
 67
     1
  8
AM_VIS
100
AcDbLine
 10
11.86198469532406
 20
3.008612680947924
 30
0.0
 11
11.85629230716863
 21
3.018472186449522
 31
0.0
  0
ELLIPSE
  5
301
330
D
100
AcDbEntity
 67
     1
  8
AM_VIS
100
AcDbEllipse
 10
11.85279230716864
 20
3.01645146050736
 30
0.0
 11
-0.0035000000000004
 21
0.0060621778264909
 31
0.0
210
0.0
220
0.0
230
1.0
 40
0.5773502691896259
 41
4.712388980384631
 42
7.068583470576887
  0
LINE
  5
302
330
D
100
AcDbEntity
 67
     1
  8
AM_VIS
100
AcDbLine
 10
11.85279230716863
 20
3.022166936573853
 30
0.0
 11
11.84784255970033
 21
3.019309198540607
 31
0.0
  0
LINE
  5
303
330
D
100
AcDbEntity
 67
     1
  8
AM_VIS
100
AcDbLine
 10
11.84784255970033
 20
3.019309198540607
 30
0.0
 11
11.84784255970033
 21
2.961609410262946
 31
0.0
  0
LINE
  5
304
330
D
100
AcDbEntity
 67
     1
  8
AM_VIS
100
AcDbLine
 10
11.89561965398634
 20
2.989193528510074
 30
0.0
 11
11.84784255970033
 21
2.961609410262944
 31
0.0
  0
ELLIPSE
  5
305
330
D
100
AcDbEntity
 67
     1
  8
AM_VIS
100
AcDbEllipse
 10
11.85279230716863
 20
2.958751672229698
 30
0.0
 11
-0.0035000000000004
 21
0.0060621778264909
 31
0.0
210
0.0
220
0.0
230
1.0
 40
0.5773502691896259
 41
0.7853981633972996
 42
3.141592653589711
  0
LINE
  5
306
330
D
100
AcDbEntity
 67
     1
  8
AM_VIS
100
AcDbLine
 10
11.85629230716864
 20
2.952689494403207
 30
0.0
 11
11.85939981649059
 21
2.954483615746747
 31
0.0
  0
LINE
  5
307
330
D
100
AcDbEntity
 67
     1
  8
AM_VIS
100
AcDbLine
 10
11.90756940145465
 20
2.982294338592498
 30
0.0
 11
11.85939981649059
 21
2.954483615746747
 31
0.0
  0
LINE
  5
308
330
D
100
AcDbEntity
 67
     1
  8
AM_VIS
100
AcDbLine
 10
11.85939981649059
 20
2.954483615746747
 30
0.0
 11
11.88051192205618
 21
2.940161723307161
 31
0.0
  0
LINE
  5
309
330
D
100
AcDbEntity
 67
     1
  8
AM_VIS
100
AcDbLine
 10
11.9305285769204
 20
2.969038852456976
 30
0.0
 11
11.88051192205618
 21
2.940161723307161
 31
0.0
  0
ELLIPSE
  5
30A
330
D
100
AcDbEntity
 67
     1
  8
AM_VIS
100
AcDbEllipse
 10
11.87927935372185
 20
2.924605555668173
 30
0.0
 11
-0.01
 21
0.0173205080756888
 31
0.0
210
0.0
220
0.0
230
1.0
 40
0.5773502691896259
 41
3.455751918948851
 42
5.410520681182408
  0
LINE
  5
30B
330
D
100
AcDbEntity
 67
     1
  8
AM_VIS
100
AcDbLine
 10
11.96240545944001
 20
2.950634725753346
 30
0.0
 11
11.89188008882856
 21
2.90991688404612
 31
0.0
  0
LINE
  5
30C
330
D
100
AcDbEntity
 67
     1
  8
AM_VIS
100
AcDbLine
 10
11.89188008882856
 20
2.90991688404612
 30
0.0
 11
11.82494304932899
 21
2.796868448340107
 31
0.0
  0
LINE
  5
30D
330
D
100
AcDbEntity
 67
     1
  8
AM_VIS
100
AcDbLine
 10
12.02683975686973
 20
2.913433566787259
 30
0.0
 11
11.82494304932899
 21
2.796868448340115
 31
0.0
  0
ELLIPSE
  5
30E
330
D
100
AcDbEntity
 67
     1
  8
AM_VIS
100
AcDbEllipse
 10
11.82057268171659
 20
2.802074934738595
 30
0.0
 11
-0.0035
 21
0.0060621778264911
 31
0.0
210
0.0
220
0.0
230
1.0
 40
0.577350269189626
 41
2.356194490192335
 42
3.438298626428766
  0
LINE
  5
30F
330
D
100
AcDbEntity
 67
     1
  8
AM_VIS
100
AcDbLine
 10
11.82057268171659
 20
2.796359458672101
 30
0.0
 11
11.75613081018042
 21
2.833564990550587
 31
0.0
  0
ELLIPSE
  5
310
330
D
100
AcDbEntity
 67
     1
  8
AM_VIS
100
AcDbEllipse
 10
11.75613081018042
 20
2.884596026858568
 30
0.0
 11
-0.03125
 21
0.0541265877365274
 31
0.0
210
0.0
220
0.0
230
1.0
 40
0.577350269189626
 41
0.7853981633974479
 42
2.356194490192345
  0
LINE
  5
311
330
D
100
AcDbEntity
 67
     1
  8
AM_VIS
100
AcDbLine
 10
11.71193663635627
 20
2.91011154501256
 30
0.0
 11
11.71193663635627
 21
3.186885289376086
 31
0.0
  0
ELLIPSE
  5
312
330
D
100
AcDbEntity
 67
     1
  8
AM_VIS
100
AcDbEllipse
 10
11.71908548591407
 20
3.182757899159497
 30
0.0
 11
-0.005055
 21
0.0087555168322607
 31
0.0
210
0.0
220
0.0
230
1.0
 40
0.5773502691896259
 41
5.497787143782148
 42
7.068583470577046
  0
LINE
  5
313
330
D
100
AcDbEntity
 67
     1
  8
AM_VIS
100
AcDbLine
 10
11.79772283104983
 20
3.236413971975163
 30
0.0
 11
11.71908548591407
 21
3.191012679592676
 31
0.0
  0
LINE
  5
314
330
D
100
AcDbEntity
 67
     1
  8
AM_VIS
100
AcDbLine
 10
11.71908548591407
 20
3.191012679592676
 30
0.0
 11
11.74768088414525
 21
3.174503118726315
 31
0.0
  0
LINE
  5
315
330
D
100
AcDbEntity
 67
     1
  8
AM_VIS
100
AcDbLine
 10
11.79772283104983
 20
3.203394850242442
 30
0.0
 11
11.74768088414525
 21
3.174503118726316
 31
0.0
  0
ELLIPSE
  5
316
330
D
100
AcDbEntity
 67
     1
  8
AM_VIS
100
AcDbEllipse
 10
11.74768088414525
 20
3.166248338293137
 30
0.0
 11
-0.005055
 21
0.0087555168322607
 31
0.0
210
0.0
220
0.0
230
1.0
 40
0.5773502691896259
 41
3.926990816987246
 42
5.497787143782143
  0
LINE
  5
317
330
D
100
AcDbEntity
 67
     1
  8
AM_VIS
100
AcDbLine
 10
11.79772283104983
 20
3.186885289376087
 30
0.0
 11
11.75482973370305
 21
3.162120948076548
 31
0.0
  0
LINE
  5
318
330
D
100
AcDbEntity
 67
     1
  8
AM_VIS
100
AcDbLine
 10
11.75482973370305
 20
3.162120948076548
 30
0.0
 11
11.75482973370305
 21
3.108464875260881
 31
0.0
  0
LINE
  5
319
330
D
100
AcDbEntity
 67
     1
  8
AM_VIS
100
AcDbLine
 10
11.79772283104983
 20
3.133229216560421
 30
0.0
 11
11.75482973370305
 21
3.108464875260881
 31
0.0
  0
ELLIPSE
  5
31A
330
D
100
AcDbEntity
 67
     1
  8
AM_VIS
100
AcDbEllipse
 10
11.77270185759754
 20
3.098146399719408
 30
0.0
 11
-0.0126375000000013
 21
0.0218887920806509
 31
0.0
210
0.0
220
0.0
230
1.0
 40
0.577350269189626
 41
0.785398163397286
 42
2.35619449019218
  0
LINE
  5
31B
330
D
100
AcDbEntity
 67
     1
  8
AM_VIS
100
AcDbLine
 10
11.79772283104983
 20
3.091955314394524
 30
0.0
 11
11.77270185759754
 21
3.077509448636459
 31
0.0
  0
LINE
  5
31C
330
D
100
AcDbEntity
 67
     1
  8
AM_VIS
100
AcDbLine
 10
11.77270185759754
 20
3.077509448636459
 30
0.0
 11
11.77985070715534
 21
3.07338205841987
 31
0.0
  0
LINE
  5
31D
330
D
100
AcDbEntity
 67
     1
  8
AM_VIS
100
AcDbLine
 10
11.79772283104983
 20
3.083700533961343
 30
0.0
 11
11.77985070715534
 21
3.073382058419869
 31
0.0
  0
ELLIPSE
  5
31E
330
D
100
AcDbEntity
 67
     1
  8
AM_VIS
100
AcDbEllipse
 10
11.77985070715534
 20
3.094019009502818
 30
0.0
 11
-0.0126375000000013
 21
0.0218887920806509
 31
0.0
210
0.0
220
0.0
230
1.0
 40
0.577350269189626
 41
2.35619449019218
 42
3.926990816987056
  0
LINE
  5
31F
330
D
100
AcDbEntity
 67
     1
  8
AM_VIS
100
AcDbLine
 10
11.79772283104983
 20
3.083700533961343
 30
0.0
 11
11.79772283104983
 21
3.642004007197101
 31
0.0
  0
LINE
  5
320
330
D
100
AcDbEntity
 67
     1
  8
AM_VIS
100
AcDbLine
 10
12.02328989424834
 20
3.772235211855073
 30
0.0
 11
11.79772283104983
 21
3.642004007197102
 31
0.0
  0
LINE
  5
321
330
D
100
AcDbEntity
 67
     1
  8
AM_VIS
100
AcDbLine
 10
11.79772283104983
 20
3.642004007197101
 30
0.0
 11
11.83519949045272
 21
3.620366847802515
 31
0.0
  0
LINE
  5
322
330
D
100
AcDbEntity
 67
     1
  8
AM_VIS
100
AcDbLine
 10
12.06076655365123
 20
3.750598052460488
 30
0.0
 11
11.83519949045272
 21
3.620366847802516
 31
0.0
  0
LINE
  5
323
330
D
100
AcDbEntity
 67
     1
  8
AM_VIS
100
AcDbLine
 10
11.83519949045271
 20
3.620366847802516
 30
0.0
 11
11.83519949045271
 21
3.497645143128773
 31
0.0
  0
LINE
  5
324
330
D
100
AcDbEntity
 67
     1
  8
AM_VIS
100
AcDbLine
 10
11.93829827040983
 20
3.557169251490133
 30
0.0
 11
11.83519949045271
 21
3.497645143128773
 31
0.0
  0
LINE
  5
325
330
D
100
AcDbEntity
 67
     1
  8
AM_VIS
100
AcDbLine
 10
11.83519949045272
 20
3.497645143128773
 30
0.0
 11
12.11524765764032
 21
3.335959258416949
 31
0.0
  0
ELLIPSE
  5
326
330
D
100
AcDbEntity
 67
     1
  8
AM_VIS
100
AcDbEllipse
 10
12.20870396843569
 20
3.372823761192784
 30
0.0
 11
-0.01
 21
0.0173205080756888
 31
0.0
210
0.0
220
0.0
230
1.0
 40
0.5773502691896259
 41
5.497787143782131
 42
6.353683317713931
  0
LINE
  5
327
330
D
100
AcDbEntity
 67
     1
  8
AM_VIS
100
AcDbLine
 10
12.4342710316342
 20
3.519384897469311
 30
0.0
 11
12.20870396843569
 21
3.38915369281134
 31
0.0
  0
LINE
  5
328
330
D
100
AcDbEntity
 67
     1
  8
AM_VIS
100
AcDbLine
 10
12.20870396843569
 20
3.38915369281134
 30
0.0
 11
12.49112227772454
 21
3.226099405919341
 31
0.0
  0
LINE
  5
329
330
D
100
AcDbEntity
 67
     1
  8
AM_VIS
100
AcDbLine
 10
12.71668934092305
 20
3.356330610577312
 30
0.0
 11
12.49112227772454
 21
3.226099405919341
 31
0.0
  0
ELLIPSE
  5
32A
330
D
100
AcDbEntity
 67
     1
  8
AM_VIS
100
AcDbEllipse
 10
12.49112227772454
 20
3.209769474300786
 30
0.0
 11
-0.01
 21
0.0173205080756888
 31
0.0
210
0.0
220
0.0
230
1.0
 40
0.5773502691896259
 41
4.641890969850313
 42
5.497787143782141
  0
LINE
  5
32B
330
D
100
AcDbEntity
 67
     1
  8
AM_VIS
100
AcDbLine
 10
12.72736889766132
 20
3.344539790353123
 30
0.0
 11
12.50180183446281
 21
3.21430858569515
 31
0.0
  0
LINE
  5
32C
330
D
100
AcDbEntity
 67
     1
  8
AM_VIS
100
AcDbLine
 10
12.50180183446281
 20
3.21430858569515
 30
0.0
 11
12.57389903178165
 21
3.076781739358786
 31
0.0
  0
LINE
  5
32D
330
D
100
AcDbEntity
 67
     1
  8
AM_VIS
100
AcDbLine
 10
12.79946609498016
 20
3.207012944016758
 30
0.0
 11
12.57389903178165
 21
3.076781739358786
 31
0.0
  0
ELLIPSE
  5
32E
330
D
100
AcDbEntity
 67
     1
  8
AM_VIS
100
AcDbEllipse
 10
12.58457858851992
 20
3.081320850753149
 30
0.0
 11
-0.010000000000001
 21
0.0173205080756882
 31
0.0
210
0.0
220
0.0
230
1.0
 40
0.577350269189626
 41
1.500298316260329
 42
2.356194490192165
  0
LINE
  5
32F
330
D
100
AcDbEntity
 67
     1
  8
AM_VIS
100
AcDbLine
 10
12.81014565171842
 20
3.195222123792568
 30
0.0
 11
12.58457858851992
 21
3.064990919134596
 31
0.0
  0
LINE
  5
330
330
D
100
AcDbEntity
 67
     1
  8
AM_VIS
100
AcDbLine
 10
12.58457858851992
 20
3.064990919134595
 30
0.0
 11
12.86462675570752
 21
2.903305034422773
 31
0.0
  0
LINE
  5
331
330
D
100
AcDbEntity
 67
     1
  8
AM_VIS
100
AcDbLine
 10
12.08236067488228
 20
4.225219572829201
 30
0.0
 11
12.04276269513584
 21
4.202357668563225
 31
0.0
  0
LINE
  5
332
330
D
100
AcDbEntity
 67
     1
  8
AM_VIS
100
AcDbLine
 10
13.21225540495992
 20
2.632699073521922
 30
0.0
 11
12.94709036201498
 21
2.479605964597973
 31
0.0
  0
LINE
  5
333
330
D
100
AcDbEntity
 67
     1
  8
AM_VIS
100
AcDbLine
 10
13.24011047892476
 20
2.297921791660648
 30
0.0
 11
12.9749454359798
 21
2.1448286827367
 31
0.0
  0
LINE
  5
334
330
D
100
AcDbEntity
 67
     1
  8
AM_VIS
100
AcDbLine
 10
12.85198368645991
 20
2.422408541069111
 30
0.0
 11
12.81054689243837
 21
2.398484996886424
 31
0.0
  0
LINE
  5
335
330
D
100
AcDbEntity
 67
     1
  8
AM_VIS
100
AcDbLine
 10
12.68221124096467
 20
2.80449853573199
 30
0.0
 11
12.6418706205311
 21
2.781207867665395
 31
0.0
  0
LINE
  5
336
330
D
100
AcDbEntity
 67
     1
  8
AM_VIS
100
AcDbLine
 10
12.29453630533831
 20
3.135474224763503
 30
0.0
 11
12.20588255403886
 21
3.084289957586102
 31
0.0
  0
LINE
  5
337
330
D
100
AcDbEntity
 67
     1
  8
AM_VIS
100
AcDbLine
 10
12.05381958665981
 20
3.167300626501417
 30
0.0
 11
12.01347896622624
 21
3.144009958434823
 31
0.0
  0
LINE
  5
338
330
D
100
AcDbEntity
 67
     1
  8
AM_VIS
100
AcDbLine
 10
12.31835721260678
 20
3.058486492444031
 30
0.0
 11
12.05319216966183
 21
2.905393383520083
 31
0.0
  0
LINE
  5
339
330
D
100
AcDbEntity
 67
     1
  8
AM_VIS
100
AcDbLine
 10
12.02714562357799
 20
2.913256974560911
 30
0.0
 11
11.82407268171659
 21
2.796012756912105
 31
0.0
  0
LINE
  5
33A
330
D
100
AcDbEntity
 67
     1
  8
AM_VIS
100
AcDbLine
 10
11.79772283104983
 20
3.239833213984998
 30
0.0
 11
11.71403048591407
 21
3.191513415991757
 31
0.0
  0
LINE
  5
33B
330
D
100
AcDbEntity
 67
     1
  8
AM_VIS
100
AcDbLine
 10
12.4242710316342
 20
3.520375473926446
 30
0.0
 11
12.19870396843569
 21
3.390144269268473
 31
0.0
  0
ELLIPSE
  5
33C
330
D
100
AcDbEntity
 67
     1
  8
AM_VIS
100
AcDbEllipse
 10
12.89345155895351
 20
3.010665055292433
 30
0.0
 11
0.0691876348095784
 21
0.1198364987456953
 31
0.0
210
0.0
220
0.0
230
0.9999999999999998
 40
0.5773502691896283
 41
0.6622326790106774
 42
0.9085636477845584
  0
ELLIPSE
  5
33D
330
D
100
AcDbEntity
 67
     1
  8
AM_VIS
100
AcDbEllipse
 10
12.84519152113752
 20
3.024647559240819
 30
0.0
 11
-0.0732892859532866
 21
0.1269407669215363
 31
0.0
210
0.0
220
0.0
230
1.0
 40
0.577350269189626
 41
5.614027489817833
 42
5.854975919844998
  0
LINE
  5
33E
330
D
100
AcDbEntity
 67
     1
  8
AM_VIS
100
AcDbLine
 10
12.83317070585736
 20
3.150461039695359
 30
0.0
 11
12.83317070585736
 21
3.118650117565438
 31
0.0
  0
ELLIPSE
  5
33F
330
D
100
AcDbEntity
 67
     1
  8
AM_VIS
100
AcDbEllipse
 10
12.86923315169786
 20
3.038528001116591
 30
0.0
 11
-0.0732892859532942
 21
0.126940766921532
 31
0.0
210
0.0
220
0.0
230
1.0
 40
0.577350269189626
 41
5.614027489817659
 42
5.854975919844827
  0
LINE
  5
340
330
D
100
AcDbEntity
 67
     1
  8
AM_VIS
100
AcDbLine
 10
12.83299392916206
 20
3.150539089176913
 30
0.0
 11
12.83299392916206
 21
3.171577782631109
 31
0.0
  0
LINE
  5
341
330
D
100
AcDbEntity
 67
     1
  8
AM_VIS
100
AcDbLine
 10
12.83317070585736
 20
3.146411001316981
 30
0.0
 11
12.85411410505639
 21
3.134319324151676
 31
0.0
  0
LINE
  5
342
330
D
100
AcDbEntity
 67
     1
  8
AM_VIS
100
AcDbLine
 10
12.8572123364177
 20
3.136580597819587
 30
0.0
 11
12.8572123364177
 21
3.164341481571131
 31
0.0
  0
ELLIPSE
  5
343
330
D
100
AcDbEntity
 67
     1
  8
AM_VIS
100
AcDbEllipse
 10
12.86923315169786
 20
3.038528001116591
 30
0.0
 11
-0.0732892859532942
 21
0.126940766921532
 31
0.0
210
0.0
220
0.0
230
1.0
 40
0.577350269189626
 41
5.140598367719117
 42
5.381546797746278
  0
LINE
  5
344
330
D
100
AcDbEntity
 67
     1
  8
AM_VIS
100
AcDbLine
 10
12.88125396697804
 20
3.150461039695359
 30
0.0
 11
12.88125396697804
 21
3.118650117565437
 31
0.0
  0
LINE
  5
345
330
D
100
AcDbEntity
 67
     1
  8
AM_VIS
100
AcDbLine
 10
12.88125396697804
 20
3.118650117565438
 30
0.0
 11
12.88352891063748
 21
3.117336678231272
 31
0.0
  0
ELLIPSE
  5
346
330
D
100
AcDbEntity
 67
     1
  8
AM_VIS
100
AcDbEllipse
 10
12.82097311388189
 20
3.052510505064978
 30
0.0
 11
0.0691876348095711
 21
0.1198364987456992
 31
0.0
210
0.0
220
0.0
230
1.0
 40
0.5773502691896282
 41
0.6622326790105041
 42
0.9085636477843854
  0
ELLIPSE
  5
347
330
D
100
AcDbEntity
 67
     1
  8
AM_VIS
100
AcDbEllipse
 10
12.84519152113752
 20
3.024647559240819
 30
0.0
 11
-0.0732892859532866
 21
0.1269407669215363
 31
0.0
210
0.0
220
0.0
230
1.0
 40
0.577350269189626
 41
5.140598367719287
 42
5.381546797746453
  0
ELLIPSE
  5
348
330
D
100
AcDbEntity
 67
     1
  8
AM_VIS
100
AcDbEllipse
 10
12.8572123364177
 20
3.069660322709788
 30
0.0
 11
-0.1399999999999961
 21
0.0
 31
0.0
210
0.0
220
0.0
230
1.0
 40
0.5773502691896259
 41
6.045439152792688
 42
7.906966559947013
  0
ELLIPSE
  5
349
330
D
100
AcDbEntity
 67
     1
  8
AM_VIS
100
AcDbEllipse
 10
12.86923315169786
 20
3.024647559240821
 30
0.0
 11
0.0732892859532942
 21
0.1269407669215321
 31
0.0
210
0.0
220
0.0
230
1.0
 40
0.5773502691896258
 41
0.9016385094333115
 42
1.24484031179767
  0
ELLIPSE
  5
34A
330
D
100
AcDbEntity
 67
     1
  8
AM_VIS
100
AcDbEllipse
 10
12.81125039564058
 20
3.005051641298555
 30
0.0
 11
-0.0662368434901801
 21
0.1147255782579797
 31
0.0
210
0.0
220
0.0
230
0.9999999999999998
 40
0.577350269189626
 41
5.369104922605671
 42
5.626469364958612
  0
ELLIPSE
  5
34B
330
D
100
AcDbEntity
 67
     1
  8
AM_VIS
100
AcDbEllipse
 10
12.84519152113752
 20
3.038528001116591
 30
0.0
 11
0.0732892859532865
 21
0.1269407669215363
 31
0.0
210
0.0
220
0.0
230
1.0
 40
0.5773502691896259
 41
0.9016385094331392
 42
1.244840311797497
  0
ELLIPSE
  5
34C
330
D
100
AcDbEntity
 67
     1
  8
AM_VIS
100
AcDbEllipse
 10
12.84519152113752
 20
3.038528001116591
 30
0.0
 11
0.0732892859532865
 21
0.1269407669215363
 31
0.0
210
0.0
220
0.0
230
1.0
 40
0.5773502691896259
 41
0.3259560149974003
 42
0.6691578173617591
  0
ELLIPSE
  5
34D
330
D
100
AcDbEntity
 67
     1
  8
AM_VIS
100
AcDbEllipse
 10
12.90317427719482
 20
3.058123919058857
 30
0.0
 11
-0.066236843490187
 21
0.1147255782579758
 31
0.0
210
0.0
220
0.0
230
1.0
 40
0.577350269189626
 41
5.369104922605501
 42
5.626469364958444
  0
ELLIPSE
  5
34E
330
D
100
AcDbEntity
 67
     1
  8
AM_VIS
100
AcDbEllipse
 10
12.86923315169786
 20
3.024647559240821
 30
0.0
 11
0.0732892859532942
 21
0.1269407669215321
 31
0.0
210
0.0
220
0.0
230
1.0
 40
0.5773502691896258
 41
0.3259560149975731
 42
0.6691578173619315
  0
LINE
  5
34F
330
D
100
AcDbEntity
 67
     1
  8
AM_VIS
100
AcDbLine
 10
12.88125396697804
 20
3.146411001316981
 30
0.0
 11
12.860310567779
 21
3.134319324151676
 31
0.0
  0
LINE
  5
350
330
D
100
AcDbEntity
 67
     1
  8
AM_VIS
100
AcDbLine
 10
12.89115346191465
 20
3.154276979055555
 30
0.0
 11
12.89115346191465
 21
3.172334135000535
 31
0.0
  0
LINE
  5
351
330
D
100
AcDbEntity
 67
     1
  8
AM_VIS
100
AcDbLine
 10
12.83317070585736
 20
3.118650117565437
 30
0.0
 11
12.81730833480676
 21
3.109491973369398
 31
0.0
  0
ARC
  5
352
330
D
100
AcDbEntity
 67
     1
  8
AM_VIS
100
AcDbCircle
 10
12.8572123364177
 20
3.031587780178706
 30
0.0
 40
0.1475610983361484
100
AcDbArc
 50
26.68872040043298
 51
157.2309172400118
  0
ELLIPSE
  5
353
330
D
100
AcDbEntity
 67
     1
  8
AM_VIS
100
AcDbEllipse
 10
12.03194175040523
 20
3.508057975167286
 30
0.0
 11
0.0691876348095793
 21
0.1198364987456948
 31
0.0
210
0.0
220
0.0
230
1.0
 40
0.5773502691896235
 41
0.6622326790106813
 42
0.9085636477845625
  0
LINE
  5
354
330
D
100
AcDbEntity
 67
     1
  8
AM_VIS
100
AcDbLine
 10
12.0439625656854
 20
3.60608655927922
 30
0.0
 11
12.0439625656854
 21
3.627125252733415
 31
0.0
  0
ELLIPSE
  5
355
330
D
100
AcDbEntity
 67
     1
  8
AM_VIS
100
AcDbEllipse
 10
12.05616015766086
 20
3.480195029343127
 30
0.0
 11
-0.0732892859532942
 21
0.126940766921532
 31
0.0
210
0.0
220
0.0
230
1.0
 40
0.577350269189626
 41
5.140598367719103
 42
5.38154679774627
  0
ELLIPSE
  5
356
330
D
100
AcDbEntity
 67
     1
  8
AM_VIS
100
AcDbEllipse
 10
12.08020178822121
 20
3.494075471218899
 30
0.0
 11
-0.0732892859532866
 21
0.1269407669215363
 31
0.0
210
0.0
220
0.0
230
1.0
 40
0.577350269189626
 41
5.140598367719273
 42
5.381546797746444
  0
LINE
  5
357
330
D
100
AcDbEntity
 67
     1
  8
AM_VIS
100
AcDbLine
 10
12.09222260350139
 20
3.574197587667745
 30
0.0
 11
12.09222260350139
 21
3.606008509797665
 31
0.0
  0
LINE
  5
358
330
D
100
AcDbEntity
 67
     1
  8
AM_VIS
100
AcDbLine
 10
12.09449754716082
 20
3.572884148333578
 30
0.0
 11
12.09222260350139
 21
3.574197587667743
 31
0.0
  0
ELLIPSE
  5
359
330
D
100
AcDbEntity
 67
     1
  8
AM_VIS
100
AcDbEllipse
 10
12.08020178822121
 20
3.494075471218899
 30
0.0
 11
-0.0732892859532866
 21
0.1269407669215363
 31
0.0
210
0.0
220
0.0
230
1.0
 40
0.577350269189626
 41
5.614027489817822
 42
5.854975919844984
  0
LINE
  5
35A
330
D
100
AcDbEntity
 67
     1
  8
AM_VIS
100
AcDbLine
 10
12.06508274157973
 20
3.589866794253982
 30
0.0
 11
12.04413934238069
 21
3.601958471419287
 31
0.0
  0
LINE
  5
35B
330
D
100
AcDbEntity
 67
     1
  8
AM_VIS
100
AcDbLine
 10
12.06818097294103
 20
3.619888951673437
 30
0.0
 11
12.06818097294103
 21
3.592128067921893
 31
0.0
  0
ELLIPSE
  5
35C
330
D
100
AcDbEntity
 67
     1
  8
AM_VIS
100
AcDbEllipse
 10
12.10442019547684
 20
3.46621252539474
 30
0.0
 11
0.069187634809572
 21
0.1198364987456987
 31
0.0
210
0.0
220
0.0
230
1.0
 40
0.5773502691896232
 41
0.6622326790105083
 42
0.9085636477843898
  0
ELLIPSE
  5
35D
330
D
100
AcDbEntity
 67
     1
  8
AM_VIS
100
AcDbEllipse
 10
12.05616015766086
 20
3.480195029343127
 30
0.0
 11
-0.0732892859532942
 21
0.126940766921532
 31
0.0
210
0.0
220
0.0
230
1.0
 40
0.577350269189626
 41
5.61402748981765
 42
5.854975919844815
  0
LINE
  5
35E
330
D
100
AcDbEntity
 67
     1
  8
AM_VIS
100
AcDbLine
 10
12.04413934238069
 20
3.574197587667743
 30
0.0
 11
12.04413934238069
 21
3.606008509797665
 31
0.0
  0
ELLIPSE
  5
35F
330
D
100
AcDbEntity
 67
     1
  8
AM_VIS
100
AcDbEllipse
 10
12.06818097294103
 20
3.525207792812093
 30
0.0
 11
-0.1399999999999961
 21
-0.0000000000000084
 31
0.0
210
0.0
220
0.0
230
1.0
 40
0.577350269189626
 41
6.045439152792502
 42
9.662524115156132
  0
ELLIPSE
  5
360
330
D
100
AcDbEntity
 67
     1
  8
AM_VIS
100
AcDbEllipse
 10
12.05616015766086
 20
3.494075471218899
 30
0.0
 11
0.0732892859532942
 21
0.1269407669215321
 31
0.0
210
0.0
220
0.0
230
1.0
 40
0.5773502691896258
 41
0.3259560149975735
 42
0.6691578173619321
  0
ELLIPSE
  5
361
330
D
100
AcDbEntity
 67
     1
  8
AM_VIS
100
AcDbEllipse
 10
12.11414291371816
 20
3.513671389161163
 30
0.0
 11
-0.0662368434901801
 21
0.1147255782579797
 31
0.0
210
0.0
220
0.0
230
0.9999999999999998
 40
0.577350269189626
 41
5.369104922605662
 42
5.626469364958603
  0
ELLIPSE
  5
362
330
D
100
AcDbEntity
 67
     1
  8
AM_VIS
100
AcDbEllipse
 10
12.08020178822121
 20
3.480195029343127
 30
0.0
 11
0.0732892859532865
 21
0.1269407669215363
 31
0.0
210
0.0
220
0.0
230
1.0
 40
0.5773502691896259
 41
0.3259560149974003
 42
0.6691578173617607
  0
ELLIPSE
  5
363
330
D
100
AcDbEntity
 67
     1
  8
AM_VIS
100
AcDbEllipse
 10
12.08020178822121
 20
3.480195029343127
 30
0.0
 11
0.0732892859532865
 21
0.1269407669215363
 31
0.0
210
0.0
220
0.0
230
1.0
 40
0.5773502691896259
 41
0.9016385094331408
 42
1.244840311797499
  0
ELLIPSE
  5
364
330
D
100
AcDbEntity
 67
     1
  8
AM_VIS
100
AcDbEllipse
 10
12.02221903216392
 20
3.460599111400861
 30
0.0
 11
-0.066236843490187
 21
0.1147255782579758
 31
0.0
210
0.0
220
0.0
230
1.0
 40
0.577350269189626
 41
5.369104922605488
 42
5.626469364958431
  0
ELLIPSE
  5
365
330
D
100
AcDbEntity
 67
     1
  8
AM_VIS
100
AcDbEllipse
 10
12.05616015766086
 20
3.494075471218899
 30
0.0
 11
0.0732892859532942
 21
0.1269407669215321
 31
0.0
210
0.0
220
0.0
230
1.0
 40
0.5773502691896258
 41
0.9016385094333118
 42
1.24484031179767
  0
LINE
  5
366
330
D
100
AcDbEntity
 67
     1
  8
AM_VIS
100
AcDbLine
 10
12.09222260350139
 20
3.601958471419287
 30
0.0
 11
12.07127920430234
 21
3.589866794253981
 31
0.0
  0
LINE
  5
367
330
D
100
AcDbEntity
 67
     1
  8
AM_VIS
100
AcDbLine
 10
12.10212209843799
 20
3.627881605102841
 30
0.0
 11
12.10212209843799
 21
3.609824449157859
 31
0.0
  0
LINE
  5
368
330
D
100
AcDbEntity
 67
     1
  8
AM_VIS
100
AcDbLine
 10
12.04413934238069
 20
3.574197587667743
 30
0.0
 11
12.02827697133011
 21
3.565039443471705
 31
0.0
  0
ARC
  5
369
330
D
100
AcDbEntity
 67
     1
  8
AM_VIS
100
AcDbCircle
 10
12.06818097294103
 20
3.487135250281013
 30
0.0
 40
0.1475610983361484
100
AcDbArc
 50
22.76908275998825
 51
157.2309172400115
  0
VIEWPORT
  5
373
330
D
100
AcDbEntity
 67
     1
  8
0
100
AcDbViewport
 10
8.306895263256437
 20
4.836229527781545
 30
0.0
 40
17.08901837699467
 41
13.10425509347008
 68
     1
 69
     1
 12
8.306895263256437
 22
4.836229527781545
 13
0.0
 23
0.0
 14
1.0
 24
1.0
 15
0.0
 25
0.0
 16
0.0
 26
0.0
 36
1.0
 17
0.0
 27
0.0
 37
0.0
 42
50.0
 43
0.0
 44
0.0
 45
13.10425509347008
 50
0.0
 51
0.0
 72
   100
 90
    32800
  1

281
     0
 71
     0
 74
     0
110
0.0
120
0.0
130
0.0
111
1.0
121
0.0
131
0.0
112
0.0
122
1.0
132
0.0
 79
     0
146
0.0
  0
ENDSEC
  0
SECTION
  2
OBJECTS
  0
DICTIONARY
  5
8
330
0
100
AcDbDictionary
281
     1
  3
ACAD_GROUP
350
21
  3
ACAD_LAYOUT
350
C
  3
ACAD_MLINESTYLE
350
22
  3
ACAD_PLOTSETTINGS
350
23
  3
ACAD_PLOTSTYLENAME
350
7
  3
AcDbVariableDictionary
350
36B
  3
AcmDictionary
350
42F
  3
AMG
350
374
  3
AMGSNAPSETTINGS
350
46B
  3
DWGPROPS
350
432
  3
MAPISURF_MODULE
350
401
  0
DICTIONARY
  5
3
330
2
100
AcDbDictionary
280
     1
281
     1
  3
ACAD_INDEX
360
472
  0
DICTIONARY
  5
21
102
{ACAD_REACTORS
330
8
102
}
330
8
100
AcDbDictionary
281
     1
  0
DICTIONARY
  5
C
102
{ACAD_REACTORS
330
8
102
}
330
8
100
AcDbDictionary
281
     1
  3
Layout1
350
10
  3
Model
350
B
  0
DICTIONARY
  5
22
102
{ACAD_REACTORS
330
8
102
}
330
8
100
AcDbDictionary
281
     1
  3
Standard
350
25
  0
DICTIONARY
  5
23
102
{ACAD_REACTORS
330
8
102
}
330
8
100
AcDbDictionary
281
     1
  0
ACDBDICTIONARYWDFLT
  5
7
102
{ACAD_REACTORS
330
8
102
}
330
8
100
AcDbDictionary
281
     1
  3
Normal
350
6
100
AcDbDictionaryWithDefault
340
6
  0
DICTIONARY
  5
36B
102
{ACAD_REACTORS
330
8
102
}
330
8
100
AcDbDictionary
281
     1
  3
DIMASSOC
350
36D
  3
HIDETEXT
350
36C
  3
INDEXCTL
350
47C
  0
DICTIONARY
  5
42F
102
{ACAD_REACTORS
330
8
102
}
330
8
100
AcDbDictionary
281
     1
  3
AcmBOMDATA
350
430
  3
AcmStdDictionary
350
43E
  0
DICTIONARY
  5
374
102
{ACAD_REACTORS
330
8
102
}
330
8
100
AcDbDictionary
281
     1
  3
AcMgSettings
350
375
  3
AMGLAYCFG
350
440
  0
DICTIONARY
  5
46B
102
{ACAD_REACTORS
330
8
102
}
330
8
100
AcDbDictionary
281
     1
  3
DIMENSION
350
470
  3
FEA
350
46F
  3
HATCH (1)
350
46C
  3
HATCH (2)
350
46D
  3
SIMPLE WELD
350
471
  3
SYMBOLS
350
46E
  0
XRECORD
  5
432
102
{ACAD_REACTORS
330
8
102
}
330
8
100
AcDbXrecord
280
     1
  1
DWGPROPS COOKIE
  2

  3

  4

  6

  7

  8

  9

300
AmdtFileType=84
301
=
302
=
303
=
304
=
305
=
306
=
307
=
308
=
309
=
 40
1.011908761574074
 41
2450221.431180902
 42
2452255.454397419
  1

 90
        1
  0
DICTIONARY
  5
472
102
{ACAD_REACTORS
330
3
102
}
330
3
100
AcDbDictionary
281
     1
  3
*A1
350
473
  0
LAYOUT
  5
10
102
{ACAD_REACTORS
330
C
102
}
330
C
100
AcDbPlotSettings
  1

  2
\\NTSERVER_40\HP DesignJet 750C (D/A1) by HP
  4
User1287
  6

 40
4.995333194732666
 41
16.9333209991455
 42
4.995330810546875
 43
16.93331909179687
 44
431.71533203125
 45
279.2306518554687
 46
0.0
 47
0.0
 48
0.0
 49
0.0
140
0.0
141
0.0
142
1.0
143
1.0
 70
   688
 72
     0
 73
     0
 74
     5
  7

 75
    16
147
1.0
148
0.0
149
0.0
100
AcDbLayout
  1
Layout1
 70
     0
 71
     1
 10
-0.1966666612099475
 20
-0.6666661810687208
 11
16.79999995419359
 21
10.32666656914658
 12
0.0
 22
0.0
 32
0.0
 14
-0.1906976617264604
 24
-0.6611240451110838
 34
-0.0000280784209992
 15
16.81045718772282
 25
10.33912523663181
 35
0.0000070205425242
146
0.0
 13
0.0
 23
0.0
 33
0.0
 16
1.0
 26
0.0
 36
0.0
 17
0.0
 27
1.0
 37
0.0
 76
     0
330
D
331
373
  0
LAYOUT
  5
B
102
{ACAD_REACTORS
330
C
102
}
330
C
100
AcDbPlotSettings
  1

  2
HP-Plotter
  4

  6

 40
0.0
 41
0.0
 42
0.0
 43
0.0
 44
0.0
 45
0.0
 46
0.0
 47
0.0
 48
0.0
 49
0.0
140
0.0
141
0.0
142
1.0
143
1.0
 70
  1712
 72
     0
 73
     0
 74
     0
  7

 75
     0
147
1.0
148
0.0
149
0.0
100
AcDbLayout
  1
Model
 70
     1
 71
     0
 10
0.0
 20
0.0
 11
12.0
 21
9.0
 12
0.0
 22
0.0
 32
0.0
 14
0.0
 24
0.0
 34
0.0
 15
0.0
 25
0.0
 35
0.0
146
0.0
 13
0.0
 23
0.0
 33
0.0
 16
1.0
 26
0.0
 36
0.0
 17
0.0
 27
1.0
 37
0.0
 76
     0
330
2
  0
MLINESTYLE
  5
25
102
{ACAD_REACTORS
330
22
102
}
330
22
100
AcDbMlineStyle
  2
STANDARD
 70
     0
  3

 62
   256
 51
90.0
 52
90.0
 71
     2
 49
0.5
 62
   256
  6
BYLAYER
 49
-0.5
 62
   256
  6
BYLAYER
  0
ACDBPLACEHOLDER
  5
6
102
{ACAD_REACTORS
330
7
102
}
330
7
  0
DICTIONARYVAR
  5
36D
102
{ACAD_REACTORS
330
36B
102
}
330
36B
100
DictionaryVariables
280
     0
  1
1
  0
DICTIONARYVAR
  5
36C
102
{ACAD_REACTORS
330
36B
102
}
330
36B
100
DictionaryVariables
280
     0
  1
1
  0
DICTIONARYVAR
  5
47C
102
{ACAD_REACTORS
330
36B
102
}
330
36B
100
DictionaryVariables
280
     0
  1
1
  0
ACMDATADICTIONARY
  5
430
102
{ACAD_REACTORS
330
42F
102
}
330
42F
100
AcDbDictionary
281
     1
  3
*A1
350
431
100
AcmDataDictionary
  0
DICTIONARY
  5
43E
102
{ACAD_REACTORS
330
42F
102
}
330
42F
100
AcDbDictionary
281
     1
  3
ANSI
350
43F
  0
DICTIONARY
  5
375
102
{ACAD_REACTORS
330
374
102
}
330
374
100
AcDbDictionary
281
     1
  3
DWGSETTINGS
350
376
  3
TRANSSETTINGS
350
37A
  0
ACAMGFILTERDAT
  5
470
102
{ACAD_REACTORS
330
46B
102
}
330
46B
100
AcAmgFilterDat
 70
    15
  1
DIMENSION,AMDT_*_DIM
  2
*
  3
*
  4
*
  5
*
290
     1
  0
ACAMGFILTERDAT
  5
46F
102
{ACAD_REACTORS
330
46B
102
}
330
46B
100
AcAmgFilterDat
 70
    15
  1
*
  2
AM_FEA-AM_*
  3
*
  4
*
  5
*
290
     1
  0
ACAMGFILTERDAT
  5
46C
102
{ACAD_REACTORS
330
46B
102
}
330
46B
100
AcAmgFilterDat
 70
    15
  1
HATCH
  2
*
  3
*
  4
*
  5
*
290
     1
  0
ACAMGFILTERDAT
  5
46D
102
{ACAD_REACTORS
330
46B
102
}
330
46B
100
AcAmgFilterDat
 70
    15
  1
LINE
  2
8,8N,*-8,*-8N,AM_8,AM_8N,*-AM_8,*-AM_8N
  3
*
  4
*
  5
INSERT,STDPART2D
290
     1
  0
ACAMGFILTERDAT
  5
471
102
{ACAD_REACTORS
330
46B
102
}
330
46B
100
AcAmgFilterDat
 70
    15
  1
ARC
  2
AM_5
  3
*
  4
2
  5
INSERT
290
     0
  0
ACAMGFILTERDAT
  5
46E
102
{ACAD_REACTORS
330
46B
102
}
330
46B
100
AcAmgFilterDat
 70
    15
  1
ACMFCFRAME,ACMDATUMTARGET,ACMDATUMID,ACMWELDSYM,ACMSURFSYM,ACMFEATID,ACMPARTREF,ACMBALLOON,AMDTEDGESYM,AMGSCREWCALCTABLE
  2
*
  3
*
  4
*
  5
*
290
     1
  0
LAYER_INDEX
  5
473
102
{ACAD_REACTORS
330
472
102
}
330
472
100
AcDbIndex
 40
2452558.636209305
100
AcDbLayerIndex
  8
0
360
474
 90
        0
  8
DEFPOINTS
360
475
 90
        0
  8
AM_VIS
360
476
 90
        0
  8
AM_HID
360
477
 90
        0
  8
CENTER
360
478
 90
        0
  8
PHANTOM
360
479
 90
        0
  8
10
360
47A
 90
        0
  8
DIMENSION
360
47B
 90
        0
  0
ACMDATAENTRYBLOCK
  5
431
102
{ACAD_REACTORS
330
430
102
}
330
430
100
AcmDataEntry
100
AcmDataEntryBlock
  0
IDBUFFER
  5
474
330
0
100
AcDbIdBuffer
  0
IDBUFFER
  5
475
330
0
100
AcDbIdBuffer
  0
IDBUFFER
  5
476
330
0
100
AcDbIdBuffer
  0
IDBUFFER
  5
477
330
0
100
AcDbIdBuffer
  0
IDBUFFER
  5
478
330
0
100
AcDbIdBuffer
  0
IDBUFFER
  5
479
330
0
100
AcDbIdBuffer
  0
IDBUFFER
  5
47A
330
0
100
AcDbIdBuffer
  0
IDBUFFER
  5
47B
330
0
100
AcDbIdBuffer
  0
ENDSEC
  0
EOF
